<?xml version="1.0" standalone="no"?>
<!DOCTYPE svg PUBLIC "-//W3C//DTD SVG 1.1//EN" "http://www.w3.org/Graphics/SVG/1.1/DTD/svg11.dtd" >
<svg xmlns="http://www.w3.org/2000/svg" xmlns:xlink="http://www.w3.org/1999/xlink" version="1.1">
<metadata>
Created by FontForge 20201107 at Tue Feb  7 18:06:10 2012
 By Jimmy Wärting
Copyright (c) 2001-2011 by the STI Pub Companies, consisting of the American Chemical Society, the American Institute of Physics, the American Mathematical Society, the American Physical Society, Elsevier, Inc., and The Institute of Electrical and Electronic Engineers, Inc.  Portions copyright (c) 1998-2003 by MicroPress, Inc.  Portions copyright (c) 1990 by Elsevier, Inc.  All rights reserved.
</metadata>
<defs>
<font id="STIXGeneral-Bold" horiz-adv-x="750" >
  <font-face 
    font-family="STIXGeneral"
    font-weight="700"
    font-stretch="normal"
    units-per-em="1000"
    panose-1="0 0 8 0 0 0 0 0 0 0"
    ascent="750"
    descent="-250"
    x-height="461"
    cap-height="676"
    bbox="-998 -455 2000 1055"
    underline-thickness="50"
    underline-position="-100"
    stemh="90"
    stemv="88"
    unicode-range="U+0020-1D7F5"
  />
<missing-glyph horiz-adv-x="250" 
 />
    <glyph glyph-name="uni0132" unicode="IJ" horiz-adv-x="838" 
d="M917 676v-25c-75 -5 -88 -23 -88 -95v-430c0 -151 -73 -222 -212 -222c-40 0 -83 6 -108 23c-37 25 -67 68 -67 110c0 37 34 74 71 74c38 0 72 -36 72 -76c0 -30 -27 -40 -27 -66c0 -20 17 -32 45 -32c46 0 64 28 64 90v550c0 58 -20 71 -101 74v25h351zM370 0h-350v25
c75 7 93 19 93 81v470c0 56 -21 70 -93 75v25h350v-25c-74 -3 -95 -19 -95 -75v-470c0 -65 19 -76 95 -81v-25z" />
    <glyph glyph-name="uni0133" unicode="ij" horiz-adv-x="552" 
d="M531 613c0 -44 -34 -77 -79 -77c-44 0 -76 33 -76 77s34 78 78 78c42 0 77 -36 77 -78zM215 613c0 -44 -34 -77 -78 -77s-77 33 -77 77s34 78 79 78c42 0 76 -35 76 -78zM528 461v-459c0 -59 -8 -97 -27 -129c-28 -49 -81 -76 -150 -76c-82 0 -140 41 -140 100
c0 36 25 61 62 61c33 0 59 -24 59 -54c0 -10 -4 -22 -14 -37c-6 -10 -9 -17 -9 -22c0 -10 13 -17 32 -17c34 0 48 23 48 76v474c0 43 -12 55 -63 59v24h202zM256 0h-240v24c46 11 53 18 53 64v285c0 45 -10 55 -54 64v24h193v-376c0 -43 13 -56 48 -61v-24z" />
    <glyph glyph-name="ff" unicode="ff" horiz-adv-x="610" 
d="M15 461h56c0 103 17 149 70 192c32 26 78 38 130 38s91 -8 142 -28c26 18 63 28 110 28c85 0 143 -41 143 -100c0 -37 -25 -64 -62 -64c-34 0 -60 26 -60 57c0 35 22 43 22 57c0 12 -11 19 -29 19c-36 0 -50 -20 -50 -79v-120h86v-44h-86v-328c0 -45 9 -56 59 -65v-24
h-244v24c46 5 46 18 46 63v330h-138v-333c0 -39 10 -55 46 -60v-24h-241v24c47 6 56 23 56 66v327h-56v44zM348 461v98c-12 4 -24 21 -24 37c0 26 16 23 16 42c0 12 -16 22 -41 22c-54 0 -89 -40 -89 -143v-56h138z" />
    <glyph glyph-name="fi" unicode="fi" horiz-adv-x="556" 
d="M536 0h-234v24c37 4 46 18 46 60v297c0 26 -9 36 -37 36h-101v-333c0 -41 10 -55 46 -60v-24h-242v24c47 6 57 20 57 65v328h-56v44h56c6 98 18 149 77 192c35 26 84 38 146 38c110 0 178 -35 178 -92c0 -36 -27 -62 -65 -62s-64 24 -64 55c0 12 3 24 7 35c1 3 2 7 2 7
c0 15 -24 27 -54 27c-58 0 -88 -30 -88 -160v-40h104c35 0 96 0 173 13v-388c0 -45 13 -60 49 -62v-24z" />
    <glyph glyph-name="fl" unicode="fl" horiz-adv-x="556" 
d="M535 0h-233v24l8 1c28 3 38 22 38 58v334h-138v-333c0 -39 10 -55 46 -60v-24h-241v24c47 6 56 23 56 66v327h-56v44h56c0 103 17 149 70 192c32 26 78 38 130 38c55 0 96 -9 151 -31l46 30h19v-607c0 -36 11 -56 36 -58l12 -1v-24zM348 461v98c-12 4 -24 21 -24 37
c0 26 16 23 16 42c0 12 -16 20 -41 20c-54 0 -89 -38 -89 -141v-56h138z" />
    <glyph glyph-name="ffi" unicode="ffi" horiz-adv-x="833" 
d="M813 0h-234v24c37 4 46 18 46 60v297c0 26 -9 36 -37 36h-101v-333c0 -41 10 -55 46 -60v-24h-231v24c42 6 46 20 46 65v328h-138v-333c0 -39 10 -55 46 -60v-24h-241v24c47 6 56 23 56 66v327h-56v44h56c0 103 17 149 70 192c32 26 78 38 130 38s114 -7 161 -33
c35 23 81 33 139 33c110 0 178 -35 178 -92c0 -36 -27 -62 -65 -62s-64 24 -64 55c0 12 3 24 7 35c1 3 2 7 2 7c0 15 -24 27 -54 27c-58 0 -88 -30 -88 -160v-40h104c35 0 96 0 173 13v-388c0 -45 13 -60 49 -62v-24zM348 461v98c-12 4 -24 21 -24 37c0 26 16 23 16 42
c0 12 -16 23 -41 23c-54 0 -89 -41 -89 -144v-56h138z" />
    <glyph glyph-name="ffl" unicode="ffl" horiz-adv-x="833" 
d="M812 0h-233v24l8 1c28 3 38 22 38 58v334h-138v-333c0 -39 10 -55 46 -60v-24h-231v24c38 8 46 23 46 66v327h-138v-333c0 -39 10 -55 46 -60v-24h-241v24c47 6 56 23 56 66v327h-56v44h56c0 103 17 149 70 192c32 26 78 38 130 38s105 -10 147 -36c33 24 78 36 130 36
c55 0 96 -9 151 -31l46 30h19v-607c0 -36 11 -56 36 -58l12 -1v-24zM625 461v98c-12 4 -24 21 -24 37c0 26 16 23 16 42c0 12 -16 22 -41 22c-54 0 -89 -40 -89 -143v-56h138zM348 461v98c-12 4 -24 21 -24 37c0 26 16 23 16 42c0 12 -16 22 -41 22c-54 0 -89 -40 -89 -143
v-56h138z" />
    <glyph glyph-name="uniE0B3" unicode="fj" horiz-adv-x="556" 
d="M487 474v-472c0 -59 -8 -97 -27 -129c-28 -49 -81 -76 -150 -76c-82 0 -140 41 -140 100c0 36 25 61 62 61c33 0 59 -24 59 -54c0 -10 -4 -22 -14 -37c-6 -10 -9 -17 -9 -22c0 -10 13 -17 32 -17c34 0 48 23 48 76v477c0 26 -9 36 -37 36h-101v-333c0 -41 10 -55 46 -60
v-24h-242v24c47 6 57 20 57 65v328h-56v44h56c6 98 18 149 77 192c35 26 84 38 146 38c110 0 178 -35 178 -92c0 -36 -27 -62 -65 -62s-64 24 -64 55c0 12 3 24 7 35c1 3 2 7 2 7c0 15 -24 27 -54 27c-58 0 -88 -30 -88 -160v-40h104c35 0 96 0 173 13z" />
    <glyph glyph-name=".notdef" horiz-adv-x="250" 
 />
    <glyph glyph-name="space" unicode=" " horiz-adv-x="250" 
 />
    <glyph glyph-name="exclam" unicode="!" horiz-adv-x="333" 
d="M181 234h-31c-13 124 -22 171 -51 266c-14 45 -18 65 -18 91c0 63 30 100 84 100c50 0 85 -37 85 -102c0 -23 -4 -45 -18 -89c-29 -96 -38 -143 -51 -266zM251 71c0 -47 -38 -84 -85 -84c-48 0 -84 35 -84 83c0 50 38 86 85 86c49 0 84 -36 84 -85z" />
    <glyph glyph-name="quotedbl" unicode="&#x22;" horiz-adv-x="555" 
d="M429 404h-43c-35 145 -43 196 -43 214c0 42 18 73 64 73c44 0 65 -32 65 -69c0 -24 -9 -70 -43 -218zM169 404h-43c-36 143 -43 195 -43 214c0 42 20 73 64 73s65 -30 65 -69c0 -24 -9 -71 -43 -218z" />
    <glyph glyph-name="numbersign" unicode="#" horiz-adv-x="500" 
d="M495 417h-97l-18 -134h86v-73h-97l-29 -210h-78l29 210h-113l-29 -210h-78l29 210h-95v73h106l18 134h-95v73h105l30 210h77l-29 -210h113l30 210h77l-29 -210h87v-73zM320 417h-113l-18 -134h113z" />
    <glyph glyph-name="dollar" unicode="$" horiz-adv-x="500" 
d="M269 641v-214c112 -67 203 -105 203 -231c0 -57 -17 -103 -51 -135c-33 -30 -71 -46 -152 -61v-99h-56v99c-62 3 -85 9 -167 43v158l21 -2c29 -109 72 -155 146 -169v250c-133 69 -184 127 -184 216c0 69 31 120 88 151c29 16 51 20 96 25v78h56v-76
c79 -11 112 -24 159 -52v-141h-21c-26 103 -67 148 -138 160zM213 454v190c-63 -16 -89 -50 -89 -93c0 -54 29 -76 89 -97zM269 249v-219c64 12 93 58 93 104c0 54 -13 70 -93 115z" />
    <glyph glyph-name="percent" unicode="%" horiz-adv-x="749" 
d="M688 214c0 -70 -28 -143 -73 -190c-25 -27 -61 -42 -99 -42c-76 0 -128 56 -128 138c0 113 91 213 195 213c66 0 105 -45 105 -119zM663 220c0 46 -25 80 -59 80c-21 0 -41 -15 -62 -46c-32 -48 -56 -125 -56 -178c0 -43 17 -66 50 -66c30 0 55 16 79 51
c28 43 48 108 48 159zM626 706l-438 -735h-48l388 655c-40 -30 -73 -42 -113 -42c-21 0 -35 3 -60 13c2 -19 3 -29 3 -42c0 -71 -28 -147 -70 -189c-28 -28 -65 -44 -101 -44c-74 0 -126 57 -126 139c0 114 92 213 197 213c26 0 45 -8 71 -29c29 -23 47 -30 83 -30
c66 0 115 27 166 91h48zM332 560c0 34 -6 44 -32 54c-7 3 -10 4 -21 11s-15 9 -20 9c-42 0 -102 -127 -102 -216c0 -42 18 -66 50 -66c64 0 125 101 125 208z" />
    <glyph glyph-name="ampersand" unicode="&#x26;" horiz-adv-x="833" 
d="M789 113l-15 -25c-25 -42 -41 -61 -57 -73c-25 -19 -62 -31 -93 -31c-53 0 -90 22 -149 88c-82 -62 -147 -87 -222 -87c-112 0 -191 65 -191 182c0 89 52 160 196 221c-44 69 -52 100 -52 144c0 101 74 159 202 159c97 0 160 -50 160 -121c0 -64 -46 -108 -152 -147
l151 -214c61 73 76 105 76 145c0 29 -5 34 -64 41v24h204v-24c-43 -4 -57 -10 -73 -40c-48 -87 -65 -110 -120 -179c56 -72 81 -91 119 -91c25 0 43 13 60 40zM467 533c0 67 -43 125 -92 125c-32 0 -52 -21 -52 -56c0 -41 17 -84 74 -150c50 17 70 40 70 81zM452 100
c-32 45 -105 140 -177 258c-55 -32 -74 -56 -74 -94c0 -62 28 -116 72 -161c25 -27 59 -42 89 -42c26 0 51 11 90 39z" />
    <glyph glyph-name="quotesingle" unicode="'" horiz-adv-x="278" 
d="M161 404h-43c-31 148 -43 194 -43 213c0 45 22 74 64 74s65 -27 65 -70c0 -24 -9 -69 -43 -217z" />
    <glyph glyph-name="parenleft" unicode="(" horiz-adv-x="333" 
d="M306 -140v-28c-100 60 -140 98 -191 171c-50 72 -69 160 -69 256c0 138 46 248 131 340c39 41 67 62 129 95v-27c-135 -111 -147 -188 -147 -409c0 -212 24 -292 147 -398z" />
    <glyph glyph-name="parenright" unicode=")" horiz-adv-x="333" 
d="M27 666v28c100 -60 145 -102 191 -178c45 -75 69 -160 69 -249c0 -136 -46 -248 -131 -340c-39 -41 -67 -62 -129 -95v27c139 107 147 178 147 409c0 220 -14 292 -147 398z" />
    <glyph glyph-name="asterisk" unicode="*" horiz-adv-x="500" 
d="M260 497l7 -3c37 29 46 36 72 74c20 31 34 38 56 38c27 0 53 -22 53 -48c0 -33 -44 -53 -82 -53c-44 0 -56 -4 -89 -26v-8c36 -17 51 -24 97 -28c54 -4 73 -18 73 -51c0 -29 -17 -50 -49 -50c-27 0 -39 14 -75 62c-20 27 -28 35 -57 50l-6 -4c1 -45 8 -60 27 -98
c11 -21 15 -33 15 -45c0 -30 -22 -52 -51 -52c-27 0 -49 21 -49 52c0 16 4 24 16 46c20 34 22 51 23 97l-6 4c-38 -28 -47 -36 -74 -75c-21 -31 -34 -37 -55 -37c-28 0 -50 20 -50 48c0 37 32 49 84 53c42 3 54 7 86 29v7c-40 18 -56 22 -102 26c-52 4 -68 28 -68 53
c0 29 19 48 47 48s42 -9 62 -43c23 -40 33 -48 71 -69l5 3c-1 42 -2 52 -23 91c-14 25 -18 36 -18 53c0 29 22 50 52 50c28 0 48 -22 48 -55c0 -15 -5 -24 -18 -47c-18 -30 -22 -47 -22 -77v-15z" />
    <glyph glyph-name="plus" unicode="+" 
d="M685 209h-266v-266h-88v266h-266v88h266v266h88v-266h266v-88z" />
    <glyph glyph-name="comma" unicode="," horiz-adv-x="250" 
d="M57 -180l-11 22c75 52 109 94 109 133c0 12 -8 21 -19 21c-7 0 -14 -2 -24 -2c-43 0 -73 30 -73 76c0 52 34 85 84 85c63 0 100 -45 100 -116c0 -86 -50 -158 -166 -219z" />
    <glyph glyph-name="hyphen" unicode="-" horiz-adv-x="333" 
d="M287 171h-243v116h243v-116z" />
    <glyph glyph-name="period" unicode="." horiz-adv-x="250" 
d="M210 71c0 -47 -38 -84 -85 -84c-48 0 -84 36 -84 84c0 47 38 85 85 85c46 0 84 -39 84 -85z" />
    <glyph glyph-name="slash" unicode="/" horiz-adv-x="278" 
d="M302 691l-236 -710h-90l236 710h90z" />
    <glyph glyph-name="zero" unicode="0" horiz-adv-x="500" 
d="M476 337c0 -211 -95 -350 -225 -350c-131 0 -227 139 -227 347c0 163 58 354 229 354c159 0 223 -185 223 -351zM318 224v225c0 147 -20 211 -69 211s-67 -59 -67 -211v-225c0 -149 19 -209 69 -209s67 60 67 209z" />
    <glyph glyph-name="one" unicode="1" horiz-adv-x="500" 
d="M441 0h-373v24c99 1 118 18 118 105v378c0 47 -11 70 -36 70c-13 0 -37 -5 -65 -16l-20 -8v26l251 109h18v-570c0 -76 16 -92 107 -94v-24z" />
    <glyph glyph-name="two" unicode="2" horiz-adv-x="500" 
d="M478 211l-46 -211h-415v23c146 156 181 198 232 276c32 49 51 104 51 148c0 68 -40 127 -119 127c-48 0 -91 -28 -122 -90h-28c47 140 123 204 223 204c108 0 182 -70 182 -183c0 -76 -35 -143 -114 -218l-162 -154h140c104 0 127 6 153 78h25z" />
    <glyph glyph-name="three" unicode="3" horiz-adv-x="500" 
d="M58 524l-21 12c53 102 130 152 229 152c102 0 164 -66 164 -137c0 -46 -23 -100 -84 -127c76 -27 122 -97 122 -178c0 -146 -127 -260 -300 -260c-92 0 -152 36 -152 90c0 34 27 60 65 60c31 0 59 -16 96 -57c32 -35 55 -43 79 -43c60 0 98 50 98 122
c0 48 -18 92 -49 121c-36 34 -70 48 -153 77v17c95 30 131 72 131 131c0 70 -36 103 -99 103c-52 0 -88 -21 -126 -83z" />
    <glyph glyph-name="four" unicode="4" horiz-adv-x="500" 
d="M476 144h-64v-144h-145v144h-248v113l313 431h80v-433h64v-111zM268 255v294l-208 -294h208z" />
    <glyph glyph-name="five" unicode="5" horiz-adv-x="500" 
d="M470 676l-45 -127h-276l-22 -81c82 -5 113 -9 151 -20c109 -31 173 -110 173 -214c0 -146 -117 -242 -282 -242c-89 0 -147 41 -147 88c0 35 26 61 61 61c27 0 59 -11 100 -46c35 -30 67 -42 90 -42c56 0 100 43 100 104c0 68 -50 123 -142 152c-43 13 -89 17 -180 22
l97 345h322z" />
    <glyph glyph-name="six" unicode="6" horiz-adv-x="500" 
d="M470 688v-26c-146 -30 -228 -113 -266 -258c30 13 52 17 84 17c114 0 187 -78 187 -199c0 -140 -86 -235 -215 -235c-141 0 -232 110 -232 287c0 120 50 219 139 297c88 77 154 90 303 117zM323 165c0 156 -23 211 -89 211c-16 0 -30 -4 -37 -10s-13 -63 -13 -121
c0 -96 10 -169 27 -202c10 -19 27 -29 51 -29c45 0 61 29 61 151z" />
    <glyph glyph-name="seven" unicode="7" horiz-adv-x="500" 
d="M477 676l-235 -676h-95l200 539h-199c-64 0 -86 -21 -105 -85h-26l45 222h415z" />
    <glyph glyph-name="eight" unicode="8" horiz-adv-x="500" 
d="M472 187c0 -120 -87 -200 -232 -200c-127 0 -212 63 -212 170c0 89 55 145 149 168c-99 59 -138 112 -138 188c0 106 86 175 224 175c125 0 195 -65 195 -145c0 -64 -41 -111 -136 -140c113 -77 150 -132 150 -216zM339 537c0 68 -32 122 -88 122c-47 0 -83 -36 -83 -83
c0 -56 46 -111 130 -154c33 44 41 67 41 115zM333 127c0 74 -24 106 -133 179c-41 -60 -51 -102 -51 -145c0 -89 32 -142 93 -142c54 0 91 37 91 108z" />
    <glyph glyph-name="nine" unicode="9" horiz-adv-x="500" 
d="M31 -13v26c144 29 226 112 268 260c-27 -14 -49 -19 -88 -19c-109 0 -185 79 -185 205c0 129 90 229 215 229c140 0 232 -115 232 -294c0 -120 -52 -224 -145 -297c-88 -69 -146 -93 -297 -110zM317 461c0 69 -11 139 -25 167c-12 23 -28 33 -54 33
c-45 0 -60 -30 -60 -148c0 -155 23 -214 85 -214c15 0 34 4 41 9c3 2 4 7 5 20c7 27 8 56 8 86v47z" />
    <glyph glyph-name="colon" unicode=":" horiz-adv-x="333" 
d="M251 387c0 -47 -38 -84 -85 -84s-84 37 -84 85c0 47 37 84 85 84c46 0 84 -38 84 -85zM251 71c0 -47 -38 -84 -85 -84c-48 0 -84 36 -84 84c0 47 38 85 85 85c46 0 84 -39 84 -85z" />
    <glyph glyph-name="semicolon" unicode=";" horiz-adv-x="333" 
d="M251 387c0 -47 -38 -84 -85 -84s-84 37 -84 85c0 47 37 84 85 84c46 0 84 -38 84 -85zM100 -180l-11 22c75 52 109 94 109 133c0 12 -8 21 -19 21c-7 0 -14 -2 -24 -2c-43 0 -73 30 -73 76c0 52 34 85 84 85c63 0 100 -45 100 -116c0 -86 -50 -158 -166 -219z" />
    <glyph glyph-name="less" unicode="&#x3c;" 
d="M670 -24l-590 258v40l590 260v-88l-436 -192l436 -190v-88z" />
    <glyph glyph-name="equal" unicode="=" 
d="M682 311h-614v88h614v-88zM682 107h-614v88h614v-88z" />
    <glyph glyph-name="greater" unicode="&#x3e;" 
d="M670 234l-590 -258v88l436 190l-436 192v88l590 -260v-40z" />
    <glyph glyph-name="question" unicode="?" horiz-adv-x="500" 
d="M253 232h-30c-3 25 -3 34 -3 45c3 93 76 157 76 246c0 82 -31 130 -84 130c-37 0 -61 -16 -61 -40c0 -10 3 -16 15 -29c17 -19 22 -31 22 -51c0 -38 -34 -67 -65 -67c-39 0 -66 34 -66 78c0 83 74 145 184 145c127 0 204 -71 204 -166c0 -69 -29 -109 -121 -166
c-63 -39 -71 -52 -71 -125zM323 71c0 -47 -37 -84 -84 -84c-48 0 -85 37 -85 84s38 85 86 85c45 0 83 -39 83 -85z" />
    <glyph glyph-name="at" unicode="@" horiz-adv-x="930" 
d="M698 76l13 -35c-97 -46 -149 -60 -224 -60c-213 0 -379 149 -379 349c0 201 171 361 381 361c193 0 333 -131 333 -301c0 -141 -92 -246 -194 -246c-50 0 -82 29 -89 74c-35 -46 -76 -74 -126 -74c-58 0 -94 50 -94 114c0 118 70 261 203 261c36 0 51 -10 73 -53l11 40
h71l-66 -260c-1 -5 -2 -12 -2 -18c0 -31 11 -48 35 -48c67 0 131 99 131 205c0 145 -132 267 -288 267c-166 0 -287 -137 -287 -327c0 -174 120 -298 295 -298c68 0 122 12 203 49zM577 411c0 39 -16 60 -45 60c-80 0 -136 -113 -136 -193c0 -54 23 -87 59 -87
c31 0 61 25 83 68c22 44 39 110 39 152z" />
    <glyph glyph-name="A" unicode="A" horiz-adv-x="722" 
d="M689 0h-322v25l32 3c33 3 46 11 46 33s-12 57 -46 136h-225l-13 -34c-12 -31 -31 -73 -31 -97c0 -26 22 -37 81 -41v-25h-202v25c46 8 61 26 99 120l221 545h28l222 -522c51 -121 69 -143 110 -143v-25zM384 236l-101 243l-94 -243h195z" />
    <glyph glyph-name="B" unicode="B" horiz-adv-x="667" 
d="M426 365v-1c110 -14 193 -81 193 -176c0 -107 -96 -188 -274 -188h-329v25c73 8 88 22 88 78v467c0 59 -20 76 -88 81v25h317c161 0 252 -57 252 -160c0 -76 -42 -127 -159 -151zM264 592v-219c125 0 156 38 156 136c0 88 -31 137 -99 137c-40 0 -57 -15 -57 -54z
M264 343v-245c0 -48 19 -66 63 -66c78 0 120 55 120 156c0 102 -51 155 -157 155h-26z" />
    <glyph glyph-name="C" unicode="C" horiz-adv-x="722" 
d="M657 152l30 -25c-93 -115 -173 -146 -288 -146c-215 0 -350 147 -350 342c0 212 143 368 347 368c48 0 98 -11 156 -35c23 -10 36 -14 46 -14c19 0 29 10 44 46h27v-235h-25c-19 54 -43 87 -67 115c-46 55 -100 90 -167 90c-105 0 -184 -113 -184 -313
c0 -101 12 -174 54 -240c29 -46 88 -76 147 -76c44 0 86 12 126 34c32 18 60 43 104 89z" />
    <glyph glyph-name="D" unicode="D" horiz-adv-x="722" 
d="M14 676h312c228 0 364 -125 364 -331c0 -103 -43 -201 -115 -264c-61 -53 -151 -81 -252 -81h-309v25c58 2 83 25 83 73v486c0 46 -19 61 -83 67v25zM259 598v-498c0 -45 13 -65 58 -65c66 0 115 24 149 72c31 45 50 135 50 223c0 86 -12 160 -41 211
c-38 66 -88 101 -163 101c-39 0 -53 -16 -53 -44z" />
    <glyph glyph-name="E" unicode="E" horiz-adv-x="667" 
d="M641 208l-40 -208h-585v25c74 8 88 24 88 76v479c0 51 -19 67 -88 71v25h577v-201h-25c-23 134 -74 167 -237 167c-52 0 -65 -16 -65 -54v-225c106 1 150 33 162 149h26v-338h-26c-10 119 -53 155 -162 155v-242c0 -43 18 -56 83 -56c78 0 135 15 182 54
c34 28 52 58 82 123h28z" />
    <glyph glyph-name="F" unicode="F" horiz-adv-x="611" 
d="M583 474h-24c-14 76 -25 99 -60 129c-31 27 -75 39 -163 39c-51 0 -70 -14 -70 -51v-228c100 0 139 36 153 149h25v-338h-25c-10 118 -51 153 -153 155v-228c0 -57 18 -72 110 -76v-25h-360v25c74 8 88 22 88 78v472c0 58 -19 72 -88 76v25h567v-202z" />
    <glyph glyph-name="G" unicode="G" horiz-adv-x="778" 
d="M755 287v-25c-75 -8 -86 -37 -86 -100v-118c-65 -38 -173 -63 -277 -63c-201 0 -355 136 -355 350c0 199 148 360 348 360c52 0 97 -11 155 -35c23 -10 36 -14 46 -14c19 0 29 10 44 46h27v-235h-25c-35 76 -53 111 -96 149s-91 56 -138 56c-116 0 -184 -113 -184 -320
c0 -103 15 -182 48 -237c35 -58 78 -87 155 -87c71 0 96 34 96 85v89c0 52 -16 69 -102 74v25h344z" />
    <glyph glyph-name="H" unicode="H" horiz-adv-x="778" 
d="M759 0h-339v25c73 8 89 22 89 73v228h-241v-228c0 -53 16 -65 89 -73v-25h-336v25c70 9 85 20 85 73v479c0 55 -18 68 -85 74v25h336v-25c-70 -5 -89 -18 -89 -74v-204h241v204c0 56 -19 69 -89 74v25h339v-25c-68 -5 -88 -20 -88 -74v-479c0 -53 16 -64 88 -73v-25z" />
    <glyph glyph-name="I" unicode="I" horiz-adv-x="389" 
d="M370 0h-350v25c75 7 93 19 93 81v470c0 56 -21 70 -93 75v25h350v-25c-74 -3 -95 -19 -95 -75v-470c0 -65 19 -76 95 -81v-25z" />
    <glyph glyph-name="J" unicode="J" horiz-adv-x="500" 
d="M478 676v-25c-75 -5 -88 -23 -88 -95v-430c0 -151 -73 -222 -212 -222c-40 0 -83 6 -108 23c-37 25 -67 68 -67 110c0 37 34 74 71 74c38 0 72 -36 72 -76c0 -30 -27 -40 -27 -66c0 -20 17 -32 45 -32c46 0 64 28 64 90v550c0 58 -20 71 -101 74v25h351z" />
    <glyph glyph-name="K" unicode="K" horiz-adv-x="778" 
d="M769 0h-334v25c65 2 77 8 77 21c0 11 -6 21 -25 45l-181 225l-27 -25v-196c0 -49 15 -61 87 -70v-25h-336v25c74 7 87 19 87 76v472c0 62 -18 74 -87 78v25h337v-25c-74 -5 -88 -23 -88 -84v-223l212 215c31 31 40 42 40 58c0 20 -12 28 -48 31l-35 3v25h289v-25
c-99 -12 -136 -29 -322 -227l305 -378c12 -15 24 -20 49 -21v-25z" />
    <glyph glyph-name="L" unicode="L" horiz-adv-x="667" 
d="M638 227l-42 -227h-577v25c73 9 86 20 86 73v478c0 57 -18 71 -86 75v25l348 1v-25c-87 -4 -100 -17 -100 -99v-464c0 -43 20 -58 85 -58c83 0 129 18 170 55c34 31 60 79 87 141h29z" />
    <glyph glyph-name="M" unicode="M" horiz-adv-x="944" 
d="M921 0h-332v25c75 7 89 25 89 84v496l-252 -605h-27l-252 594v-465c0 -76 19 -98 101 -104v-25h-234v25c78 8 91 18 91 83v469c0 54 -16 68 -89 74v25h253l199 -472l201 472h252v-25c-73 -5 -88 -22 -88 -97v-428c0 -73 8 -94 88 -101v-25z" />
    <glyph glyph-name="N" unicode="N" horiz-adv-x="722" 
d="M701 676v-25c-65 -10 -78 -20 -78 -83v-586h-28l-447 545v-396c0 -77 17 -97 94 -106v-25h-226v25c73 9 88 23 88 84v470c-42 58 -65 72 -85 72v25h211l349 -430v299c0 80 -18 99 -92 106v25h214z" />
    <glyph glyph-name="O" unicode="O" horiz-adv-x="778" 
d="M743 335c0 -208 -148 -354 -355 -354s-353 146 -353 353c0 213 151 357 359 357c201 0 349 -149 349 -356zM566 328c0 213 -64 330 -181 330c-110 0 -173 -118 -173 -328c0 -211 64 -316 178 -316c115 0 176 108 176 314z" />
    <glyph glyph-name="P" unicode="P" horiz-adv-x="611" 
d="M16 676h315c167 0 269 -59 269 -181c0 -80 -46 -141 -129 -172c-43 -16 -77 -19 -209 -20v-192c0 -67 8 -76 87 -86v-25h-333v25c19 2 34 4 45 9c33 13 39 41 39 92v427c0 78 -14 92 -84 98v25zM262 606v-268c125 1 166 35 166 146s-33 157 -116 157
c-33 0 -50 -12 -50 -35z" />
    <glyph glyph-name="Q" unicode="Q" horiz-adv-x="778" 
d="M730 -117l6 -24c-65 -25 -112 -35 -179 -35c-88 0 -172 32 -228 88c-23 23 -35 42 -56 86c-153 46 -238 177 -238 332c0 217 149 361 354 361c206 0 354 -144 354 -364c0 -171 -95 -285 -253 -333c18 -37 28 -52 47 -71c34 -34 76 -52 123 -52c20 0 37 2 70 12zM566 335
c0 212 -64 323 -178 323c-112 0 -176 -114 -176 -323c0 -207 61 -321 177 -321s177 116 177 321z" />
    <glyph glyph-name="R" unicode="R" horiz-adv-x="722" 
d="M716 0h-205l-207 313h-28v-196c0 -73 10 -82 88 -92v-25h-338v25c78 9 88 16 88 95v431c0 78 -14 95 -88 100v25h308c195 0 296 -57 296 -172c0 -45 -16 -91 -45 -118c-28 -25 -54 -41 -112 -57l199 -282c9 -13 26 -22 44 -22v-25zM276 597v-252c131 1 183 27 183 149
c0 106 -37 148 -130 148c-39 0 -53 -12 -53 -45z" />
    <glyph glyph-name="S" unicode="S" horiz-adv-x="556" 
d="M484 474h-28c-20 65 -36 95 -70 130c-36 37 -78 56 -123 56c-69 0 -110 -42 -110 -99c0 -49 23 -72 103 -114c49 -26 97 -49 148 -77c64 -35 109 -100 109 -176c0 -126 -100 -213 -248 -213c-44 0 -81 7 -130 24c-22 7 -33 10 -41 10c-16 0 -24 -8 -30 -34h-29v248h29
c17 -71 31 -106 60 -143c38 -48 86 -72 144 -72c77 0 126 44 126 113c0 36 -23 64 -57 88s-79 44 -122 65c-113 54 -171 109 -171 210c0 127 83 201 219 201c39 0 71 -6 117 -23c21 -7 33 -10 42 -10c18 0 25 7 32 34h30v-218z" />
    <glyph glyph-name="T" unicode="T" horiz-adv-x="667" 
d="M636 475h-29c-17 119 -69 165 -192 169v-527c0 -76 11 -86 98 -92v-25h-357v25c86 7 97 18 97 92v527c-124 -4 -176 -50 -193 -169h-29l3 201h600z" />
    <glyph glyph-name="U" unicode="U" horiz-adv-x="722" 
d="M701 676v-25c-64 -10 -78 -26 -78 -85v-314c0 -100 -27 -177 -76 -216c-43 -35 -113 -55 -184 -55c-74 0 -138 17 -185 54c-57 45 -80 99 -80 196v324c0 81 -12 89 -82 96v25h336v-25c-78 -6 -95 -19 -95 -101v-318c0 -139 49 -202 146 -202c117 0 176 74 176 222v300
c0 73 -23 93 -97 99v25h219z" />
    <glyph glyph-name="V" unicode="V" horiz-adv-x="722" 
d="M701 676v-25c-52 -7 -66 -20 -90 -82l-228 -587h-27l-256 599c-24 56 -34 63 -84 70v25h336v-25l-33 -2c-38 -2 -53 -13 -53 -36c0 -15 3 -24 23 -72l138 -334l127 329c17 44 20 55 20 71c0 32 -15 39 -86 44v25h213z" />
    <glyph glyph-name="W" unicode="W" horiz-adv-x="1000" 
d="M981 676v-25c-33 -3 -56 -24 -69 -64l-200 -602h-27l-171 477l-186 -477h-28l-212 602c-17 49 -27 58 -69 64v25h294v-25c-52 -4 -64 -13 -64 -42c0 -9 1 -16 7 -33l120 -364l118 308l-35 96c-9 25 -31 33 -72 35v25h312v-25l-13 -1c-44 -3 -59 -12 -59 -36
c0 -10 3 -22 14 -56l108 -336l112 343c5 14 7 29 7 42c0 31 -15 41 -69 44v25h182z" />
    <glyph glyph-name="X" unicode="X" horiz-adv-x="722" 
d="M699 0h-340v25l28 2c35 2 52 11 52 28c0 12 -9 35 -21 54l-101 162l-38 -51c-75 -101 -94 -132 -94 -153c0 -26 20 -36 81 -42v-25h-250v25c50 6 74 19 104 56l175 221l-198 291c-31 45 -44 55 -80 58v25h346v-25l-31 -2c-36 -2 -48 -10 -48 -31c0 -12 2 -17 15 -37
l97 -150l56 77c47 65 58 84 58 106c0 24 -13 31 -51 35l-21 2v25h250v-25c-75 -7 -101 -25 -188 -146l-80 -111l182 -283c47 -73 63 -85 97 -86v-25z" />
    <glyph glyph-name="Y" unicode="Y" horiz-adv-x="722" 
d="M699 676v-25c-34 -5 -54 -16 -68 -39l-191 -311v-178c0 -78 13 -91 92 -98v-25h-347v25c83 7 93 28 93 103v136l-180 328c-19 34 -49 57 -83 59v25h335v-25l-27 -2c-40 -3 -54 -6 -54 -29c0 -9 12 -36 24 -59l120 -232l109 178c26 43 41 82 41 102c0 29 -16 37 -84 42v25
h220z" />
    <glyph glyph-name="Z" unicode="Z" horiz-adv-x="667" 
d="M634 242l-27 -242h-579v16l382 625l-83 -3c-154 -6 -195 -26 -240 -169h-28l22 207h523v-16l-379 -625h83c95 0 161 11 202 40c56 40 69 82 98 167h26z" />
    <glyph glyph-name="bracketleft" unicode="[" horiz-adv-x="333" 
d="M301 -149h-234v827h234v-33h-63c-56 0 -67 -11 -67 -70v-638c0 -43 9 -53 50 -53h80v-33z" />
    <glyph glyph-name="backslash" unicode="\" horiz-adv-x="278" 
d="M303 -19h-92l-236 710h93z" />
    <glyph glyph-name="bracketright" unicode="]" horiz-adv-x="333" 
d="M266 -149h-234v33h80c42 0 50 9 50 53v638c0 58 -11 70 -67 70h-63v33h234v-827z" />
    <glyph glyph-name="asciicircum" unicode="^" horiz-adv-x="581" 
d="M509 311h-89l-129 272l-129 -272h-89l178 365h80z" />
    <glyph glyph-name="underscore" unicode="_" horiz-adv-x="500" 
d="M500 -125h-500v50h500v-50z" />
    <glyph glyph-name="grave" unicode="`" horiz-adv-x="333" 
d="M246 528h-56l-142 88c-29 18 -40 32 -40 52c0 25 21 45 47 45c19 0 38 -10 54 -28z" />
    <glyph glyph-name="a" unicode="a" horiz-adv-x="500" 
d="M473 64l15 -21c-38 -41 -69 -57 -112 -57c-49 0 -71 18 -82 69c-55 -50 -101 -69 -159 -69c-64 0 -110 32 -110 106c0 44 22 82 67 112c38 25 85 43 201 76v68c0 64 -22 93 -81 93c-36 0 -65 -13 -65 -37c0 -6 2 -13 11 -23c13 -16 19 -28 19 -42c0 -34 -28 -60 -68 -60
c-41 0 -65 26 -65 68c0 80 78 126 191 126c122 0 196 -48 196 -134v-261c0 -17 7 -28 21 -28c5 0 8 1 11 4zM293 97v148c-80 -22 -122 -63 -122 -121c0 -44 22 -67 52 -67c24 0 48 9 70 40z" />
    <glyph glyph-name="b" unicode="b" horiz-adv-x="556" 
d="M211 676v-259c38 40 73 56 122 56c111 0 188 -95 188 -234c0 -150 -92 -253 -226 -253c-50 0 -86 15 -132 57l-79 -56h-12v607c0 40 -9 49 -55 58v24h194zM211 360v-263c0 -48 27 -79 69 -79c64 0 94 64 94 203c0 132 -31 198 -93 198c-33 0 -52 -16 -70 -59z" />
    <glyph glyph-name="c" unicode="c" horiz-adv-x="444" 
d="M412 109l18 -18c-55 -75 -111 -105 -191 -105c-125 0 -214 93 -214 236c0 149 104 251 237 251c87 0 154 -46 154 -110c0 -39 -26 -64 -68 -64c-34 0 -56 25 -56 73c0 47 0 70 -42 70c-49 0 -84 -60 -84 -169c0 -136 52 -220 139 -220c41 0 70 14 107 56z" />
    <glyph glyph-name="d" unicode="d" horiz-adv-x="556" 
d="M534 20l-62 -8c-62 -8 -87 -12 -133 -25v65c-47 -50 -80 -66 -133 -66c-105 0 -181 98 -181 235c0 145 82 252 192 252c46 0 76 -16 119 -62v183c0 46 -9 53 -76 58v24h215v-575c0 -42 13 -55 59 -58v-23zM336 112v243c-15 38 -45 62 -78 62c-58 0 -85 -59 -85 -188
c0 -127 25 -187 78 -187c23 0 46 12 66 37c10 13 19 28 19 33z" />
    <glyph glyph-name="e" unicode="e" horiz-adv-x="444" 
d="M403 126l24 -14c-60 -95 -113 -126 -198 -126c-121 0 -204 101 -204 238c0 149 84 249 209 249c58 0 99 -18 128 -50c37 -41 55 -104 59 -178h-252c6 -95 21 -187 119 -187c43 0 74 19 115 68zM298 282v21c0 52 0 73 -9 92c-14 30 -26 47 -55 47c-46 0 -70 -40 -70 -160
h134z" />
    <glyph glyph-name="f" unicode="f" horiz-adv-x="333" 
d="M14 461h57c0 79 7 139 40 179c27 33 71 51 135 51c85 0 143 -41 143 -100c0 -37 -25 -64 -62 -64c-34 0 -60 26 -60 57c0 35 22 43 22 57c0 12 -11 19 -29 19c-36 0 -50 -20 -50 -79v-120h86v-44h-86v-310c0 -65 12 -81 82 -83v-24h-278v24c46 5 57 18 57 63v330h-57v44z
" />
    <glyph glyph-name="g" unicode="g" horiz-adv-x="500" 
d="M254 68h52c108 0 177 -46 177 -120c0 -94 -94 -154 -261 -154c-126 0 -194 32 -194 92c0 41 33 66 96 75c-64 23 -82 45 -82 82c0 59 39 94 119 117c-71 20 -124 76 -124 152c0 99 84 161 203 161c40 0 68 -6 112 -22h129v-53h-80c28 -25 40 -58 40 -98
c0 -63 -31 -107 -92 -132c-33 -14 -36 -14 -127 -14c-39 0 -69 -19 -69 -49c0 -27 21 -37 101 -37zM306 312c0 93 -19 130 -67 130c-47 0 -65 -33 -65 -131c0 -93 18 -129 66 -129s66 36 66 130zM315 -52h-164c-28 -23 -35 -34 -35 -55c0 -44 46 -67 134 -67
c99 0 154 28 154 66c0 34 -24 56 -89 56z" />
    <glyph glyph-name="h" unicode="h" horiz-adv-x="556" 
d="M534 0h-234v24c34 4 46 20 46 61v224c0 71 -12 97 -51 97c-24 0 -48 -12 -70 -34c-10 -10 -17 -20 -17 -24v-263c0 -41 11 -56 48 -61v-24h-240v24c45 9 53 9 53 65v502c0 48 -8 52 -54 61v24h193v-280c49 58 94 77 147 77c82 0 130 -57 130 -136v-250
c0 -46 14 -63 49 -63v-24z" />
    <glyph glyph-name="i" unicode="i" horiz-adv-x="278" 
d="M215 613c0 -44 -34 -77 -78 -77s-77 33 -77 77s34 78 79 78c42 0 76 -35 76 -78zM256 0h-240v24c46 11 53 18 53 64v285c0 45 -10 55 -54 64v24h193v-376c0 -43 13 -56 48 -61v-24z" />
    <glyph glyph-name="j" unicode="j" horiz-adv-x="333" 
d="M263 613c0 -44 -34 -77 -79 -77c-44 0 -76 33 -76 77s34 78 78 78c42 0 77 -36 77 -78zM260 461v-459c0 -59 -8 -97 -27 -129c-28 -49 -81 -76 -150 -76c-82 0 -140 41 -140 100c0 36 25 61 62 61c33 0 59 -24 59 -54c0 -10 -4 -22 -14 -37c-6 -10 -9 -17 -9 -22
c0 -10 13 -17 32 -17c34 0 48 23 48 76v474c0 43 -12 55 -63 59v24h202z" />
    <glyph glyph-name="k" unicode="k" horiz-adv-x="556" 
d="M543 0h-234v24c28 1 42 7 42 19c0 8 -6 20 -24 45l-95 134l-23 -24v-114c0 -47 5 -53 52 -60v-24h-239v24c33 3 48 21 48 60v510c0 38 -14 55 -48 58v24h187v-431l128 128c11 11 21 29 21 38c0 13 -9 19 -35 23l-24 4v23h214v-23c-63 -8 -89 -26 -189 -131l194 -268
c9 -12 14 -15 25 -15v-24z" />
    <glyph glyph-name="l" unicode="l" horiz-adv-x="278" 
d="M256 0h-240v24c34 3 51 19 51 63v500c0 37 -17 62 -52 65v24h191v-589c0 -46 17 -62 50 -63v-24z" />
    <glyph glyph-name="m" unicode="m" horiz-adv-x="833" 
d="M814 0h-237v24c38 3 48 17 48 59v228c0 62 -15 95 -53 95c-18 0 -37 -7 -58 -25c-13 -10 -27 -28 -27 -33v-265c0 -38 11 -55 46 -59v-24h-232v24c37 3 47 18 47 59v240c0 60 -15 83 -54 83c-23 0 -84 -38 -84 -62v-261c0 -38 10 -54 45 -59v-24h-239v24
c44 8 55 21 55 62v287c0 47 -12 58 -56 64v24h192v-75h3c38 61 80 87 144 87c63 0 98 -24 128 -87c52 64 90 87 147 87c82 0 135 -53 135 -142v-248c0 -43 11 -57 50 -59v-24z" />
    <glyph glyph-name="n" unicode="n" horiz-adv-x="556" 
d="M539 0h-234v24c34 4 46 20 46 60v237c0 56 -17 85 -51 85c-24 0 -48 -12 -70 -34c-10 -10 -17 -20 -17 -24v-264c0 -37 11 -55 48 -60v-24h-240v24c45 9 53 21 53 63v289c0 43 -9 54 -53 61v24h191v-75h1c34 60 82 87 142 87c82 0 135 -55 135 -142v-247
c0 -45 10 -57 49 -60v-24z" />
    <glyph glyph-name="o" unicode="o" horiz-adv-x="500" 
d="M476 229c0 -141 -97 -243 -226 -243c-125 0 -225 100 -225 242c0 146 97 245 229 245c126 0 222 -102 222 -244zM329 218c0 171 -19 224 -78 224c-61 0 -79 -53 -79 -224c0 -145 21 -201 79 -201s78 52 78 201z" />
    <glyph glyph-name="p" unicode="p" horiz-adv-x="556" 
d="M212 461v-69c34 60 72 81 131 81c111 0 181 -77 181 -224c0 -155 -72 -262 -192 -262c-45 0 -70 13 -118 60v-126c0 -67 16 -99 77 -102v-24h-272v24c48 8 56 21 56 63v490c0 44 -11 58 -55 65v24h192zM214 346v-239c15 -38 44 -65 77 -65c55 0 85 54 85 192
c0 123 -25 182 -76 182c-23 0 -48 -13 -68 -37c-11 -13 -18 -27 -18 -33z" />
    <glyph glyph-name="q" unicode="q" horiz-adv-x="556" 
d="M536 -205h-267v24c65 9 73 25 73 91v132c-35 -45 -75 -56 -123 -56c-103 0 -185 88 -185 233c0 140 87 254 222 254c50 0 81 -13 132 -56l77 55h16v-595c0 -40 9 -49 55 -58v-24zM342 98v256c0 55 -27 87 -67 87c-56 0 -95 -63 -95 -205c0 -136 39 -196 93 -196
c34 0 69 20 69 58z" />
    <glyph glyph-name="r" unicode="r" horiz-adv-x="444" 
d="M218 461v-82c47 68 85 94 135 94c47 0 81 -33 81 -79c0 -40 -26 -68 -63 -68c-26 0 -43 10 -60 38c-11 18 -20 23 -28 23c-35 0 -61 -45 -61 -104v-177c0 -64 11 -78 72 -82v-24h-265v24c44 8 54 19 54 60v289c0 47 -12 58 -55 64v24h190z" />
    <glyph glyph-name="s" unicode="s" horiz-adv-x="389" 
d="M340 326h-25c-15 43 -26 62 -47 82c-22 21 -48 32 -75 32c-38 0 -66 -25 -66 -58c0 -34 28 -60 96 -88c100 -42 138 -85 138 -156c0 -90 -63 -152 -154 -152c-28 0 -79 11 -108 23c-10 4 -18 6 -23 6c-9 0 -15 -7 -26 -28h-25v165h28c21 -87 67 -132 137 -132
c45 0 75 26 75 65c0 32 -27 57 -96 87c-101 43 -142 89 -142 155c0 84 66 146 157 146c23 0 46 -4 78 -15c16 -5 25 -7 31 -7c13 0 19 5 25 20h22v-145z" />
    <glyph glyph-name="t" unicode="t" horiz-adv-x="333" 
d="M307 112l25 -11c-41 -82 -81 -113 -148 -113c-69 0 -112 40 -112 107v322h-53v27c72 49 109 102 167 186h25v-169h95v-44h-95v-298c0 -40 11 -60 39 -60c21 0 37 15 57 53z" />
    <glyph glyph-name="u" unicode="u" horiz-adv-x="556" 
d="M538 20l-63 -7c-65 -7 -89 -11 -132 -26v65c-52 -49 -90 -66 -145 -66c-83 0 -133 52 -133 145v241c0 46 -8 57 -49 65v24h188v-334c0 -56 20 -76 56 -76c29 0 51 13 82 47v276c0 45 -11 59 -61 63v24h200v-356c0 -44 13 -60 57 -62v-23z" />
    <glyph glyph-name="v" unicode="v" horiz-adv-x="500" 
d="M485 461v-24c-31 -3 -39 -9 -58 -55l-160 -396h-26l-120 296c-20 49 -57 129 -66 141c-6 8 -12 11 -34 14v24h250v-24l-18 -2c-25 -3 -35 -9 -35 -24c0 -7 1 -11 9 -31l79 -203l72 182c8 19 11 33 11 45c0 24 -12 31 -55 33v24h151z" />
    <glyph glyph-name="w" unicode="w" horiz-adv-x="722" 
d="M707 461v-24c-26 -5 -37 -16 -50 -50l-155 -401h-23l-102 310l-125 -310h-24l-148 374c-25 62 -31 72 -57 77v24h222v-24c-28 -4 -38 -11 -38 -28c0 -13 12 -44 39 -115l45 -118l68 171c-2 6 -4 12 -6 19c-19 66 -20 67 -59 71v24h234v-24c-38 -3 -48 -8 -48 -24
c0 -10 7 -38 27 -106c20 -70 24 -85 34 -127l35 94c29 78 44 115 44 128c0 23 -11 31 -48 35v24h135z" />
    <glyph glyph-name="x" unicode="x" horiz-adv-x="500" 
d="M484 0h-241v24c32 2 45 8 45 20s-9 29 -33 64c-15 21 -29 42 -42 63c-5 -6 -10 -13 -16 -20c-39 -47 -64 -87 -64 -103c0 -15 14 -22 50 -24v-24h-169v24c37 2 57 18 113 93l43 56c15 19 7 10 22 28l-128 197c-20 30 -26 35 -52 39v24h250v-24c-33 -1 -47 -7 -47 -19
c0 -13 25 -55 58 -98c4 -5 9 -11 13 -17l36 46c27 35 38 49 38 64s-8 20 -31 22l-20 2v24h168v-24c-31 -5 -51 -16 -70 -39l-101 -126l148 -228c7 -11 14 -15 30 -20v-24z" />
    <glyph glyph-name="y" unicode="y" horiz-adv-x="500" 
d="M482 461v-24c-31 -4 -44 -12 -60 -55l-148 -398c-35 -94 -56 -133 -77 -156c-21 -22 -50 -33 -84 -33c-57 0 -97 32 -97 79c0 38 24 67 62 67c34 0 60 -23 60 -52c0 -4 -1 -9 -2 -14c-1 -3 -1 -6 -1 -6c0 -9 8 -17 17 -17c24 0 49 32 66 82l18 53l-119 290
c-20 50 -58 134 -67 146c-6 8 -12 11 -34 14v24h249v-24l-16 -1c-25 -2 -36 -10 -36 -25c0 -4 9 -30 20 -58l72 -186l68 188c9 26 11 37 11 49c0 24 -11 31 -54 33v24h152z" />
    <glyph glyph-name="z" unicode="z" horiz-adv-x="444" 
d="M420 160l-16 -160h-383v25l234 404c-142 0 -166 -15 -191 -110h-26l7 142h371v-26l-231 -403h29c81 0 114 13 147 59c14 21 22 37 31 69h28z" />
    <glyph glyph-name="braceleft" unicode="{" horiz-adv-x="394" 
d="M340 -163v-12c-99 1 -143 11 -173 38c-26 22 -38 55 -38 103v179c0 71 -22 95 -107 116c85 21 107 45 107 116v179c0 55 16 92 50 113c32 21 72 28 161 29v-12c-80 -17 -106 -48 -106 -124v-171c0 -84 -24 -110 -118 -130c94 -20 118 -46 118 -130v-171
c0 -76 27 -107 106 -123z" />
    <glyph glyph-name="bar" unicode="|" horiz-adv-x="220" 
d="M154 -19h-88v710h88v-710z" />
    <glyph glyph-name="braceright" unicode="}" horiz-adv-x="394" 
d="M265 557v-179c0 -71 22 -95 107 -116c-85 -21 -107 -45 -107 -116v-179c0 -55 -16 -92 -50 -113c-32 -21 -72 -28 -161 -29v12c80 17 106 48 106 124v171c0 83 25 110 118 130c-94 20 -118 46 -118 130v171c0 76 -27 107 -106 123v12c90 -1 129 -8 161 -29
c34 -21 50 -57 50 -112z" />
    <glyph glyph-name="asciitilde" unicode="~" horiz-adv-x="520" 
d="M455 333l36 -70c-45 -63 -79 -86 -125 -86c-33 0 -56 8 -103 33c-47 26 -78 35 -113 35c-46 0 -69 -37 -85 -72l-36 70c34 59 69 86 123 86c33 0 59 -8 134 -42c46 -20 64 -26 81 -26c38 0 66 35 88 72z" />
    <glyph glyph-name="uni00A0" unicode="&#xa0;" horiz-adv-x="250" 
 />
    <glyph glyph-name="exclamdown" unicode="&#xa1;" horiz-adv-x="333" 
d="M251 417c0 -47 -38 -85 -84 -85c-47 0 -85 38 -85 86c0 47 38 83 86 83c46 0 83 -37 83 -84zM153 254h29c13 -123 23 -172 52 -268c14 -45 18 -64 18 -89c0 -63 -31 -100 -85 -100c-53 0 -84 37 -84 101c0 25 4 43 18 88c29 96 39 144 52 268z" />
    <glyph glyph-name="cent" unicode="&#xa2;" horiz-adv-x="500" 
d="M440 109l18 -18c-61 -77 -113 -105 -191 -105c-19 0 -31 2 -50 7l-47 -133h-40l51 145c-33 16 -46 26 -64 44c-42 43 -64 103 -64 174c0 143 99 250 232 250c21 0 36 -2 60 -8l44 123h40l-48 -136c44 -25 63 -51 63 -88c0 -39 -26 -64 -66 -64c-19 0 -31 6 -44 20
l-82 -230c27 -27 49 -37 83 -37c43 0 71 15 105 56zM321 397v3c0 24 -18 42 -43 42c-52 0 -84 -65 -84 -168c0 -59 9 -99 31 -146z" />
    <glyph glyph-name="sterling" unicode="&#xa3;" horiz-adv-x="500" 
d="M454 183h23c-7 -79 -17 -118 -38 -149s-53 -50 -93 -50c-43 0 -70 16 -125 65c-33 -43 -67 -62 -112 -62c-56 0 -88 31 -88 85c0 60 37 92 106 92c18 0 31 -2 51 -7c-2 37 -6 53 -41 151h-98v65h80c-11 62 -14 85 -14 118c0 63 31 125 79 159c32 22 75 34 124 34
c93 0 151 -43 151 -113c0 -45 -26 -72 -68 -72c-38 0 -62 27 -62 65c0 16 2 28 2 47c1 28 -16 43 -44 43c-33 0 -56 -25 -56 -62c0 -23 19 -131 39 -219h114v-65h-109c1 -19 2 -34 2 -54c0 -49 -4 -73 -20 -120c44 -16 69 -22 96 -22c63 0 86 16 101 71zM181 86
c-27 24 -46 32 -72 32c-35 0 -56 -20 -56 -52c0 -30 22 -49 56 -49c37 0 58 20 72 69z" />
    <glyph glyph-name="currency" unicode="&#xa4;" horiz-adv-x="500" 
d="M526 48l-58 -58l-96 98c-42 -26 -78 -37 -122 -37s-80 11 -122 37l-96 -98l-58 58l98 98c-26 39 -37 73 -37 120c0 46 11 82 37 122l-98 98l58 56l96 -96c40 25 76 35 122 35c47 0 82 -10 122 -35l96 96l58 -56l-98 -98c27 -43 37 -76 37 -122c0 -47 -11 -84 -37 -120z
M377 267c0 74 -57 132 -129 132c-69 0 -125 -60 -125 -132c0 -75 56 -134 126 -134c72 0 128 59 128 134z" />
    <glyph glyph-name="yen" unicode="&#xa5;" horiz-adv-x="500" 
d="M547 676v-26c-34 -3 -51 -13 -64 -37l-144 -271h111v-50h-131l-4 -11v-67h135v-50h-135v-49c0 -68 16 -83 99 -90v-25h-331v25c85 7 102 22 102 90v49h-135v50h135v57l-11 21h-124v50h99l-130 255c-18 36 -42 50 -83 53v26h301v-26c-60 -2 -77 -8 -77 -29
c0 -17 24 -65 76 -167l57 -112l119 230c6 11 8 23 8 35c0 32 -14 40 -78 43v26h205z" />
    <glyph glyph-name="brokenbar" unicode="&#xa6;" horiz-adv-x="220" 
d="M154 414h-88v277h88v-277zM154 -19h-88v277h88v-277z" />
    <glyph glyph-name="section" unicode="&#xa7;" horiz-adv-x="500" 
d="M186 415h13c-82 72 -100 98 -100 146c0 76 62 130 149 130c78 0 145 -46 145 -100c0 -33 -31 -63 -65 -63c-29 0 -60 30 -60 57c0 14 9 29 27 43c10 8 15 15 15 19c0 11 -26 21 -54 21c-49 0 -83 -28 -83 -69c0 -34 34 -73 104 -119c66 -43 116 -92 146 -143
c13 -22 20 -50 20 -82c0 -35 -14 -67 -39 -86c-22 -17 -49 -24 -102 -25c74 -52 102 -93 102 -147c0 -75 -68 -129 -164 -129c-83 0 -150 45 -150 100c0 37 27 65 63 65c35 0 65 -26 65 -56c0 -17 -8 -28 -31 -42c-11 -7 -15 -11 -15 -15c0 -15 32 -29 68 -29
c53 0 79 23 79 71c0 31 -9 47 -37 70l-57 46c-142 115 -168 148 -168 215c0 82 43 122 129 122zM367 225c0 28 -10 46 -43 77c-67 63 -108 90 -139 90s-53 -23 -53 -56c0 -37 10 -51 73 -106c58 -51 79 -63 109 -63c31 0 53 24 53 58z" />
    <glyph glyph-name="dieresis" unicode="&#xa8;" horiz-adv-x="333" 
d="M337 600c0 -35 -29 -63 -66 -63c-35 0 -63 29 -63 65c0 35 29 64 64 64s65 -30 65 -66zM127 600c0 -35 -28 -63 -65 -63c-35 0 -64 29 -64 65c0 34 30 64 65 64c34 0 64 -30 64 -66z" />
    <glyph glyph-name="copyright" unicode="&#xa9;" horiz-adv-x="747" 
d="M544 256l-16 -74c-1 -10 -12 -18 -31 -23l-12 -3c-37 -9 -65 -14 -95 -14c-131 0 -214 76 -214 197c0 125 88 205 226 205c37 0 64 -5 103 -19c16 -6 22 -11 22 -21v-72h-19c-17 62 -50 89 -107 89c-79 0 -123 -63 -123 -177c0 -115 44 -179 123 -179c56 0 92 26 124 91
h19zM721 335c0 -200 -151 -354 -346 -354c-199 0 -349 154 -349 357c0 200 153 353 354 353c190 0 341 -157 341 -356zM650 338c0 168 -124 301 -280 301c-150 0 -273 -137 -273 -304c0 -168 123 -302 277 -302s276 135 276 305z" />
    <glyph glyph-name="ordfeminine" unicode="&#xaa;" horiz-adv-x="300" 
d="M291 443l10 -12c-24 -25 -44 -34 -73 -34c-32 0 -46 11 -53 41c-36 -30 -64 -41 -102 -41c-44 0 -74 27 -74 66c0 50 39 75 174 110v40c0 37 -14 52 -50 52c-23 0 -41 -10 -41 -22c0 -3 3 -8 9 -14c8 -8 11 -14 11 -21c0 -21 -20 -35 -48 -35c-27 0 -42 15 -42 40
c0 46 50 75 129 75c78 0 127 -31 127 -82v-156c0 -11 3 -15 11 -15c3 0 6 2 6 2zM172 465v87c-50 -15 -75 -39 -75 -73c0 -23 13 -40 32 -40c16 0 29 8 43 26z" />
    <glyph glyph-name="guillemotleft" unicode="&#xab;" horiz-adv-x="500" 
d="M422 393l6 5c16 13 23 17 31 17s12 -4 12 -11c0 -22 -34 -75 -93 -147c-8 -10 -16 -20 -23 -30c14 -21 26 -36 40 -54c48 -62 78 -102 78 -122c0 -9 -4 -15 -11 -15c-8 0 -15 7 -29 16l-214 173v4zM226 393l6 5c16 13 23 17 31 17s12 -4 12 -11c0 -22 -34 -75 -92 -147
c-9 -10 -16 -20 -24 -30c15 -21 25 -37 40 -54c50 -59 78 -102 78 -122c0 -9 -4 -15 -11 -15c-8 0 -15 7 -29 16l-214 173v4z" />
    <glyph glyph-name="logicalnot" unicode="&#xac;" 
d="M685 108h-88v203h-532v88h620v-291z" />
    <glyph glyph-name="uni00AD" unicode="&#xad;" horiz-adv-x="333" 
d="M287 171h-243v116h243v-116z" />
    <glyph glyph-name="registered" unicode="&#xae;" horiz-adv-x="747" 
d="M563 153h-81c-16 0 -32 21 -63 81c-19 37 -28 52 -49 86h-37v-105c0 -40 1 -41 46 -44v-18h-172v18c45 3 46 4 46 44v255c0 41 -1 42 -46 44v18h193c71 0 115 -37 115 -96c0 -49 -27 -84 -80 -105l58 -82c29 -41 48 -64 70 -85v-11zM333 342h35c40 0 62 32 62 89
c0 53 -20 79 -61 79h-36v-168zM721 335c0 -200 -151 -354 -346 -354c-199 0 -349 154 -349 357c0 200 153 353 354 353c190 0 341 -157 341 -356zM650 338c0 168 -124 301 -280 301c-150 0 -273 -137 -273 -304c0 -168 123 -302 277 -302s276 135 276 305z" />
    <glyph glyph-name="macron" unicode="&#xaf;" horiz-adv-x="333" 
d="M331 565h-330v72h330v-72z" />
    <glyph glyph-name="degree" unicode="&#xb0;" horiz-adv-x="400" 
d="M343 545c0 -79 -64 -143 -143 -143s-143 64 -143 143s64 143 143 143s143 -64 143 -143zM288 545c0 49 -39 88 -88 88s-88 -39 -88 -88s39 -88 88 -88s88 39 88 88z" />
    <glyph glyph-name="plusminus" unicode="&#xb1;" horiz-adv-x="770" 
d="M685 209h-266v-221h-88v221h-266v88h266v221h88v-221h266v-88zM685 -151h-620v88h620v-88z" />
    <glyph glyph-name="twosuperior" unicode="&#xb2;" horiz-adv-x="300" 
d="M300 402l-30 -127h-270v14c150 149 184 197 184 255c0 42 -33 76 -75 76c-34 0 -55 -15 -76 -54h-24c34 84 79 122 144 122c70 0 119 -46 119 -111c0 -44 -20 -80 -74 -130l-99 -92h92c66 0 74 4 93 47h16z" />
    <glyph glyph-name="threesuperior" unicode="&#xb3;" horiz-adv-x="300" 
d="M36 590l-20 7c35 61 84 91 149 91c67 0 106 -30 106 -81c0 -36 -13 -54 -54 -76c54 -22 80 -57 80 -107c0 -87 -85 -156 -194 -156c-61 0 -100 21 -100 54c0 19 13 32 40 41c29 -3 39 -6 67 -33c21 -20 33 -26 49 -26c38 0 63 26 63 65c0 58 -34 90 -130 121v10
c61 18 84 39 84 79c0 37 -25 61 -65 61c-31 0 -50 -13 -75 -50z" />
    <glyph glyph-name="acute" unicode="&#xb4;" horiz-adv-x="333" 
d="M86 528l137 157c17 19 33 28 53 28c29 0 48 -18 48 -44c0 -23 -8 -33 -40 -53l-142 -88h-56z" />
    <glyph glyph-name="mu" unicode="&#xb5;" horiz-adv-x="556" 
d="M536 60v-24c-44 -40 -64 -49 -106 -49c-49 0 -79 16 -101 52c-32 -38 -57 -52 -99 -52c-41 0 -69 10 -102 35c4 -33 7 -41 19 -81c11 -34 14 -53 14 -70c0 -50 -22 -77 -63 -77s-65 28 -65 77c0 13 3 28 10 57c15 62 23 107 23 160v373h139v-312c0 -44 23 -74 57 -74
c21 0 46 9 74 27v359h139v-360c0 -27 18 -47 40 -47c7 0 12 1 21 6z" />
    <glyph glyph-name="paragraph" unicode="&#xb6;" horiz-adv-x="639" 
d="M579 651l-26 -2c-46 -4 -56 -6 -56 -50v-704c0 -38 3 -50 54 -54l23 -2v-25h-171v837h-50v-837h-175v25c74 7 81 11 81 52v374c-52 2 -79 9 -110 28c-58 36 -89 100 -89 188c0 134 68 195 219 195h300v-25zM259 290v361c-48 -12 -68 -25 -86 -56
c-15 -25 -23 -65 -23 -112c0 -105 34 -166 109 -193z" />
    <glyph glyph-name="periodcentered" unicode="&#xb7;" horiz-adv-x="250" 
d="M210 332c0 -47 -37 -84 -85 -84s-84 36 -84 84c0 47 38 85 85 85c46 0 84 -39 84 -85z" />
    <glyph glyph-name="cedilla" unicode="&#xb8;" horiz-adv-x="333" 
d="M201 0l-28 -64c12 4 20 5 32 5c56 0 89 -26 89 -70c0 -55 -50 -89 -129 -89c-34 0 -60 5 -97 18l16 37l6 -2c24 -8 37 -12 53 -12c38 0 58 14 58 41c0 23 -17 36 -46 36c-9 0 -17 -1 -28 -4l-11 8l43 96h42z" />
    <glyph glyph-name="onesuperior" unicode="&#xb9;" horiz-adv-x="300" 
d="M273 275h-243v20c64 0 77 10 77 60v221c0 28 -7 41 -23 41c-10 0 -25 -3 -43 -10l-13 -5v21l164 65h11v-337c0 -46 11 -55 70 -56v-20z" />
    <glyph glyph-name="ordmasculine" unicode="&#xba;" horiz-adv-x="330" 
d="M312 542c0 -84 -62 -145 -146 -145c-87 0 -148 61 -148 146c0 84 63 145 149 145c83 0 145 -63 145 -146zM214 534c0 103 -11 133 -50 133c-37 0 -49 -32 -49 -130c0 -89 13 -120 50 -120c36 0 49 31 49 117z" />
    <glyph glyph-name="guillemotright" unicode="&#xbb;" horiz-adv-x="500" 
d="M477 222l-203 -164c-2 -2 -4 -4 -7 -5c-15 -14 -21 -17 -30 -17c-8 0 -12 4 -12 11c0 22 34 76 92 147l24 30c-15 22 -27 38 -40 53c-51 61 -78 103 -78 123c0 9 5 15 11 15c7 0 16 -5 29 -16l214 -173v-4zM281 222l-203 -164l-6 -5c-16 -14 -22 -17 -31 -17
c-8 0 -12 4 -12 11c0 22 34 75 93 147c8 10 16 20 23 30c-15 22 -27 38 -40 53c-51 61 -78 103 -78 123c0 9 5 15 11 15c7 0 16 -5 29 -16l214 -173v-4z" />
    <glyph glyph-name="onequarter" unicode="&#xbc;" 
d="M743 87h-41v-87h-94v87h-161v67c43 63 73 105 164 213l39 46h52v-260h41v-66zM609 153v175l-137 -175h137zM671 688l-439 -700h-58l441 700h56zM273 275h-243v20c64 0 77 10 77 60v221c0 28 -7 41 -23 41c-10 0 -25 -3 -43 -10l-13 -5v21l164 65h11v-337
c0 -46 11 -55 70 -56v-20z" />
    <glyph glyph-name="onehalf" unicode="&#xbd;" 
d="M775 127l-30 -127h-270v14l45 46c56 55 127 125 127 209c0 38 -22 77 -64 77c-36 0 -59 -25 -75 -55h-24c26 66 66 122 144 122c64 0 129 -41 129 -111c0 -58 -60 -107 -99 -144l-78 -73v-5h103c43 0 58 6 76 47h16zM629 688l-439 -700h-58l441 700h56zM238 275h-243v20
c52 0 77 2 77 60v221c0 16 -2 41 -23 41c-18 0 -39 -8 -56 -15v21l164 65h11v-337c0 -53 21 -55 70 -56v-20z" />
    <glyph glyph-name="threequarters" unicode="&#xbe;" 
d="M733 87h-41v-87h-94v87h-161v67c43 63 73 105 164 213l39 46h52v-260h41v-66zM599 153v175l-137 -175h137zM669 688l-439 -700h-58l441 700h56zM241 533v-4c50 -20 76 -56 76 -105c0 -87 -86 -156 -194 -156c-61 0 -100 21 -100 54c0 19 13 32 40 41c29 -3 37 -8 67 -33
c22 -19 33 -26 49 -26c38 0 63 26 63 65c0 58 -34 90 -130 121v10c61 18 84 39 84 79c0 37 -25 61 -65 61c-31 0 -50 -13 -75 -50l-20 7c35 61 84 91 149 91c67 0 106 -30 106 -81c0 -35 -13 -54 -50 -74z" />
    <glyph glyph-name="questiondown" unicode="&#xbf;" horiz-adv-x="500" 
d="M346 417c0 -47 -38 -85 -86 -85c-45 0 -83 39 -83 85c0 47 37 84 84 84c48 0 85 -37 85 -84zM247 256h30c3 -25 3 -34 3 -45c-3 -93 -76 -157 -76 -246c0 -75 31 -130 84 -130c37 0 61 16 61 40c0 10 -3 16 -15 29c-17 19 -22 31 -22 51c0 38 34 67 65 67
c39 0 66 -34 66 -78c0 -83 -74 -145 -184 -145c-127 0 -204 71 -204 166c0 69 29 109 121 166c63 39 71 52 71 125z" />
    <glyph glyph-name="Agrave" unicode="&#xc0;" horiz-adv-x="722" 
d="M457 778h-56l-142 88c-29 18 -40 32 -40 52c0 25 21 45 47 45c19 0 38 -10 54 -28zM689 0h-322v25l32 3c33 3 46 11 46 33s-12 57 -46 136h-225l-13 -34c-12 -31 -31 -73 -31 -97c0 -26 22 -37 81 -41v-25h-202v25c46 8 61 26 99 120l221 545h28l222 -522
c51 -121 69 -143 110 -143v-25zM384 236l-101 243l-94 -243h195z" />
    <glyph glyph-name="Aacute" unicode="&#xc1;" horiz-adv-x="722" 
d="M229 778l137 157c17 19 33 28 53 28c29 0 48 -18 48 -44c0 -23 -8 -33 -40 -53l-142 -88h-56zM689 0h-322v25l32 3c33 3 46 11 46 33s-12 57 -46 136h-225l-13 -34c-12 -31 -31 -73 -31 -97c0 -26 22 -37 81 -41v-25h-202v25c46 8 61 26 99 120l221 545h28l222 -522
c51 -121 69 -143 110 -143v-25zM384 236l-101 243l-94 -243h195z" />
    <glyph glyph-name="Acircumflex" unicode="&#xc2;" horiz-adv-x="722" 
d="M511 778h-57l-112 98l-112 -98h-56l122 176h92zM689 0h-322v25l32 3c33 3 46 11 46 33s-12 57 -46 136h-225l-13 -34c-12 -31 -31 -73 -31 -97c0 -26 22 -37 81 -41v-25h-202v25c46 8 61 26 99 120l221 545h28l222 -522c51 -121 69 -143 110 -143v-25zM384 236l-101 243
l-94 -243h195z" />
    <glyph glyph-name="Atilde" unicode="&#xc3;" horiz-adv-x="722" 
d="M481 924h43c-23 -87 -60 -127 -116 -127c-21 0 -46 6 -65 14l-29 13c-44 20 -51 22 -64 22c-26 0 -45 -19 -49 -47h-42c18 86 54 125 116 125c21 0 44 -6 73 -19l40 -18c25 -11 28 -12 39 -12c27 0 41 13 54 49zM689 0h-322v25l32 3c33 3 46 11 46 33s-12 57 -46 136
h-225l-13 -34c-12 -31 -31 -73 -31 -97c0 -26 22 -37 81 -41v-25h-202v25c46 8 61 26 99 120l221 545h28l222 -522c51 -121 69 -143 110 -143v-25zM384 236l-101 243l-94 -243h195z" />
    <glyph glyph-name="Adieresis" unicode="&#xc4;" horiz-adv-x="722" 
d="M511 850c0 -35 -29 -63 -66 -63c-35 0 -63 29 -63 65c0 35 29 64 64 64s65 -30 65 -66zM301 850c0 -35 -28 -63 -65 -63c-35 0 -64 29 -64 65c0 34 30 64 65 64c34 0 64 -30 64 -66zM689 0h-322v25l32 3c33 3 46 11 46 33s-12 57 -46 136h-225l-13 -34
c-12 -31 -31 -73 -31 -97c0 -26 22 -37 81 -41v-25h-202v25c46 8 61 26 99 120l221 545h28l222 -522c51 -121 69 -143 110 -143v-25zM384 236l-101 243l-94 -243h195z" />
    <glyph glyph-name="Aring" unicode="&#xc5;" horiz-adv-x="722" 
d="M448 895c0 -59 -47 -108 -106 -108c-60 0 -107 46 -107 106c0 58 49 107 108 107c57 0 105 -47 105 -105zM400 892c0 34 -28 60 -61 60c-29 0 -56 -27 -56 -58c0 -32 26 -59 57 -59c34 0 60 25 60 57zM689 0h-322v25l32 3c33 3 46 11 46 33s-12 57 -46 136h-225l-13 -34
c-12 -31 -31 -73 -31 -97c0 -26 22 -37 81 -41v-25h-202v25c46 8 61 26 99 120l221 545h28l222 -522c51 -121 69 -143 110 -143v-25zM384 236l-101 243l-94 -243h195z" />
    <glyph glyph-name="AE" unicode="&#xc6;" horiz-adv-x="1000" 
d="M951 211l-41 -211h-566v25c74 4 88 20 88 94v184h-190l-100 -188c-11 -21 -15 -33 -15 -45c0 -28 14 -37 66 -43l17 -2v-25h-206v25c39 6 45 10 110 128l220 402c19 34 28 52 28 62c0 24 -21 33 -87 37v22h634v-201h-25c-13 64 -23 88 -44 114c-28 35 -88 52 -181 52
c-53 0 -67 -6 -67 -30v-248c117 10 127 20 155 149h23v-338h-23c-18 124 -43 150 -155 157v-243c0 -42 16 -54 74 -54c87 0 145 19 186 61c34 35 68 86 76 116h23zM432 343v290h-7l-161 -290h168z" />
    <glyph glyph-name="Ccedilla" unicode="&#xc7;" horiz-adv-x="722" 
d="M657 152l30 -25c-94 -107 -169 -145 -286 -146l-20 -45c12 4 20 5 32 5c56 0 89 -26 89 -70c0 -55 -50 -89 -129 -89c-34 0 -60 5 -97 18l16 37l6 -2c26 -9 37 -12 53 -12c38 0 58 14 58 41c0 23 -17 36 -46 36c-9 0 -17 -1 -28 -4l-11 8l35 79l-3 1
c-182 18 -307 160 -307 348c0 205 149 359 348 359c48 0 97 -11 155 -35c23 -10 36 -14 46 -14c19 0 29 10 44 46h27v-234h-25c-35 76 -58 110 -101 148s-86 56 -133 56c-121 0 -184 -110 -184 -317c0 -101 14 -172 43 -225c29 -52 92 -87 158 -87c28 0 61 6 90 18
c49 19 81 43 140 105z" />
    <glyph glyph-name="Egrave" unicode="&#xc8;" horiz-adv-x="667" 
d="M452 778h-56l-142 88c-29 18 -40 32 -40 52c0 25 21 45 47 45c19 0 38 -10 54 -28zM641 208l-40 -208h-585v25c74 8 88 24 88 76v479c0 51 -19 67 -88 71v25h577v-201h-25c-23 134 -74 167 -237 167c-52 0 -65 -16 -65 -54v-225c106 1 150 33 162 149h26v-338h-26
c-10 119 -53 155 -162 155v-242c0 -43 18 -56 83 -56c78 0 135 15 182 54c34 28 52 58 82 123h28z" />
    <glyph glyph-name="Eacute" unicode="&#xc9;" horiz-adv-x="667" 
d="M231 778l137 157c17 19 33 28 53 28c29 0 48 -18 48 -44c0 -23 -8 -33 -40 -53l-142 -88h-56zM641 208l-40 -208h-585v25c74 8 88 24 88 76v479c0 51 -19 67 -88 71v25h577v-201h-25c-23 134 -74 167 -237 167c-52 0 -65 -16 -65 -54v-225c106 1 150 33 162 149h26v-338
h-26c-10 119 -53 155 -162 155v-242c0 -43 18 -56 83 -56c78 0 135 15 182 54c34 28 52 58 82 123h28z" />
    <glyph glyph-name="Ecircumflex" unicode="&#xca;" horiz-adv-x="667" 
d="M511 778h-57l-112 98l-112 -98h-56l122 176h92zM641 208l-40 -208h-585v25c74 8 88 24 88 76v479c0 51 -19 67 -88 71v25h577v-201h-25c-23 134 -74 167 -237 167c-52 0 -65 -16 -65 -54v-225c106 1 150 33 162 149h26v-338h-26c-10 119 -53 155 -162 155v-242
c0 -43 18 -56 83 -56c78 0 135 15 182 54c34 28 52 58 82 123h28z" />
    <glyph glyph-name="Edieresis" unicode="&#xcb;" horiz-adv-x="667" 
d="M511 850c0 -35 -29 -63 -66 -63c-35 0 -63 29 -63 65c0 35 29 64 64 64s65 -30 65 -66zM301 850c0 -35 -28 -63 -65 -63c-35 0 -64 29 -64 65c0 34 30 64 65 64c34 0 64 -30 64 -66zM641 208l-40 -208h-585v25c74 8 88 24 88 76v479c0 51 -19 67 -88 71v25h577v-201h-25
c-23 134 -74 167 -237 167c-52 0 -65 -16 -65 -54v-225c106 1 150 33 162 149h26v-338h-26c-10 119 -53 155 -162 155v-242c0 -43 18 -56 83 -56c78 0 135 15 182 54c34 28 52 58 82 123h28z" />
    <glyph glyph-name="Igrave" unicode="&#xcc;" horiz-adv-x="389" 
d="M317 778h-56l-142 88c-29 18 -40 32 -40 52c0 25 21 45 47 45c19 0 38 -10 54 -28zM370 0h-350v25c75 7 93 19 93 81v470c0 56 -21 70 -93 75v25h350v-25c-74 -3 -95 -19 -95 -75v-470c0 -65 19 -76 95 -81v-25z" />
    <glyph glyph-name="Iacute" unicode="&#xcd;" horiz-adv-x="389" 
d="M73 778l137 157c17 19 33 28 53 28c29 0 48 -18 48 -44c0 -23 -8 -33 -40 -53l-142 -88h-56zM370 0h-350v25c75 7 93 19 93 81v470c0 56 -21 70 -93 75v25h350v-25c-74 -3 -95 -19 -95 -75v-470c0 -65 19 -76 95 -81v-25z" />
    <glyph glyph-name="Icircumflex" unicode="&#xce;" horiz-adv-x="389" 
d="M363 778h-57l-112 98l-112 -98h-56l122 176h92zM370 0h-350v25c75 7 93 19 93 81v470c0 56 -21 70 -93 75v25h350v-25c-74 -3 -95 -19 -95 -75v-470c0 -65 19 -76 95 -81v-25z" />
    <glyph glyph-name="Idieresis" unicode="&#xcf;" horiz-adv-x="389" 
d="M363 850c0 -35 -29 -63 -66 -63c-35 0 -63 29 -63 65c0 35 29 64 64 64s65 -30 65 -66zM153 850c0 -35 -28 -63 -65 -63c-35 0 -64 29 -64 65c0 34 30 64 65 64c34 0 64 -30 64 -66zM370 0h-350v25c75 7 93 19 93 81v470c0 56 -21 70 -93 75v25h350v-25
c-74 -3 -95 -19 -95 -75v-470c0 -65 19 -76 95 -81v-25z" />
    <glyph glyph-name="Eth" unicode="&#xd0;" horiz-adv-x="722" 
d="M14 676h305c232 0 371 -125 371 -331c0 -96 -32 -182 -90 -241c-63 -66 -163 -104 -270 -104h-316v25c58 2 83 22 83 66v235h-91v47h91v211c0 46 -19 61 -83 67v25zM259 326v-233c0 -45 13 -58 58 -58c66 0 115 24 149 72c31 45 50 130 50 223c0 86 -14 159 -42 212
c-36 67 -85 100 -155 100c-48 0 -60 -10 -60 -47v-222h114v-47h-114z" />
    <glyph glyph-name="Ntilde" unicode="&#xd1;" horiz-adv-x="722" 
d="M498 924h43c-23 -87 -60 -127 -116 -127c-21 0 -46 6 -65 14l-29 13c-44 20 -51 22 -64 22c-26 0 -45 -19 -49 -47h-42c18 86 54 125 116 125c21 0 44 -6 73 -19l40 -18c25 -11 28 -12 39 -12c27 0 41 13 54 49zM701 676v-25c-65 -10 -78 -20 -78 -83v-586h-28l-447 545
v-396c0 -77 17 -97 94 -106v-25h-226v25c73 9 88 23 88 84v470c-42 58 -65 72 -85 72v25h211l349 -430v299c0 80 -18 99 -92 106v25h214z" />
    <glyph glyph-name="Ograve" unicode="&#xd2;" horiz-adv-x="778" 
d="M503 778h-56l-142 88c-29 18 -40 32 -40 52c0 25 21 45 47 45c19 0 38 -10 54 -28zM743 335c0 -208 -148 -354 -355 -354s-353 146 -353 353c0 213 151 357 359 357c201 0 349 -149 349 -356zM566 328c0 213 -64 330 -181 330c-110 0 -173 -118 -173 -328
c0 -211 64 -316 178 -316c115 0 176 108 176 314z" />
    <glyph glyph-name="Oacute" unicode="&#xd3;" horiz-adv-x="778" 
d="M267 778l137 157c17 19 33 28 53 28c29 0 48 -18 48 -44c0 -23 -8 -33 -40 -53l-142 -88h-56zM743 335c0 -208 -148 -354 -355 -354s-353 146 -353 353c0 213 151 357 359 357c201 0 349 -149 349 -356zM566 328c0 213 -64 330 -181 330c-110 0 -173 -118 -173 -328
c0 -211 64 -316 178 -316c115 0 176 108 176 314z" />
    <glyph glyph-name="Ocircumflex" unicode="&#xd4;" horiz-adv-x="778" 
d="M552 778h-57l-112 98l-112 -98h-56l122 176h92zM743 335c0 -208 -148 -354 -355 -354s-353 146 -353 353c0 213 151 357 359 357c201 0 349 -149 349 -356zM566 328c0 213 -64 330 -181 330c-110 0 -173 -118 -173 -328c0 -211 64 -316 178 -316c115 0 176 108 176 314z
" />
    <glyph glyph-name="Otilde" unicode="&#xd5;" horiz-adv-x="778" 
d="M527 924h43c-23 -87 -60 -127 -116 -127c-21 0 -46 6 -65 14l-29 13c-44 20 -51 22 -64 22c-26 0 -45 -19 -49 -47h-42c18 86 54 125 116 125c21 0 44 -6 73 -19l40 -18c25 -11 28 -12 39 -12c27 0 41 13 54 49zM743 335c0 -208 -148 -354 -355 -354s-353 146 -353 353
c0 213 151 357 359 357c201 0 349 -149 349 -356zM566 328c0 213 -64 330 -181 330c-110 0 -173 -118 -173 -328c0 -211 64 -316 178 -316c115 0 176 108 176 314z" />
    <glyph glyph-name="Odieresis" unicode="&#xd6;" horiz-adv-x="778" 
d="M554 850c0 -35 -29 -63 -66 -63c-35 0 -63 29 -63 65c0 35 29 64 64 64s65 -30 65 -66zM344 850c0 -35 -28 -63 -65 -63c-35 0 -64 29 -64 65c0 34 30 64 65 64c34 0 64 -30 64 -66zM743 335c0 -208 -148 -354 -355 -354s-353 146 -353 353c0 213 151 357 359 357
c201 0 349 -149 349 -356zM566 328c0 213 -64 330 -181 330c-110 0 -173 -118 -173 -328c0 -211 64 -316 178 -316c115 0 176 108 176 314z" />
    <glyph glyph-name="multiply" unicode="&#xd7;" horiz-adv-x="702" 
d="M636 29l-62 -62l-223 224l-223 -224l-62 62l223 224l-222 223l62 62l222 -223l223 223l62 -62l-223 -223z" />
    <glyph glyph-name="Oslash" unicode="&#xd8;" horiz-adv-x="778" 
d="M685 737l-78 -115c51 -42 71 -65 93 -106c29 -54 43 -115 43 -180c0 -208 -147 -355 -354 -355c-72 0 -124 14 -187 49l-71 -104h-50l86 126c-59 51 -83 83 -107 143c-17 44 -25 90 -25 140c0 207 148 356 355 356c68 0 118 -13 182 -47l63 93h50zM234 151l286 418
c-35 64 -72 89 -131 89c-114 0 -177 -118 -177 -330c0 -74 5 -117 22 -177zM540 524l-287 -420c34 -64 73 -90 136 -90c116 0 177 109 177 317c0 80 -6 128 -26 193z" />
    <glyph glyph-name="Ugrave" unicode="&#xd9;" horiz-adv-x="722" 
d="M479 778h-56l-142 88c-29 18 -40 32 -40 52c0 25 21 45 47 45c19 0 38 -10 54 -28zM701 676v-25c-64 -10 -78 -26 -78 -85v-314c0 -100 -27 -177 -76 -216c-43 -35 -113 -55 -184 -55c-74 0 -138 17 -185 54c-57 45 -80 99 -80 196v324c0 81 -12 89 -82 96v25h336v-25
c-78 -6 -95 -19 -95 -101v-318c0 -139 49 -202 146 -202c117 0 176 74 176 222v300c0 73 -23 93 -97 99v25h219z" />
    <glyph glyph-name="Uacute" unicode="&#xda;" horiz-adv-x="722" 
d="M242 778l137 157c17 19 33 28 53 28c29 0 48 -18 48 -44c0 -23 -8 -33 -40 -53l-142 -88h-56zM701 676v-25c-64 -10 -78 -26 -78 -85v-314c0 -100 -27 -177 -76 -216c-43 -35 -113 -55 -184 -55c-74 0 -138 17 -185 54c-57 45 -80 99 -80 196v324c0 81 -12 89 -82 96v25
h336v-25c-78 -6 -95 -19 -95 -101v-318c0 -139 49 -202 146 -202c117 0 176 74 176 222v300c0 73 -23 93 -97 99v25h219z" />
    <glyph glyph-name="Ucircumflex" unicode="&#xdb;" horiz-adv-x="722" 
d="M530 778h-57l-112 98l-112 -98h-56l122 176h92zM701 676v-25c-64 -10 -78 -26 -78 -85v-314c0 -100 -27 -177 -76 -216c-43 -35 -113 -55 -184 -55c-74 0 -138 17 -185 54c-57 45 -80 99 -80 196v324c0 81 -12 89 -82 96v25h336v-25c-78 -6 -95 -19 -95 -101v-318
c0 -139 49 -202 146 -202c117 0 176 74 176 222v300c0 73 -23 93 -97 99v25h219z" />
    <glyph glyph-name="Udieresis" unicode="&#xdc;" horiz-adv-x="722" 
d="M533 850c0 -35 -29 -63 -66 -63c-35 0 -63 29 -63 65c0 35 29 64 64 64s65 -30 65 -66zM323 850c0 -35 -28 -63 -65 -63c-35 0 -64 29 -64 65c0 34 30 64 65 64c34 0 64 -30 64 -66zM701 676v-25c-64 -10 -78 -26 -78 -85v-314c0 -100 -27 -177 -76 -216
c-43 -35 -113 -55 -184 -55c-74 0 -138 17 -185 54c-57 45 -80 99 -80 196v324c0 81 -12 89 -82 96v25h336v-25c-78 -6 -95 -19 -95 -101v-318c0 -139 49 -202 146 -202c117 0 176 74 176 222v300c0 73 -23 93 -97 99v25h219z" />
    <glyph glyph-name="Yacute" unicode="&#xdd;" horiz-adv-x="722" 
d="M249 778l137 157c17 19 33 28 53 28c29 0 48 -18 48 -44c0 -23 -8 -33 -40 -53l-142 -88h-56zM699 676v-25c-34 -5 -54 -16 -68 -39l-191 -311v-178c0 -78 13 -91 92 -98v-25h-347v25c83 7 93 28 93 103v136l-180 328c-19 34 -49 57 -83 59v25h335v-25l-27 -2
c-40 -3 -54 -6 -54 -29c0 -9 12 -36 24 -59l120 -232l109 178c26 43 41 82 41 102c0 29 -16 37 -84 42v25h220z" />
    <glyph glyph-name="Thorn" unicode="&#xde;" horiz-adv-x="611" 
d="M262 546h66c96 0 174 -20 216 -55c37 -32 56 -74 56 -128c0 -64 -30 -116 -88 -150c-55 -33 -91 -39 -250 -40v-56c0 -73 9 -82 88 -92v-25h-334v25l24 4c48 8 60 26 60 88v442c0 70 -14 86 -84 92v25h334v-25c-80 -11 -88 -20 -88 -93v-12zM262 476v-268
c131 0 166 32 166 151c0 109 -33 152 -116 152c-33 0 -50 -12 -50 -35z" />
    <glyph glyph-name="germandbls" unicode="&#xdf;" horiz-adv-x="556" 
d="M70 87v420c0 108 86 184 207 184c114 0 199 -65 199 -154c0 -42 -22 -81 -61 -107c-25 -17 -47 -26 -95 -37c81 -24 115 -40 147 -71c33 -31 50 -75 50 -128c0 -115 -84 -206 -189 -206c-18 0 -34 4 -64 15l14 34l10 -7c9 -6 13 -7 21 -7c48 0 62 39 62 174
c0 86 -12 135 -39 157c-14 12 -30 17 -63 19v34c57 1 70 24 70 123c0 94 -21 133 -70 133c-39 0 -60 -27 -60 -77v-586h-190v24c43 7 51 17 51 63z" />
    <glyph glyph-name="agrave" unicode="&#xe0;" horiz-adv-x="500" 
d="M365 528h-56l-142 88c-29 18 -40 32 -40 52c0 25 21 45 47 45c19 0 38 -10 54 -28zM473 64l15 -21c-38 -41 -69 -57 -112 -57c-49 0 -71 18 -82 69c-55 -50 -101 -69 -159 -69c-64 0 -110 32 -110 106c0 44 22 82 67 112c38 25 85 43 201 76v68c0 64 -22 93 -81 93
c-36 0 -65 -13 -65 -37c0 -6 2 -13 11 -23c13 -16 19 -28 19 -42c0 -34 -28 -60 -68 -60c-41 0 -65 26 -65 68c0 80 78 126 191 126c122 0 196 -48 196 -134v-261c0 -17 7 -28 21 -28c5 0 8 1 11 4zM293 97v148c-80 -22 -122 -63 -122 -121c0 -44 22 -67 52 -67
c24 0 48 9 70 40z" />
    <glyph glyph-name="aacute" unicode="&#xe1;" horiz-adv-x="500" 
d="M145 528l137 157c17 19 33 28 53 28c29 0 48 -18 48 -44c0 -23 -8 -33 -40 -53l-142 -88h-56zM473 64l15 -21c-38 -41 -69 -57 -112 -57c-49 0 -71 18 -82 69c-55 -50 -101 -69 -159 -69c-64 0 -110 32 -110 106c0 44 22 82 67 112c38 25 85 43 201 76v68
c0 64 -22 93 -81 93c-36 0 -65 -13 -65 -37c0 -6 2 -13 11 -23c13 -16 19 -28 19 -42c0 -34 -28 -60 -68 -60c-41 0 -65 26 -65 68c0 80 78 126 191 126c122 0 196 -48 196 -134v-261c0 -17 7 -28 21 -28c5 0 8 1 11 4zM293 97v148c-80 -22 -122 -63 -122 -121
c0 -44 22 -67 52 -67c24 0 48 9 70 40z" />
    <glyph glyph-name="acircumflex" unicode="&#xe2;" horiz-adv-x="500" 
d="M424 528h-57l-112 98l-112 -98h-56l122 176h92zM473 64l15 -21c-38 -41 -69 -57 -112 -57c-49 0 -71 18 -82 69c-55 -50 -101 -69 -159 -69c-64 0 -110 32 -110 106c0 44 22 82 67 112c38 25 85 43 201 76v68c0 64 -22 93 -81 93c-36 0 -65 -13 -65 -37
c0 -6 2 -13 11 -23c13 -16 19 -28 19 -42c0 -34 -28 -60 -68 -60c-41 0 -65 26 -65 68c0 80 78 126 191 126c122 0 196 -48 196 -134v-261c0 -17 7 -28 21 -28c5 0 8 1 11 4zM293 97v148c-80 -22 -122 -63 -122 -121c0 -44 22 -67 52 -67c24 0 48 9 70 40z" />
    <glyph glyph-name="atilde" unicode="&#xe3;" horiz-adv-x="500" 
d="M394 674h43c-23 -87 -60 -127 -116 -127c-21 0 -46 6 -65 14l-29 13c-44 20 -51 22 -64 22c-26 0 -45 -19 -49 -47h-42c18 86 54 125 116 125c21 0 44 -6 73 -19l40 -18c25 -11 28 -12 39 -12c27 0 41 13 54 49zM473 64l15 -21c-38 -41 -69 -57 -112 -57
c-49 0 -71 18 -82 69c-55 -50 -101 -69 -159 -69c-64 0 -110 32 -110 106c0 44 22 82 67 112c38 25 85 43 201 76v68c0 64 -22 93 -81 93c-36 0 -65 -13 -65 -37c0 -6 2 -13 11 -23c13 -16 19 -28 19 -42c0 -34 -28 -60 -68 -60c-41 0 -65 26 -65 68c0 80 78 126 191 126
c122 0 196 -48 196 -134v-261c0 -17 7 -28 21 -28c5 0 8 1 11 4zM293 97v148c-80 -22 -122 -63 -122 -121c0 -44 22 -67 52 -67c24 0 48 9 70 40z" />
    <glyph glyph-name="adieresis" unicode="&#xe4;" horiz-adv-x="500" 
d="M425 600c0 -35 -29 -63 -66 -63c-35 0 -63 29 -63 65c0 35 29 64 64 64s65 -30 65 -66zM215 600c0 -35 -28 -63 -65 -63c-35 0 -64 29 -64 65c0 34 30 64 65 64c34 0 64 -30 64 -66zM473 64l15 -21c-38 -41 -69 -57 -112 -57c-49 0 -71 18 -82 69
c-55 -50 -101 -69 -159 -69c-64 0 -110 32 -110 106c0 44 22 82 67 112c38 25 85 43 201 76v68c0 64 -22 93 -81 93c-36 0 -65 -13 -65 -37c0 -6 2 -13 11 -23c13 -16 19 -28 19 -42c0 -34 -28 -60 -68 -60c-41 0 -65 26 -65 68c0 80 78 126 191 126c122 0 196 -48 196 -134
v-261c0 -17 7 -28 21 -28c5 0 8 1 11 4zM293 97v148c-80 -22 -122 -63 -122 -121c0 -44 22 -67 52 -67c24 0 48 9 70 40z" />
    <glyph glyph-name="aring" unicode="&#xe5;" horiz-adv-x="500" 
d="M362 647c0 -59 -47 -108 -106 -108c-60 0 -107 46 -107 106c0 58 49 107 108 107c57 0 105 -47 105 -105zM314 644c0 34 -28 60 -61 60c-29 0 -56 -27 -56 -58c0 -32 26 -59 57 -59c34 0 60 25 60 57zM473 64l15 -21c-38 -41 -69 -57 -112 -57c-49 0 -71 18 -82 69
c-55 -50 -101 -69 -159 -69c-64 0 -110 32 -110 106c0 44 22 82 67 112c38 25 85 43 201 76v68c0 64 -22 93 -81 93c-36 0 -65 -13 -65 -37c0 -6 2 -13 11 -23c13 -16 19 -28 19 -42c0 -34 -28 -60 -68 -60c-41 0 -65 26 -65 68c0 80 78 126 191 126c122 0 196 -48 196 -134
v-261c0 -17 7 -28 21 -28c5 0 8 1 11 4zM293 97v148c-80 -22 -122 -63 -122 -121c0 -44 22 -67 52 -67c24 0 48 9 70 40z" />
    <glyph glyph-name="ae" unicode="&#xe6;" horiz-adv-x="722" 
d="M673 129l21 -15c-59 -90 -115 -123 -210 -123c-63 0 -113 22 -147 84h-6c-55 -68 -114 -89 -180 -89c-77 0 -118 37 -118 108c0 44 21 73 59 105c32 27 74 49 204 86v75c0 58 -22 81 -78 81c-38 0 -65 -15 -65 -35c0 -7 3 -12 12 -22c13 -15 17 -24 17 -43
c0 -37 -27 -62 -67 -62c-42 0 -65 30 -65 69c0 71 77 125 184 125c64 0 107 -14 140 -51c34 38 74 51 127 51c75 0 137 -37 166 -101c16 -34 21 -63 21 -124h-254v-23c0 -110 30 -164 115 -164c49 0 85 20 124 68zM567 285v33c0 93 -16 125 -63 125c-52 0 -70 -48 -70 -158
h133zM296 81v167c-88 -32 -119 -65 -119 -128c0 -47 19 -71 57 -71c24 0 38 7 62 32z" />
    <glyph glyph-name="ccedilla" unicode="&#xe7;" horiz-adv-x="444" 
d="M412 109l18 -18c-49 -67 -99 -98 -165 -104l-23 -51c12 4 20 5 32 5c56 0 89 -26 89 -70c0 -55 -50 -89 -129 -89c-34 0 -60 5 -97 18l16 37l6 -2c26 -9 37 -12 53 -12c38 0 58 14 58 41c0 23 -17 36 -46 36c-9 0 -17 -1 -28 -4l-11 8l36 83c-115 8 -196 99 -196 235
c0 149 104 251 237 251c87 0 154 -46 154 -110c0 -39 -26 -64 -68 -64c-34 0 -56 25 -56 73c0 47 0 70 -42 70c-49 0 -84 -60 -84 -169c0 -136 52 -220 139 -220c41 0 70 14 107 56z" />
    <glyph glyph-name="egrave" unicode="&#xe8;" horiz-adv-x="444" 
d="M360 528h-56l-142 88c-29 18 -40 32 -40 52c0 25 21 45 47 45c19 0 38 -10 54 -28zM403 126l24 -14c-60 -95 -113 -126 -198 -126c-121 0 -204 101 -204 238c0 149 84 249 209 249c58 0 99 -18 128 -50c37 -41 55 -104 59 -178h-252c6 -95 21 -187 119 -187
c43 0 74 19 115 68zM298 282v21c0 52 0 73 -9 92c-14 30 -26 47 -55 47c-46 0 -70 -40 -70 -160h134z" />
    <glyph glyph-name="eacute" unicode="&#xe9;" horiz-adv-x="444" 
d="M124 528l137 157c17 19 33 28 53 28c29 0 48 -18 48 -44c0 -23 -8 -33 -40 -53l-142 -88h-56zM403 126l24 -14c-60 -95 -113 -126 -198 -126c-121 0 -204 101 -204 238c0 149 84 249 209 249c58 0 99 -18 128 -50c37 -41 55 -104 59 -178h-252c6 -95 21 -187 119 -187
c43 0 74 19 115 68zM298 282v21c0 52 0 73 -9 92c-14 30 -26 47 -55 47c-46 0 -70 -40 -70 -160h134z" />
    <glyph glyph-name="ecircumflex" unicode="&#xea;" horiz-adv-x="444" 
d="M409 528h-57l-112 98l-112 -98h-56l122 176h92zM403 126l24 -14c-60 -95 -113 -126 -198 -126c-121 0 -204 101 -204 238c0 149 84 249 209 249c58 0 99 -18 128 -50c37 -41 55 -104 59 -178h-252c6 -95 21 -187 119 -187c43 0 74 19 115 68zM298 282v21c0 52 0 73 -9 92
c-14 30 -26 47 -55 47c-46 0 -70 -40 -70 -160h134z" />
    <glyph glyph-name="edieresis" unicode="&#xeb;" horiz-adv-x="444" 
d="M411 600c0 -35 -29 -63 -66 -63c-35 0 -63 29 -63 65c0 35 29 64 64 64s65 -30 65 -66zM201 600c0 -35 -28 -63 -65 -63c-35 0 -64 29 -64 65c0 34 30 64 65 64c34 0 64 -30 64 -66zM403 126l24 -14c-60 -95 -113 -126 -198 -126c-121 0 -204 101 -204 238
c0 149 84 249 209 249c58 0 99 -18 128 -50c37 -41 55 -104 59 -178h-252c6 -95 21 -187 119 -187c43 0 74 19 115 68zM298 282v21c0 52 0 73 -9 92c-14 30 -26 47 -55 47c-46 0 -70 -40 -70 -160h134z" />
    <glyph glyph-name="igrave" unicode="&#xec;" horiz-adv-x="278" 
d="M257 528h-56l-142 88c-29 18 -40 32 -40 52c0 25 21 45 47 45c19 0 38 -10 54 -28zM256 0h-240v24c46 10 53 20 53 64v286c0 45 -11 54 -55 63v24h194v-376c0 -41 13 -56 48 -61v-24z" />
    <glyph glyph-name="iacute" unicode="&#xed;" horiz-adv-x="278" 
d="M256 0h-240v24c46 11 53 18 53 64v285c0 45 -10 55 -54 64v24h193v-376c0 -43 13 -56 48 -61v-24zM20 528l137 157c17 19 33 28 53 28c29 0 48 -18 48 -44c0 -23 -8 -33 -40 -53l-142 -88h-56z" />
    <glyph glyph-name="icircumflex" unicode="&#xee;" horiz-adv-x="278" 
d="M212 0h-240v24c46 11 53 18 53 64v285c0 45 -10 55 -54 64v24h193v-376c0 -43 13 -56 48 -61v-24zM308 528h-57l-112 98l-112 -98h-56l122 176h92z" />
    <glyph glyph-name="idieresis" unicode="&#xef;" horiz-adv-x="278" 
d="M212 0h-240v24c46 11 53 18 53 64v285c0 45 -10 55 -54 64v24h193v-376c0 -43 13 -56 48 -61v-24zM310 600c0 -35 -29 -63 -66 -63c-35 0 -63 29 -63 65c0 35 29 64 64 64s65 -30 65 -66zM100 600c0 -35 -28 -63 -65 -63c-35 0 -64 29 -64 65c0 34 30 64 65 64
c34 0 64 -30 64 -66z" />
    <glyph glyph-name="eth" unicode="&#xf0;" horiz-adv-x="500" 
d="M427 661l-92 -47c61 -50 86 -82 110 -143c21 -52 31 -105 31 -173c0 -194 -77 -312 -225 -312c-130 0 -226 94 -226 243c0 146 97 244 224 244c42 0 65 -11 91 -41l2 3c-19 57 -45 98 -86 139l-110 -56l-48 31l117 59c-43 31 -83 49 -133 58l46 25c61 -6 110 -20 160 -46
l90 46zM329 230c0 159 -20 212 -79 212c-24 0 -41 -12 -53 -34c-18 -31 -25 -85 -25 -187c0 -101 8 -204 80 -204c58 0 77 52 77 213z" />
    <glyph glyph-name="ntilde" unicode="&#xf1;" horiz-adv-x="556" 
d="M421 674h43c-23 -87 -60 -127 -116 -127c-21 0 -46 6 -65 14l-29 13c-44 20 -51 22 -64 22c-26 0 -45 -19 -49 -47h-42c18 86 54 125 116 125c21 0 44 -6 73 -19l40 -18c25 -11 28 -12 39 -12c27 0 41 13 54 49zM539 0h-234v24c34 4 46 20 46 60v237c0 56 -17 85 -51 85
c-24 0 -48 -12 -70 -34c-10 -10 -17 -20 -17 -24v-264c0 -37 11 -55 48 -60v-24h-240v24c45 9 53 21 53 63v289c0 43 -9 54 -53 61v24h191v-75h1c34 60 82 87 142 87c82 0 135 -55 135 -142v-247c0 -45 10 -57 49 -60v-24z" />
    <glyph glyph-name="ograve" unicode="&#xf2;" horiz-adv-x="500" 
d="M370 528h-56l-142 88c-29 18 -40 32 -40 52c0 25 21 45 47 45c19 0 38 -10 54 -28zM476 229c0 -141 -97 -243 -226 -243c-125 0 -225 100 -225 242c0 146 97 245 229 245c126 0 222 -102 222 -244zM329 218c0 171 -19 224 -78 224c-61 0 -79 -53 -79 -224
c0 -145 21 -201 79 -201s78 52 78 201z" />
    <glyph glyph-name="oacute" unicode="&#xf3;" horiz-adv-x="500" 
d="M132 528l137 157c17 19 33 28 53 28c29 0 48 -18 48 -44c0 -23 -8 -33 -40 -53l-142 -88h-56zM476 229c0 -141 -97 -243 -226 -243c-125 0 -225 100 -225 242c0 146 97 245 229 245c126 0 222 -102 222 -244zM329 218c0 171 -19 224 -78 224c-61 0 -79 -53 -79 -224
c0 -145 21 -201 79 -201s78 52 78 201z" />
    <glyph glyph-name="ocircumflex" unicode="&#xf4;" horiz-adv-x="500" 
d="M421 528h-57l-112 98l-112 -98h-56l122 176h92zM476 229c0 -141 -97 -243 -226 -243c-125 0 -225 100 -225 242c0 146 97 245 229 245c126 0 222 -102 222 -244zM329 218c0 171 -19 224 -78 224c-61 0 -79 -53 -79 -224c0 -145 21 -201 79 -201s78 52 78 201z" />
    <glyph glyph-name="otilde" unicode="&#xf5;" horiz-adv-x="500" 
d="M391 674h43c-23 -87 -60 -127 -116 -127c-21 0 -46 6 -65 14l-29 13c-44 20 -51 22 -64 22c-26 0 -45 -19 -49 -47h-42c18 86 54 125 116 125c21 0 44 -6 73 -19l40 -18c25 -11 28 -12 39 -12c27 0 41 13 54 49zM476 229c0 -141 -97 -243 -226 -243
c-125 0 -225 100 -225 242c0 146 97 245 229 245c126 0 222 -102 222 -244zM329 218c0 171 -19 224 -78 224c-61 0 -79 -53 -79 -224c0 -145 21 -201 79 -201s78 52 78 201z" />
    <glyph glyph-name="odieresis" unicode="&#xf6;" horiz-adv-x="500" 
d="M421 600c0 -35 -29 -63 -66 -63c-35 0 -63 29 -63 65c0 35 29 64 64 64s65 -30 65 -66zM211 600c0 -35 -28 -63 -65 -63c-35 0 -64 29 -64 65c0 34 30 64 65 64c34 0 64 -30 64 -66zM476 229c0 -141 -97 -243 -226 -243c-125 0 -225 100 -225 242c0 146 97 245 229 245
c126 0 222 -102 222 -244zM329 218c0 171 -19 224 -78 224c-61 0 -79 -53 -79 -224c0 -145 21 -201 79 -201s78 52 78 201z" />
    <glyph glyph-name="divide" unicode="&#xf7;" horiz-adv-x="570" 
d="M362 461c0 -41 -36 -77 -76 -77c-42 0 -77 35 -77 76c0 42 35 77 77 77c40 0 76 -36 76 -76zM537 209h-504v88h504v-88zM362 47c0 -41 -37 -78 -77 -78s-76 36 -76 77c0 42 35 76 77 76c40 0 76 -36 76 -75z" />
    <glyph glyph-name="oslash" unicode="&#xf8;" horiz-adv-x="500" 
d="M461 549l-73 -123c62 -56 88 -115 88 -197c0 -140 -95 -243 -225 -243c-40 0 -71 8 -107 27l-63 -105h-47l76 128c-60 56 -85 113 -85 193c0 140 97 244 227 244c38 0 67 -7 103 -25l60 101h46zM173 140l143 242c-13 44 -31 60 -64 60c-62 0 -80 -52 -80 -233
c0 -27 0 -49 1 -69zM327 324l-144 -244c13 -45 33 -63 68 -63c58 0 78 52 78 200c0 35 0 60 -2 107z" />
    <glyph glyph-name="ugrave" unicode="&#xf9;" horiz-adv-x="556" 
d="M393 528h-56l-142 88c-29 18 -40 32 -40 52c0 25 21 45 47 45c19 0 38 -10 54 -28zM538 20l-63 -7c-65 -7 -89 -11 -132 -26v65c-52 -49 -90 -66 -145 -66c-83 0 -133 52 -133 145v241c0 46 -8 57 -49 65v24h188v-334c0 -56 20 -76 56 -76c29 0 51 13 82 47v276
c0 45 -11 59 -61 63v24h200v-356c0 -44 13 -60 57 -62v-23z" />
    <glyph glyph-name="uacute" unicode="&#xfa;" horiz-adv-x="556" 
d="M156 528l137 157c17 19 33 28 53 28c29 0 48 -18 48 -44c0 -23 -8 -33 -40 -53l-142 -88h-56zM538 20l-63 -7c-65 -7 -89 -11 -132 -26v65c-52 -49 -90 -66 -145 -66c-83 0 -133 52 -133 145v241c0 46 -8 57 -49 65v24h188v-334c0 -56 20 -76 56 -76c29 0 51 13 82 47
v276c0 45 -11 59 -61 63v24h200v-356c0 -44 13 -60 57 -62v-23z" />
    <glyph glyph-name="ucircumflex" unicode="&#xfb;" horiz-adv-x="556" 
d="M443 528h-57l-112 98l-112 -98h-56l122 176h92zM538 20l-63 -7c-65 -7 -89 -11 -132 -26v65c-52 -49 -90 -66 -145 -66c-83 0 -133 52 -133 145v241c0 46 -8 57 -49 65v24h188v-334c0 -56 20 -76 56 -76c29 0 51 13 82 47v276c0 45 -11 59 -61 63v24h200v-356
c0 -44 13 -60 57 -62v-23z" />
    <glyph glyph-name="udieresis" unicode="&#xfc;" horiz-adv-x="556" 
d="M443 600c0 -35 -29 -63 -66 -63c-35 0 -63 29 -63 65c0 35 29 64 64 64s65 -30 65 -66zM233 600c0 -35 -28 -63 -65 -63c-35 0 -64 29 -64 65c0 34 30 64 65 64c34 0 64 -30 64 -66zM538 20l-63 -7c-65 -7 -89 -11 -132 -26v65c-52 -49 -90 -66 -145 -66
c-83 0 -133 52 -133 145v241c0 46 -8 57 -49 65v24h188v-334c0 -56 20 -76 56 -76c29 0 51 13 82 47v276c0 45 -11 59 -61 63v24h200v-356c0 -44 13 -60 57 -62v-23z" />
    <glyph glyph-name="yacute" unicode="&#xfd;" horiz-adv-x="500" 
d="M129 528l137 157c17 19 33 28 53 28c29 0 48 -18 48 -44c0 -23 -8 -33 -40 -53l-142 -88h-56zM482 461v-24c-31 -4 -44 -12 -60 -55l-148 -398c-35 -94 -56 -133 -77 -156c-21 -22 -50 -33 -84 -33c-57 0 -97 32 -97 79c0 38 24 67 62 67c34 0 60 -23 60 -52
c0 -4 -1 -9 -2 -14c-1 -3 -1 -6 -1 -6c0 -9 8 -17 17 -17c24 0 49 32 66 82l18 53l-119 290c-20 50 -58 134 -67 146c-6 8 -12 11 -34 14v24h249v-24l-16 -1c-25 -2 -36 -10 -36 -25c0 -4 9 -30 20 -58l72 -186l68 188c9 26 11 37 11 49c0 24 -11 31 -54 33v24h152z" />
    <glyph glyph-name="thorn" unicode="&#xfe;" horiz-adv-x="556" 
d="M214 676v-285c29 59 64 82 124 82c111 0 186 -94 186 -234c0 -148 -79 -252 -192 -252c-45 0 -70 13 -118 60v-141c0 -67 17 -87 78 -90v-21h-273v24c48 8 56 17 56 58v717c0 40 -9 49 -55 58v24h194zM214 346v-243c19 -41 45 -61 79 -61c56 0 83 60 83 187
s-24 187 -76 187c-23 0 -48 -13 -68 -37c-11 -13 -18 -27 -18 -33z" />
    <glyph glyph-name="ydieresis" unicode="&#xff;" horiz-adv-x="500" 
d="M482 461v-24c-31 -4 -44 -12 -60 -55l-148 -398c-35 -94 -56 -133 -77 -156c-21 -22 -50 -33 -84 -33c-57 0 -97 32 -97 79c0 38 24 67 62 67c34 0 60 -23 60 -52c0 -4 -1 -9 -2 -14c-1 -3 -1 -6 -1 -6c0 -9 8 -17 17 -17c24 0 49 32 66 82l18 53l-119 290
c-20 50 -58 134 -67 146c-6 8 -12 11 -34 14v24h249v-24l-16 -1c-25 -2 -36 -10 -36 -25c0 -4 9 -30 20 -58l72 -186l68 188c9 26 11 37 11 49c0 24 -11 31 -54 33v24h152zM416 600c0 -35 -29 -63 -66 -63c-35 0 -63 29 -63 65c0 35 29 64 64 64s65 -30 65 -66zM206 600
c0 -35 -28 -63 -65 -63c-35 0 -64 29 -64 65c0 34 30 64 65 64c34 0 64 -30 64 -66z" />
    <glyph glyph-name="uni0100" unicode="&#x100;" horiz-adv-x="722" 
d="M515 738h-330v72h330v-72zM689 0h-322v25l32 3c33 3 46 11 46 33s-12 57 -46 136h-225l-13 -34c-12 -31 -31 -73 -31 -97c0 -26 22 -37 81 -41v-25h-202v25c46 8 61 26 99 120l221 545h28l222 -522c51 -121 69 -143 110 -143v-25zM384 236l-101 243l-94 -243h195z" />
    <glyph glyph-name="uni0101" unicode="&#x101;" horiz-adv-x="500" 
d="M415 528h-330v72h330v-72zM473 64l15 -21c-38 -41 -69 -57 -112 -57c-49 0 -71 18 -82 69c-55 -50 -101 -69 -159 -69c-64 0 -110 32 -110 106c0 44 22 82 67 112c38 25 85 43 201 76v68c0 64 -22 93 -81 93c-36 0 -65 -13 -65 -37c0 -6 2 -13 11 -23
c13 -16 19 -28 19 -42c0 -34 -28 -60 -68 -60c-41 0 -65 26 -65 68c0 80 78 126 191 126c122 0 196 -48 196 -134v-261c0 -17 7 -28 21 -28c5 0 8 1 11 4zM293 97v148c-80 -22 -122 -63 -122 -121c0 -44 22 -67 52 -67c24 0 48 9 70 40z" />
    <glyph glyph-name="uni0102" unicode="&#x102;" horiz-adv-x="722" 
d="M455 901h44c-7 -94 -53 -163 -152 -163c-100 0 -150 67 -151 163h44c12 -61 48 -87 102 -87c62 0 96 23 113 87zM689 0h-322v25l32 3c33 3 46 11 46 33s-12 57 -46 136h-225l-13 -34c-12 -31 -31 -73 -31 -97c0 -26 22 -37 81 -41v-25h-202v25c46 8 61 26 99 120l221 545
h28l222 -522c51 -121 69 -143 110 -143v-25zM384 236l-101 243l-94 -243h195z" />
    <glyph glyph-name="uni0103" unicode="&#x103;" horiz-adv-x="500" 
d="M351 691h44c-7 -94 -53 -163 -152 -163c-100 0 -150 67 -151 163h44c12 -61 48 -87 102 -87c62 0 96 23 113 87zM473 64l15 -21c-38 -41 -69 -57 -112 -57c-49 0 -71 18 -82 69c-55 -50 -101 -69 -159 -69c-64 0 -110 32 -110 106c0 44 22 82 67 112c38 25 85 43 201 76
v68c0 64 -22 93 -81 93c-36 0 -65 -13 -65 -37c0 -6 2 -13 11 -23c13 -16 19 -28 19 -42c0 -34 -28 -60 -68 -60c-41 0 -65 26 -65 68c0 80 78 126 191 126c122 0 196 -48 196 -134v-261c0 -17 7 -28 21 -28c5 0 8 1 11 4zM293 97v148c-80 -22 -122 -63 -122 -121
c0 -44 22 -67 52 -67c24 0 48 9 70 40z" />
    <glyph glyph-name="uni0104" unicode="&#x104;" horiz-adv-x="722" 
d="M560 0h-193v25l32 3c33 3 46 11 46 33s-12 57 -46 136h-225l-13 -34c-12 -31 -31 -73 -31 -97c0 -26 22 -37 81 -41v-25h-202v25c46 8 61 26 99 120l221 545h28l222 -522c51 -121 69 -143 110 -143v-25h-99c-1 -2 -2 -5 -3 -8c-9 -32 -11 -49 -11 -64
c0 -47 18 -64 61 -64c16 0 28 3 48 13c8 4 10 6 13 8l23 -16c-25 -46 -79 -74 -126 -74c-62 0 -103 31 -103 78c0 38 13 63 54 111c8 10 10 11 14 16zM384 236l-101 243l-94 -243h195z" />
    <glyph glyph-name="uni0105" unicode="&#x105;" horiz-adv-x="500" 
d="M546 -115l23 -16c-25 -46 -79 -74 -126 -74c-62 0 -103 31 -103 78c0 38 13 63 54 111l3 3c-7 -1 -14 -1 -21 -1c-49 0 -71 18 -82 69c-55 -50 -101 -69 -159 -69c-64 0 -110 32 -110 106c0 44 22 82 67 112c38 25 85 43 201 76v68c0 64 -22 93 -81 93
c-36 0 -65 -13 -65 -37c0 -6 2 -13 11 -23c13 -16 19 -28 19 -42c0 -34 -28 -60 -68 -60c-41 0 -65 26 -65 68c0 80 78 126 191 126c122 0 196 -48 196 -134v-261c0 -17 7 -28 21 -28c5 0 8 1 11 4l10 10l15 -21c-17 -19 -33 -32 -50 -42c-1 -2 -2 -5 -3 -9
c-9 -32 -11 -49 -11 -64c0 -47 18 -64 61 -64c16 0 28 3 48 13c8 4 10 6 13 8zM293 97v148c-80 -22 -122 -63 -122 -121c0 -44 22 -67 52 -67c24 0 48 9 70 40z" />
    <glyph glyph-name="uni0106" unicode="&#x106;" horiz-adv-x="722" 
d="M316 738l137 157c17 19 33 28 53 28c29 0 48 -18 48 -44c0 -23 -8 -33 -40 -53l-142 -88h-56zM657 152l30 -25c-93 -115 -173 -146 -288 -146c-215 0 -350 147 -350 342c0 212 143 368 347 368c48 0 98 -11 156 -35c23 -10 36 -14 46 -14c19 0 29 10 44 46h27v-235h-25
c-19 54 -43 87 -67 115c-46 55 -100 90 -167 90c-105 0 -184 -113 -184 -313c0 -101 12 -174 54 -240c29 -46 88 -76 147 -76c44 0 86 12 126 34c32 18 60 43 104 89z" />
    <glyph glyph-name="uni0107" unicode="&#x107;" horiz-adv-x="444" 
d="M162 528l137 157c17 19 33 28 53 28c29 0 48 -18 48 -44c0 -23 -8 -33 -40 -53l-142 -88h-56zM412 109l18 -18c-55 -75 -111 -105 -191 -105c-125 0 -214 93 -214 236c0 149 104 251 237 251c87 0 154 -46 154 -110c0 -39 -26 -64 -68 -64c-34 0 -56 25 -56 73
c0 47 0 70 -42 70c-49 0 -84 -60 -84 -169c0 -136 52 -220 139 -220c41 0 70 14 107 56z" />
    <glyph glyph-name="uni0108" unicode="&#x108;" horiz-adv-x="722" 
d="M539 738h-57l-112 98l-112 -98h-56l122 176h92zM657 152l30 -25c-93 -115 -173 -146 -288 -146c-215 0 -350 147 -350 342c0 212 143 368 347 368c48 0 98 -11 156 -35c23 -10 36 -14 46 -14c19 0 29 10 44 46h27v-235h-25c-19 54 -43 87 -67 115c-46 55 -100 90 -167 90
c-105 0 -184 -113 -184 -313c0 -101 12 -174 54 -240c29 -46 88 -76 147 -76c44 0 86 12 126 34c32 18 60 43 104 89z" />
    <glyph glyph-name="uni0109" unicode="&#x109;" horiz-adv-x="444" 
d="M399 528h-57l-112 98l-112 -98h-56l122 176h92zM412 109l18 -18c-55 -75 -111 -105 -191 -105c-125 0 -214 93 -214 236c0 149 104 251 237 251c87 0 154 -46 154 -110c0 -39 -26 -64 -68 -64c-34 0 -56 25 -56 73c0 47 0 70 -42 70c-49 0 -84 -60 -84 -169
c0 -136 52 -220 139 -220c41 0 70 14 107 56z" />
    <glyph glyph-name="uni010A" unicode="&#x10a;" horiz-adv-x="722" 
d="M435 810c0 -35 -29 -63 -66 -63c-35 0 -63 29 -63 65c0 35 29 64 64 64s65 -30 65 -66zM657 152l30 -25c-93 -115 -173 -146 -288 -146c-215 0 -350 147 -350 342c0 212 143 368 347 368c48 0 98 -11 156 -35c23 -10 36 -14 46 -14c19 0 29 10 44 46h27v-235h-25
c-19 54 -43 87 -67 115c-46 55 -100 90 -167 90c-105 0 -184 -113 -184 -313c0 -101 12 -174 54 -240c29 -46 88 -76 147 -76c44 0 86 12 126 34c32 18 60 43 104 89z" />
    <glyph glyph-name="uni010B" unicode="&#x10b;" horiz-adv-x="444" 
d="M305 600c0 -35 -29 -63 -66 -63c-35 0 -63 29 -63 65c0 35 29 64 64 64s65 -30 65 -66zM412 109l18 -18c-55 -75 -111 -105 -191 -105c-125 0 -214 93 -214 236c0 149 104 251 237 251c87 0 154 -46 154 -110c0 -39 -26 -64 -68 -64c-34 0 -56 25 -56 73
c0 47 0 70 -42 70c-49 0 -84 -60 -84 -169c0 -136 52 -220 139 -220c41 0 70 14 107 56z" />
    <glyph glyph-name="uni010C" unicode="&#x10c;" horiz-adv-x="722" 
d="M564 914l-123 -176h-92l-122 176h57l111 -99l111 99h58zM657 152l30 -25c-93 -115 -173 -146 -288 -146c-215 0 -350 147 -350 342c0 212 143 368 347 368c48 0 98 -11 156 -35c23 -10 36 -14 46 -14c19 0 29 10 44 46h27v-235h-25c-19 54 -43 87 -67 115
c-46 55 -100 90 -167 90c-105 0 -184 -113 -184 -313c0 -101 12 -174 54 -240c29 -46 88 -76 147 -76c44 0 86 12 126 34c32 18 60 43 104 89z" />
    <glyph glyph-name="uni010D" unicode="&#x10d;" horiz-adv-x="444" 
d="M416 704l-123 -176h-92l-122 176h57l111 -99l111 99h58zM412 109l18 -18c-55 -75 -111 -105 -191 -105c-125 0 -214 93 -214 236c0 149 104 251 237 251c87 0 154 -46 154 -110c0 -39 -26 -64 -68 -64c-34 0 -56 25 -56 73c0 47 0 70 -42 70c-49 0 -84 -60 -84 -169
c0 -136 52 -220 139 -220c41 0 70 14 107 56z" />
    <glyph glyph-name="uni010E" unicode="&#x10e;" horiz-adv-x="722" 
d="M484 914l-123 -176h-92l-122 176h57l111 -99l111 99h58zM14 676h312c228 0 364 -125 364 -331c0 -103 -43 -201 -115 -264c-61 -53 -151 -81 -252 -81h-309v25c58 2 83 25 83 73v486c0 46 -19 61 -83 67v25zM259 598v-498c0 -45 13 -65 58 -65c66 0 115 24 149 72
c31 45 50 135 50 223c0 86 -12 160 -41 211c-38 66 -88 101 -163 101c-39 0 -53 -16 -53 -44z" />
    <glyph glyph-name="uni010F" unicode="&#x10f;" horiz-adv-x="680" 
d="M544 374l-11 22c75 52 109 94 109 133c0 12 -8 21 -19 21c-7 0 -14 -2 -24 -2c-43 0 -73 30 -73 76c0 52 34 85 84 85c63 0 100 -45 100 -116c0 -86 -50 -158 -166 -219zM534 20l-62 -8c-62 -8 -87 -12 -133 -25v65c-47 -50 -80 -66 -133 -66c-105 0 -181 98 -181 235
c0 145 82 252 192 252c46 0 76 -16 119 -62v183c0 46 -9 53 -76 58v24h215v-575c0 -42 13 -55 59 -58v-23zM336 112v243c-15 38 -45 62 -78 62c-58 0 -85 -59 -85 -188c0 -127 25 -187 78 -187c23 0 46 12 66 37c10 13 19 28 19 33z" />
    <glyph glyph-name="uni0110" unicode="&#x110;" horiz-adv-x="722" 
d="M14 676h305c232 0 371 -125 371 -331c0 -96 -32 -182 -90 -241c-63 -66 -163 -104 -270 -104h-316v25c58 2 83 22 83 66v235h-91v47h91v211c0 46 -19 61 -83 67v25zM259 326v-233c0 -45 13 -58 58 -58c66 0 115 24 149 72c31 45 50 130 50 223c0 86 -14 159 -42 212
c-36 67 -85 100 -155 100c-48 0 -60 -10 -60 -47v-222h114v-47h-114z" />
    <glyph glyph-name="uni0111" unicode="&#x111;" horiz-adv-x="556" 
d="M534 20l-62 -8c-62 -8 -87 -12 -133 -25v65c-47 -50 -80 -66 -133 -66c-105 0 -181 98 -181 235c0 145 82 252 192 252c46 0 76 -16 119 -62v106h-178v50h178v27c0 46 -9 53 -76 58v24h215v-109h53v-50h-53v-416c0 -42 13 -55 59 -58v-23zM336 112v243
c-15 38 -45 62 -78 62c-58 0 -85 -59 -85 -188c0 -127 25 -186 78 -186c23 0 46 11 66 36c10 13 19 28 19 33z" />
    <glyph glyph-name="uni0112" unicode="&#x112;" horiz-adv-x="667" 
d="M490 738h-330v72h330v-72zM641 208l-40 -208h-585v25c74 8 88 24 88 76v479c0 51 -19 67 -88 71v25h577v-201h-25c-23 134 -74 167 -237 167c-52 0 -65 -16 -65 -54v-225c106 1 150 33 162 149h26v-338h-26c-10 119 -53 155 -162 155v-242c0 -43 18 -56 83 -56
c78 0 135 15 182 54c34 28 52 58 82 123h28z" />
    <glyph glyph-name="uni0113" unicode="&#x113;" horiz-adv-x="444" 
d="M395 528h-330v72h330v-72zM403 126l24 -14c-60 -95 -113 -126 -198 -126c-121 0 -204 101 -204 238c0 149 84 249 209 249c58 0 99 -18 128 -50c37 -41 55 -104 59 -178h-252c6 -95 21 -187 119 -187c43 0 74 19 115 68zM298 282v21c0 52 0 73 -9 92
c-14 30 -26 47 -55 47c-46 0 -70 -40 -70 -160h134z" />
    <glyph glyph-name="uni0114" unicode="&#x114;" horiz-adv-x="667" 
d="M433 901h44c-7 -94 -53 -163 -152 -163c-100 0 -150 67 -151 163h44c12 -61 48 -87 102 -87c62 0 96 23 113 87zM641 208l-40 -208h-585v25c74 8 88 24 88 76v479c0 51 -19 67 -88 71v25h577v-201h-25c-23 134 -74 167 -237 167c-52 0 -65 -16 -65 -54v-225
c106 1 150 33 162 149h26v-338h-26c-10 119 -53 155 -162 155v-242c0 -43 18 -56 83 -56c78 0 135 15 182 54c34 28 52 58 82 123h28z" />
    <glyph glyph-name="uni0115" unicode="&#x115;" horiz-adv-x="444" 
d="M338 691h44c-7 -94 -53 -163 -152 -163c-100 0 -150 67 -151 163h44c12 -61 48 -87 102 -87c62 0 96 23 113 87zM403 126l24 -14c-60 -95 -113 -126 -198 -126c-121 0 -204 101 -204 238c0 149 84 249 209 249c58 0 99 -18 128 -50c37 -41 55 -104 59 -178h-252
c6 -95 21 -187 119 -187c43 0 74 19 115 68zM298 282v21c0 52 0 73 -9 92c-14 30 -26 47 -55 47c-46 0 -70 -40 -70 -160h134z" />
    <glyph glyph-name="uni0116" unicode="&#x116;" horiz-adv-x="667" 
d="M395 810c0 -35 -29 -63 -66 -63c-35 0 -63 29 -63 65c0 35 29 64 64 64s65 -30 65 -66zM641 208l-40 -208h-585v25c74 8 88 24 88 76v479c0 51 -19 67 -88 71v25h577v-201h-25c-23 134 -74 167 -237 167c-52 0 -65 -16 -65 -54v-225c106 1 150 33 162 149h26v-338h-26
c-10 119 -53 155 -162 155v-242c0 -43 18 -56 83 -56c78 0 135 15 182 54c34 28 52 58 82 123h28z" />
    <glyph glyph-name="uni0117" unicode="&#x117;" horiz-adv-x="444" 
d="M295 600c0 -35 -29 -63 -66 -63c-35 0 -63 29 -63 65c0 35 29 64 64 64s65 -30 65 -66zM403 126l24 -14c-60 -95 -113 -126 -198 -126c-121 0 -204 101 -204 238c0 149 84 249 209 249c58 0 99 -18 128 -50c37 -41 55 -104 59 -178h-252c6 -95 21 -187 119 -187
c43 0 74 19 115 68zM298 282v21c0 52 0 73 -9 92c-14 30 -26 47 -55 47c-46 0 -70 -40 -70 -160h134z" />
    <glyph glyph-name="uni0118" unicode="&#x118;" horiz-adv-x="667" 
d="M407 0h-391v25c74 8 88 24 88 76v479c0 51 -19 67 -88 71v25h577v-201h-25c-23 134 -74 167 -237 167c-52 0 -65 -16 -65 -54v-225c106 1 150 33 162 149h26v-338h-26c-10 119 -53 155 -162 155v-242c0 -43 18 -56 83 -56c78 0 135 15 182 54c34 28 52 58 82 123h28
l-40 -208h-164c-1 -2 -2 -5 -3 -8c-9 -32 -11 -49 -11 -64c0 -47 18 -64 61 -64c16 0 28 3 48 13c8 4 10 6 13 8l23 -16c-25 -46 -79 -74 -126 -74c-62 0 -103 31 -103 78c0 38 13 63 54 111c8 10 10 11 14 16z" />
    <glyph glyph-name="uni0119" unicode="&#x119;" horiz-adv-x="444" 
d="M412 -115l23 -16c-25 -46 -79 -74 -126 -74c-62 0 -103 31 -103 78c0 38 13 63 54 111c1 1 2 3 3 4c-11 -1 -22 -2 -34 -2c-121 0 -204 101 -204 238c0 149 84 249 209 249c58 0 99 -18 128 -50c37 -41 55 -104 59 -178h-252c6 -95 21 -187 119 -187c43 0 74 19 115 68
l24 -14c-41 -64 -78 -99 -124 -115c-1 -2 -1 -3 -2 -5c-9 -32 -11 -49 -11 -64c0 -47 18 -64 61 -64c16 0 28 3 48 13c8 4 10 6 13 8zM298 282v21c0 52 0 73 -9 92c-14 30 -26 47 -55 47c-46 0 -70 -40 -70 -160h134z" />
    <glyph glyph-name="uni011A" unicode="&#x11a;" horiz-adv-x="667" 
d="M509 914l-123 -176h-92l-122 176h57l111 -99l111 99h58zM641 208l-40 -208h-585v25c74 8 88 24 88 76v479c0 51 -19 67 -88 71v25h577v-201h-25c-23 134 -74 167 -237 167c-52 0 -65 -16 -65 -54v-225c106 1 150 33 162 149h26v-338h-26c-10 119 -53 155 -162 155v-242
c0 -43 18 -56 83 -56c78 0 135 15 182 54c34 28 52 58 82 123h28z" />
    <glyph glyph-name="uni011B" unicode="&#x11b;" horiz-adv-x="444" 
d="M402 704l-123 -176h-92l-122 176h57l111 -99l111 99h58zM403 126l24 -14c-60 -95 -113 -126 -198 -126c-121 0 -204 101 -204 238c0 149 84 249 209 249c58 0 99 -18 128 -50c37 -41 55 -104 59 -178h-252c6 -95 21 -187 119 -187c43 0 74 19 115 68zM298 282v21
c0 52 0 73 -9 92c-14 30 -26 47 -55 47c-46 0 -70 -40 -70 -160h134z" />
    <glyph glyph-name="uni011C" unicode="&#x11c;" horiz-adv-x="778" 
d="M569 738h-57l-112 98l-112 -98h-56l122 176h92zM755 287v-25c-75 -8 -86 -37 -86 -100v-118c-65 -38 -173 -63 -277 -63c-201 0 -355 136 -355 350c0 199 148 360 348 360c52 0 97 -11 155 -35c23 -10 36 -14 46 -14c19 0 29 10 44 46h27v-235h-25
c-35 76 -53 111 -96 149s-91 56 -138 56c-116 0 -184 -113 -184 -320c0 -103 15 -182 48 -237c35 -58 78 -87 155 -87c71 0 96 34 96 85v89c0 52 -16 69 -102 74v25h344z" />
    <glyph glyph-name="uni011D" unicode="&#x11d;" horiz-adv-x="500" 
d="M419 528h-57l-112 98l-112 -98h-56l122 176h92zM254 68h52c108 0 177 -46 177 -120c0 -94 -94 -154 -261 -154c-126 0 -194 32 -194 92c0 41 33 66 96 75c-64 23 -82 45 -82 82c0 59 39 94 119 117c-71 20 -124 76 -124 152c0 99 84 161 203 161c40 0 68 -6 112 -22h129
v-53h-80c28 -25 40 -58 40 -98c0 -63 -31 -107 -92 -132c-33 -14 -36 -14 -127 -14c-39 0 -69 -19 -69 -49c0 -27 21 -37 101 -37zM306 312c0 93 -19 130 -67 130c-47 0 -65 -33 -65 -131c0 -93 18 -129 66 -129s66 36 66 130zM315 -52h-164c-28 -23 -35 -34 -35 -55
c0 -44 46 -67 134 -67c99 0 154 28 154 66c0 34 -24 56 -89 56z" />
    <glyph glyph-name="uni011E" unicode="&#x11e;" horiz-adv-x="778" 
d="M501 901h44c-7 -94 -53 -163 -152 -163c-100 0 -150 67 -151 163h44c12 -61 48 -87 102 -87c62 0 96 23 113 87zM755 287v-25c-75 -8 -86 -37 -86 -100v-118c-65 -38 -173 -63 -277 -63c-201 0 -355 136 -355 350c0 199 148 360 348 360c52 0 97 -11 155 -35
c23 -10 36 -14 46 -14c19 0 29 10 44 46h27v-235h-25c-35 76 -53 111 -96 149s-91 56 -138 56c-116 0 -184 -113 -184 -320c0 -103 15 -182 48 -237c35 -58 78 -87 155 -87c71 0 96 34 96 85v89c0 52 -16 69 -102 74v25h344z" />
    <glyph glyph-name="uni011F" unicode="&#x11f;" horiz-adv-x="500" 
d="M354 691h44c-7 -94 -53 -163 -152 -163c-100 0 -150 67 -151 163h44c12 -61 48 -87 102 -87c62 0 96 23 113 87zM254 68h52c108 0 177 -46 177 -120c0 -94 -94 -154 -261 -154c-126 0 -194 32 -194 92c0 41 33 66 96 75c-64 23 -82 45 -82 82c0 59 39 94 119 117
c-71 20 -124 76 -124 152c0 99 84 161 203 161c40 0 68 -6 112 -22h129v-53h-80c28 -25 40 -58 40 -98c0 -63 -31 -107 -92 -132c-33 -14 -36 -14 -127 -14c-39 0 -69 -19 -69 -49c0 -27 21 -37 101 -37zM306 312c0 93 -19 130 -67 130c-47 0 -65 -33 -65 -131
c0 -93 18 -129 66 -129s66 36 66 130zM315 -52h-164c-28 -23 -35 -34 -35 -55c0 -44 46 -67 134 -67c99 0 154 28 154 66c0 34 -24 56 -89 56z" />
    <glyph glyph-name="uni0120" unicode="&#x120;" horiz-adv-x="778" 
d="M465 810c0 -35 -29 -63 -66 -63c-35 0 -63 29 -63 65c0 35 29 64 64 64s65 -30 65 -66zM755 287v-25c-75 -8 -86 -37 -86 -100v-118c-65 -38 -173 -63 -277 -63c-201 0 -355 136 -355 350c0 199 148 360 348 360c52 0 97 -11 155 -35c23 -10 36 -14 46 -14
c19 0 29 10 44 46h27v-235h-25c-35 76 -53 111 -96 149s-91 56 -138 56c-116 0 -184 -113 -184 -320c0 -103 15 -182 48 -237c35 -58 78 -87 155 -87c71 0 96 34 96 85v89c0 52 -16 69 -102 74v25h344z" />
    <glyph glyph-name="uni0121" unicode="&#x121;" horiz-adv-x="500" 
d="M315 600c0 -35 -29 -63 -66 -63c-35 0 -63 29 -63 65c0 35 29 64 64 64s65 -30 65 -66zM254 68h52c108 0 177 -46 177 -120c0 -94 -94 -154 -261 -154c-126 0 -194 32 -194 92c0 41 33 66 96 75c-64 23 -82 45 -82 82c0 59 39 94 119 117c-71 20 -124 76 -124 152
c0 99 84 161 203 161c40 0 68 -6 112 -22h129v-53h-80c28 -25 40 -58 40 -98c0 -63 -31 -107 -92 -132c-33 -14 -36 -14 -127 -14c-39 0 -69 -19 -69 -49c0 -27 21 -37 101 -37zM306 312c0 93 -19 130 -67 130c-47 0 -65 -33 -65 -131c0 -93 18 -129 66 -129s66 36 66 130z
M315 -52h-164c-28 -23 -35 -34 -35 -55c0 -44 46 -67 134 -67c99 0 154 28 154 66c0 34 -24 56 -89 56z" />
    <glyph glyph-name="uni0122" unicode="&#x122;" horiz-adv-x="778" 
d="M755 287v-25c-75 -8 -86 -37 -86 -100v-118c-65 -38 -173 -63 -277 -63c-201 0 -355 136 -355 350c0 199 148 360 348 360c52 0 97 -11 155 -35c23 -10 36 -14 46 -14c19 0 29 10 44 46h27v-235h-25c-35 76 -53 111 -96 149s-91 56 -138 56c-116 0 -184 -113 -184 -320
c0 -103 15 -182 48 -237c35 -58 78 -87 155 -87c71 0 96 34 96 85v89c0 52 -16 69 -102 74v25h344zM317 -378l-11 22c75 52 109 94 109 133c0 12 -8 21 -19 21c-7 0 -14 -2 -24 -2c-43 0 -73 30 -73 76c0 52 34 85 84 85c63 0 100 -45 100 -116c0 -86 -50 -158 -166 -219z
" />
    <glyph glyph-name="uni0123" unicode="&#x123;" horiz-adv-x="500" 
d="M312 863l11 -22c-75 -52 -109 -94 -109 -133c0 -12 8 -21 19 -21c7 0 14 2 24 2c43 0 73 -30 73 -76c0 -52 -34 -85 -84 -85c-63 0 -100 45 -100 116c0 86 50 158 166 219zM254 68h52c108 0 177 -46 177 -120c0 -94 -94 -154 -261 -154c-126 0 -194 32 -194 92
c0 41 33 66 96 75c-64 23 -82 45 -82 82c0 59 39 94 119 117c-71 20 -124 76 -124 152c0 99 84 161 203 161c40 0 68 -6 112 -22h129v-53h-80c28 -25 40 -58 40 -98c0 -63 -31 -107 -92 -132c-33 -14 -36 -14 -127 -14c-39 0 -69 -19 -69 -49c0 -27 21 -37 101 -37zM306 312
c0 93 -19 130 -67 130c-47 0 -65 -33 -65 -131c0 -93 18 -129 66 -129s66 36 66 130zM315 -52h-164c-28 -23 -35 -34 -35 -55c0 -44 46 -67 134 -67c99 0 154 28 154 66c0 34 -24 56 -89 56z" />
    <glyph glyph-name="uni0124" unicode="&#x124;" horiz-adv-x="778" 
d="M557 738h-57l-112 98l-112 -98h-56l122 176h92zM759 0h-339v25c73 8 89 22 89 73v228h-241v-228c0 -53 16 -65 89 -73v-25h-336v25c70 9 85 20 85 73v479c0 55 -18 68 -85 74v25h336v-25c-70 -5 -89 -18 -89 -74v-204h241v204c0 56 -19 69 -89 74v25h339v-25
c-68 -5 -88 -20 -88 -74v-479c0 -53 16 -64 88 -73v-25z" />
    <glyph glyph-name="uni0125" unicode="&#x125;" horiz-adv-x="556" 
d="M419 738h-57l-112 98l-112 -98h-56l122 176h92zM534 0h-234v24c34 4 46 20 46 61v224c0 71 -12 97 -51 97c-24 0 -48 -12 -70 -34c-10 -10 -17 -20 -17 -24v-263c0 -41 11 -56 48 -61v-24h-240v24c45 9 53 9 53 65v502c0 48 -8 52 -54 61v24h193v-280c49 58 94 77 147 77
c82 0 130 -57 130 -136v-250c0 -46 14 -63 49 -63v-24z" />
    <glyph glyph-name="uni0126" unicode="&#x126;" horiz-adv-x="778" 
d="M759 0h-339v25c73 8 89 22 89 73v228h-241v-228c0 -53 16 -65 89 -73v-25h-336v25c70 9 85 20 85 73v395h-85v47h85v37c0 55 -18 68 -85 74v25h336v-25c-70 -5 -89 -18 -89 -74v-37h241v37c0 56 -19 69 -89 74v25h339v-25c-68 -5 -88 -20 -88 -74v-37h88v-47h-88v-395
c0 -53 16 -64 88 -73v-25zM509 373v120h-241v-120h241z" />
    <glyph glyph-name="uni0127" unicode="&#x127;" horiz-adv-x="556" 
d="M534 0h-234v24c34 4 46 20 46 61v224c0 71 -12 97 -51 97c-24 0 -48 -12 -70 -34c-10 -10 -17 -20 -17 -24v-263c0 -41 11 -56 48 -61v-24h-240v24c45 9 53 9 53 65v425h-54v44h54v33c0 48 -8 52 -54 61v24h193v-118h158v-44h-158v-118c49 58 94 77 147 77
c82 0 130 -57 130 -136v-250c0 -46 14 -63 49 -63v-24z" />
    <glyph glyph-name="uni0128" unicode="&#x128;" horiz-adv-x="389" 
d="M336 884h43c-23 -87 -60 -127 -116 -127c-21 0 -46 6 -65 14l-29 13c-44 20 -51 22 -64 22c-26 0 -45 -19 -49 -47h-42c18 86 54 125 116 125c21 0 44 -6 73 -19l40 -18c25 -11 28 -12 39 -12c27 0 41 13 54 49zM370 0h-350v25c75 7 93 19 93 81v470c0 56 -21 70 -93 75
v25h350v-25c-74 -3 -95 -19 -95 -75v-470c0 -65 19 -76 95 -81v-25z" />
    <glyph glyph-name="uni0129" unicode="&#x129;" horiz-adv-x="278" 
d="M275 674h43c-23 -87 -60 -127 -116 -127c-21 0 -46 6 -65 14l-29 13c-44 20 -51 22 -64 22c-26 0 -45 -19 -49 -47h-42c18 86 54 125 116 125c21 0 44 -6 73 -19l40 -18c25 -11 28 -12 39 -12c27 0 41 13 54 49zM256 0h-240v24c46 11 53 18 53 64v285c0 45 -10 55 -54 64
v24h193v-376c0 -43 13 -56 48 -61v-24z" />
    <glyph glyph-name="uni012A" unicode="&#x12a;" horiz-adv-x="389" 
d="M359 738h-330v72h330v-72zM370 0h-350v25c75 7 93 19 93 81v470c0 56 -21 70 -93 75v25h350v-25c-74 -3 -95 -19 -95 -75v-470c0 -65 19 -76 95 -81v-25z" />
    <glyph glyph-name="uni012B" unicode="&#x12b;" horiz-adv-x="278" 
d="M305 528h-330v72h330v-72zM256 0h-240v24c46 11 53 18 53 64v285c0 45 -10 55 -54 64v24h193v-376c0 -43 13 -56 48 -61v-24z" />
    <glyph glyph-name="uni012C" unicode="&#x12c;" horiz-adv-x="389" 
d="M298 900h44c-7 -94 -53 -163 -152 -163c-100 0 -150 67 -151 163h44c12 -61 48 -87 102 -87c62 0 96 23 113 87zM370 0h-350v25c75 7 93 19 93 81v470c0 56 -21 70 -93 75v25h350v-25c-74 -3 -95 -19 -95 -75v-470c0 -65 19 -76 95 -81v-25z" />
    <glyph glyph-name="uni012D" unicode="&#x12d;" horiz-adv-x="278" 
d="M248 691h44c-7 -94 -53 -163 -152 -163c-100 0 -150 67 -151 163h44c12 -61 48 -87 102 -87c62 0 96 23 113 87zM256 0h-240v24c46 11 53 18 53 64v285c0 45 -10 55 -54 64v24h193v-376c0 -43 13 -56 48 -61v-24z" />
    <glyph glyph-name="uni012E" unicode="&#x12e;" horiz-adv-x="389" 
d="M228 0h-208v25c75 7 93 19 93 81v470c0 56 -21 70 -93 75v25h350v-25c-74 -3 -95 -19 -95 -75v-470c0 -65 19 -76 95 -81v-25h-112c-1 -2 -2 -5 -3 -8c-9 -32 -11 -49 -11 -64c0 -47 18 -64 61 -64c16 0 28 3 48 13c8 4 10 6 13 8l23 -16c-25 -46 -79 -74 -126 -74
c-62 0 -103 31 -103 78c0 38 13 63 54 111c8 10 10 11 14 16z" />
    <glyph glyph-name="uni012F" unicode="&#x12f;" horiz-adv-x="278" 
d="M160 0h-144v24c46 11 53 18 53 64v285c0 45 -10 55 -54 64v24h193v-376c0 -43 13 -56 48 -61v-24h-66c-1 -2 -2 -5 -3 -8c-9 -32 -11 -49 -11 -64c0 -47 18 -64 61 -64c16 0 28 3 48 13c8 4 10 6 13 8l23 -16c-25 -46 -79 -74 -126 -74c-62 0 -103 31 -103 78
c0 38 13 63 54 111c8 10 10 11 14 16zM215 613c0 -44 -34 -77 -78 -77s-77 33 -77 77s34 78 79 78c42 0 76 -35 76 -78z" />
    <glyph glyph-name="uni0130" unicode="&#x130;" horiz-adv-x="389" 
d="M259 810c0 -35 -29 -63 -66 -63c-35 0 -63 29 -63 65c0 35 29 64 64 64s65 -30 65 -66zM370 0h-350v25c75 7 93 19 93 81v470c0 56 -21 70 -93 75v25h350v-25c-74 -3 -95 -19 -95 -75v-470c0 -65 19 -76 95 -81v-25z" />
    <glyph glyph-name="dotlessi" unicode="&#x131;" horiz-adv-x="278" 
d="M256 0h-240v24c46 11 53 18 53 64v285c0 45 -10 55 -54 64v24h193v-376c0 -43 13 -56 48 -61v-24z" />
    <glyph glyph-name="uni0134" unicode="&#x134;" horiz-adv-x="500" 
d="M479 738h-57l-112 98l-112 -98h-56l122 176h92zM478 676v-25c-75 -5 -88 -23 -88 -95v-430c0 -151 -73 -222 -212 -222c-40 0 -83 6 -108 23c-37 25 -67 68 -67 110c0 37 34 74 71 74c38 0 72 -36 72 -76c0 -30 -27 -40 -27 -66c0 -20 17 -32 45 -32c46 0 64 28 64 90
v550c0 58 -20 71 -101 74v25h351z" />
    <glyph glyph-name="uni0135" unicode="&#x135;" horiz-adv-x="333" 
d="M335 528h-57l-112 98l-112 -98h-56l122 176h92zM260 461v-459c0 -59 -8 -97 -27 -129c-28 -49 -81 -76 -150 -76c-82 0 -140 41 -140 100c0 36 25 61 62 61c33 0 59 -24 59 -54c0 -10 -4 -22 -14 -37c-6 -10 -9 -17 -9 -22c0 -10 13 -17 32 -17c34 0 48 23 48 76v474
c0 43 -12 55 -63 59v24h202z" />
    <glyph glyph-name="uni0136" unicode="&#x136;" horiz-adv-x="778" 
d="M769 0h-334v25c65 2 77 8 77 21c0 11 -6 21 -25 45l-181 225l-27 -25v-196c0 -49 15 -61 87 -70v-25h-336v25c74 7 87 19 87 76v472c0 62 -18 74 -87 78v25h337v-25c-74 -5 -88 -23 -88 -84v-223l212 215c31 31 40 42 40 58c0 20 -12 28 -48 31l-35 3v25h289v-25
c-99 -12 -136 -29 -322 -227l305 -378c12 -15 24 -20 49 -21v-25zM291 -378l-11 22c75 52 109 94 109 133c0 12 -8 21 -19 21c-7 0 -14 -2 -24 -2c-43 0 -73 30 -73 76c0 52 34 85 84 85c63 0 100 -45 100 -116c0 -86 -50 -158 -166 -219z" />
    <glyph glyph-name="uni0137" unicode="&#x137;" horiz-adv-x="556" 
d="M543 0h-234v24c28 1 42 7 42 19c0 8 -6 20 -24 45l-95 134l-23 -24v-114c0 -47 5 -53 52 -60v-24h-239v24c33 3 48 21 48 60v510c0 38 -14 55 -48 58v24h187v-431l128 128c11 11 21 29 21 38c0 13 -9 19 -35 23l-24 4v23h214v-23c-63 -8 -89 -26 -189 -131l194 -268
c9 -12 14 -15 25 -15v-24zM202 -378l-11 22c75 52 109 94 109 133c0 12 -8 21 -19 21c-7 0 -14 -2 -24 -2c-43 0 -73 30 -73 76c0 52 34 85 84 85c63 0 100 -45 100 -116c0 -86 -50 -158 -166 -219z" />
    <glyph glyph-name="uni0138" unicode="&#x138;" horiz-adv-x="600" 
d="M627 0h-168c-27 3 -62 36 -89 76c-24 36 -26 53 -59 103c-22 34 -50 47 -71 54c-5 -1 -10 -1 -27 -1v-145c0 -42 0 -61 51 -63v-24h-245v24c33 8 51 18 51 62v305c0 43 -18 53 -51 55v24h245v-24c-40 -6 -51 -12 -51 -56v-108c17 0 30 2 41 4c50 14 74 19 92 31
c28 20 47 46 64 88c20 50 45 65 99 65c42 0 80 -23 80 -56c0 -26 -21 -42 -49 -42c-45 0 -44 40 -66 40c-17 0 -23 -8 -30 -28c-17 -49 -45 -88 -77 -112c11 -4 26 -13 42 -34c21 -28 67 -109 87 -138c32 -47 60 -69 131 -76v-24z" />
    <glyph glyph-name="uni0139" unicode="&#x139;" horiz-adv-x="667" 
d="M158 738l137 157c17 19 33 28 53 28c29 0 48 -18 48 -44c0 -23 -8 -33 -40 -53l-142 -88h-56zM638 227l-42 -227h-577v25c73 9 86 20 86 73v478c0 57 -18 71 -86 75v25h348v-24c-87 -4 -100 -17 -100 -99v-464c0 -43 20 -58 85 -58c83 0 129 18 170 55
c34 31 60 79 87 141h29z" />
    <glyph glyph-name="uni013A" unicode="&#x13a;" horiz-adv-x="278" 
d="M22 738l137 157c17 19 33 28 53 28c29 0 48 -18 48 -44c0 -23 -8 -33 -40 -53l-142 -88h-56zM256 0h-240v24c34 3 51 19 51 63v500c0 37 -17 62 -52 65v24h191v-589c0 -46 17 -62 50 -63v-24z" />
    <glyph glyph-name="uni013B" unicode="&#x13b;" horiz-adv-x="667" 
d="M638 227l-42 -227h-577v25c73 9 86 20 86 73v478c0 57 -18 71 -86 75v25h348v-24c-87 -4 -100 -17 -100 -99v-464c0 -43 20 -58 85 -58c83 0 129 18 170 55c34 31 60 79 87 141h29zM256 -378l-11 22c75 52 109 94 109 133c0 12 -8 21 -19 21c-7 0 -14 -2 -24 -2
c-43 0 -73 30 -73 76c0 52 34 85 84 85c63 0 100 -45 100 -116c0 -86 -50 -158 -166 -219z" />
    <glyph glyph-name="uni013C" unicode="&#x13c;" horiz-adv-x="278" 
d="M256 0h-240v24c34 3 51 19 51 63v500c0 37 -17 62 -52 65v24h191v-589c0 -46 17 -62 50 -63v-24zM66 -378l-11 22c75 52 109 94 109 133c0 12 -8 21 -19 21c-7 0 -14 -2 -24 -2c-43 0 -73 30 -73 76c0 52 34 85 84 85c63 0 100 -45 100 -116c0 -86 -50 -158 -166 -219z
" />
    <glyph glyph-name="uni013D" unicode="&#x13d;" horiz-adv-x="667" 
d="M447 356l-11 22c75 52 109 94 109 133c0 12 -8 21 -19 21c-7 0 -14 -2 -24 -2c-43 0 -73 30 -73 76c0 52 34 85 84 85c63 0 100 -45 100 -116c0 -86 -50 -158 -166 -219zM638 227l-42 -227h-577v25c73 9 86 20 86 73v478c0 57 -18 71 -86 75v25h348v-24
c-87 -4 -100 -17 -100 -99v-464c0 -43 20 -58 85 -58c83 0 129 18 170 55c34 31 60 79 87 141h29z" />
    <glyph glyph-name="uni013E" unicode="&#x13e;" horiz-adv-x="457" 
d="M276 374l-11 22c75 52 109 94 109 133c0 12 -8 21 -19 21c-7 0 -14 -2 -24 -2c-43 0 -73 30 -73 76c0 52 34 85 84 85c63 0 100 -45 100 -116c0 -86 -50 -158 -166 -219zM256 0h-240v24c34 3 51 19 51 63v500c0 37 -17 62 -52 65v24h191v-589c0 -46 17 -62 50 -63v-24z
" />
    <glyph glyph-name="uni013F" unicode="&#x13f;" horiz-adv-x="667" 
d="M535 323c0 -47 -37 -84 -85 -84s-84 36 -84 84c0 47 38 85 85 85c46 0 84 -39 84 -85zM638 227l-42 -227h-577v25c73 9 86 20 86 73v478c0 57 -18 71 -86 75v25h348v-24c-87 -4 -100 -17 -100 -99v-464c0 -43 20 -58 85 -58c83 0 129 18 170 55c34 31 60 79 87 141h29z
" />
    <glyph glyph-name="uni0140" unicode="&#x140;" horiz-adv-x="414" 
d="M441 340c0 -47 -37 -84 -85 -84s-84 36 -84 84c0 47 38 85 85 85c46 0 84 -39 84 -85zM256 0h-240v24c34 3 51 19 51 63v500c0 37 -17 62 -52 65v24h191v-589c0 -46 17 -62 50 -63v-24z" />
    <glyph glyph-name="Lslash" unicode="&#x141;" horiz-adv-x="667" 
d="M638 228l-42 -228h-577v25c74 6 86 20 86 75v187l-81 -49v61l81 49v225c0 61 -19 74 -87 78v25h349v-25c-80 -4 -100 -21 -100 -99v-109l123 76v-61l-123 -76v-292c0 -43 14 -59 79 -59c85 0 138 15 177 52c34 32 57 82 86 145h29z" />
    <glyph glyph-name="lslash" unicode="&#x142;" horiz-adv-x="278" 
d="M303 481l-97 -80v-312c0 -45 17 -64 50 -65v-24h-240v24c34 3 51 23 51 65v223l-89 -72v50l89 72v229c0 40 -17 58 -52 61v24h191v-225l97 80v-50z" />
    <glyph glyph-name="uni0143" unicode="&#x143;" horiz-adv-x="722" 
d="M294 738l137 157c17 19 33 28 53 28c29 0 48 -18 48 -44c0 -23 -8 -33 -40 -53l-142 -88h-56zM701 676v-25c-65 -10 -78 -20 -78 -83v-586h-28l-447 545v-396c0 -77 17 -97 94 -106v-25h-226v25c73 9 88 23 88 84v470c-42 58 -65 72 -85 72v25h211l349 -430v299
c0 80 -18 99 -92 106v25h214z" />
    <glyph glyph-name="uni0144" unicode="&#x144;" horiz-adv-x="556" 
d="M212 528l137 157c17 19 33 28 53 28c29 0 48 -18 48 -44c0 -23 -8 -33 -40 -53l-142 -88h-56zM539 0h-234v24c34 4 46 20 46 60v237c0 56 -17 85 -51 85c-24 0 -48 -12 -70 -34c-10 -10 -17 -20 -17 -24v-264c0 -37 11 -55 48 -60v-24h-240v24c45 9 53 21 53 63v289
c0 43 -9 54 -53 61v24h191v-75h1c34 60 82 87 142 87c82 0 135 -55 135 -142v-247c0 -45 10 -57 49 -60v-24z" />
    <glyph glyph-name="uni0145" unicode="&#x145;" horiz-adv-x="722" 
d="M701 676v-25c-65 -10 -78 -20 -78 -83v-586h-28l-447 545v-396c0 -77 17 -97 94 -106v-25h-226v25c73 9 88 23 88 84v470c-42 58 -65 72 -85 72v25h211l349 -430v299c0 80 -18 99 -92 106v25h214zM286 -378l-11 22c75 52 109 94 109 133c0 12 -8 21 -19 21
c-7 0 -14 -2 -24 -2c-43 0 -73 30 -73 76c0 52 34 85 84 85c63 0 100 -45 100 -116c0 -86 -50 -158 -166 -219z" />
    <glyph glyph-name="uni0146" unicode="&#x146;" horiz-adv-x="556" 
d="M539 0h-234v24c34 4 46 20 46 60v237c0 56 -17 85 -51 85c-24 0 -48 -12 -70 -34c-10 -10 -17 -20 -17 -24v-264c0 -37 11 -55 48 -60v-24h-240v24c45 9 53 21 53 63v289c0 43 -9 54 -53 61v24h191v-75h1c34 60 82 87 142 87c82 0 135 -55 135 -142v-247
c0 -45 10 -57 49 -60v-24zM206 -378l-11 22c75 52 109 94 109 133c0 12 -8 21 -19 21c-7 0 -14 -2 -24 -2c-43 0 -73 30 -73 76c0 52 34 85 84 85c63 0 100 -45 100 -116c0 -86 -50 -158 -166 -219z" />
    <glyph glyph-name="uni0147" unicode="&#x147;" horiz-adv-x="722" 
d="M535 914l-123 -176h-92l-122 176h57l111 -99l111 99h58zM701 676v-25c-65 -10 -78 -20 -78 -83v-586h-28l-447 545v-396c0 -77 17 -97 94 -106v-25h-226v25c73 9 88 23 88 84v470c-42 58 -65 72 -85 72v25h211l349 -430v299c0 80 -18 99 -92 106v25h214z" />
    <glyph glyph-name="uni0148" unicode="&#x148;" horiz-adv-x="556" 
d="M450 704l-123 -176h-92l-122 176h57l111 -99l111 99h58zM539 0h-234v24c34 4 46 20 46 60v237c0 56 -17 85 -51 85c-24 0 -48 -12 -70 -34c-10 -10 -17 -20 -17 -24v-264c0 -37 11 -55 48 -60v-24h-240v24c45 9 53 21 53 63v289c0 43 -9 54 -53 61v24h191v-75h1
c34 60 82 87 142 87c82 0 135 -55 135 -142v-247c0 -45 10 -57 49 -60v-24z" />
    <glyph glyph-name="uni0149" unicode="&#x149;" horiz-adv-x="705" 
d="M693 0h-234v24c34 4 46 20 46 60v237c0 56 -17 85 -51 85c-24 0 -48 -12 -70 -34c-10 -10 -17 -20 -17 -24v-264c0 -37 11 -55 48 -60v-24h-240v24c45 9 53 21 53 63v289c0 43 -9 54 -53 61v24h191v-75h1c34 60 82 87 142 87c82 0 135 -55 135 -142v-247
c0 -45 10 -57 49 -60v-24zM31 374l-11 22c75 52 109 94 109 133c0 12 -8 21 -19 21c-7 0 -14 -2 -24 -2c-43 0 -73 30 -73 76c0 52 34 85 84 85c63 0 100 -45 100 -116c0 -86 -50 -158 -166 -219z" />
    <glyph glyph-name="uni014A" unicode="&#x14a;" horiz-adv-x="732" 
d="M14 676h322c242 0 376 -142 376 -357c0 -211 -109 -415 -277 -415c-69 0 -134 58 -134 121c0 37 29 92 75 92c38 0 68 -35 68 -75c0 -42 -27 -40 -27 -66c0 -20 14 -39 42 -39c60 0 82 170 82 318c0 117 -26 234 -56 286c-38 66 -88 101 -163 101c-39 0 -63 -16 -63 -44
v-598h-245v25c58 2 83 25 83 73v486c0 46 -19 61 -83 67v25z" />
    <glyph glyph-name="uni014B" unicode="&#x14b;" horiz-adv-x="556" 
d="M490 331v-331c0 -59 -8 -97 -27 -129c-28 -49 -81 -76 -150 -76c-82 0 -140 41 -140 100c0 36 25 61 62 61c33 0 59 -24 59 -54c0 -10 -4 -22 -14 -37c-6 -10 -9 -12 -9 -22s13 -17 32 -17c34 0 48 23 48 76v419c0 56 -17 85 -51 85c-24 0 -48 -12 -70 -34
c-10 -10 -17 -20 -17 -24v-264c0 -37 11 -55 48 -60v-24h-240v24c45 9 53 21 53 63v289c0 43 -9 54 -53 61v24h191v-75h1c34 60 82 87 142 87c82 0 135 -55 135 -142z" />
    <glyph glyph-name="uni014C" unicode="&#x14c;" horiz-adv-x="778" 
d="M550 738h-330v72h330v-72zM743 335c0 -208 -148 -354 -355 -354s-353 146 -353 353c0 213 151 357 359 357c201 0 349 -149 349 -356zM566 328c0 213 -64 330 -181 330c-110 0 -173 -118 -173 -328c0 -211 64 -316 178 -316c115 0 176 108 176 314z" />
    <glyph glyph-name="uni014D" unicode="&#x14d;" horiz-adv-x="500" 
d="M415 528h-330v72h330v-72zM476 229c0 -141 -97 -243 -226 -243c-125 0 -225 100 -225 242c0 146 97 245 229 245c126 0 222 -102 222 -244zM329 218c0 171 -19 224 -78 224c-61 0 -79 -53 -79 -224c0 -145 21 -201 79 -201s78 52 78 201z" />
    <glyph glyph-name="uni014E" unicode="&#x14e;" horiz-adv-x="778" 
d="M498 901h44c-7 -94 -53 -163 -152 -163c-100 0 -150 67 -151 163h44c12 -61 48 -87 102 -87c62 0 96 23 113 87zM743 335c0 -208 -148 -354 -355 -354s-353 146 -353 353c0 213 151 357 359 357c201 0 349 -149 349 -356zM566 328c0 213 -64 330 -181 330
c-110 0 -173 -118 -173 -328c0 -211 64 -316 178 -316c115 0 176 108 176 314z" />
    <glyph glyph-name="uni014F" unicode="&#x14f;" horiz-adv-x="500" 
d="M358 691h44c-7 -94 -53 -163 -152 -163c-100 0 -150 67 -151 163h44c12 -61 48 -87 102 -87c62 0 96 23 113 87zM476 229c0 -141 -97 -243 -226 -243c-125 0 -225 100 -225 242c0 146 97 245 229 245c126 0 222 -102 222 -244zM329 218c0 171 -19 224 -78 224
c-61 0 -79 -53 -79 -224c0 -145 21 -201 79 -201s78 52 78 201z" />
    <glyph glyph-name="uni0150" unicode="&#x150;" horiz-adv-x="778" 
d="M370 738l136 157c17 19 34 28 54 28c29 0 48 -18 48 -44c0 -23 -8 -35 -40 -55l-141 -86h-57zM170 738l136 157c17 19 34 28 54 28c29 0 48 -18 48 -44c0 -23 -8 -35 -40 -55l-141 -86h-57zM743 335c0 -208 -148 -354 -355 -354s-353 146 -353 353c0 213 151 357 359 357
c201 0 349 -149 349 -356zM566 328c0 213 -64 330 -181 330c-110 0 -173 -118 -173 -328c0 -211 64 -316 178 -316c115 0 176 108 176 314z" />
    <glyph glyph-name="uni0151" unicode="&#x151;" horiz-adv-x="500" 
d="M238 528l136 157c17 19 34 28 54 28c29 0 48 -18 48 -44c0 -23 -8 -35 -40 -55l-141 -86h-57zM38 528l136 157c17 19 34 28 54 28c29 0 48 -18 48 -44c0 -23 -8 -35 -40 -55l-141 -86h-57zM476 229c0 -141 -97 -243 -226 -243c-125 0 -225 100 -225 242
c0 146 97 245 229 245c126 0 222 -102 222 -244zM329 218c0 171 -19 224 -78 224c-61 0 -79 -53 -79 -224c0 -145 21 -201 79 -201s78 52 78 201z" />
    <glyph glyph-name="OE" unicode="&#x152;" horiz-adv-x="1000" 
d="M981 211l-42 -211h-430c-48 0 -83 -1 -107 -3c-14 -1 -29 -2 -43 -2c-92 0 -170 25 -226 72c-71 60 -111 157 -111 267c0 123 50 228 137 289c54 38 130 61 202 61c15 0 69 -8 162 -8h417v-201h-26c-14 80 -31 113 -73 138c-30 18 -89 28 -161 28c-40 0 -53 -6 -53 -26
v-249c107 3 125 21 151 148h23v-338h-23c-15 119 -45 151 -151 157v-250c0 -38 14 -48 72 -48c75 0 125 15 168 50c35 29 55 58 87 126h27zM472 212v291c0 72 -4 98 -18 119c-14 20 -41 30 -77 30c-123 0 -185 -112 -185 -332c0 -91 16 -182 40 -224c27 -48 67 -69 134 -69
c44 0 70 10 86 32c16 21 20 54 20 153z" />
    <glyph glyph-name="oe" unicode="&#x153;" horiz-adv-x="722" 
d="M676 125l20 -16c-65 -93 -114 -123 -198 -123c-52 0 -85 14 -115 48c-40 -34 -80 -48 -138 -48c-132 0 -223 99 -223 243c0 142 94 244 226 244c54 0 90 -14 125 -49c48 37 78 49 129 49c75 0 131 -32 162 -92c19 -36 25 -68 29 -136h-249v-20c0 -106 37 -167 113 -167
c47 0 73 15 119 67zM571 282l-2 56c-3 75 -20 106 -60 106c-42 0 -65 -37 -65 -108v-54h127zM308 149v162c0 96 -19 133 -69 133c-55 0 -72 -46 -72 -195c0 -176 18 -233 75 -233c46 0 66 41 66 133z" />
    <glyph glyph-name="uni0154" unicode="&#x154;" horiz-adv-x="722" 
d="M251 738l137 157c17 19 33 28 53 28c29 0 48 -18 48 -44c0 -23 -8 -33 -40 -53l-142 -88h-56zM716 0h-205l-207 313h-28v-196c0 -73 10 -82 88 -92v-25h-338v25c78 9 88 16 88 95v431c0 78 -14 95 -88 100v25h308c195 0 296 -57 296 -172c0 -45 -16 -91 -45 -118
c-28 -25 -54 -41 -112 -57l199 -282c9 -13 26 -22 44 -22v-25zM276 597v-252c131 1 183 27 183 149c0 106 -37 148 -130 148c-39 0 -53 -12 -53 -45z" />
    <glyph glyph-name="uni0155" unicode="&#x155;" horiz-adv-x="444" 
d="M83 528l137 157c17 19 33 28 53 28c29 0 48 -18 48 -44c0 -23 -8 -33 -40 -53l-142 -88h-56zM218 461v-82c47 68 85 94 135 94c47 0 81 -33 81 -79c0 -40 -26 -68 -63 -68c-26 0 -43 10 -60 38c-11 18 -20 23 -28 23c-35 0 -61 -45 -61 -104v-177c0 -64 11 -78 72 -82
v-24h-265v24c44 8 54 19 54 60v289c0 47 -12 58 -55 64v24h190z" />
    <glyph glyph-name="uni0156" unicode="&#x156;" horiz-adv-x="722" 
d="M716 0h-205l-207 313h-28v-196c0 -73 10 -82 88 -92v-25h-338v25c78 9 88 16 88 95v431c0 78 -14 95 -88 100v25h308c195 0 296 -57 296 -172c0 -45 -16 -91 -45 -118c-28 -25 -54 -41 -112 -57l199 -282c9 -13 26 -22 44 -22v-25zM276 597v-252c131 1 183 27 183 149
c0 106 -37 148 -130 148c-39 0 -53 -12 -53 -45zM306 -378l-11 22c75 52 109 94 109 133c0 12 -8 21 -19 21c-7 0 -14 -2 -24 -2c-43 0 -73 30 -73 76c0 52 34 85 84 85c63 0 100 -45 100 -116c0 -86 -50 -158 -166 -219z" />
    <glyph glyph-name="uni0157" unicode="&#x157;" horiz-adv-x="444" 
d="M218 461v-82c47 68 85 94 135 94c47 0 81 -33 81 -79c0 -40 -26 -68 -63 -68c-26 0 -43 10 -60 38c-11 18 -20 23 -28 23c-35 0 -61 -45 -61 -104v-177c0 -64 11 -78 72 -82v-24h-265v24c44 8 54 19 54 60v289c0 47 -12 58 -55 64v24h190zM128 -378l-11 22
c75 52 109 94 109 133c0 12 -8 21 -19 21c-7 0 -14 -2 -24 -2c-43 0 -73 30 -73 76c0 52 34 85 84 85c63 0 100 -45 100 -116c0 -86 -50 -158 -166 -219z" />
    <glyph glyph-name="uni0158" unicode="&#x158;" horiz-adv-x="722" 
d="M493 914l-123 -176h-92l-122 176h57l111 -99l111 99h58zM716 0h-205l-207 313h-28v-196c0 -73 10 -82 88 -92v-25h-338v25c78 9 88 16 88 95v431c0 78 -14 95 -88 100v25h308c195 0 296 -57 296 -172c0 -45 -16 -91 -45 -118c-28 -25 -54 -41 -112 -57l199 -282
c9 -13 26 -22 44 -22v-25zM276 597v-252c131 1 183 27 183 149c0 106 -37 148 -130 148c-39 0 -53 -12 -53 -45z" />
    <glyph glyph-name="uni0159" unicode="&#x159;" horiz-adv-x="444" 
d="M388 704l-123 -176h-92l-122 176h57l111 -99l111 99h58zM218 461v-82c47 68 85 94 135 94c47 0 81 -33 81 -79c0 -40 -26 -68 -63 -68c-26 0 -43 10 -60 38c-11 18 -20 23 -28 23c-35 0 -61 -45 -61 -104v-177c0 -64 11 -78 72 -82v-24h-265v24c44 8 54 19 54 60v289
c0 47 -12 58 -55 64v24h190z" />
    <glyph glyph-name="uni015A" unicode="&#x15a;" horiz-adv-x="556" 
d="M191 738l137 157c17 19 33 28 53 28c29 0 48 -18 48 -44c0 -23 -8 -33 -40 -53l-142 -88h-56zM484 474h-28c-20 65 -36 95 -70 130c-36 37 -78 56 -123 56c-69 0 -110 -42 -110 -99c0 -49 23 -72 103 -114c49 -26 97 -49 148 -77c64 -35 109 -100 109 -176
c0 -126 -100 -213 -248 -213c-44 0 -81 7 -130 24c-22 7 -33 10 -41 10c-16 0 -24 -8 -30 -34h-29v248h29c17 -71 31 -106 60 -143c38 -48 86 -72 144 -72c77 0 126 44 126 113c0 36 -23 64 -57 88s-79 44 -122 65c-113 54 -171 109 -171 210c0 127 83 201 219 201
c39 0 71 -6 117 -23c21 -7 33 -9 42 -9c18 0 25 6 32 33h30v-218z" />
    <glyph glyph-name="uni015B" unicode="&#x15b;" horiz-adv-x="389" 
d="M126 528l137 157c17 19 33 28 53 28c29 0 48 -18 48 -44c0 -23 -8 -33 -40 -53l-142 -88h-56zM340 326h-25c-15 43 -26 62 -47 82c-22 21 -48 32 -75 32c-38 0 -66 -25 -66 -58c0 -34 28 -60 96 -88c100 -42 138 -85 138 -156c0 -90 -63 -152 -154 -152
c-28 0 -79 11 -108 23c-10 4 -18 6 -23 6c-9 0 -15 -7 -26 -28h-25v165h28c21 -87 67 -132 137 -132c45 0 75 26 75 65c0 32 -27 57 -96 87c-101 43 -142 89 -142 155c0 84 66 146 157 146c23 0 46 -4 78 -15c16 -5 25 -7 31 -7c13 0 19 5 25 20h22v-145z" />
    <glyph glyph-name="uni015C" unicode="&#x15c;" horiz-adv-x="556" 
d="M449 738h-57l-112 98l-112 -98h-56l122 176h92zM484 474h-28c-20 65 -36 95 -70 130c-36 37 -78 56 -123 56c-69 0 -110 -42 -110 -99c0 -49 23 -72 103 -114c49 -26 97 -49 148 -77c64 -35 109 -100 109 -176c0 -126 -100 -213 -248 -213c-44 0 -81 7 -130 24
c-22 7 -33 10 -41 10c-16 0 -24 -8 -30 -34h-29v248h29c17 -71 31 -106 60 -143c38 -48 86 -72 144 -72c77 0 126 44 126 113c0 36 -23 64 -57 88s-79 44 -122 65c-113 54 -171 109 -171 210c0 127 83 201 219 201c39 0 71 -6 117 -23c21 -7 33 -9 42 -9c18 0 25 6 32 33h30
v-218z" />
    <glyph glyph-name="uni015D" unicode="&#x15d;" horiz-adv-x="389" 
d="M359 528h-57l-112 98l-112 -98h-56l122 176h92zM340 326h-25c-15 43 -26 62 -47 82c-22 21 -48 32 -75 32c-38 0 -66 -25 -66 -58c0 -34 28 -60 96 -88c100 -42 138 -85 138 -156c0 -90 -63 -152 -154 -152c-28 0 -79 11 -108 23c-10 4 -18 6 -23 6c-9 0 -15 -7 -26 -28
h-25v165h28c21 -87 67 -132 137 -132c45 0 75 26 75 65c0 32 -27 57 -96 87c-101 43 -142 89 -142 155c0 84 66 146 157 146c23 0 46 -4 78 -15c16 -5 25 -7 31 -7c13 0 19 5 25 20h22v-145z" />
    <glyph glyph-name="uni015E" unicode="&#x15e;" horiz-adv-x="556" 
d="M204 -96l35 78c-34 2 -65 9 -104 23c-22 7 -33 10 -41 10c-16 0 -24 -8 -30 -34h-29v248h29c17 -71 31 -106 60 -143c38 -48 86 -72 144 -72c77 0 126 44 126 113c0 36 -23 64 -57 88s-79 44 -122 65c-113 54 -171 109 -171 210c0 127 83 201 219 201c39 0 71 -6 117 -23
c21 -7 33 -9 42 -9c18 0 25 6 32 33h30v-218h-28c-20 65 -36 95 -70 130c-36 37 -78 56 -123 56c-69 0 -110 -42 -110 -99c0 -49 23 -72 103 -114c49 -26 97 -49 148 -77c64 -35 109 -100 109 -176c0 -121 -93 -207 -232 -212l-20 -46c12 4 20 5 32 5c56 0 89 -26 89 -70
c0 -55 -50 -89 -129 -89c-34 0 -60 5 -97 18l16 37l6 -2c24 -8 37 -12 53 -12c38 0 58 14 58 41c0 23 -17 36 -46 36c-9 0 -17 -1 -28 -4z" />
    <glyph glyph-name="uni015F" unicode="&#x15f;" horiz-adv-x="389" 
d="M340 326h-25c-15 43 -26 62 -47 82c-22 21 -48 32 -75 32c-38 0 -66 -25 -66 -58c0 -34 28 -60 96 -88c100 -42 138 -85 138 -156c0 -90 -63 -152 -154 -152c-28 0 -79 11 -108 23c-10 4 -18 6 -23 6c-9 0 -15 -7 -26 -28h-25v165h28c21 -87 67 -132 137 -132
c45 0 75 26 75 65c0 32 -27 57 -96 87c-101 43 -142 89 -142 155c0 84 66 146 157 146c23 0 46 -4 78 -15c16 -5 25 -7 31 -7c13 0 19 5 25 20h22v-145zM234 0l-28 -64c12 4 20 5 32 5c56 0 89 -26 89 -70c0 -55 -50 -89 -129 -89c-34 0 -60 5 -97 18l16 37l6 -2
c24 -8 37 -12 53 -12c38 0 58 14 58 41c0 23 -17 36 -46 36c-9 0 -17 -1 -28 -4l-11 8l43 96h42z" />
    <glyph glyph-name="Scaron" unicode="&#x160;" horiz-adv-x="556" 
d="M449 914l-123 -176h-92l-122 176h57l111 -99l111 99h58zM484 474h-28c-20 65 -36 95 -70 130c-36 37 -78 56 -123 56c-69 0 -110 -42 -110 -99c0 -49 23 -72 103 -114c49 -26 97 -49 148 -77c64 -35 109 -100 109 -176c0 -126 -100 -213 -248 -213c-44 0 -81 7 -130 24
c-22 7 -33 10 -41 10c-16 0 -24 -8 -30 -34h-29v248h29c17 -71 31 -106 60 -143c38 -48 86 -72 144 -72c77 0 126 44 126 113c0 36 -23 64 -57 88s-79 44 -122 65c-113 54 -171 109 -171 210c0 127 83 201 219 201c39 0 71 -6 117 -23c21 -7 33 -9 42 -9c18 0 25 6 32 33h30
v-218z" />
    <glyph glyph-name="scaron" unicode="&#x161;" horiz-adv-x="389" 
d="M359 704l-123 -176h-92l-122 176h57l111 -99l111 99h58zM340 326h-25c-15 43 -26 62 -47 82c-22 21 -48 32 -75 32c-38 0 -66 -25 -66 -58c0 -34 28 -60 96 -88c100 -42 138 -85 138 -156c0 -90 -63 -152 -154 -152c-28 0 -79 11 -108 23c-10 4 -18 6 -23 6
c-9 0 -15 -7 -26 -28h-25v165h28c21 -87 67 -132 137 -132c45 0 75 26 75 65c0 32 -27 57 -96 87c-101 43 -142 89 -142 155c0 84 66 146 157 146c23 0 46 -4 78 -15c16 -5 25 -7 31 -7c13 0 19 5 25 20h22v-145z" />
    <glyph glyph-name="uni0162" unicode="&#x162;" horiz-adv-x="667" 
d="M317 0h-161v25c86 7 97 18 97 92v527c-124 -4 -176 -50 -193 -169h-29l3 201h600l2 -201h-29c-17 119 -69 165 -192 169v-527c0 -76 11 -86 98 -92v-25h-154l-28 -64c12 4 20 5 32 5c56 0 89 -26 89 -70c0 -55 -50 -89 -129 -89c-34 0 -60 5 -97 18l16 37l6 -2
c24 -8 37 -12 53 -12c38 0 58 14 58 41c0 23 -17 36 -46 36c-9 0 -17 -1 -28 -4l-11 8z" />
    <glyph glyph-name="uni0163" unicode="&#x163;" horiz-adv-x="333" 
d="M112 -96l39 87c-49 11 -79 48 -79 104v322h-53v27c72 49 109 102 167 186h25v-169h95v-44h-95v-298c0 -40 11 -60 39 -60c21 0 37 15 57 53l25 -11c-39 -79 -78 -110 -140 -113l-23 -52c12 4 20 5 32 5c56 0 89 -26 89 -70c0 -55 -50 -89 -129 -89c-34 0 -60 5 -97 18
l16 37l6 -2c24 -8 37 -12 53 -12c38 0 58 14 58 41c0 23 -17 36 -46 36c-9 0 -17 -1 -28 -4z" />
    <glyph glyph-name="uni0164" unicode="&#x164;" horiz-adv-x="667" 
d="M502 914l-123 -176h-92l-122 176h57l111 -99l111 99h58zM636 475h-29c-17 119 -69 165 -192 169v-527c0 -76 11 -86 98 -92v-25h-357v25c86 7 97 18 97 92v527c-124 -4 -176 -50 -193 -169h-29l3 201h600z" />
    <glyph glyph-name="uni0165" unicode="&#x165;" horiz-adv-x="415" 
d="M279 374l-11 22c75 52 109 94 109 133c0 12 -8 21 -19 21c-7 0 -14 -2 -24 -2c-43 0 -73 30 -73 76c0 52 34 85 84 85c63 0 100 -45 100 -116c0 -86 -50 -158 -166 -219zM307 112l25 -11c-41 -82 -81 -113 -148 -113c-69 0 -112 40 -112 107v322h-53v27
c72 49 109 102 167 186h25v-169h60v-44h-60v-298c0 -40 11 -60 39 -60c21 0 37 15 57 53z" />
    <glyph glyph-name="uni0166" unicode="&#x166;" horiz-adv-x="667" 
d="M636 475h-29c-17 119 -69 165 -192 169v-288h110v-34h-110v-205c0 -76 11 -86 98 -92v-25h-357v25c86 7 97 18 97 92v205h-114v34h114v288c-124 -4 -176 -50 -193 -169h-29l3 201h600z" />
    <glyph glyph-name="uni0167" unicode="&#x167;" horiz-adv-x="333" 
d="M307 112l25 -11c-41 -82 -81 -113 -148 -113c-69 0 -112 40 -112 107v134h-55v56h55v132h-53v27c72 49 109 102 167 186h25v-169h95v-44h-95v-132h92v-56h-92v-110c0 -40 11 -60 39 -60c21 0 37 15 57 53z" />
    <glyph glyph-name="uni0168" unicode="&#x168;" horiz-adv-x="722" 
d="M530 886h43c-23 -87 -60 -127 -116 -127c-21 0 -46 6 -65 14l-29 13c-44 20 -51 22 -64 22c-26 0 -45 -19 -49 -47h-42c18 86 54 125 116 125c21 0 44 -6 73 -19l40 -18c25 -11 28 -12 39 -12c27 0 41 13 54 49zM701 676v-25c-64 -10 -78 -26 -78 -85v-314
c0 -100 -27 -177 -76 -216c-43 -35 -113 -55 -184 -55c-74 0 -138 17 -185 54c-57 45 -80 99 -80 196v324c0 81 -12 89 -82 96v25h336v-25c-78 -6 -95 -19 -95 -101v-318c0 -139 49 -202 146 -202c117 0 176 74 176 222v300c0 73 -23 93 -97 99v25h219z" />
    <glyph glyph-name="uni0169" unicode="&#x169;" horiz-adv-x="556" 
d="M405 674h43c-23 -87 -60 -127 -116 -127c-21 0 -46 6 -65 14l-29 13c-44 20 -51 22 -64 22c-26 0 -45 -19 -49 -47h-42c18 86 54 125 116 125c21 0 44 -6 73 -19l40 -18c25 -11 28 -12 39 -12c27 0 41 13 54 49zM538 20l-63 -7c-65 -7 -89 -11 -132 -26v65
c-52 -49 -90 -66 -145 -66c-83 0 -133 52 -133 145v241c0 46 -8 57 -49 65v24h188v-334c0 -56 20 -76 56 -76c29 0 51 13 82 47v276c0 45 -11 59 -61 63v24h200v-356c0 -44 13 -60 57 -62v-23z" />
    <glyph glyph-name="uni016A" unicode="&#x16a;" horiz-adv-x="722" 
d="M515 738h-330v72h330v-72zM701 676v-25c-64 -10 -78 -26 -78 -85v-314c0 -100 -27 -177 -76 -216c-43 -35 -113 -55 -184 -55c-74 0 -138 17 -185 54c-57 45 -80 99 -80 196v324c0 81 -12 89 -82 96v25h336v-25c-78 -6 -95 -19 -95 -101v-318c0 -139 49 -202 146 -202
c117 0 176 74 176 222v300c0 73 -23 93 -97 99v25h219z" />
    <glyph glyph-name="uni016B" unicode="&#x16b;" horiz-adv-x="556" 
d="M425 528h-330v72h330v-72zM538 20l-63 -7c-65 -7 -89 -11 -132 -26v65c-52 -49 -90 -66 -145 -66c-83 0 -133 52 -133 145v241c0 46 -8 57 -49 65v24h188v-334c0 -56 20 -76 56 -76c29 0 51 13 82 47v276c0 45 -11 59 -61 63v24h200v-356c0 -44 13 -60 57 -62v-23z" />
    <glyph glyph-name="uni016C" unicode="&#x16c;" horiz-adv-x="722" 
d="M478 901h44c-7 -94 -53 -163 -152 -163c-100 0 -150 67 -151 163h44c12 -61 48 -87 102 -87c62 0 96 23 113 87zM701 676v-25c-64 -10 -78 -26 -78 -85v-314c0 -100 -27 -177 -76 -216c-43 -35 -113 -55 -184 -55c-74 0 -138 17 -185 54c-57 45 -80 99 -80 196v324
c0 81 -12 89 -82 96v25h336v-25c-78 -6 -95 -19 -95 -101v-318c0 -139 49 -202 146 -202c117 0 176 74 176 222v300c0 73 -23 93 -97 99v25h219z" />
    <glyph glyph-name="uni016D" unicode="&#x16d;" horiz-adv-x="556" 
d="M358 691h44c-7 -94 -53 -163 -152 -163c-100 0 -150 67 -151 163h44c12 -61 48 -87 102 -87c62 0 96 23 113 87zM538 20l-63 -7c-65 -7 -89 -11 -132 -26v65c-52 -49 -90 -66 -145 -66c-83 0 -133 52 -133 145v241c0 46 -8 57 -49 65v24h188v-334c0 -56 20 -76 56 -76
c29 0 51 13 82 47v276c0 45 -11 59 -61 63v24h200v-356c0 -44 13 -60 57 -62v-23z" />
    <glyph glyph-name="uni016E" unicode="&#x16e;" horiz-adv-x="722" 
d="M473 830c0 -59 -47 -108 -106 -108c-60 0 -107 46 -107 106c0 58 49 107 108 107c57 0 105 -47 105 -105zM425 827c0 34 -28 60 -61 60c-29 0 -56 -27 -56 -58c0 -32 26 -59 57 -59c34 0 60 25 60 57zM701 676v-25c-64 -10 -78 -26 -78 -85v-314
c0 -100 -27 -177 -76 -216c-43 -35 -113 -55 -184 -55c-74 0 -138 17 -185 54c-57 45 -80 99 -80 196v324c0 81 -12 89 -82 96v25h336v-25c-78 -6 -95 -19 -95 -101v-318c0 -139 49 -202 146 -202c117 0 176 74 176 222v300c0 73 -23 93 -97 99v25h219z" />
    <glyph glyph-name="uni016F" unicode="&#x16f;" horiz-adv-x="556" 
d="M377 635c0 -59 -47 -108 -106 -108c-60 0 -107 46 -107 106c0 58 49 107 108 107c57 0 105 -47 105 -105zM329 632c0 34 -28 60 -61 60c-29 0 -56 -27 -56 -58c0 -32 26 -59 57 -59c34 0 60 25 60 57zM538 20l-63 -7c-65 -7 -89 -11 -132 -26v65
c-52 -49 -90 -66 -145 -66c-83 0 -133 52 -133 145v241c0 46 -8 57 -49 65v24h188v-334c0 -56 20 -76 56 -76c29 0 51 13 82 47v276c0 45 -11 59 -61 63v24h200v-356c0 -44 13 -60 57 -62v-23z" />
    <glyph glyph-name="uni0170" unicode="&#x170;" horiz-adv-x="722" 
d="M354 738l136 157c17 19 34 28 54 28c29 0 48 -18 48 -44c0 -23 -8 -35 -40 -55l-141 -86h-57zM154 738l136 157c17 19 34 28 54 28c29 0 48 -18 48 -44c0 -23 -8 -35 -40 -55l-141 -86h-57zM701 676v-25c-64 -10 -78 -26 -78 -85v-314c0 -100 -27 -177 -76 -216
c-43 -35 -113 -55 -184 -55c-74 0 -138 17 -185 54c-57 45 -80 99 -80 196v324c0 81 -12 89 -82 96v25h336v-25c-78 -6 -95 -19 -95 -101v-318c0 -139 49 -202 146 -202c117 0 176 74 176 222v300c0 73 -23 93 -97 99v25h219z" />
    <glyph glyph-name="uni0171" unicode="&#x171;" horiz-adv-x="556" 
d="M252 528l136 157c17 19 34 28 54 28c29 0 48 -18 48 -44c0 -23 -8 -35 -40 -55l-141 -86h-57zM52 528l136 157c17 19 34 28 54 28c29 0 48 -18 48 -44c0 -23 -8 -35 -40 -55l-141 -86h-57zM538 20l-63 -7c-65 -7 -89 -11 -132 -26v65c-52 -49 -90 -66 -145 -66
c-83 0 -133 52 -133 145v241c0 46 -8 57 -49 65v24h188v-334c0 -56 20 -76 56 -76c29 0 51 13 82 47v276c0 45 -11 59 -61 63v24h200v-356c0 -44 13 -60 57 -62v-23z" />
    <glyph glyph-name="uni0172" unicode="&#x172;" horiz-adv-x="722" 
d="M423 -16l2 2c-20 -3 -41 -5 -62 -5c-74 0 -138 17 -185 54c-57 45 -80 99 -80 196v324c0 81 -12 89 -82 96v25h336v-25c-78 -6 -95 -19 -95 -101v-318c0 -139 49 -202 146 -202c117 0 176 74 176 222v300c0 73 -23 93 -97 99v25h219v-25c-64 -10 -78 -26 -78 -85v-314
c0 -100 -27 -177 -76 -216c-22 -18 -50 -31 -82 -41c0 -1 -1 -2 -1 -3c-9 -32 -11 -49 -11 -64c0 -47 18 -64 61 -64c16 0 28 3 48 13c8 4 10 6 13 8l23 -16c-25 -46 -79 -74 -126 -74c-62 0 -103 31 -103 78c0 38 13 63 54 111z" />
    <glyph glyph-name="uni0173" unicode="&#x173;" horiz-adv-x="556" 
d="M538 20l-63 -7c-65 -7 -89 -11 -132 -26v65c-52 -49 -90 -66 -145 -66c-83 0 -133 52 -133 145v241c0 46 -8 57 -49 65v24h188v-334c0 -56 20 -76 56 -76c29 0 51 13 82 47v276c0 45 -11 59 -61 63v24h200v-356c0 -44 13 -60 57 -62v-23zM524 -115l23 -16
c-25 -46 -79 -74 -126 -74c-62 0 -103 31 -103 78c0 38 13 63 54 111c8 10 10 11 14 16l33 12c-1 -7 -3 -10 -6 -20c-9 -32 -11 -49 -11 -64c0 -47 18 -64 61 -64c16 0 28 3 48 13c8 4 10 6 13 8z" />
    <glyph glyph-name="uni0174" unicode="&#x174;" horiz-adv-x="1000" 
d="M683 738h-57l-112 98l-112 -98h-56l122 176h92zM981 676v-25c-33 -3 -56 -24 -69 -64l-200 -602h-27l-171 477l-186 -477h-28l-212 602c-17 49 -27 58 -69 64v25h294v-25c-52 -4 -64 -13 -64 -42c0 -9 1 -16 7 -33l120 -364l118 308l-35 96c-9 25 -31 33 -72 35v25h312
v-25l-13 -1c-44 -3 -59 -12 -59 -36c0 -10 3 -22 14 -56l108 -336l112 343c5 14 7 29 7 42c0 31 -15 41 -69 44v25h182z" />
    <glyph glyph-name="uni0175" unicode="&#x175;" horiz-adv-x="722" 
d="M546 528h-57l-112 98l-112 -98h-56l122 176h92zM707 461v-24c-26 -5 -37 -16 -50 -50l-155 -401h-23l-102 310l-125 -310h-24l-148 374c-25 62 -31 72 -57 77v24h222v-24c-28 -4 -38 -11 -38 -28c0 -13 12 -44 39 -115l45 -118l68 171c-2 6 -4 12 -6 19
c-19 66 -20 67 -59 71v24h234v-24c-38 -3 -48 -8 -48 -24c0 -10 7 -38 27 -106c20 -70 24 -85 34 -127l35 94c29 78 44 115 44 128c0 23 -11 31 -48 35v24h135z" />
    <glyph glyph-name="uni0176" unicode="&#x176;" horiz-adv-x="722" 
d="M543 738h-57l-112 98l-112 -98h-56l122 176h92zM699 676v-25c-34 -5 -54 -16 -68 -39l-191 -311v-178c0 -78 13 -91 92 -98v-25h-347v25c83 7 93 28 93 103v136l-180 328c-19 34 -49 57 -83 59v25h335v-25l-27 -2c-40 -3 -54 -6 -54 -29c0 -9 12 -36 24 -59l120 -232
l109 178c26 43 41 82 41 102c0 29 -16 37 -84 42v25h220z" />
    <glyph glyph-name="uni0177" unicode="&#x177;" horiz-adv-x="500" 
d="M419 528h-57l-112 98l-112 -98h-56l122 176h92zM482 461v-24c-31 -4 -44 -12 -60 -55l-148 -398c-35 -94 -56 -133 -77 -156c-21 -22 -50 -33 -84 -33c-57 0 -97 32 -97 79c0 38 24 67 62 67c34 0 60 -23 60 -52c0 -4 -1 -9 -2 -14c-1 -3 -1 -6 -1 -6c0 -9 8 -17 17 -17
c24 0 49 32 66 82l18 53l-119 290c-20 50 -58 134 -67 146c-6 8 -12 11 -34 14v24h249v-24l-16 -1c-25 -2 -36 -10 -36 -25c0 -4 9 -30 20 -58l72 -186l68 188c9 26 11 37 11 49c0 24 -11 31 -54 33v24h152z" />
    <glyph glyph-name="Ydieresis" unicode="&#x178;" horiz-adv-x="722" 
d="M529 810c0 -35 -29 -63 -66 -63c-35 0 -63 29 -63 65c0 35 29 64 64 64s65 -30 65 -66zM319 810c0 -35 -28 -63 -65 -63c-35 0 -64 29 -64 65c0 34 30 64 65 64c34 0 64 -30 64 -66zM699 676v-25c-34 -5 -54 -16 -68 -39l-191 -311v-178c0 -78 13 -91 92 -98v-25h-347v25
c83 7 93 28 93 103v136l-180 328c-19 34 -49 57 -83 59v25h335v-25l-27 -2c-40 -3 -54 -6 -54 -29c0 -9 12 -36 24 -59l120 -232l109 178c26 43 41 82 41 102c0 29 -16 37 -84 42v25h220z" />
    <glyph glyph-name="uni0179" unicode="&#x179;" horiz-adv-x="667" 
d="M250 738l137 157c17 19 33 28 53 28c29 0 48 -18 48 -44c0 -23 -8 -33 -40 -53l-142 -88h-56zM634 242l-27 -242h-579v16l382 623l-83 -1c-154 -2 -195 -26 -240 -169h-28l22 207h523v-16l-379 -625h83c95 0 161 11 202 40c56 40 69 82 98 167h26z" />
    <glyph glyph-name="uni017A" unicode="&#x17a;" horiz-adv-x="444" 
d="M152 528l137 157c17 19 33 28 53 28c29 0 48 -18 48 -44c0 -23 -8 -33 -40 -53l-142 -88h-56zM420 160l-16 -160h-383v25l234 404c-142 0 -166 -15 -191 -110h-26l7 142h371v-26l-231 -403h29c81 0 114 13 147 59c14 21 22 37 31 69h28z" />
    <glyph glyph-name="uni017B" unicode="&#x17b;" horiz-adv-x="667" 
d="M411 810c0 -35 -29 -63 -66 -63c-35 0 -63 29 -63 65c0 35 29 64 64 64s65 -30 65 -66zM634 242l-27 -242h-579v16l382 623l-83 -1c-154 -2 -195 -26 -240 -169h-28l22 207h523v-16l-379 -625h83c95 0 161 11 202 40c56 40 69 82 98 167h26z" />
    <glyph glyph-name="uni017C" unicode="&#x17c;" horiz-adv-x="444" 
d="M303 600c0 -35 -29 -63 -66 -63c-35 0 -63 29 -63 65c0 35 29 64 64 64s65 -30 65 -66zM420 160l-16 -160h-383v25l234 404c-142 0 -166 -15 -191 -110h-26l7 142h371v-26l-231 -403h29c81 0 114 13 147 59c14 21 22 37 31 69h28z" />
    <glyph glyph-name="Zcaron" unicode="&#x17d;" horiz-adv-x="667" 
d="M519 914l-123 -176h-92l-122 176h57l111 -99l111 99h58zM634 242l-27 -242h-579v16l382 623l-83 -1c-154 -2 -195 -26 -240 -169h-28l22 207h523v-16l-379 -625h83c95 0 161 11 202 40c56 40 69 82 98 167h26z" />
    <glyph glyph-name="zcaron" unicode="&#x17e;" horiz-adv-x="444" 
d="M401 704l-123 -176h-92l-122 176h57l111 -99l111 99h58zM420 160l-16 -160h-383v25l234 404c-142 0 -166 -15 -191 -110h-26l7 142h371v-26l-231 -403h29c81 0 114 13 147 59c14 21 22 37 31 69h28z" />
    <glyph glyph-name="uni017F" unicode="&#x17f;" horiz-adv-x="333" 
d="M30 461h41c0 79 7 139 40 179c27 33 71 51 135 51c85 0 143 -41 143 -100c0 -37 -25 -64 -62 -64c-34 0 -60 26 -60 57c0 35 22 43 22 57c0 12 -11 19 -29 19c-36 0 -50 -20 -50 -79v-474c0 -65 12 -81 82 -83v-24h-278v24c46 5 57 18 57 63v330h-41v44z" />
    <glyph glyph-name="uni0180" unicode="&#x180;" horiz-adv-x="553" 
d="M206 515v-98c38 40 73 56 122 56c111 0 188 -95 188 -234c0 -150 -92 -253 -226 -253c-50 0 -86 15 -132 57l-79 -56h-12v528h-95v46h95v39c0 40 -9 43 -55 52v24h194v-115h129v-46h-129zM206 360v-263c0 -48 27 -79 69 -79c64 0 94 64 94 203c0 132 -31 198 -93 198
c-33 0 -52 -16 -70 -59z" />
    <glyph glyph-name="uni0188" unicode="&#x188;" horiz-adv-x="568" 
d="M417 109l18 -18c-55 -75 -111 -105 -191 -105c-125 0 -214 93 -214 236c0 149 104 251 237 251c23 0 50 -4 69 -11c0 12 2 26 5 38c9 39 53 76 101 76c68 0 132 -35 132 -101c0 -36 -24 -63 -61 -63c-34 0 -60 26 -60 57c0 35 22 43 22 57c0 12 -7 19 -25 19
c-33 0 -64 -11 -64 -55v-55c16 -14 35 -38 35 -72c0 -39 -26 -64 -68 -64c-34 0 -56 25 -56 73c0 47 0 70 -42 70c-49 0 -84 -60 -84 -169c0 -136 52 -220 139 -220c41 0 70 14 107 56z" />
    <glyph glyph-name="uni0190" unicode="&#x190;" horiz-adv-x="610" 
d="M544 174l43 -12c-44 -138 -154 -166 -277 -166c-117 0 -272 41 -272 179c0 83 47 154 129 179c-70 37 -118 67 -118 145c0 130 145 186 265 187c41 0 83 -6 110 -15c54 -18 106 -59 106 -105c0 -34 -15 -68 -57 -68c-41 0 -58 22 -71 80c-7 32 -34 55 -85 55
c-77 0 -114 -52 -114 -159c0 -61 29 -91 87 -91c46 0 80 11 110 11c26 0 54 -9 54 -33c0 -29 -49 -47 -77 -47c-13 0 -75 5 -91 5c-60 0 -93 -49 -93 -134c0 -80 45 -120 137 -120s178 3 214 109z" />
    <glyph glyph-name="florin" unicode="&#x192;" horiz-adv-x="500" 
d="M74 440h120c17 101 36 156 71 201c33 43 77 65 131 65c62 0 102 -31 102 -78c0 -35 -23 -61 -54 -61c-29 0 -53 21 -53 46c0 12 5 25 13 37c3 5 5 9 5 12c0 7 -11 14 -23 14c-42 0 -64 -49 -64 -146v-90h122v-46h-122c-13 -221 -14 -244 -22 -290
c-27 -168 -100 -259 -207 -259c-57 0 -93 30 -93 78c0 34 22 57 55 57c31 0 53 -20 53 -49c0 -11 -3 -18 -11 -28c-5 -6 -7 -9 -7 -12c0 -9 10 -16 22 -16c37 0 63 45 65 113l13 406h-116v46z" />
    <glyph glyph-name="uni0195" unicode="&#x195;" horiz-adv-x="797" 
d="M484 337v-211c0 -43 32 -86 75 -86c95 0 153 108 153 193c0 101 -46 131 -74 148c-24 15 -39 26 -39 48c0 23 22 36 49 36c95 0 119 -155 119 -210c0 -131 -79 -265 -231 -265c-101 0 -191 41 -191 146v188c0 59 -15 82 -51 82c-24 0 -48 -12 -70 -34
c-10 -10 -17 -20 -17 -24v-263c0 -41 11 -56 48 -61v-24h-240v24c45 9 53 9 53 65v502c0 48 -8 52 -54 61v24h193v-280c49 58 94 77 147 77c82 0 130 -57 130 -136z" />
    <glyph glyph-name="uni0199" unicode="&#x199;" horiz-adv-x="533" 
d="M533 0h-234v24c28 1 42 7 42 19c0 8 -6 20 -24 45l-95 134l-23 -24v-114c0 -47 5 -53 52 -60v-24h-239v24c33 3 48 21 48 60v402c0 67 11 118 41 154c27 33 71 51 135 51c85 0 142 -41 142 -100c0 -37 -24 -64 -61 -64c-34 0 -60 26 -60 57c0 35 22 43 22 57
c0 12 -11 19 -29 19c-34 0 -51 -18 -51 -71v-344l128 128c11 11 21 29 21 38c0 13 -9 20 -35 23l-24 3v24h214v-24c-63 -8 -89 -25 -189 -130l194 -268c9 -12 14 -15 25 -15v-24z" />
    <glyph glyph-name="uni019A" unicode="&#x19a;" horiz-adv-x="291" 
d="M265 0h-240v24c34 3 51 19 51 63v253h-49v46h49v201c0 37 -17 62 -52 65v24h191v-290h48v-46h-48v-253c0 -46 17 -62 50 -63v-24z" />
    <glyph glyph-name="uni019B" unicode="&#x19b;" horiz-adv-x="536" 
d="M526 0h-152v24c43 2 54 9 54 33c0 12 -2 23 -11 49l-68 188l-72 -186c-11 -28 -20 -54 -20 -58c0 -15 11 -23 36 -25l16 -1v-24h-249v24c22 3 28 6 34 14c9 12 47 96 67 146l119 290l-9 24l-192 -157v67l174 140c-15 35 -33 61 -57 61c-9 0 -17 -8 -17 -17
c0 -4 3 -15 3 -20c0 -29 -26 -52 -60 -52c-38 0 -62 29 -62 67c0 47 40 79 97 79c65 0 97 -36 123 -96l114 96v-68l-93 -76l165 -443c16 -43 29 -51 60 -55v-24z" />
    <glyph glyph-name="uni019E" unicode="&#x19e;" horiz-adv-x="559" 
d="M539 -205h-234v24c34 4 46 20 46 60v442c0 56 -17 85 -51 85c-24 0 -48 -12 -70 -34c-10 -10 -17 -20 -17 -24v-264c0 -37 11 -55 48 -60v-24h-240v24c45 9 53 21 53 63v289c0 43 -9 54 -53 61v24h191v-75h1c34 60 82 87 142 87c82 0 135 -55 135 -142v-452
c0 -45 10 -57 49 -60v-24z" />
    <glyph glyph-name="uni01A0" unicode="&#x1a0;" horiz-adv-x="778" 
d="M659 579h-5c56 -62 89 -147 89 -244c0 -208 -148 -354 -355 -354s-353 146 -353 353c0 213 151 357 359 357c93 0 173 -31 234 -86c10 -2 21 -4 30 -4c36 0 56 3 56 26c-21 13 -41 30 -41 56c0 21 20 49 53 49c32 0 62 -23 62 -67c0 -45 -31 -72 -72 -81
c-13 -3 -39 -5 -57 -5zM566 328c0 213 -64 330 -181 330c-110 0 -173 -118 -173 -328c0 -211 64 -316 178 -316c115 0 176 108 176 314z" />
    <glyph glyph-name="uni01A1" unicode="&#x1a1;" horiz-adv-x="554" 
d="M576 438c0 -45 -31 -72 -72 -81c-13 -3 -38 -5 -56 -5c18 -36 28 -77 28 -123c0 -141 -97 -243 -226 -243c-125 0 -225 100 -225 242c0 146 97 245 229 245c74 0 141 -37 178 -95c8 -2 15 -4 20 -4c25 0 50 3 50 26c-21 13 -41 30 -41 56c0 21 20 49 53 49
c32 0 62 -23 62 -67zM329 218c0 171 -19 224 -78 224c-61 0 -79 -53 -79 -224c0 -145 21 -201 79 -201s78 52 78 201z" />
    <glyph glyph-name="uni01A5" unicode="&#x1a5;" horiz-adv-x="550" 
d="M205 568v-173c33 58 71 78 129 78c111 0 181 -77 181 -224c0 -155 -72 -262 -192 -262c-45 0 -70 13 -118 60v-126c0 -67 16 -99 77 -102v-24h-272v24c48 8 56 21 56 63v597c0 64 12 109 40 143c27 33 71 51 135 51c85 0 142 -41 142 -100c0 -37 -24 -64 -61 -64
c-34 0 -60 26 -60 57c0 35 22 43 22 57c0 12 -11 19 -29 19c-36 0 -50 -22 -50 -74zM205 346v-239c15 -38 44 -65 77 -65c55 0 85 54 85 192c0 123 -25 182 -76 182c-23 0 -48 -13 -68 -37c-11 -13 -18 -27 -18 -33z" />
    <glyph glyph-name="uni01AA" unicode="&#x1aa;" horiz-adv-x="446" 
d="M307 424l-40 -429c-3 -34 -3 -65 -3 -96c0 -34 1 -97 45 -97c12 0 23 7 23 14c0 9 -18 24 -18 48c0 25 22 47 53 47c32 0 54 -27 54 -61c0 -48 -41 -78 -111 -78c-116 0 -177 81 -177 190c0 17 0 37 2 59l36 364c3 26 5 59 7 81c-11 -4 -35 -6 -44 -6
c-60 0 -109 51 -109 114c0 61 56 115 123 115c106 0 161 -100 161 -193c0 -24 0 -48 -2 -72zM190 573c0 34 -29 60 -60 60c-32 0 -57 -28 -57 -59s26 -58 58 -58c33 0 59 26 59 57z" />
    <glyph glyph-name="uni01AB" unicode="&#x1ab;" horiz-adv-x="347" 
d="M331 101v-186c0 -63 -31 -133 -116 -133s-123 41 -123 100c0 37 24 64 61 64c34 0 60 -26 60 -57c0 -35 -22 -43 -22 -57c0 -12 11 -19 29 -19c26 0 67 20 67 79v141c-34 -40 -76 -45 -104 -45c-69 0 -112 40 -112 107v322h-53v27c72 49 109 102 167 186h25v-169h95v-44
h-95v-298c0 -40 11 -60 39 -60c21 0 37 15 57 53z" />
    <glyph glyph-name="uni01AD" unicode="&#x1ad;" horiz-adv-x="371" 
d="M19 417v27c20 13 37 27 53 42c1 67 11 118 40 154c27 33 71 51 135 51c85 0 142 -41 142 -100c0 -37 -24 -64 -61 -64c-34 0 -60 26 -60 57c0 35 22 43 22 57c0 12 -11 19 -29 19c-36 0 -50 -20 -50 -79v-120h95v-44h-95v-298c0 -40 11 -60 39 -60c21 0 37 15 57 53
l25 -11c-41 -82 -81 -113 -148 -113c-69 0 -112 40 -112 107v322h-53z" />
    <glyph glyph-name="uni01AF" unicode="&#x1af;" horiz-adv-x="796" 
d="M482 676h222c22 0 57 6 58 29c-21 13 -41 30 -41 56s22 49 55 49c29 0 60 -20 60 -65c0 -52 -39 -73 -80 -83c-14 -3 -47 -9 -68 -13c-54 -10 -65 -29 -65 -83v-314c0 -100 -27 -177 -76 -216c-43 -35 -113 -55 -184 -55c-74 0 -138 17 -185 54c-57 45 -80 99 -80 196
v324c0 81 -12 89 -82 96v25h336v-25c-78 -6 -95 -19 -95 -101v-318c0 -139 49 -202 146 -202c117 0 176 74 176 222v300c0 73 -23 93 -97 99v25z" />
    <glyph glyph-name="uni01B0" unicode="&#x1b0;" horiz-adv-x="600" 
d="M551 485l-1 8c-22 15 -40 22 -40 57c0 19 21 46 54 46c32 0 62 -20 62 -64c0 -45 -27 -75 -72 -87c-17 -5 -38 -8 -62 -8h-11v-332c0 -44 13 -60 57 -62v-23l-63 -7c-65 -7 -89 -11 -132 -26v65c-52 -49 -90 -66 -145 -66c-83 0 -133 52 -133 145v241c0 46 -8 57 -49 65
v24h188v-334c0 -56 20 -76 56 -76c29 0 51 13 82 47v276c0 45 -11 59 -61 63v24h205c27 0 63 7 65 24z" />
    <glyph glyph-name="uni01BA" unicode="&#x1ba;" horiz-adv-x="441" 
d="M415 423l-192 -167c11 3 38 4 44 4c90 0 148 -52 148 -125c0 -42 -32 -89 -71 -111l-157 -90c-30 -17 -49 -44 -49 -75c0 -36 41 -59 74 -59s64 20 69 50c8 45 30 67 67 67c43 0 59 -26 59 -50s-9 -48 -47 -71c-32 -19 -92 -33 -141 -33c-53 0 -89 14 -113 29
c-46 30 -55 75 -55 100c0 59 31 92 78 121c42 26 85 48 126 70c16 9 33 21 33 58c0 36 -40 55 -85 55c-21 0 -64 -2 -109 -47l-27 24l230 204h-189c-23 0 -66 -30 -73 -83h-26l34 156h372v-27z" />
    <glyph glyph-name="uni01BB" unicode="&#x1bb;" horiz-adv-x="515" 
d="M492 314h-135c-8 -9 -16 -19 -25 -27l-162 -154h167c69 0 101 8 126 78h25l-46 -211h-415v23c85 91 179 182 240 291h-235v62h265c8 22 13 47 13 71c0 72 -44 127 -119 127c-58 0 -98 -41 -122 -90h-28c35 106 100 204 223 204c111 0 182 -73 182 -183
c0 -46 -14 -91 -39 -129h85v-62z" />
    <glyph glyph-name="uni01BE" unicode="&#x1be;" horiz-adv-x="527" 
d="M225 438l2 -47c14 2 22 2 31 2c124 0 191 -111 191 -210c0 -119 -90 -193 -214 -193c-34 0 -71 10 -102 27c-32 18 -55 45 -55 79c0 19 16 48 53 48c45 0 63 -30 71 -60c9 -33 17 -65 54 -65c53 0 64 101 64 150c0 81 -62 126 -120 126h-32v143h-64v46h64v57h52l3 -57
h111v-46h-109z" />
    <glyph glyph-name="uni01C0" unicode="&#x1c0;" horiz-adv-x="186" 
d="M126 0h-66v740h66v-740z" />
    <glyph glyph-name="uni01C1" unicode="&#x1c1;" horiz-adv-x="313" 
d="M253 0h-66v740h66v-740zM126 0h-66v740h66v-740z" />
    <glyph glyph-name="uni01C2" unicode="&#x1c2;" horiz-adv-x="445" 
d="M405 260h-148v-260h-66v260h-152v66h152v84h-152v66h152v264h66v-264h148v-66h-148v-84h148v-66z" />
    <glyph glyph-name="uni01C3" unicode="&#x1c3;" horiz-adv-x="333" 
d="M182 234h-31c-13 123 -22 170 -51 266c-14 44 -18 66 -18 89c0 65 35 102 85 102c54 0 84 -37 84 -100c0 -26 -4 -46 -18 -91c-29 -95 -38 -142 -51 -266zM250 70c0 -48 -36 -83 -84 -83c-47 0 -85 37 -85 84c0 49 35 85 84 85c47 0 85 -36 85 -86z" />
    <glyph glyph-name="uni01F0" unicode="&#x1f0;" horiz-adv-x="333" 
d="M335 704l-123 -176h-92l-122 176h57l111 -99l111 99h58zM260 461v-459c0 -59 -8 -97 -27 -129c-28 -49 -81 -76 -150 -76c-82 0 -140 41 -140 100c0 36 25 61 62 61c33 0 59 -24 59 -54c0 -10 -4 -22 -14 -37c-6 -10 -9 -17 -9 -22c0 -10 13 -17 32 -17c34 0 48 23 48 76
v474c0 43 -12 55 -63 59v24h202z" />
    <glyph glyph-name="uni01FA" unicode="&#x1fa;" horiz-adv-x="722" 
d="M374 651l205 -483c51 -121 69 -143 110 -143v-25h-322v25l32 3c33 3 46 11 46 33s-12 57 -46 136h-225l-13 -34c-12 -31 -31 -73 -31 -97c0 -26 22 -37 81 -41v-25h-202v25c46 8 61 26 99 120l205 506c-35 12 -60 45 -60 86c0 48 41 90 92 90c47 0 89 -41 89 -89
c0 -40 -26 -74 -60 -87zM384 236l-101 243l-94 -243h195zM386 736c0 23 -14 43 -44 43c-24 0 -41 -20 -41 -42c0 -23 19 -43 41 -43c24 0 44 19 44 42zM228 825l146 125c17 15 25 22 44 22c23 0 32 -12 32 -33c0 -19 -14 -26 -45 -43l-132 -71h-45z" />
    <glyph glyph-name="uni01FB" unicode="&#x1fb;" horiz-adv-x="500" 
d="M122 738l137 157c17 19 33 28 53 28c29 0 48 -18 48 -44c0 -23 -8 -33 -40 -53l-142 -88h-56zM357 635c0 -59 -47 -108 -106 -108c-60 0 -107 46 -107 106c0 58 49 107 108 107c57 0 105 -47 105 -105zM309 632c0 34 -28 60 -61 60c-29 0 -56 -27 -56 -58
c0 -32 26 -59 57 -59c34 0 60 25 60 57zM473 64l15 -21c-38 -41 -69 -57 -112 -57c-49 0 -71 18 -82 69c-55 -50 -101 -69 -159 -69c-64 0 -110 32 -110 106c0 44 22 82 67 112c38 25 85 43 201 76v68c0 64 -22 93 -81 93c-36 0 -65 -13 -65 -37c0 -6 2 -13 11 -23
c13 -16 19 -28 19 -42c0 -34 -28 -60 -68 -60c-41 0 -65 26 -65 68c0 80 78 126 191 126c122 0 196 -48 196 -134v-261c0 -17 7 -28 21 -28c5 0 8 1 11 4zM293 97v148c-80 -22 -122 -63 -122 -121c0 -44 22 -67 52 -67c24 0 48 9 70 40z" />
    <glyph glyph-name="uni01FC" unicode="&#x1fc;" horiz-adv-x="1000" 
d="M476 738l137 157c17 19 33 28 53 28c29 0 48 -18 48 -44c0 -23 -8 -33 -40 -53l-142 -88h-56zM951 211l-41 -211h-566v25c74 4 88 20 88 94v184h-190l-100 -188c-11 -21 -15 -33 -15 -45c0 -28 14 -37 66 -43l17 -2v-25h-206v25c39 6 45 10 110 128l220 402
c19 34 28 52 28 62c0 24 -21 33 -87 37v22h634v-201h-25c-13 64 -23 88 -44 114c-28 35 -88 52 -181 52c-53 0 -67 -6 -67 -30v-248c117 10 127 20 155 149h23v-338h-23c-18 124 -43 150 -155 157v-243c0 -42 16 -54 74 -54c87 0 145 19 186 61c34 35 68 86 76 116h23z
M432 343v290h-7l-161 -290h168z" />
    <glyph glyph-name="uni01FD" unicode="&#x1fd;" horiz-adv-x="722" 
d="M255 528l137 157c17 19 33 28 53 28c29 0 48 -18 48 -44c0 -23 -8 -33 -40 -53l-142 -88h-56zM673 129l21 -15c-59 -90 -115 -123 -210 -123c-63 0 -113 22 -147 84h-6c-55 -68 -114 -89 -180 -89c-77 0 -118 37 -118 108c0 44 21 73 59 105c32 27 74 49 204 86v75
c0 58 -22 81 -78 81c-38 0 -65 -15 -65 -35c0 -7 3 -12 12 -22c13 -15 17 -24 17 -43c0 -37 -27 -62 -67 -62c-42 0 -65 30 -65 69c0 71 77 125 184 125c64 0 107 -14 140 -51c34 38 74 51 127 51c75 0 137 -37 166 -101c16 -34 21 -63 21 -124h-254v-23
c0 -110 30 -164 115 -164c49 0 85 20 124 68zM567 285v33c0 93 -16 125 -63 125c-52 0 -70 -48 -70 -158h133zM296 81v167c-88 -32 -119 -65 -119 -128c0 -47 19 -71 57 -71c24 0 38 7 62 32z" />
    <glyph glyph-name="uni01FE" unicode="&#x1fe;" horiz-adv-x="778" 
d="M270 738l137 157c17 19 33 28 53 28c29 0 48 -18 48 -44c0 -23 -8 -33 -40 -53l-142 -88h-56zM685 737l-78 -115c51 -42 71 -65 93 -106c29 -54 43 -115 43 -180c0 -208 -147 -355 -354 -355c-72 0 -124 14 -187 49l-71 -104h-50l86 126c-59 51 -83 83 -107 143
c-17 44 -25 90 -25 140c0 207 148 356 355 356c68 0 118 -13 182 -47l63 93h50zM234 151l286 418c-35 64 -72 89 -131 89c-114 0 -177 -118 -177 -330c0 -74 5 -117 22 -177zM540 524l-287 -420c34 -64 73 -90 136 -90c116 0 177 109 177 317c0 80 -6 128 -26 193z" />
    <glyph glyph-name="uni01FF" unicode="&#x1ff;" horiz-adv-x="500" 
d="M131 528l137 157c17 19 33 28 53 28c29 0 48 -18 48 -44c0 -23 -8 -33 -40 -53l-142 -88h-56zM461 549l-73 -123c62 -56 88 -115 88 -197c0 -140 -95 -243 -225 -243c-40 0 -71 8 -107 27l-63 -105h-47l76 128c-60 56 -85 113 -85 193c0 140 97 244 227 244
c38 0 67 -7 103 -25l60 101h46zM173 140l143 242c-13 44 -31 60 -64 60c-62 0 -80 -52 -80 -233c0 -27 0 -49 1 -69zM327 324l-144 -244c13 -45 33 -63 68 -63c58 0 78 52 78 200c0 35 0 60 -2 107z" />
    <glyph glyph-name="uni0237" unicode="&#x237;" horiz-adv-x="333" 
d="M260 461v-459c0 -59 -8 -97 -27 -129c-28 -49 -81 -76 -150 -76c-82 0 -140 41 -140 100c0 36 25 61 62 61c33 0 59 -24 59 -54c0 -10 -4 -22 -14 -37c-6 -10 -9 -17 -9 -22c0 -10 13 -17 32 -17c34 0 48 23 48 76v474c0 43 -12 55 -63 59v24h202z" />
    <glyph glyph-name="uni0250" unicode="&#x250;" horiz-adv-x="512" 
d="M28 395l-15 21c38 41 69 57 112 57c49 0 71 -18 82 -69c55 50 101 69 159 69c64 0 110 -32 110 -106c0 -44 -22 -82 -67 -112c-38 -25 -85 -43 -201 -76v-68c0 -64 22 -93 81 -93c36 0 65 13 65 37c0 6 -2 13 -11 23c-13 16 -19 28 -19 42c0 34 28 60 68 60
c41 0 65 -26 65 -68c0 -80 -78 -126 -191 -126c-122 0 -196 48 -196 134v261c0 17 -7 28 -21 28c-5 0 -8 -1 -11 -4zM208 362v-148c80 22 122 63 122 121c0 44 -22 67 -52 67c-24 0 -48 -9 -70 -40z" />
    <glyph glyph-name="uni0251" unicode="&#x251;" horiz-adv-x="608" 
d="M594 50l-194 -58v53c-16 -13 -56 -59 -145 -59c-52 0 -223 21 -223 231c0 136 100 256 246 256c57 0 97 -25 122 -46l106 46h14v-388c0 -15 3 -25 15 -25c7 0 21 2 59 7v-17zM400 109v231c0 68 -60 101 -101 101c-56 0 -124 -51 -124 -188c0 -151 74 -209 146 -209
c29 0 79 27 79 65z" />
    <glyph glyph-name="uni0252" unicode="&#x252;" horiz-adv-x="608" 
d="M226 467v-53c16 13 56 59 145 59c52 0 223 -21 223 -231c0 -136 -100 -256 -246 -256c-57 0 -97 25 -122 46l-106 -46h-14v388c0 15 -3 25 -15 25c-7 0 -21 -2 -59 -7v17zM226 350v-231c0 -68 60 -101 101 -101c56 0 124 51 124 188c0 151 -74 209 -146 209
c-29 0 -79 -27 -79 -65z" />
    <glyph glyph-name="uni0253" unicode="&#x253;" horiz-adv-x="560" 
d="M213 586v-169c38 40 73 56 122 56c111 0 188 -95 188 -234c0 -150 -92 -253 -226 -253c-50 0 -86 15 -132 57l-79 -56h-12v479c0 79 9 137 40 174c27 33 71 51 135 51c85 0 142 -41 142 -100c0 -37 -24 -64 -61 -64c-34 0 -60 26 -60 57c0 35 22 43 22 57
c0 12 -11 19 -29 19c-34 0 -50 -19 -50 -74zM213 360v-263c0 -48 27 -79 69 -79c64 0 94 64 94 203c0 132 -31 198 -93 198c-33 0 -52 -16 -70 -59z" />
    <glyph glyph-name="uni0254" unicode="&#x254;" horiz-adv-x="472" 
d="M33 350l-18 18c55 75 111 105 191 105c125 0 214 -93 214 -236c0 -149 -104 -251 -237 -251c-87 0 -154 46 -154 110c0 39 26 64 68 64c34 0 56 -25 56 -73c0 -47 0 -70 42 -70c49 0 84 60 84 169c0 136 -52 220 -139 220c-41 0 -70 -14 -107 -56z" />
    <glyph glyph-name="uni0255" unicode="&#x255;" horiz-adv-x="477" 
d="M107 -161l77 156c-29 8 -69 31 -91 53c-41 41 -63 104 -63 174c0 149 104 251 237 251c87 0 154 -46 154 -110c0 -39 -26 -64 -68 -64c-34 0 -56 25 -56 73c0 47 0 70 -42 70c-49 0 -84 -60 -84 -169c0 -77 16 -147 56 -195c40 58 60 89 121 89c59 0 97 -34 97 -83
c0 -54 -42 -105 -131 -105c-14 0 -67 0 -86 4l-73 -144h-48zM401 84c0 31 -29 43 -53 43c-33 0 -55 -22 -88 -76c18 -15 57 -28 73 -28c58 0 68 34 68 61z" />
    <glyph glyph-name="uni0256" unicode="&#x256;" horiz-adv-x="602" 
d="M482 676v-799c0 -59 14 -79 50 -79c18 0 29 7 29 19c0 14 -22 22 -22 57c0 31 26 57 60 57c37 0 61 -27 61 -64c0 -59 -57 -100 -142 -100c-64 0 -108 18 -135 51c-33 40 -40 100 -40 175v59c-47 -50 -77 -66 -130 -66c-105 0 -181 98 -181 235c0 145 82 252 192 252
c46 0 76 -16 119 -62v183c0 46 -9 53 -76 58v24h215zM343 112v243c-15 38 -45 62 -78 62c-58 0 -85 -59 -85 -188c0 -127 25 -187 78 -187c23 0 46 12 66 37c10 13 19 28 19 33z" />
    <glyph glyph-name="uni0257" unicode="&#x257;" horiz-adv-x="650" 
d="M343 411v64c0 68 10 121 40 157c27 33 71 51 135 51c85 0 142 -41 142 -100c0 -37 -24 -64 -61 -64c-34 0 -60 26 -60 57c0 35 22 43 22 57c0 12 -11 19 -29 19c-34 0 -50 -17 -50 -67v-484c0 -42 13 -55 59 -58v-23l-62 -8c-62 -8 -87 -12 -133 -25v65
c-47 -50 -80 -66 -133 -66c-105 0 -181 98 -181 235c0 145 82 252 192 252c46 0 76 -16 119 -62zM343 112v243c-15 38 -45 62 -78 62c-58 0 -85 -59 -85 -188c0 -127 25 -187 78 -187c23 0 46 12 66 37c10 13 19 28 19 33z" />
    <glyph glyph-name="uni0258" unicode="&#x258;" horiz-adv-x="457" 
d="M283 245h-252c4 74 22 137 59 178c29 32 70 50 128 50c125 0 209 -100 209 -249c0 -137 -83 -238 -204 -238c-85 0 -138 31 -198 126l24 14c41 -49 72 -68 115 -68c98 0 113 92 119 187zM154 282h134c0 120 -24 160 -70 160c-29 0 -41 -17 -55 -47c-9 -19 -9 -40 -9 -92
v-21z" />
    <glyph glyph-name="uni0259" unicode="&#x259;" horiz-adv-x="457" 
d="M43 333l-24 14c60 95 113 126 198 126c121 0 204 -101 204 -238c0 -149 -84 -249 -209 -249c-58 0 -99 18 -128 50c-37 41 -55 104 -59 178h252c-6 95 -21 187 -119 187c-43 0 -74 -19 -115 -68zM282 177h-134v-21c0 -52 0 -73 9 -92c14 -30 26 -47 55 -47
c46 0 70 40 70 160z" />
    <glyph glyph-name="uni025A" unicode="&#x25a;" horiz-adv-x="688" 
d="M677 289l-11 -27c-13 -32 -44 -57 -83 -57c-53 0 -83 30 -83 83c0 21 0 86 1 93l-72 -43c9 -29 14 -70 14 -103c0 -149 -84 -249 -209 -249c-58 0 -99 18 -128 50c-37 41 -53 96 -54 126l252 146c-14 55 -63 93 -124 93c-43 0 -74 -19 -115 -68l-24 14
c65 104 122 126 198 126c73 0 133 -36 172 -103l118 71l13 -12c-3 -51 -5 -113 -5 -140s20 -47 45 -47c33 0 51 25 55 35l10 25zM304 178v88l-129 -75v-53c0 -49 7 -121 61 -121c68 0 68 112 68 161z" />
    <glyph glyph-name="uni025B" unicode="&#x25b;" horiz-adv-x="493" 
d="M416 102l23 -18c-65 -90 -139 -98 -213 -98c-95 0 -201 39 -201 137c0 59 50 109 118 127c-57 26 -91 52 -91 108c0 92 91 116 189 117c34 0 59 -4 80 -10c45 -13 94 -51 94 -84c0 -24 -9 -51 -50 -51c-39 0 -51 19 -71 70c-10 25 -24 38 -56 38c-49 0 -66 -26 -66 -88
c0 -43 41 -71 70 -80c24 -7 26 -5 52 -6v-37h-53c-48 0 -77 -38 -77 -98c0 -57 38 -94 91 -94c61 0 110 9 161 67z" />
    <glyph glyph-name="uni025C" unicode="&#x25c;" horiz-adv-x="493" 
d="M170 227v37c26 1 28 -1 52 6c29 9 70 37 70 80c0 62 -17 88 -66 88c-32 0 -46 -13 -56 -38c-20 -51 -32 -70 -71 -70c-41 0 -50 27 -50 51c0 33 49 71 94 84c21 6 46 10 80 10c98 -1 189 -25 189 -117c0 -56 -34 -82 -91 -108c68 -18 118 -68 118 -127
c0 -98 -106 -137 -201 -137c-74 0 -148 8 -213 98l23 18c51 -58 100 -67 161 -67c53 0 91 37 91 94c0 60 -29 98 -77 98h-53z" />
    <glyph glyph-name="uni025D" unicode="&#x25d;" horiz-adv-x="683" 
d="M658 289l-11 -27c-13 -32 -44 -57 -83 -57c-53 0 -83 30 -83 83c0 21 0 86 1 93l-72 -44c-8 -43 -41 -65 -89 -87c68 -18 119 -68 119 -127c0 -98 -107 -137 -202 -137c-74 0 -150 9 -213 98l23 18c51 -58 100 -67 161 -67c53 0 91 37 91 94c0 60 -29 98 -77 98h-53v37
c26 1 28 -1 52 6c29 9 70 37 70 80c0 62 -16 88 -68 88c-29 0 -44 -13 -54 -38c-20 -51 -32 -70 -71 -70c-41 0 -50 27 -50 51c0 33 49 71 94 84c21 6 46 10 80 10c89 -1 173 -21 187 -94l100 60l13 -12c-3 -51 -5 -113 -5 -140s20 -47 45 -47c33 0 51 25 55 35l10 25z" />
    <glyph glyph-name="uni025E" unicode="&#x25e;" horiz-adv-x="523" 
d="M469 123c0 -97 -100 -137 -213 -137c-73 0 -231 38 -231 247c0 148 104 242 220 242c105 0 197 -24 197 -117c0 -56 -34 -82 -91 -108c68 -18 118 -68 118 -127zM200 227v37c26 1 28 -1 52 6c29 9 70 37 70 80c0 62 -16 88 -68 88c-83 0 -159 -83 -159 -196
c0 -126 69 -207 144 -207c53 0 90 37 90 94c0 60 -28 98 -76 98h-53z" />
    <glyph glyph-name="uni025F" unicode="&#x25f;" horiz-adv-x="338" 
d="M314 461v-24c-43 0 -51 -35 -51 -60v-123h48v-46h-48v-206c0 -59 -8 -97 -27 -129c-28 -49 -81 -76 -150 -76c-82 0 -140 41 -140 100c0 36 25 61 62 61c33 0 59 -24 59 -54c0 -10 -4 -22 -14 -37c-6 -10 -9 -17 -9 -22c0 -10 13 -17 32 -17c34 0 48 23 48 76v304h-101
v46h101v123c0 40 -10 58 -63 60v24h253z" />
    <glyph glyph-name="uni0260" unicode="&#x260;" horiz-adv-x="627" 
d="M345 -68v110c-35 -45 -75 -56 -123 -56c-103 0 -185 88 -185 233c0 140 87 254 222 254c33 0 58 -6 86 -22c0 76 8 142 40 181c27 33 71 51 135 51c85 0 142 -41 142 -100c0 -37 -24 -64 -61 -64c-34 0 -60 26 -60 57c0 35 22 43 22 57c0 12 -11 19 -29 19
c-36 0 -50 -20 -50 -79v-591c0 -32 -10 -89 -27 -118c-28 -49 -85 -109 -206 -109c-46 0 -103 8 -141 28c-30 16 -55 43 -55 82c0 36 25 61 62 61c33 0 59 -24 59 -54c0 -10 -4 -22 -14 -37c-6 -10 -9 -17 -9 -22c0 -22 48 -27 67 -27c78 0 125 95 125 146zM345 98v256
c0 55 -27 87 -67 87c-56 0 -95 -63 -95 -205c0 -136 39 -196 93 -196c34 0 69 20 69 58z" />
    <glyph glyph-name="uni0261" unicode="&#x261;" horiz-adv-x="571" 
d="M484 472v-490c0 -32 -10 -89 -27 -118c-28 -49 -85 -109 -206 -109c-46 0 -103 8 -141 28c-30 16 -55 43 -55 82c0 36 25 61 62 61c33 0 59 -24 59 -54c0 -10 -4 -22 -14 -37c-6 -10 -9 -17 -9 -22c0 -22 48 -27 67 -27c78 0 125 95 125 146v110
c-35 -45 -75 -56 -123 -56c-103 0 -185 88 -185 233c0 140 87 254 222 254c50 0 81 -13 132 -56l77 55h16zM345 98v256c0 55 -27 87 -67 87c-56 0 -95 -63 -95 -205c0 -136 39 -196 93 -196c34 0 69 20 69 58z" />
    <glyph glyph-name="uni0262" unicode="&#x262;" horiz-adv-x="590" 
d="M555 192v-16c-54 -6 -62 -25 -62 -67v-78c-47 -26 -125 -42 -200 -42c-147 0 -258 90 -258 232c0 133 108 240 252 240c39 0 69 -8 114 -24c14 -7 25 -9 31 -9c15 0 22 6 34 31h19v-156h-18c-26 50 -39 71 -70 99c-30 26 -65 37 -100 37c-84 0 -135 -75 -135 -212
c0 -69 13 -122 37 -159c25 -38 56 -57 112 -57c50 0 68 22 68 56v59c0 35 -10 47 -73 50v16h249z" />
    <glyph glyph-name="uni0263" unicode="&#x263;" horiz-adv-x="532" 
d="M507 437h-13c-21 0 -32 -31 -42 -58l-107 -291l43 -106c14 -34 32 -77 32 -109c0 -63 -54 -106 -121 -106c-74 0 -115 31 -115 91c0 22 14 54 21 70l33 73l-128 312c-10 24 -39 86 -49 106c-6 12 -19 16 -37 18v24h249v-24c-19 0 -52 -2 -52 -24c0 -10 15 -48 31 -88
l61 -158l66 183c9 24 13 39 13 55c0 31 -28 30 -44 33v23h159v-24zM270 -67l-19 -47c-4 -10 -8 -26 -8 -36c0 -28 11 -44 31 -44c22 0 26 20 26 34c0 6 -1 24 -7 39z" />
    <glyph glyph-name="uni0264" unicode="&#x264;" horiz-adv-x="514" 
d="M275 263l95 142c14 22 33 45 62 45c47 0 65 -40 65 -81c0 -22 -6 -47 -13 -68h-10c-7 22 -20 53 -47 53c-21 0 -39 -13 -50 -30l-70 -108l43 -72c14 -23 27 -48 27 -75c0 -56 -78 -79 -123 -79c-50 0 -95 27 -95 82c0 25 10 43 24 63l37 52l-60 93c-16 24 -40 74 -73 74
c-28 0 -40 -31 -48 -53h-10c-7 18 -12 37 -12 56c0 48 34 92 84 92c47 0 81 -42 104 -78zM290 57c0 20 -27 60 -38 78c-18 -24 -33 -40 -33 -72c0 -22 14 -40 37 -40c18 0 34 16 34 34z" />
    <glyph glyph-name="uni0265" unicode="&#x265;" horiz-adv-x="550" 
d="M536 -226h-193v280c-49 -58 -94 -77 -147 -77c-82 0 -130 57 -130 136v250c0 46 -14 63 -49 63v24h234v-24c-34 -4 -46 -20 -46 -61v-224c0 -71 12 -97 51 -97c24 0 48 12 70 34c10 10 17 20 17 24v263c0 41 -11 56 -48 61v24h240v-24c-45 -9 -53 -9 -53 -65v-502
c0 -48 8 -52 54 -61v-24z" />
    <glyph glyph-name="uni0266" unicode="&#x266;" horiz-adv-x="550" 
d="M532 0h-234v24c34 4 46 20 46 61v224c0 71 -12 97 -51 97c-24 0 -48 -12 -70 -34c-10 -10 -17 -20 -17 -24v-263c0 -41 11 -56 48 -61v-24h-240v24c45 9 53 9 53 65v393c0 64 11 115 40 150c27 33 71 51 135 51c85 0 142 -41 142 -100c0 -37 -24 -64 -61 -64
c-34 0 -60 26 -60 57c0 35 22 43 22 57c0 12 -11 19 -29 19c-34 0 -50 -17 -50 -67v-189c49 58 94 77 147 77c82 0 130 -57 130 -136v-250c0 -46 14 -63 49 -63v-24z" />
    <glyph glyph-name="uni0267" unicode="&#x267;" horiz-adv-x="556" 
d="M485 337v-337c0 -59 -8 -97 -27 -129c-28 -49 -81 -76 -150 -76c-82 0 -140 41 -140 100c0 36 25 61 62 61c33 0 59 -24 59 -54c0 -10 -4 -22 -14 -37c-6 -10 -9 -12 -9 -22s13 -17 32 -17c31 0 48 20 48 65v418c0 71 -12 97 -51 97c-24 0 -48 -12 -70 -34
c-10 -10 -17 -20 -17 -24v-263c0 -41 11 -56 48 -61v-24h-240v24c45 9 53 9 53 65v393c0 64 11 115 40 150c27 33 71 51 135 51c85 0 142 -41 142 -100c0 -37 -24 -64 -61 -64c-34 0 -60 26 -60 57c0 35 22 43 22 57c0 12 -11 19 -29 19c-34 0 -50 -17 -50 -67v-189
c49 58 94 77 147 77c82 0 130 -57 130 -136z" />
    <glyph glyph-name="uni0268" unicode="&#x268;" horiz-adv-x="292" 
d="M221 613c0 -44 -34 -77 -78 -77s-77 33 -77 77s34 78 79 78c42 0 76 -35 76 -78zM262 0h-240v24c46 11 53 18 53 64v135h-53v46h53v104c0 45 -10 55 -54 64v24h193v-192h45v-46h-45v-138c0 -43 13 -56 48 -61v-24z" />
    <glyph glyph-name="uni0269" unicode="&#x269;" horiz-adv-x="366" 
d="M323 95l16 -17c-20 -33 -65 -86 -143 -86c-84 0 -117 49 -117 136v212c0 36 -4 48 -12 48c-10 0 -25 -3 -45 -10v27c61 23 151 51 177 51c17 0 19 -15 19 -28v-321c0 -44 21 -57 34 -57s41 6 71 45z" />
    <glyph glyph-name="uni026A" unicode="&#x26a;" horiz-adv-x="297" 
d="M264 0h-238v17c51 5 64 13 64 56v319c0 39 -15 49 -64 52v17h238v-17c-49 -2 -63 -13 -63 -52v-319c0 -45 12 -53 63 -56v-17z" />
    <glyph glyph-name="uni026B" unicode="&#x26b;" horiz-adv-x="395" 
d="M337 433h43c-23 -87 -60 -127 -115 -127v-219c0 -46 17 -62 50 -63v-24h-240v24c34 3 51 19 51 63v264c-9 3 -14 4 -20 4c-26 0 -45 -19 -49 -47h-42c17 83 52 123 111 125v154c0 37 -17 62 -52 65v24h191v-289c7 -3 11 -3 18 -3c27 0 41 13 54 49z" />
    <glyph glyph-name="uni026C" unicode="&#x26c;" horiz-adv-x="446" 
d="M417 384l11 -21s-44 -72 -129 -115v-161c0 -46 17 -62 50 -63v-24h-240v24c34 3 51 19 51 63v143c-10 -1 -18 -1 -27 -1c-61 0 -116 38 -116 114c0 81 59 115 116 115c9 0 23 -4 27 -5v134c0 37 -17 62 -52 65v24h191v-376c54 19 99 65 118 84zM160 276v141
c-5 2 -13 4 -23 4c-30 0 -60 -35 -60 -68c0 -39 16 -68 54 -76c5 -1 23 -1 29 -1z" />
    <glyph glyph-name="uni026D" unicode="&#x26d;" horiz-adv-x="326" 
d="M206 676v-786c0 -46 16 -92 48 -92c19 0 32 7 32 17c0 5 -3 12 -9 22c-10 15 -14 27 -14 37c0 30 26 54 59 54c37 0 62 -25 62 -61c0 -59 -58 -100 -140 -100c-69 0 -121 28 -150 76c-15 25 -27 60 -27 99v645c0 37 -17 62 -52 65v24h191z" />
    <glyph glyph-name="uni026E" unicode="&#x26e;" horiz-adv-x="619" 
d="M587 423l-194 -197c11 3 37 6 53 6c73 0 157 -77 157 -206c0 -130 -69 -207 -108 -233c-24 -15 -60 -29 -113 -29c-49 0 -111 13 -141 33c-37 25 -47 47 -47 71s16 50 59 50c37 0 60 -22 67 -67c5 -30 36 -50 69 -50c75 0 87 120 87 207c0 73 -18 160 -84 160
c-21 0 -64 -2 -109 -47l-27 24l228 232h-204c-19 0 -50 -19 -65 -54v-236c0 -46 17 -62 50 -63v-24h-240v24c34 3 51 19 51 63v500c0 37 -17 62 -52 65v24h191v-226h372v-27z" />
    <glyph glyph-name="uni026F" unicode="&#x26f;" horiz-adv-x="828" 
d="M815 12h-192v75h-3c-38 -61 -80 -87 -144 -87c-63 0 -98 24 -128 87c-52 -64 -90 -87 -147 -87c-82 0 -135 53 -135 142v248c0 43 -11 57 -50 59v24h237v-24c-38 -3 -48 -17 -48 -59v-228c0 -62 15 -95 53 -95c18 0 37 7 58 25c13 10 27 28 27 33v265c0 38 -11 55 -46 59
v24h232v-24c-37 -3 -47 -18 -47 -59v-240c0 -60 15 -83 54 -83c23 0 84 38 84 62v261c0 38 -10 54 -45 59v24h239v-24c-44 -8 -55 -21 -55 -62v-287c0 -47 12 -58 56 -64v-24z" />
    <glyph glyph-name="uni0270" unicode="&#x270;" horiz-adv-x="859" 
d="M836 -233h-272v24c44 8 56 19 56 54v242c-38 -61 -80 -87 -144 -87c-63 0 -98 24 -128 87c-52 -64 -90 -87 -147 -87c-82 0 -135 53 -135 142v248c0 43 -11 57 -50 59v24h237v-24c-38 -3 -48 -17 -48 -59v-228c0 -62 15 -95 53 -95c18 0 37 7 58 25c13 10 27 28 27 33
v265c0 38 -11 55 -46 59v24h232v-24c-37 -3 -47 -18 -47 -59v-240c0 -60 15 -83 54 -83c23 0 84 38 84 62v261c0 38 -10 54 -45 59v24h239v-24c-44 -8 -55 -21 -55 -62v-494c0 -67 16 -99 77 -102v-24z" />
    <glyph glyph-name="uni0271" unicode="&#x271;" horiz-adv-x="847" 
d="M770 331v-359c0 -59 -8 -97 -27 -129c-28 -49 -81 -76 -150 -76c-82 0 -140 41 -140 100c0 36 25 61 62 61c33 0 59 -24 59 -54c0 -10 -4 -22 -14 -37c-6 -10 -9 -17 -9 -22c0 -10 13 -17 32 -17c31 0 48 20 48 65v448c0 62 -15 95 -53 95c-18 0 -37 -7 -58 -25
c-13 -10 -27 -28 -27 -33v-265c0 -38 11 -55 46 -59v-24h-232v24c37 3 47 18 47 59v240c0 60 -15 83 -54 83c-23 0 -84 -38 -84 -62v-261c0 -38 10 -54 45 -59v-24h-239v24c44 8 55 21 55 62v287c0 47 -12 58 -56 64v24h192v-75h3c38 61 80 87 144 87c63 0 98 -24 128 -87
c52 64 90 87 147 87c82 0 135 -53 135 -142z" />
    <glyph glyph-name="uni0272" unicode="&#x272;" horiz-adv-x="625" 
d="M586 0h-234v24c34 4 46 20 46 60v237c0 56 -17 85 -51 85c-24 0 -48 -12 -70 -34c-10 -10 -17 -20 -17 -24v-392c0 -50 -10 -84 -27 -113c-28 -49 -81 -76 -150 -76c-82 0 -140 41 -140 100c0 36 25 61 62 61c33 0 59 -24 59 -54c0 -10 -4 -22 -14 -37
c-6 -10 -9 -17 -9 -22c0 -10 13 -17 32 -17c31 0 48 20 48 65v513c0 43 -9 54 -53 61v24h191v-75c35 60 83 87 143 87c82 0 135 -55 135 -142v-247c0 -45 10 -57 49 -60v-24z" />
    <glyph glyph-name="uni0273" unicode="&#x273;" horiz-adv-x="610" 
d="M490 331v-448c0 -43 17 -85 48 -85c19 0 32 7 32 17c0 5 -3 12 -9 22c-10 15 -14 27 -14 37c0 30 26 54 59 54c37 0 62 -25 62 -61c0 -59 -58 -100 -140 -100c-69 0 -121 28 -150 76c-14 23 -27 55 -27 90v388c0 56 -17 85 -51 85c-24 0 -48 -12 -70 -34
c-10 -10 -17 -20 -17 -24v-264c0 -37 11 -55 48 -60v-24h-240v24c45 9 53 21 53 63v289c0 43 -9 54 -53 61v24h191v-75h1c34 60 82 87 142 87c82 0 135 -55 135 -142z" />
    <glyph glyph-name="uni0274" unicode="&#x274;" horiz-adv-x="604" 
d="M558 461v-17c-49 -7 -59 -13 -59 -56v-400h-23l-342 371v-271c0 -52 14 -65 73 -71v-17h-173v17c55 6 66 15 66 56v323c-30 38 -48 48 -64 48v17h161l268 -294v205c0 54 -15 68 -70 72v17h163z" />
    <glyph glyph-name="uni0275" unicode="&#x275;" horiz-adv-x="520" 
d="M485 229c0 -141 -97 -243 -226 -243c-125 0 -225 100 -225 242c0 146 97 245 229 245c126 0 222 -102 222 -244zM181 253h156c-3 139 -23 189 -77 189c-56 0 -76 -50 -79 -189zM338 207h-157c0 -142 21 -190 79 -190c57 0 77 44 78 190z" />
    <glyph glyph-name="uni0276" unicode="&#x276;" horiz-adv-x="741" 
d="M713 141l-30 -143h-306c-35 0 -60 0 -78 -1c-10 -1 -20 -2 -29 -2c-67 0 -123 15 -163 48c-51 41 -79 108 -79 182c0 83 36 153 97 195c39 27 94 41 145 41c11 0 50 -5 116 -5h298v-136h-18c-11 53 -23 76 -54 94c-20 12 -62 18 -115 18c-28 0 -36 -4 -36 -18v-166
c76 3 89 12 106 98h18v-229h-18c-10 81 -31 103 -106 107v-170c0 -26 9 -32 51 -32c53 0 90 9 120 34c25 20 40 39 61 85h20zM349 142v197c0 49 -2 67 -12 80c-10 15 -30 18 -56 18c-87 0 -131 -74 -131 -223c0 -61 10 -123 28 -150c21 -32 48 -45 96 -45c31 0 50 5 62 19
c11 13 13 38 13 104z" />
    <glyph glyph-name="uni0277" unicode="&#x277;" horiz-adv-x="696" 
d="M653 196c0 -105 -76 -198 -192 -198c-46 0 -90 21 -113 48c-24 -27 -69 -48 -115 -48c-116 0 -191 93 -191 198c0 172 152 281 307 281c147 0 304 -109 304 -281zM512 212c0 167 -80 241 -163 241c-85 0 -166 -74 -166 -241c0 -58 11 -168 64 -168c23 0 61 30 61 73
c0 53 -23 84 -23 135c0 38 7 75 63 75c55 0 63 -37 63 -75c0 -51 -24 -82 -24 -135c0 -43 34 -73 60 -73c61 0 65 110 65 168z" />
    <glyph glyph-name="uni0278" unicode="&#x278;" horiz-adv-x="713" 
d="M426 591v-156c103 -10 241 -77 241 -214c0 -128 -132 -215 -241 -222v-138c0 -57 15 -65 68 -68v-24h-277v24c54 4 70 16 70 71v135c-110 7 -242 94 -242 222c0 137 139 204 242 214v153c0 55 -16 69 -70 73v24h277v-24c-53 -3 -68 -13 -68 -70zM426 398v-360
c55 28 100 105 100 185c0 85 -45 154 -100 175zM287 39v359c-54 -22 -101 -89 -101 -175c0 -79 46 -156 101 -184z" />
    <glyph glyph-name="uni0279" unicode="&#x279;" horiz-adv-x="456" 
d="M441 2h-190v82c-47 -68 -85 -94 -135 -94c-47 0 -81 33 -81 79c0 40 26 68 63 68c26 0 43 -10 60 -38c11 -18 20 -23 28 -23c35 0 61 45 61 104v177c0 64 -11 78 -72 82v24h265v-24c-44 -8 -54 -19 -54 -60v-289c0 -47 12 -58 55 -64v-24z" />
    <glyph glyph-name="uni027A" unicode="&#x27a;" horiz-adv-x="456" 
d="M441 2h-190v82c-47 -68 -85 -94 -135 -94c-47 0 -81 33 -81 79c0 40 26 68 63 68c26 0 43 -10 60 -38c11 -18 20 -23 28 -23c35 0 61 45 61 104v407c0 37 -17 62 -52 65v24h191v-586c0 -47 12 -58 55 -64v-24z" />
    <glyph glyph-name="uni027B" unicode="&#x27b;" horiz-adv-x="506" 
d="M386 379v-496c0 -43 17 -85 48 -85c19 0 32 7 32 17c0 5 -3 12 -9 22c-10 15 -14 27 -14 37c0 30 26 54 59 54c37 0 62 -25 62 -61c0 -59 -58 -100 -140 -100c-69 0 -121 28 -150 76c-13 22 -27 51 -27 83v152c-49 -69 -86 -88 -131 -88c-47 0 -81 33 -81 79
c0 40 26 68 63 68c26 0 43 -10 60 -38c11 -18 20 -23 28 -23c35 0 61 45 61 104v177c0 64 -11 78 -72 82v24h265v-24c-44 -8 -54 -19 -54 -60z" />
    <glyph glyph-name="uni027C" unicode="&#x27c;" horiz-adv-x="426" 
d="M200 461v-82c47 68 85 94 135 94c47 0 81 -33 81 -79c0 -40 -26 -68 -63 -68c-26 0 -43 10 -60 38c-11 18 -20 23 -28 23c-35 0 -61 -45 -61 -104v-410c0 -64 11 -78 72 -82v-24h-265v24c44 8 54 19 54 60v522c0 47 -12 58 -55 64v24h190z" />
    <glyph glyph-name="uni027D" unicode="&#x27d;" horiz-adv-x="454" 
d="M202 461v-82c47 68 85 94 135 94c47 0 81 -33 81 -79c0 -40 -26 -68 -63 -68c-26 0 -43 10 -60 38c-11 18 -20 23 -28 23c-35 0 -61 -45 -61 -104v-406c0 -41 18 -79 48 -79c19 0 32 7 32 17c0 5 -3 12 -9 22c-10 15 -14 27 -14 37c0 30 26 54 59 54c37 0 62 -25 62 -61
c0 -59 -58 -100 -140 -100c-69 0 -121 28 -150 76c-13 22 -27 51 -27 83v447c0 47 -12 58 -55 64v24h190z" />
    <glyph glyph-name="uni027E" unicode="&#x27e;" horiz-adv-x="359" 
d="M69 84v178c0 75 8 132 40 171c27 33 71 51 135 51c85 0 142 -41 142 -100c0 -37 -24 -64 -61 -64c-34 0 -60 26 -60 57c0 35 22 43 22 57c0 12 -11 19 -29 19c-34 0 -50 -22 -50 -73v-274c0 -64 11 -78 72 -82v-24h-265v24c44 8 54 19 54 60z" />
    <glyph glyph-name="uni027F" unicode="&#x27f;" horiz-adv-x="404" 
d="M381 0h-265v24c61 4 72 18 72 82v274c0 51 -16 73 -50 73c-18 0 -29 -7 -29 -19c0 -14 22 -22 22 -57c0 -31 -26 -57 -60 -57c-37 0 -61 27 -61 64c0 59 57 100 142 100c64 0 108 -18 135 -51c32 -39 40 -96 40 -171v-178c0 -41 10 -52 54 -60v-24z" />
    <glyph glyph-name="uni0280" unicode="&#x280;" horiz-adv-x="516" 
d="M495 0h-141l-142 215h-19v-134c0 -51 6 -57 60 -64v-17h-232v17c53 6 60 11 60 66v295c0 54 -10 66 -60 69v17h211c134 0 204 -39 204 -118c0 -31 -11 -62 -32 -81c-19 -17 -36 -29 -76 -39l137 -194c6 -9 18 -15 30 -15v-17zM193 410v-172c90 1 125 18 125 101
c0 73 -25 102 -89 102c-27 0 -36 -8 -36 -31z" />
    <glyph glyph-name="uni0281" unicode="&#x281;" horiz-adv-x="516" 
d="M495 464v-17c-12 0 -24 -6 -30 -15l-137 -194c40 -10 57 -22 76 -39c21 -19 32 -50 32 -81c0 -79 -70 -118 -204 -118h-211v17c50 3 60 15 60 69v295c0 55 -7 60 -60 66v17h232v-17c-54 -7 -60 -13 -60 -64v-134h19l142 215h141zM193 226v-172c0 -23 9 -31 36 -31
c64 0 89 29 89 102c0 83 -35 100 -125 101z" />
    <glyph glyph-name="uni0282" unicode="&#x282;" horiz-adv-x="389" 
d="M340 326h-25c-15 43 -26 62 -47 82c-22 21 -48 32 -75 32c-38 0 -66 -25 -66 -58c0 -34 28 -60 96 -88c100 -42 138 -85 138 -156c0 -90 -63 -152 -154 -152c-28 0 -79 11 -108 23c-10 4 -18 6 -23 6c-9 0 -20 -6 -20 -27v-73c0 -57 24 -102 101 -102c36 0 37 13 37 17
c0 6 -3 12 -9 22c-10 15 -14 27 -14 37c0 30 26 54 59 54c37 0 62 -25 62 -61c0 -59 -58 -100 -140 -100c-73 0 -127 35 -127 120v250h28c21 -87 67 -132 137 -132c45 0 75 26 75 65c0 32 -27 57 -96 87c-101 43 -142 89 -142 155c0 84 66 146 157 146c23 0 46 -4 78 -15
c16 -5 25 -7 31 -7c13 0 19 5 25 20h22v-145z" />
    <glyph glyph-name="uni0283" unicode="&#x283;" horiz-adv-x="458" 
d="M121 -106v599c0 109 58 190 174 190c70 0 111 -30 111 -78c0 -34 -22 -61 -54 -61c-31 0 -53 22 -53 47c0 24 18 39 18 48c0 7 -11 14 -23 14c-38 0 -42 -82 -42 -137v-559c0 -109 -61 -190 -177 -190c-70 0 -111 30 -111 78c0 34 22 61 54 61c31 0 53 -22 53 -47
c0 -24 -18 -39 -18 -48c0 -7 11 -14 23 -14c44 0 45 63 45 97z" />
    <glyph glyph-name="uni0284" unicode="&#x284;" horiz-adv-x="373" 
d="M121 46v436c0 64 7 115 36 150c27 33 67 51 131 51c85 0 142 -41 142 -100c0 -37 -24 -64 -61 -64c-34 0 -60 26 -60 57c0 35 22 43 22 57c0 12 -11 19 -29 19c-32 0 -50 -15 -50 -58v-548h62v-46h-62v-28c0 -59 -8 -97 -27 -129c-28 -49 -73 -76 -142 -76
c-82 0 -140 41 -140 100c0 36 25 61 62 61c33 0 59 -24 59 -54c0 -10 -4 -22 -14 -37c-6 -10 -9 -17 -9 -22c0 -10 13 -17 32 -17c34 0 48 23 48 76v126h-64v46h64z" />
    <glyph glyph-name="uni0285" unicode="&#x285;" horiz-adv-x="396" 
d="M295 280v-386c0 -34 1 -97 45 -97c12 0 23 7 23 14c0 9 -18 24 -18 48c0 25 22 47 53 47c32 0 54 -27 54 -61c0 -48 -41 -78 -111 -78c-116 0 -177 81 -177 190v397c0 35 -4 86 -44 86c-12 0 -23 -7 -23 -14c0 -9 18 -24 18 -48c0 -25 -22 -47 -53 -47
c-32 0 -54 27 -54 61c0 48 41 78 111 78c116 0 176 -81 176 -190z" />
    <glyph glyph-name="uni0286" unicode="&#x286;" horiz-adv-x="399" 
d="M164 21v472c0 109 58 190 174 190c70 0 111 -30 111 -78c0 -34 -22 -61 -54 -61c-31 0 -53 22 -53 47c0 24 18 39 18 48c0 7 -10 14 -23 14c-33 0 -42 -64 -42 -130v-562c24 -27 46 -73 54 -104c9 -35 9 -62 9 -100h-34c0 60 -16 104 -36 139c-19 -73 -74 -129 -168 -129
c-91 0 -136 66 -136 125c0 83 71 133 140 133c9 0 27 -2 40 -4zM164 -106v86c-12 3 -35 5 -43 5c-62 0 -97 -45 -97 -95c0 -21 18 -83 90 -83c44 0 50 53 50 87z" />
    <glyph glyph-name="uni0287" unicode="&#x287;" horiz-adv-x="333" 
d="M332 84v-27c-72 -49 -109 -102 -167 -186h-25v169h-95v44h95v298c0 40 -11 60 -39 60c-21 0 -37 -15 -57 -53l-25 11c41 82 81 113 148 113c69 0 112 -40 112 -107v-322h53z" />
    <glyph glyph-name="uni0288" unicode="&#x288;" horiz-adv-x="339" 
d="M211 417v-540c0 -41 18 -79 48 -79c19 0 32 7 32 17c0 5 -3 12 -9 22c-10 15 -14 27 -14 37c0 30 26 54 59 54c37 0 62 -25 62 -61c0 -59 -58 -100 -140 -100c-69 0 -121 28 -150 76c-13 22 -27 51 -27 83v491h-53v27c72 49 109 102 167 186h25v-169h95v-44h-95z" />
    <glyph glyph-name="uni0289" unicode="&#x289;" horiz-adv-x="556" 
d="M538 20l-63 -7c-65 -7 -89 -11 -132 -26v65c-52 -49 -90 -66 -145 -66c-83 0 -133 52 -133 145v92h-56v46h56v103c0 46 -8 57 -49 65v24h188v-192h138v105c0 45 -11 59 -61 63v24h200v-192h57v-46h-57v-118c0 -44 13 -60 57 -62v-23zM342 98v125h-138v-96
c0 -56 20 -76 56 -76c29 0 51 13 82 47z" />
    <glyph glyph-name="uni028A" unicode="&#x28a;" horiz-adv-x="500" 
d="M487 428h-75c-10 0 -21 -17 -21 -33s8 -26 11 -29c15 -14 83 -87 83 -151c0 -131 -112 -223 -235 -223s-235 94 -235 219c0 72 69 143 80 154c7 7 16 20 16 31c0 16 -15 32 -25 32h-73v24h186c-31 -101 -43 -171 -43 -246c0 -56 13 -190 94 -190c87 0 94 136 94 191
c0 75 -13 148 -43 245h186v-24z" />
    <glyph glyph-name="uni028B" unicode="&#x28b;" horiz-adv-x="534" 
d="M228 460v-334c0 -43 32 -86 75 -86c95 0 153 108 153 193c0 101 -46 131 -74 148c-24 15 -39 26 -39 48c0 23 22 36 49 36c95 0 119 -155 119 -210c0 -131 -79 -265 -231 -265c-101 0 -191 41 -191 146v235c0 11 -9 13 -21 13c-14 0 -32 -5 -45 -9v23
c70 21 104 32 197 67z" />
    <glyph glyph-name="uni028C" unicode="&#x28c;" horiz-adv-x="500" 
d="M485 0h-250v24l18 2c25 3 35 9 35 24c0 7 -1 11 -9 31l-79 203l-72 -182c-8 -19 -11 -33 -11 -45c0 -24 12 -31 55 -33v-24h-151v24c31 3 39 9 58 55l160 396h26l120 -296c20 -49 57 -129 66 -141c6 -8 12 -11 34 -14v-24z" />
    <glyph glyph-name="uni028D" unicode="&#x28d;" horiz-adv-x="722" 
d="M707 0h-222v24c28 4 38 11 38 28c0 13 -12 44 -39 115l-45 118l-68 -171l20 -62c8 -24 18 -25 45 -28v-24h-234v24c38 3 48 8 48 24c0 10 -9 38 -27 106l-34 127l-70 -188c-6 -17 -9 -28 -9 -34c0 -23 11 -31 48 -35v-24h-135v24c26 5 37 16 50 50l155 401h23l102 -310
l125 310h24l148 -374c25 -62 31 -72 57 -77v-24z" />
    <glyph glyph-name="uni028E" unicode="&#x28e;" horiz-adv-x="500" 
d="M482 0h-249v24l16 1c25 2 36 10 36 25c0 4 -9 30 -20 58l-72 186l-68 -188c-9 -26 -11 -37 -11 -49c0 -24 11 -31 54 -33v-24h-152v24c31 4 44 12 60 55l148 398c35 94 56 133 77 156c21 22 50 33 84 33c57 0 97 -32 97 -79c0 -38 -24 -67 -62 -67c-34 0 -60 23 -60 52
c0 4 1 9 2 14c1 3 1 6 1 6c0 9 -8 17 -17 17c-24 0 -49 -32 -66 -82l-18 -53l119 -290c20 -50 58 -134 67 -146c6 -8 12 -11 34 -14v-24z" />
    <glyph glyph-name="uni028F" unicode="&#x28f;" horiz-adv-x="633" 
d="M587 464v-17c-27 -4 -42 -12 -53 -27l-151 -214v-122c0 -53 9 -62 72 -67v-17h-274v17c66 5 73 19 73 71v93l-142 225c-15 23 -39 39 -66 41v17h265v-17l-22 -2c-31 -3 -42 -4 -42 -20c0 -6 9 -24 19 -40l95 -159l86 122c21 29 33 56 33 70c0 20 -13 25 -67 29v17h174z
" />
    <glyph glyph-name="uni0290" unicode="&#x290;" horiz-adv-x="531" 
d="M420 160l-20 -188c-3 -24 -7 -79 -7 -91c0 -38 23 -68 50 -68c36 0 36 13 36 17c0 6 -3 12 -9 22c-10 15 -14 27 -14 37c0 30 26 54 59 54c37 0 62 -25 62 -61c0 -59 -55 -100 -137 -100c-44 0 -83 31 -83 88c0 16 0 57 10 130h-346v25l234 404
c-142 0 -166 -15 -191 -110h-26l7 142h371v-26l-231 -403h29c81 0 114 13 147 59c14 21 22 37 31 69h28z" />
    <glyph glyph-name="uni0291" unicode="&#x291;" horiz-adv-x="538" 
d="M185 32h93c55 103 98 148 154 148c54 0 85 -26 85 -75c0 -61 -52 -105 -141 -105h-73c-29 -51 -54 -93 -82 -150h-43c28 54 58 108 84 150h-241v25l234 404c-142 0 -166 -15 -191 -110h-26l7 142h371v-26zM320 32h51c18 0 48 4 54 6c55 20 60 45 60 68
c0 31 -29 42 -53 42c-39 0 -86 -63 -112 -116z" />
    <glyph glyph-name="uni0292" unicode="&#x292;" horiz-adv-x="440" 
d="M414 423l-194 -197c11 3 37 6 53 6c73 0 157 -77 157 -206c0 -130 -69 -207 -108 -233c-24 -15 -60 -29 -113 -29c-49 0 -111 13 -141 33c-37 25 -47 47 -47 71s16 50 59 50c37 0 60 -22 67 -67c5 -30 36 -50 69 -50c75 0 87 120 87 207c0 73 -18 160 -84 160
c-21 0 -64 -2 -109 -47l-27 24l228 232h-204c-23 0 -66 -30 -73 -83h-26l34 156h372v-27z" />
    <glyph glyph-name="uni0293" unicode="&#x293;" horiz-adv-x="440" 
d="M414 423l-194 -197c11 3 37 6 53 6c57 0 157 -55 157 -218c0 -67 -43 -200 -151 -236l43 -85h-49l-38 75c-26 -3 -44 -4 -74 -4c-111 0 -143 69 -143 105c0 45 34 83 99 83c46 0 83 -11 141 -132c28 25 45 81 45 186c0 63 -13 162 -84 162c-21 0 -64 -2 -109 -47l-27 24
l228 232h-204c-23 0 -66 -30 -73 -83h-26l34 156h372v-27zM219 -196c-26 52 -59 111 -87 111c-19 0 -27 -15 -27 -41c0 -48 44 -73 94 -73c4 0 16 2 20 3z" />
    <glyph glyph-name="uni0294" unicode="&#x294;" horiz-adv-x="417" 
d="M145 378h32c58 0 120 45 120 126c0 49 -11 150 -64 150c-37 0 -45 -32 -54 -65c-8 -30 -26 -60 -71 -60c-37 0 -53 29 -53 48c0 34 23 61 55 79c31 17 68 27 102 27c124 0 214 -74 214 -193c0 -94 -62 -198 -174 -209v-197c0 -42 37 -57 70 -60v-24h-240v24
c33 1 63 17 63 63v291z" />
    <glyph glyph-name="uni0295" unicode="&#x295;" horiz-adv-x="417" 
d="M229 84v197c-112 11 -174 115 -174 209c0 119 90 193 214 193c34 0 71 -10 102 -27c32 -18 55 -45 55 -79c0 -19 -16 -48 -53 -48c-45 0 -63 30 -71 60c-9 33 -17 65 -54 65c-53 0 -64 -101 -64 -150c0 -81 62 -126 120 -126h32v-291c0 -46 30 -62 63 -63v-24h-240v24
c33 3 70 18 70 60z" />
    <glyph glyph-name="uni0296" unicode="&#x296;" horiz-adv-x="417" 
d="M252 585v-197c112 -11 174 -115 174 -209c0 -119 -90 -193 -214 -193c-34 0 -71 10 -102 27c-32 18 -55 45 -55 79c0 19 16 48 53 48c45 0 63 -30 71 -60c9 -33 17 -65 54 -65c53 0 64 101 64 150c0 81 -62 126 -120 126h-32v291c0 46 -30 62 -63 63v24h240v-24
c-33 -3 -70 -18 -70 -60z" />
    <glyph glyph-name="uni0297" unicode="&#x297;" horiz-adv-x="479" 
d="M447 -38v-40c0 -83 -72 -154 -183 -154c-95 0 -192 65 -192 155v391c0 104 121 159 210 159c72 0 164 -46 165 -118c0 -24 -17 -63 -64 -63c-29 0 -56 17 -56 41c0 31 12 31 12 56c0 35 -18 46 -51 46c-52 0 -84 -42 -84 -93v-411c0 -59 36 -113 88 -113
c62 0 112 54 112 118v26h43z" />
    <glyph glyph-name="uni0298" unicode="&#x298;" horiz-adv-x="723" 
d="M438 328c0 -44 -33 -78 -77 -78c-45 0 -81 34 -81 78c0 45 34 80 80 80c43 0 78 -35 78 -80zM708 330c0 -192 -143 -347 -345 -347c-181 0 -350 137 -350 348c0 208 158 349 352 349c198 0 343 -153 343 -350zM580 333c0 177 -73 308 -221 308
c-130 0 -218 -105 -218 -308c0 -176 66 -307 221 -307c127 0 218 129 218 307z" />
    <glyph glyph-name="uni0299" unicode="&#x299;" horiz-adv-x="456" 
d="M15 464h225c113 0 176 -39 176 -110c0 -52 -29 -87 -112 -104c78 -10 137 -56 137 -121c0 -73 -67 -129 -193 -129h-233v17c52 6 62 15 62 54v320c0 41 -13 52 -62 56v17zM190 406v-149c89 0 110 25 110 92c0 61 -21 92 -70 92c-27 0 -40 -8 -40 -35zM190 234v-167
c0 -33 14 -44 45 -44c55 0 84 37 84 106c0 70 -35 105 -110 105h-19z" />
    <glyph glyph-name="uni029A" unicode="&#x29a;" horiz-adv-x="465" 
d="M455 233c0 -209 -158 -247 -231 -247c-113 0 -213 40 -213 137c0 59 50 109 118 127c-57 26 -91 52 -91 108c0 93 92 117 197 117c116 0 220 -94 220 -242zM280 227h-53c-48 0 -76 -38 -76 -98c0 -57 37 -94 90 -94c75 0 144 81 144 207c0 113 -76 196 -159 196
c-52 0 -68 -26 -68 -88c0 -43 41 -71 70 -80c24 -7 26 -5 52 -6v-37z" />
    <glyph glyph-name="uni029B" unicode="&#x29b;" horiz-adv-x="600" 
d="M487 110v-79c-47 -25 -125 -42 -199 -42c-148 0 -259 90 -259 232c0 134 109 240 252 240c41 0 80 -8 125 -30c3 31 11 56 26 73c17 21 46 33 69 33c56 0 94 -26 94 -65c0 -24 -17 -41 -41 -41c-21 0 -38 16 -38 36c0 23 13 29 13 37s-7 13 -19 13c-20 0 -32 -11 -32 -40
v-174h-18c-24 51 -37 72 -68 99c-30 26 -65 36 -101 36c-84 0 -134 -74 -134 -212c0 -68 12 -120 36 -157c25 -39 56 -59 112 -59c52 0 69 24 69 57v58c0 34 -11 47 -75 51v16h251v-16c-55 -7 -63 -26 -63 -66z" />
    <glyph glyph-name="uni029C" unicode="&#x29c;" horiz-adv-x="582" 
d="M561 0h-248v17c53 6 65 15 65 50v157h-177v-157c0 -36 13 -44 66 -50v-17h-246v17c51 6 62 14 62 50v329c0 38 -13 47 -62 51v17h246v-17c-51 -4 -66 -13 -66 -51v-140h177v140c0 38 -14 47 -65 51v17h248v-17c-50 -4 -65 -14 -65 -51v-329c0 -36 12 -44 65 -50v-17z" />
    <glyph glyph-name="uni029D" unicode="&#x29d;" horiz-adv-x="394" 
d="M282 613c0 -44 -34 -77 -79 -77c-44 0 -76 33 -76 77s34 78 78 78c42 0 77 -36 77 -78zM414 -233h-48c-31 39 -70 79 -103 112c-38 -86 -101 -112 -182 -112c-82 0 -141 45 -141 118c0 76 67 119 129 119c20 0 46 -3 71 -9v383c0 43 -12 55 -63 59v24h202v-447
c0 -30 -1 -62 -5 -83c56 -45 98 -107 140 -164zM140 -95v40c-19 11 -56 19 -77 19c-36 0 -79 -26 -79 -75c0 -60 46 -82 89 -82c51 0 67 42 67 98z" />
    <glyph glyph-name="uni029E" unicode="&#x29e;" horiz-adv-x="556" 
d="M543 -215h-187v431l-128 -128c-11 -11 -21 -29 -21 -38c0 -13 9 -20 35 -23l24 -3v-24h-214v24c63 8 89 25 189 130l-194 268c-9 12 -14 15 -25 15v24h234v-24c-28 -1 -42 -7 -42 -19c0 -8 6 -20 24 -45l95 -134l23 24v114c0 47 -5 53 -52 60v24h239v-24
c-33 -3 -48 -21 -48 -60v-510c0 -38 14 -55 48 -58v-24z" />
    <glyph glyph-name="uni029F" unicode="&#x29f;" horiz-adv-x="470" 
d="M440 156l-27 -156h-396v17c47 6 55 14 55 50v328c0 39 -11 49 -55 52v17h238v-17c-57 -2 -65 -13 -65 -67v-313c0 -29 33 -44 76 -44c53 0 72 12 96 36c21 21 39 54 56 97h22z" />
    <glyph glyph-name="uni02A0" unicode="&#x2a0;" horiz-adv-x="636" 
d="M342 -90v132c-35 -45 -75 -56 -123 -56c-103 0 -185 88 -185 233c0 140 87 254 222 254c35 0 61 -7 91 -26c6 34 17 62 35 84c27 33 71 51 135 51c85 0 142 -41 142 -100c0 -37 -24 -64 -61 -64c-34 0 -60 26 -60 57c0 35 22 43 22 57c0 12 -11 19 -29 19
c-33 0 -50 -15 -50 -60v-614c0 -40 9 -49 55 -58v-24h-267v24c65 9 73 25 73 91zM342 98v256c0 55 -27 87 -67 87c-56 0 -95 -63 -95 -205c0 -136 39 -196 93 -196c34 0 69 20 69 58z" />
    <glyph glyph-name="uni02A1" unicode="&#x2a1;" horiz-adv-x="500" 
d="M145 378h32c58 0 120 45 120 126c0 49 -11 150 -64 150c-37 0 -45 -32 -54 -65c-8 -30 -26 -60 -71 -60c-37 0 -53 29 -53 48c0 34 23 61 55 79c31 17 68 27 102 27c124 0 214 -74 214 -193c0 -94 -62 -198 -174 -209v-73h65v-46h-65v-78c0 -42 37 -57 70 -60v-24h-240
v24c33 1 63 17 63 63v75h-66v46h66v170z" />
    <glyph glyph-name="uni02A2" unicode="&#x2a2;" horiz-adv-x="500" 
d="M229 208v73c-112 11 -174 115 -174 209c0 119 90 193 214 193c34 0 71 -10 102 -27c32 -18 55 -45 55 -79c0 -19 -16 -48 -53 -48c-45 0 -63 30 -71 60c-9 33 -17 65 -54 65c-53 0 -64 -101 -64 -150c0 -81 62 -126 120 -126h32v-170h66v-46h-66v-75c0 -46 30 -62 63 -63
v-24h-240v24c33 3 70 18 70 60v78h-65v46h65z" />
    <glyph glyph-name="uni02A3" unicode="&#x2a3;" horiz-adv-x="868" 
d="M843 146l-16 -160h-488v66c-47 -50 -80 -66 -133 -66c-105 0 -181 98 -181 235c0 145 82 252 192 252c46 0 76 -16 119 -62v183c0 46 -9 53 -76 58v24h215v-229h364v-26l-231 -403h29c81 0 114 13 147 59c14 21 22 37 31 69h28zM479 71l199 344
c-142 0 -166 -15 -191 -110h-12v-204c0 -13 1 -22 4 -30zM336 112v243c-15 38 -45 62 -78 62c-58 0 -85 -59 -85 -188c0 -127 25 -187 78 -187c23 0 46 12 66 37c10 13 19 28 19 33z" />
    <glyph glyph-name="uni02A4" unicode="&#x2a4;" horiz-adv-x="810" 
d="M778 423l-194 -197c11 3 37 6 53 6c73 0 157 -77 157 -206c0 -130 -69 -207 -108 -233c-24 -15 -60 -29 -113 -29c-49 0 -111 13 -141 33c-37 25 -47 47 -47 71s16 50 59 50c37 0 60 -22 67 -67c5 -30 36 -50 69 -50c75 0 87 120 87 207c0 73 -18 160 -84 160
c-21 0 -64 -2 -108 -46c-74 -73 -91 -95 -121 -130l-15 1v59c-47 -50 -80 -66 -133 -66c-105 0 -181 98 -181 235c0 145 82 252 192 252c46 0 76 -16 119 -62v183c0 46 -9 53 -76 58v24h215v-226h303v-27zM675 377h-200v-204zM336 112v243c-15 38 -45 62 -78 62
c-58 0 -85 -59 -85 -188c0 -127 25 -187 78 -187c23 0 46 12 66 37c10 13 19 28 19 33z" />
    <glyph glyph-name="uni02A5" unicode="&#x2a5;" horiz-adv-x="960" 
d="M601 18h93c55 103 98 148 154 148c54 0 85 -26 85 -75c0 -61 -52 -105 -141 -105h-73c-29 -51 -54 -93 -82 -150h-43c28 54 58 108 84 150h-339v66c-47 -50 -80 -66 -133 -66c-105 0 -181 98 -181 235c0 145 82 252 192 252c46 0 76 -16 119 -62v183c0 46 -9 53 -76 58
v24h215v-229h357v-26zM736 18h51c18 0 48 4 54 6c55 20 60 45 60 68c0 31 -29 42 -53 42c-39 0 -86 -63 -112 -116zM476 79l195 336c-142 0 -166 -15 -191 -110h-5v-204c0 -9 0 -16 1 -22zM336 112v243c-15 38 -45 62 -78 62c-58 0 -85 -59 -85 -188c0 -127 25 -187 78 -187
c23 0 46 12 66 37c10 13 19 28 19 33z" />
    <glyph glyph-name="uni02A6" unicode="&#x2a6;" horiz-adv-x="626" 
d="M577 326h-25c-15 43 -26 62 -47 82c-22 21 -48 32 -75 32c-38 0 -66 -25 -66 -58c0 -34 28 -60 96 -88c100 -42 138 -85 138 -156c0 -90 -63 -150 -154 -150c-55 0 -118 9 -155 46c-29 -33 -61 -46 -105 -46c-69 0 -112 40 -112 107v322h-53v27c72 49 109 102 167 186h25
v-169h144c20 8 42 12 66 12c23 0 46 -4 78 -15c16 -5 25 -7 31 -7c13 0 19 5 25 20h22v-145zM307 112l25 -11c-4 -8 -8 -16 -12 -23c25 -39 61 -56 107 -56c45 0 75 24 75 63c0 32 -27 57 -96 87c-101 43 -142 89 -142 155c0 35 11 65 31 90h-84v-298c0 -40 11 -60 39 -60
c21 0 37 15 57 53z" />
    <glyph glyph-name="uni02A7" unicode="&#x2a7;" horiz-adv-x="540" 
d="M341 461v32c0 109 58 190 174 190c70 0 111 -30 111 -78c0 -34 -22 -61 -54 -61c-31 0 -53 22 -53 47c0 24 18 39 18 48c0 7 -11 14 -23 14c-38 0 -42 -82 -42 -137v-559c0 -109 -61 -190 -177 -190c-70 0 -111 30 -111 78c0 34 22 61 54 61c31 0 53 -22 53 -47
c0 -24 -18 -39 -18 -48c0 -7 11 -14 23 -14c44 0 45 63 45 97v162c-65 -43 -104 -68 -157 -68c-69 0 -112 40 -112 107v322h-53v27c72 49 109 102 167 186h25v-169h130zM341 110v307h-130v-298c0 -40 11 -60 39 -60c20 0 53 23 91 51z" />
    <glyph glyph-name="uni02A8" unicode="&#x2a8;" horiz-adv-x="700" 
d="M211 417v-292c0 -40 5 -66 41 -66c11 0 47 3 74 12c-37 42 -51 101 -51 160c0 149 104 251 237 251c87 0 154 -46 154 -110c0 -39 -26 -64 -68 -64c-34 0 -56 25 -56 73c0 47 0 70 -42 70c-49 0 -84 -60 -84 -169c0 -77 15 -126 33 -159c71 41 111 53 144 53
c59 0 97 -34 97 -83c0 -48 -35 -105 -131 -105c-25 0 -85 0 -127 14c-28 10 -56 23 -75 35c-31 -16 -99 -49 -173 -49c-69 0 -112 40 -112 107v322h-53v27c72 49 109 102 167 186h25v-169h95v-44h-95zM646 93c0 31 -29 43 -53 43c-33 0 -76 -20 -120 -49
c14 -19 68 -55 105 -55c58 0 68 34 68 61z" />
    <glyph glyph-name="uni02B0" unicode="&#x2b0;" horiz-adv-x="378" 
d="M365 335h-162v18c23 4 32 14 32 45v169c0 53 -8 73 -35 73c-15 0 -39 -9 -60 -42v-199c0 -31 7 -41 33 -46v-18h-166v18c31 6 37 7 37 49v376c0 36 -6 39 -38 46v18h134v-210c33 42 63 58 101 58c56 0 90 -41 90 -102v-188c0 -34 10 -47 34 -47v-18z" />
    <glyph glyph-name="uni02B1" unicode="&#x2b1;" horiz-adv-x="378" 
d="M365 336h-162v18c24 3 32 15 32 46v168c0 53 -8 73 -35 73c-17 0 -33 -9 -48 -26c-7 -7 -12 -15 -12 -18v-197c0 -31 8 -42 33 -46v-18h-166v18c31 6 37 7 37 49v295c0 47 7 85 27 112c19 24 50 38 93 38c59 0 99 -31 99 -75c0 -28 -17 -48 -43 -48c-22 0 -41 19 -41 43
c0 26 16 32 16 42c0 9 -8 15 -21 15c-23 0 -34 -13 -34 -51v-141c34 44 65 58 101 58c57 0 90 -43 90 -102v-187c0 -35 10 -48 34 -48v-18z" />
    <glyph glyph-name="uni02B2" unicode="&#x2b2;" horiz-adv-x="300" 
d="M273 807c0 -33 -27 -59 -62 -59c-34 0 -58 26 -58 59c0 34 26 61 60 61c32 0 60 -28 60 -61zM270 690v-353c0 -46 -7 -75 -21 -100c-22 -38 -62 -58 -115 -58c-64 0 -109 31 -109 77c0 27 20 47 48 47c26 0 46 -19 46 -42c0 -8 -3 -17 -11 -29c-5 -7 -7 -13 -7 -16
c0 -8 10 -14 25 -14c26 0 37 18 37 59v365c0 33 -9 43 -49 46v18h156z" />
    <glyph glyph-name="uni02B3" unicode="&#x2b3;" horiz-adv-x="270" 
d="M131 690v-60c30 50 53 69 84 69c29 0 51 -24 51 -58c0 -29 -17 -49 -39 -49c-17 0 -27 7 -39 27c-6 14 -11 17 -16 17c-23 0 -38 -33 -38 -76v-148c0 -46 6 -57 44 -59v-18h-165v18c27 5 33 13 33 43v230c0 34 -7 41 -34 46v18h119z" />
    <glyph glyph-name="uni02B4" unicode="&#x2b4;" horiz-adv-x="292" 
d="M264 335h-119v60c-30 -50 -53 -69 -84 -69c-29 0 -51 24 -51 58c0 29 17 49 39 49c17 0 27 -7 39 -27c6 -14 11 -17 16 -17c23 0 38 33 38 76v148c0 46 -6 57 -44 59v18h165v-18c-27 -5 -33 -13 -33 -43v-230c0 -34 7 -41 34 -46v-18z" />
    <glyph glyph-name="uni02B5" unicode="&#x2b5;" horiz-adv-x="319" 
d="M230 628v-380c0 -32 11 -62 30 -62c12 0 20 5 20 12c0 4 -2 9 -6 16c-6 11 -8 20 -8 27c0 22 16 39 37 39c23 0 39 -18 39 -44c0 -43 -37 -73 -88 -73c-44 0 -76 20 -94 55c-9 16 -18 38 -18 61v112c-31 -50 -54 -65 -81 -65c-29 0 -51 24 -51 57c0 31 17 50 40 50
c16 0 28 -8 39 -29c7 -13 10 -15 15 -15c22 0 38 32 38 73v148c0 48 -5 60 -44 62v18h165v-18c-28 -5 -33 -14 -33 -44z" />
    <glyph glyph-name="uni02B6" unicode="&#x2b6;" horiz-adv-x="404" 
d="M397 684v-12c-10 0 -19 -5 -24 -11l-109 -142c32 -7 45 -16 60 -29c17 -13 26 -36 26 -59c0 -58 -56 -86 -162 -86h-168v12c39 3 47 11 47 51v215c0 41 -5 44 -47 49v12h184v-12c-43 -6 -47 -10 -47 -47v-98h15l113 157h112zM157 510v-126c0 -16 7 -22 28 -22
c51 0 71 21 71 74c0 61 -28 73 -99 74z" />
    <glyph glyph-name="uni02B7" unicode="&#x2b7;" horiz-adv-x="550" 
d="M528 681v-18c-19 -4 -27 -12 -37 -37l-114 -295h-17l-76 228l-92 -228h-18l-109 275c-18 46 -23 53 -42 57v18h164v-18c-21 -3 -28 -8 -28 -21c0 -9 9 -31 29 -84l33 -87l50 126l-15 48c-7 15 -14 16 -33 18v18h173v-18c-28 -2 -36 -6 -36 -18c0 -7 6 -27 20 -78
s18 -62 25 -93l26 69c22 58 33 85 33 94c0 17 -8 23 -36 26v18h100z" />
    <glyph glyph-name="uni02B8" unicode="&#x2b8;" horiz-adv-x="380" 
d="M374 690v-18c-24 -3 -34 -10 -46 -43l-114 -305c-26 -71 -43 -102 -59 -120c-16 -17 -38 -25 -64 -25c-44 0 -75 24 -75 60c0 29 19 52 48 52c26 0 46 -18 46 -40c0 -4 -2 -11 -2 -16c0 -6 6 -13 13 -13c18 0 37 25 50 63l14 41l-91 223c-15 38 -45 103 -52 113
c-4 6 -9 8 -26 10v18h192v-18h-13c-19 -2 -27 -8 -27 -20c0 -3 7 -24 15 -45l55 -143l53 144c7 20 8 29 8 38c0 18 -8 25 -41 26v18h116z" />
    <glyph glyph-name="uni02B9" unicode="&#x2b9;" horiz-adv-x="208" 
d="M30 432l93 212c13 30 30 40 52 40c19 0 41 -21 41 -41c0 -15 -9 -28 -19 -42l-135 -180z" />
    <glyph glyph-name="uni02BA" unicode="&#x2ba;" horiz-adv-x="356" 
d="M178 432l93 212c13 30 30 40 52 40c19 0 41 -21 41 -41c0 -15 -9 -28 -19 -42l-135 -180zM19 432l93 212c13 30 30 40 52 40c19 0 41 -21 41 -41c0 -15 -9 -28 -19 -42l-135 -180z" />
    <glyph glyph-name="uni02BB" unicode="&#x2bb;" horiz-adv-x="333" 
d="M205 685l11 -22c-75 -52 -109 -94 -109 -133c0 -12 8 -21 19 -21c7 0 14 2 24 2c43 0 73 -30 73 -76c0 -52 -34 -85 -84 -85c-63 0 -100 45 -100 116c0 86 50 158 166 219z" />
    <glyph glyph-name="uni02BC" unicode="&#x2bc;" horiz-adv-x="333" 
d="M57 351l-11 22c75 52 109 94 109 133c0 12 -8 21 -19 21c-7 0 -14 -2 -24 -2c-43 0 -73 30 -73 76c0 52 34 85 84 85c63 0 100 -45 100 -116c0 -86 -50 -158 -166 -219z" />
    <glyph glyph-name="uni02BD" unicode="&#x2bd;" horiz-adv-x="250" 
d="M216 373l-11 -22c-116 61 -166 133 -166 219c0 71 37 116 100 116c50 0 84 -33 84 -85c0 -46 -30 -76 -73 -76c-10 0 -17 2 -24 2c-11 0 -19 -9 -19 -21c0 -39 34 -81 109 -133z" />
    <glyph glyph-name="uni02BE" unicode="&#x2be;" horiz-adv-x="334" 
d="M65 662h45c73 0 140 -34 140 -140s-68 -140 -140 -140h-45v50h45c71 0 90 46 90 90c0 42 -18 90 -90 90h-45v50z" />
    <glyph glyph-name="uni02BF" unicode="&#x2bf;" horiz-adv-x="334" 
d="M250 382h-45c-72 0 -140 34 -140 140s67 140 140 140h45v-50h-45c-72 0 -90 -48 -90 -90c0 -44 19 -90 90 -90h45v-50z" />
    <glyph glyph-name="uni02C0" unicode="&#x2c0;" horiz-adv-x="353" 
d="M103 441h27c47 0 98 36 98 102c0 40 -9 123 -53 123c-30 0 -37 -26 -44 -53c-6 -25 -21 -49 -58 -49c-30 0 -43 24 -43 39c0 28 19 51 45 65c25 14 55 22 83 22c101 0 175 -61 175 -158c0 -81 -55 -171 -156 -171c-7 0 -14 0 -25 1l-6 -122h-43v201z" />
    <glyph glyph-name="uni02C1" unicode="&#x2c1;" horiz-adv-x="353" 
d="M217 240l-6 122c-11 -1 -18 -1 -25 -1c-101 0 -156 90 -156 171c0 97 74 158 175 158c28 0 58 -8 83 -22c26 -14 45 -37 45 -65c0 -15 -13 -39 -43 -39c-37 0 -52 24 -58 49c-7 27 -14 53 -44 53c-44 0 -53 -83 -53 -123c0 -66 51 -102 98 -102h27v-201h-43z" />
    <glyph glyph-name="uni02C2" unicode="&#x2c2;" horiz-adv-x="317" 
d="M297 414l-267 148v50l267 148v-76l-179 -97l179 -97v-76z" />
    <glyph glyph-name="uni02C3" unicode="&#x2c3;" horiz-adv-x="317" 
d="M297 562l-267 -148v76l179 97l-179 97v76l267 -148v-50z" />
    <glyph glyph-name="uni02C4" unicode="&#x2c4;" horiz-adv-x="317" 
d="M332 453h-76l-97 179l-97 -179h-76l148 267h50z" />
    <glyph glyph-name="uni02C5" unicode="&#x2c5;" horiz-adv-x="317" 
d="M332 720l-148 -267h-50l-148 267h76l97 -179l97 179h76z" />
    <glyph glyph-name="circumflex" unicode="&#x2c6;" horiz-adv-x="333" 
d="M335 528h-57l-112 98l-112 -98h-56l122 176h92z" />
    <glyph glyph-name="caron" unicode="&#x2c7;" horiz-adv-x="333" 
d="M335 704l-123 -176h-92l-122 176h57l111 -99l111 99h58z" />
    <glyph glyph-name="uni02C8" unicode="&#x2c8;" horiz-adv-x="279" 
d="M167 455h-55v265h55v-265z" />
    <glyph glyph-name="uni02C9" unicode="&#x2c9;" horiz-adv-x="370" 
d="M350 565h-330v72h330v-72z" />
    <glyph glyph-name="uni02CA" unicode="&#x2ca;" horiz-adv-x="266" 
d="M20 528l137 157c17 19 33 28 53 28c29 0 48 -18 48 -44c0 -23 -8 -33 -40 -53l-142 -88h-56z" />
    <glyph glyph-name="uni02CB" unicode="&#x2cb;" horiz-adv-x="266" 
d="M258 528h-56l-142 88c-29 18 -40 32 -40 52c0 25 21 45 47 45c19 0 38 -10 54 -28z" />
    <glyph glyph-name="uni02CC" unicode="&#x2cc;" horiz-adv-x="278" 
d="M167 -195h-55v265h55v-265z" />
    <glyph glyph-name="uni02CD" unicode="&#x2cd;" horiz-adv-x="370" 
d="M350 -160h-330v72h330v-72z" />
    <glyph glyph-name="uni02CE" unicode="&#x2ce;" horiz-adv-x="333" 
d="M253 -192h-56l-142 88c-29 18 -40 32 -40 52c0 25 21 45 47 45c19 0 38 -10 54 -28z" />
    <glyph glyph-name="uni02CF" unicode="&#x2cf;" horiz-adv-x="333" 
d="M80 -192l137 157c17 19 33 28 53 28c29 0 48 -18 48 -44c0 -23 -8 -33 -40 -53l-142 -88h-56z" />
    <glyph glyph-name="uni02D0" unicode="&#x2d0;" horiz-adv-x="333" 
d="M254 474l-55 -180h-65l-55 180h175zM254 4h-175l55 180h65z" />
    <glyph glyph-name="uni02D1" unicode="&#x2d1;" horiz-adv-x="333" 
d="M254 474l-55 -180h-65l-55 180h175z" />
    <glyph glyph-name="uni02D2" unicode="&#x2d2;" horiz-adv-x="333" 
d="M65 378h45c80 0 158 -54 158 -158s-78 -158 -158 -158h-45v68h45c50 0 90 40 90 90s-40 90 -90 90h-45v68z" />
    <glyph glyph-name="uni02D3" unicode="&#x2d3;" horiz-adv-x="333" 
d="M268 62h-45c-80 0 -158 54 -158 158s78 158 158 158h45v-68h-45c-50 0 -90 -40 -90 -90s40 -90 90 -90h45v-68z" />
    <glyph glyph-name="uni02D4" unicode="&#x2d4;" horiz-adv-x="333" 
d="M281 4h-230v55h87v147h55v-147h88v-55z" />
    <glyph glyph-name="uni02D5" unicode="&#x2d5;" horiz-adv-x="333" 
d="M281 151h-88v-147h-55v147h-87v55h230v-55z" />
    <glyph glyph-name="uni02D6" unicode="&#x2d6;" horiz-adv-x="334" 
d="M273 85h-76v-76h-60v76h-76v66h76v76h60v-76h76v-66z" />
    <glyph glyph-name="uni02D7" unicode="&#x2d7;" horiz-adv-x="334" 
d="M273 84h-212v66h212v-66z" />
    <glyph glyph-name="breve" unicode="&#x2d8;" horiz-adv-x="333" 
d="M274 691h44c-7 -94 -53 -163 -152 -163c-100 0 -150 67 -151 163h44c12 -61 48 -87 102 -87c62 0 96 23 113 87z" />
    <glyph glyph-name="dotaccent" unicode="&#x2d9;" horiz-adv-x="333" 
d="M231 600c0 -35 -29 -63 -66 -63c-35 0 -63 29 -63 65c0 35 29 64 64 64s65 -30 65 -66z" />
    <glyph glyph-name="ring" unicode="&#x2da;" horiz-adv-x="333" 
d="M273 645c0 -59 -47 -108 -106 -108c-60 0 -107 46 -107 106c0 58 49 107 108 107c57 0 105 -47 105 -105zM225 642c0 34 -28 60 -61 60c-29 0 -56 -27 -56 -58c0 -32 26 -59 57 -59c34 0 60 25 60 57z" />
    <glyph glyph-name="ogonek" unicode="&#x2db;" horiz-adv-x="333" 
d="M296 -83l23 -16c-25 -46 -79 -74 -126 -74c-62 0 -103 31 -103 78c0 38 13 63 54 111c8 10 10 11 14 16l33 12c-1 -7 -3 -10 -6 -20c-9 -32 -11 -49 -11 -64c0 -47 18 -64 61 -64c16 0 28 3 48 13c8 4 10 6 13 8z" />
    <glyph glyph-name="tilde" unicode="&#x2dc;" horiz-adv-x="333" 
d="M306 674h43c-23 -87 -60 -127 -116 -127c-21 0 -46 6 -65 14l-29 13c-44 20 -51 22 -64 22c-26 0 -45 -19 -49 -47h-42c18 86 54 125 116 125c21 0 44 -6 73 -19l40 -18c25 -11 28 -12 39 -12c27 0 41 13 54 49z" />
    <glyph glyph-name="hungarumlaut" unicode="&#x2dd;" horiz-adv-x="333" 
d="M187 528l136 157c17 19 34 28 54 28c29 0 48 -18 48 -44c0 -23 -8 -35 -40 -55l-141 -86h-57zM-13 528l136 157c17 19 34 28 54 28c29 0 48 -18 48 -44c0 -23 -8 -35 -40 -55l-141 -86h-57z" />
    <glyph glyph-name="uni02DE" unicode="&#x2de;" horiz-adv-x="292" 
d="M279 342l23 -64c-4 -11 -13 -40 -28 -60c-23 -30 -44 -32 -63 -32c-35 0 -63 37 -75 56c-28 48 -37 74 -56 115c-18 -32 -66 -54 -77 -57l-3 55c12 8 37 22 62 53c19 25 27 54 31 73c10 -29 44 -140 90 -202c7 -9 22 -25 34 -25c16 0 33 17 41 32c9 17 12 28 21 56z" />
    <glyph glyph-name="uni02DF" unicode="&#x2df;" horiz-adv-x="260" 
d="M250 550l-45 -44l-74 74l-76 -74l-45 44l75 76l-74 73l45 45l75 -73l73 73l46 -45l-74 -73z" />
    <glyph glyph-name="uni02E0" unicode="&#x2e0;" horiz-adv-x="420" 
d="M410 667h-8c-13 0 -29 -27 -38 -42l-111 -189l70 -118c9 -16 17 -36 17 -55c0 -49 -65 -73 -113 -73c-45 0 -114 7 -114 62c0 20 15 52 22 64l50 86l-92 159c-16 28 -28 51 -45 78c-11 17 -18 27 -38 28v17h152v-17c-14 0 -29 -4 -29 -22c0 -5 8 -17 15 -29l81 -139
l67 113c10 17 27 43 27 53c0 18 -18 24 -32 24v17h119v-17zM209 361l-25 -44c-6 -10 -25 -44 -25 -62c0 -33 40 -41 57 -41s53 8 53 36c0 14 -31 62 -40 77z" />
    <glyph glyph-name="uni02E1" unicode="&#x2e1;" horiz-adv-x="190" 
d="M186 335h-180v18c26 2 38 14 38 47v375c0 28 -12 47 -39 49v18h144v-442c0 -34 12 -46 37 -47v-18z" />
    <glyph glyph-name="uni02E2" unicode="&#x2e2;" horiz-adv-x="300" 
d="M262 582h-19c-12 33 -20 48 -37 63c-17 16 -37 25 -57 25c-30 0 -51 -19 -51 -45s20 -46 74 -68c77 -31 106 -65 106 -120c0 -69 -49 -117 -119 -117c-21 0 -60 9 -83 18c-7 3 -14 5 -17 5c-7 0 -12 -6 -21 -22h-19v127h22c16 -67 51 -102 105 -102c35 0 58 20 58 50
c0 25 -21 44 -74 67c-78 34 -109 69 -109 120c0 64 51 112 121 112c17 0 35 -3 60 -11c12 -4 19 -6 24 -6c10 0 14 4 19 16h17v-112z" />
    <glyph glyph-name="uni02E3" unicode="&#x2e3;" horiz-adv-x="380" 
d="M376 335h-186v18c25 2 35 7 35 16s-7 22 -25 49l-33 49l-47 -63c-9 -12 -14 -23 -14 -32c0 -12 10 -17 38 -19v-18h-130v18c28 2 43 15 87 72l50 65l-99 151c-16 24 -20 27 -40 31v18h193v-18c-25 -1 -36 -6 -36 -15c0 -12 8 -23 15 -33l40 -56l27 36c21 27 30 40 30 49
c0 12 -7 15 -24 17l-16 2v18h130v-18c-24 -4 -39 -13 -54 -31l-78 -97l108 -168c6 -9 18 -23 29 -23v-18z" />
    <glyph glyph-name="uni02E4" unicode="&#x2e4;" horiz-adv-x="328" 
d="M170 419v108c-7 -1 -11 -1 -16 -1c-83 0 -134 91 -134 171c0 97 74 158 175 158c28 0 58 -8 83 -22c26 -14 45 -37 45 -65c0 -15 -13 -39 -43 -39c-37 0 -52 24 -58 49c-7 27 -14 53 -44 53c-44 0 -53 -83 -53 -123c0 -66 51 -102 98 -102h27v-198c0 -41 13 -52 69 -56
v-17h-224v17c56 4 75 4 75 67z" />
    <glyph glyph-name="uni02E5" unicode="&#x2e5;" horiz-adv-x="405" 
d="M368 0h-66v610h-262v66h328v-676z" />
    <glyph glyph-name="uni02E6" unicode="&#x2e6;" horiz-adv-x="405" 
d="M368 0h-66v428h-262v66h262v182h66v-676z" />
    <glyph glyph-name="uni02E7" unicode="&#x2e7;" horiz-adv-x="405" 
d="M368 0h-66v305h-262v66h262v305h66v-676z" />
    <glyph glyph-name="uni02E8" unicode="&#x2e8;" horiz-adv-x="405" 
d="M368 0h-66v182h-262v66h262v428h66v-676z" />
    <glyph glyph-name="uni02E9" unicode="&#x2e9;" horiz-adv-x="405" 
d="M368 0h-328v66h262v610h66v-676z" />
    <glyph glyph-name="uni02EC" unicode="&#x2ec;" horiz-adv-x="314" 
d="M309 70l-131 -237h-43l-130 237h78l74 -136l74 136h78z" />
    <glyph glyph-name="uni02ED" unicode="&#x2ed;" horiz-adv-x="395" 
d="M390 648h-385v72h385v-72zM390 528h-385v72h385v-72z" />
    <glyph glyph-name="uni02F7" unicode="&#x2f7;" horiz-adv-x="333" 
d="M306 -108h43c-23 -87 -60 -127 -116 -127c-34 0 -55 9 -83 22c-31 14 -53 27 -75 27c-26 0 -45 -19 -49 -47h-42c18 86 54 125 116 125c32 0 58 -12 88 -26c18 -8 48 -23 62 -23c29 0 43 13 56 49z" />
    <glyph glyph-name="uni0300" unicode="&#x300;" horiz-adv-x="0" 
d="M-131 528h-56l-142 88c-29 18 -40 32 -40 52c0 25 21 45 47 45c19 0 38 -10 54 -28z" />
    <glyph glyph-name="uni0301" unicode="&#x301;" horiz-adv-x="0" 
d="M-369 528l137 157c16 18 35 28 54 28c26 0 47 -20 47 -45c0 -20 -11 -34 -40 -52l-142 -88h-56z" />
    <glyph glyph-name="uni0302" unicode="&#x302;" horiz-adv-x="0" 
d="M-81 528h-57l-112 98l-112 -98h-56l122 176h92z" />
    <glyph glyph-name="uni0303" unicode="&#x303;" horiz-adv-x="0" 
d="M-110 674h43c-23 -87 -60 -127 -116 -127c-34 0 -55 9 -83 22c-31 14 -53 27 -75 27c-26 0 -45 -19 -49 -47h-42c18 86 54 125 116 125c32 0 58 -12 88 -26c18 -8 48 -23 62 -23c29 0 43 13 56 49z" />
    <glyph glyph-name="uni0304" unicode="&#x304;" horiz-adv-x="0" 
d="M-85 565h-330v72h330v-72z" />
    <glyph glyph-name="uni0305" unicode="&#x305;" horiz-adv-x="0" 
d="M0 788h-500v50h500v-50z" />
    <glyph glyph-name="uni0306" unicode="&#x306;" horiz-adv-x="0" 
d="M-142 691h44c-7 -94 -53 -163 -152 -163c-100 0 -150 67 -151 163h44c12 -61 48 -87 102 -87c62 0 96 23 113 87z" />
    <glyph glyph-name="uni0307" unicode="&#x307;" horiz-adv-x="0" 
d="M-185 600c0 -35 -29 -63 -66 -63c-35 0 -63 29 -63 65c0 35 29 64 64 64s65 -30 65 -66z" />
    <glyph glyph-name="uni0308" unicode="&#x308;" horiz-adv-x="0" 
d="M-80 600c0 -35 -29 -63 -66 -63c-35 0 -63 29 -63 65c0 35 29 64 64 64s65 -30 65 -66zM-290 600c0 -35 -28 -63 -65 -63c-35 0 -64 29 -64 65c0 34 30 64 65 64c34 0 64 -30 64 -66z" />
    <glyph glyph-name="uni0309" unicode="&#x309;" horiz-adv-x="0" 
d="M-292 589h18c34 0 66 29 66 64c0 18 -1 72 -28 72c-34 0 -11 -64 -67 -64c-17 0 -33 12 -33 30c0 40 46 60 81 60c66 0 124 -32 124 -105c0 -68 -54 -113 -120 -113l-2 -42h-39v98z" />
    <glyph glyph-name="uni030A" unicode="&#x30a;" horiz-adv-x="0" 
d="M-143 645c0 -59 -47 -108 -106 -108c-60 0 -107 46 -107 106c0 58 49 107 108 107c57 0 105 -47 105 -105zM-191 642c0 34 -28 60 -61 60c-29 0 -56 -27 -56 -58c0 -32 26 -59 57 -59c34 0 60 25 60 57z" />
    <glyph glyph-name="uni030B" unicode="&#x30b;" horiz-adv-x="0" 
d="M-269 528l137 157c17 19 33 28 53 28c29 0 48 -18 48 -44c0 -23 -8 -33 -40 -53l-142 -88h-56zM-469 528l137 157c17 19 33 28 53 28c29 0 48 -18 48 -44c0 -23 -8 -33 -40 -53l-142 -88h-56z" />
    <glyph glyph-name="uni030C" unicode="&#x30c;" horiz-adv-x="0" 
d="M-81 704l-123 -176h-92l-122 176h57l111 -99l111 99h58z" />
    <glyph glyph-name="uni030D" unicode="&#x30d;" horiz-adv-x="0" 
d="M-211 530h-66v200h66v-200z" />
    <glyph glyph-name="uni030E" unicode="&#x30e;" horiz-adv-x="0" 
d="M-142 530h-66v200h66v-200zM-292 530h-66v200h66v-200z" />
    <glyph glyph-name="uni030F" unicode="&#x30f;" horiz-adv-x="0" 
d="M-31 528h-56l-142 88c-32 20 -40 30 -40 53c0 26 19 44 48 44c20 0 36 -9 53 -28zM-231 528h-56l-142 88c-32 20 -40 30 -40 53c0 26 19 44 48 44c20 0 36 -9 53 -28z" />
    <glyph glyph-name="uni0310" unicode="&#x310;" horiz-adv-x="0" 
d="M-185 762c0 -35 -29 -63 -66 -63c-35 0 -63 29 -63 65c0 35 29 64 64 64s65 -30 65 -66zM-142 691h44c-7 -94 -53 -163 -152 -163c-100 0 -150 67 -151 163h44c12 -61 48 -87 102 -87c62 0 96 23 113 87z" />
    <glyph glyph-name="uni0311" unicode="&#x311;" horiz-adv-x="0" 
d="M-98 528h-44c-17 64 -51 87 -113 87c-54 0 -90 -26 -102 -87h-44c1 96 51 163 151 163c99 0 145 -69 152 -163z" />
    <glyph glyph-name="uni0312" unicode="&#x312;" horiz-adv-x="0" 
d="M-176 867l11 -22c-75 -52 -109 -94 -109 -133c0 -12 8 -21 19 -21c7 0 14 2 24 2c43 0 73 -30 73 -76c0 -52 -34 -85 -84 -85c-63 0 -100 45 -100 116c0 86 50 158 166 219z" />
    <glyph glyph-name="uni0313" unicode="&#x313;" horiz-adv-x="0" 
d="M-324 532l-11 22c75 52 109 94 109 133c0 12 -8 21 -19 21c-7 0 -14 -2 -24 -2c-43 0 -73 30 -73 76c0 52 34 85 84 85c63 0 100 -45 100 -116c0 -86 -50 -158 -166 -219z" />
    <glyph glyph-name="uni0314" unicode="&#x314;" horiz-adv-x="0" 
d="M-165 554l-11 -22c-116 61 -166 133 -166 219c0 71 37 116 100 116c50 0 84 -33 84 -85c0 -46 -30 -76 -73 -76c-10 0 -17 2 -24 2c-11 0 -19 -9 -19 -21c0 -39 34 -81 109 -133z" />
    <glyph glyph-name="uni0315" unicode="&#x315;" horiz-adv-x="0" 
d="M-98 532l-11 22c75 52 109 94 109 133c0 12 -8 21 -19 21c-7 0 -14 -2 -24 -2c-43 0 -73 30 -73 76c0 52 34 85 84 85c63 0 100 -45 100 -116c0 -86 -50 -158 -166 -219z" />
    <glyph glyph-name="uni0316" unicode="&#x316;" horiz-adv-x="0" 
d="M-131 -255h-56l-142 88c-29 18 -40 32 -40 52c0 25 21 45 47 45c19 0 38 -10 54 -28z" />
    <glyph glyph-name="uni0317" unicode="&#x317;" horiz-adv-x="0" 
d="M-369 -255l137 157c16 18 35 28 54 28c26 0 47 -20 47 -45c0 -20 -11 -34 -40 -52l-142 -88h-56z" />
    <glyph glyph-name="uni0318" unicode="&#x318;" horiz-adv-x="0" 
d="M-223 -288h-55v88h-147v55h147v87h55v-230z" />
    <glyph glyph-name="uni0319" unicode="&#x319;" horiz-adv-x="0" 
d="M-86 -200h-147v-88h-55v230h55v-87h147v-55z" />
    <glyph glyph-name="uni031A" unicode="&#x31a;" horiz-adv-x="0" 
d="M-93 531h-72v149h-245v72h317v-221z" />
    <glyph glyph-name="uni031B" unicode="&#x31b;" horiz-adv-x="0" 
d="M-62 374h8c26 0 46 7 46 25c0 4 -41 19 -41 57c0 21 20 49 53 49c32 0 62 -23 62 -67c0 -45 -31 -72 -72 -81c-13 -3 -38 -5 -56 -5v22z" />
    <glyph glyph-name="uni031C" unicode="&#x31c;" horiz-adv-x="0" 
d="M-190 -313h-45c-72 0 -140 34 -140 140s67 140 140 140h45v-50h-45c-72 0 -90 -48 -90 -90c0 -44 19 -90 90 -90h45v-50z" />
    <glyph glyph-name="uni031D" unicode="&#x31d;" horiz-adv-x="0" 
d="M-135 -272h-230v55h87v147h55v-147h88v-55z" />
    <glyph glyph-name="uni031E" unicode="&#x31e;" horiz-adv-x="0" 
d="M-135 -125h-88v-147h-55v147h-87v55h230v-55z" />
    <glyph glyph-name="uni031F" unicode="&#x31f;" horiz-adv-x="0" 
d="M-144 -206h-76v-81h-60v81h-76v66h76v70h60v-70h76v-66z" />
    <glyph glyph-name="uni0320" unicode="&#x320;" horiz-adv-x="0" 
d="M-144 -206h-212v66h212v-66z" />
    <glyph glyph-name="uni0321" unicode="&#x321;" horiz-adv-x="0" 
d="M-22 75v-212c0 -47 -7 -85 -27 -112c-19 -24 -50 -38 -93 -38c-59 0 -99 31 -99 75c0 28 17 48 43 48c22 0 41 -19 41 -43c0 -26 -16 -32 -16 -42c0 -9 7 -15 23 -15c23 0 56 14 56 51v288h72z" />
    <glyph glyph-name="uni0322" unicode="&#x322;" horiz-adv-x="0" 
d="M-22 75v-288c0 -37 33 -51 56 -51c16 0 23 6 23 15c0 10 -16 16 -16 42c0 24 19 43 41 43c26 0 43 -20 43 -48c0 -44 -40 -75 -99 -75c-43 0 -74 14 -93 38c-20 27 -27 65 -27 112v212h72z" />
    <glyph glyph-name="uni0323" unicode="&#x323;" horiz-adv-x="0" 
d="M-185 -173c0 -36 -29 -65 -66 -65c-35 0 -63 29 -63 65c0 35 28 64 63 64s66 -28 66 -64z" />
    <glyph glyph-name="uni0324" unicode="&#x324;" horiz-adv-x="0" 
d="M-80 -173c0 -36 -29 -65 -66 -65c-35 0 -63 29 -63 65c0 34 29 64 64 64s65 -30 65 -64zM-290 -173c0 -36 -28 -65 -65 -65c-35 0 -64 29 -64 65c0 34 30 64 65 64c34 0 64 -30 64 -64z" />
    <glyph glyph-name="uni0325" unicode="&#x325;" horiz-adv-x="0" 
d="M-143 -173c0 -59 -47 -106 -106 -106c-60 0 -107 47 -107 106c0 58 49 107 108 107c57 0 105 -49 105 -107zM-191 -173c0 31 -28 59 -61 59c-29 0 -56 -28 -56 -59c0 -32 27 -58 57 -58c32 0 60 25 60 58z" />
    <glyph glyph-name="uni0326" unicode="&#x326;" horiz-adv-x="0" 
d="M-324 -423l-11 22c75 52 109 94 109 133c0 12 -8 21 -19 21c-7 0 -14 -2 -24 -2c-43 0 -73 30 -73 76c0 52 34 85 84 85c63 0 100 -45 100 -116c0 -86 -50 -158 -166 -219z" />
    <glyph glyph-name="uni0327" unicode="&#x327;" horiz-adv-x="0" 
d="M-230 0l-28 -64c12 4 20 5 32 5c56 0 89 -26 89 -70c0 -55 -50 -89 -129 -89c-34 0 -60 5 -97 18l16 37l6 -2c24 -8 37 -12 53 -12c38 0 58 14 58 41c0 23 -17 36 -46 36c-9 0 -17 -1 -28 -4l-11 8l43 96h42z" />
    <glyph glyph-name="uni0328" unicode="&#x328;" horiz-adv-x="0" 
d="M-158 -83l23 -16c-25 -46 -79 -74 -126 -74c-62 0 -103 31 -103 78c0 38 13 63 54 111c8 10 10 11 14 16l33 12c-1 -7 -3 -10 -6 -20c-9 -32 -11 -49 -11 -64c0 -47 18 -64 61 -64c16 0 28 3 48 13c8 4 10 6 13 8z" />
    <glyph glyph-name="uni0329" unicode="&#x329;" horiz-adv-x="0" 
d="M-222 -239h-55v132h55v-132z" />
    <glyph glyph-name="uni032A" unicode="&#x32a;" horiz-adv-x="0" 
d="M-93 -260h-72v102h-188v-102h-72v174h332v-174z" />
    <glyph glyph-name="uni032B" unicode="&#x32b;" horiz-adv-x="0" 
d="M-95 -104v-44c0 -65 -43 -94 -97 -94c-31 0 -57 16 -68 34c-11 -18 -29 -34 -61 -34c-54 0 -99 24 -99 94v44h55v-45c0 -28 13 -38 39 -38c20 0 39 10 39 38v45h55v-44c0 -28 15 -39 41 -39c27 0 41 11 41 39v44h55z" />
    <glyph glyph-name="uni032C" unicode="&#x32c;" horiz-adv-x="0" 
d="M-81 -83l-123 -176h-92l-122 176h57l111 -99l111 99h58z" />
    <glyph glyph-name="uni032D" unicode="&#x32d;" horiz-adv-x="0" 
d="M-81 -261h-57l-112 98l-112 -98h-56l122 176h92z" />
    <glyph glyph-name="uni032E" unicode="&#x32e;" horiz-adv-x="0" 
d="M-142 -78h44c-7 -94 -53 -163 -152 -163c-100 0 -150 67 -151 163h44c12 -61 48 -87 102 -87c62 0 96 23 113 87z" />
    <glyph glyph-name="uni032F" unicode="&#x32f;" horiz-adv-x="0" 
d="M-98 -241h-44c-17 64 -51 87 -113 87c-54 0 -90 -26 -102 -87h-44c1 96 51 163 151 163c99 0 145 -69 152 -163z" />
    <glyph glyph-name="uni0330" unicode="&#x330;" horiz-adv-x="0" 
d="M-110 -108h43c-23 -87 -60 -127 -116 -127c-34 0 -55 9 -83 22c-31 14 -53 27 -75 27c-26 0 -45 -19 -49 -47h-42c18 86 54 125 116 125c32 0 58 -12 88 -26c18 -8 48 -23 62 -23c29 0 43 13 56 49z" />
    <glyph glyph-name="uni0331" unicode="&#x331;" horiz-adv-x="0" 
d="M-85 -209h-330v72h330v-72z" />
    <glyph glyph-name="uni0332" unicode="&#x332;" horiz-adv-x="0" 
d="M0 -187h-500v50h500v-50z" />
    <glyph glyph-name="uni0333" unicode="&#x333;" horiz-adv-x="0" 
d="M0 -187h-500v50h500v-50zM0 -287h-500v50h500v-50z" />
    <glyph glyph-name="uni0334" unicode="&#x334;" horiz-adv-x="0" 
d="M-110 316h43c-23 -87 -60 -127 -116 -127c-34 0 -55 9 -83 22c-31 14 -53 27 -75 27c-26 0 -45 -19 -49 -47h-42c18 86 54 125 116 125c32 0 58 -12 88 -26c18 -8 48 -23 62 -23c29 0 43 13 56 49z" />
    <glyph glyph-name="uni0335" unicode="&#x335;" horiz-adv-x="0" 
d="M-108 224h-306v58h306v-58z" />
    <glyph glyph-name="uni0336" unicode="&#x336;" horiz-adv-x="0" 
d="M-10 224h-500v58h500v-58z" />
    <glyph glyph-name="uni0337" unicode="&#x337;" horiz-adv-x="0" 
d="M-43 580l-285 -654h-82l285 654h82z" />
    <glyph glyph-name="uni0338" unicode="&#x338;" horiz-adv-x="0" 
d="M31 662l-357 -818h-84l357 818h84z" />
    <glyph glyph-name="uni0339" unicode="&#x339;" horiz-adv-x="0" 
d="M-375 -33h45c73 0 140 -34 140 -140s-68 -140 -140 -140h-45v50h45c71 0 90 46 90 90c0 42 -18 90 -90 90h-45v50z" />
    <glyph glyph-name="uni033A" unicode="&#x33a;" horiz-adv-x="0" 
d="M-93 -245h-332v174h72v-102h188v102h72v-174z" />
    <glyph glyph-name="uni033B" unicode="&#x33b;" horiz-adv-x="0" 
d="M-167 -264h-186v194h186v-194zM-222 -209v84h-76v-84h76z" />
    </font>
</defs>
</svg>
