<?xml version="1.0" standalone="no"?>
<!DOCTYPE svg PUBLIC "-//W3C//DTD SVG 1.1//EN" "http://www.w3.org/Graphics/SVG/1.1/DTD/svg11.dtd" >
<svg xmlns="http://www.w3.org/2000/svg" xmlns:xlink="http://www.w3.org/1999/xlink" version="1.1">
<metadata>
Created by FontForge 20201107 at Mon Aug 15 00:24:05 2011
 By Jimmy Wärting
Copyright (c) 2001-2011 by the STI Pub Companies, consisting of the American Chemical Society, the American Institute of Physics, the American Mathematical Society, the American Physical Society, Elsevier, Inc., and The Institute of Electrical and Electronic Engineers, Inc.  Portions copyright (c) 1998-2003 by MicroPress, Inc.  Portions copyright (c) 1990 by Elsevier, Inc.  All rights reserved.
</metadata>
<defs>
<font id="STIXGeneral-BoldItalic" horiz-adv-x="500" >
  <font-face 
    font-family="STIXGeneral"
    font-weight="700"
    font-style="italic"
    font-stretch="normal"
    units-per-em="1000"
    panose-1="0 0 0 0 0 0 0 0 0 0"
    ascent="750"
    descent="-250"
    x-height="449"
    cap-height="669"
    bbox="-753 -359 1430 1004"
    underline-thickness="50"
    underline-position="-100"
    slope="-16.33"
    stemh="33"
    stemv="53"
    unicode-range="U+0020-1D7C9"
  />
<missing-glyph horiz-adv-x="250" 
 />
    <glyph glyph-name="uni0132" unicode="IJ" horiz-adv-x="823" 
d="M51 107l117 429c8 29 14 59 14 71c0 20 -15 30 -42 33l-32 4v25h298v-25c-49 -5 -67 -17 -84 -80l-112 -412c-14 -51 -17 -71 -17 -87c0 -28 14 -37 71 -40v-25h-296v25c49 6 64 11 83 82zM828 559l-122 -457c-36 -135 -115 -201 -215 -201c-88 0 -148 36 -148 101
c0 40 28 72 64 72c35 0 63 -25 63 -65c0 -31 -23 -36 -23 -54c0 -12 8 -18 27 -18c37 0 51 30 88 170l114 432c10 39 13 53 13 64c0 18 -11 31 -41 36l-33 5v25h298v-25c-49 -6 -65 -11 -85 -85z" />
    <glyph glyph-name="uni0133" unicode="ij" horiz-adv-x="552" 
d="M193 684c38 0 69 -31 69 -68s-30 -66 -68 -66s-66 30 -66 69c0 34 31 65 65 65zM216 142l22 -14c-66 -108 -108 -137 -168 -137c-41 0 -68 20 -68 63c0 14 5 40 15 76l55 203c6 24 8 37 8 45c0 19 -16 29 -46 29h-14v27c78 6 149 16 203 28l-91 -334
c-5 -17 -9 -42 -9 -51c0 -12 7 -16 15 -16c15 0 37 23 64 61zM504 462l-116 -444c-42 -160 -107 -225 -207 -225c-63 0 -105 33 -105 77c0 29 22 53 49 53c29 0 49 -19 49 -49c0 -21 -15 -21 -15 -35c0 -10 12 -15 24 -15c28 0 49 36 74 136l89 350c8 30 12 54 12 67
c0 21 -12 30 -41 30h-22v27c112 10 149 15 209 28zM475 685c38 0 69 -31 69 -68s-31 -67 -69 -67c-37 0 -66 30 -66 69c0 35 31 66 66 66z" />
    <glyph glyph-name="ff" unicode="ff" horiz-adv-x="613" 
d="M236 449h165c20 71 43 135 79 181c34 42 79 68 147 68c60 0 99 -31 99 -80c0 -31 -20 -54 -51 -54c-28 0 -49 22 -49 50c0 23 16 28 16 42c0 8 -8 13 -18 13c-34 0 -68 -56 -92 -154l-16 -66h135l-9 -42h-133c-56 -265 -68 -313 -95 -394c-31 -92 -54 -137 -90 -172
c-32 -31 -70 -46 -114 -46c-56 0 -99 31 -99 79c0 31 24 55 51 55c26 0 50 -20 50 -49c0 -25 -16 -28 -16 -42c0 -8 8 -12 18 -12c40 0 59 41 90 189c6 29 38 172 88 392h-163c-56 -265 -68 -313 -95 -394c-31 -92 -54 -137 -90 -172c-32 -31 -70 -46 -114 -46
c-56 0 -99 31 -99 79c0 31 24 55 51 55c26 0 50 -20 50 -49c0 -25 -16 -28 -16 -42c0 -8 8 -12 18 -12c40 0 59 41 90 189c6 29 38 172 88 392h-74l9 42h74c20 71 43 135 79 181c34 42 79 68 147 68c60 0 96 -29 96 -78c0 -31 -20 -54 -51 -54c-28 0 -46 20 -46 48
c0 23 16 28 16 42c0 8 -8 13 -18 13c-34 0 -68 -56 -92 -154z" />
    <glyph glyph-name="fi" unicode="fi" horiz-adv-x="556" 
d="M492 140l22 -13c-67 -105 -107 -136 -167 -136c-45 0 -71 24 -71 66c0 17 0 28 15 84l70 266h-150l-94 -385c-13 -52 -46 -121 -77 -160c-33 -42 -82 -67 -131 -67c-56 0 -97 33 -97 78c0 32 20 55 49 55s51 -21 51 -50c0 -23 -19 -26 -19 -39c0 -6 5 -10 17 -10
c44 0 61 35 93 177l89 401h-75l10 42h76c39 115 53 155 111 202c38 31 94 52 151 52c88 0 142 -39 142 -95c0 -35 -24 -58 -57 -58s-58 25 -58 56c0 29 22 34 22 50c0 12 -9 17 -26 17c-37 0 -71 -14 -90 -37c-32 -39 -47 -75 -77 -187h117c15 0 55 4 156 10l-75 -280
c-12 -46 -20 -91 -20 -102c0 -8 8 -16 15 -16c16 0 39 23 78 79z" />
    <glyph glyph-name="fl" unicode="fl" horiz-adv-x="556" 
d="M553 701l-151 -602c-4 -15 -4 -16 -4 -20c0 -9 8 -17 17 -17c18 0 41 22 76 75l20 -11c-68 -105 -104 -135 -163 -135c-43 0 -72 24 -72 58c0 11 2 24 5 37l79 321h-147l-76 -314c-46 -190 -123 -298 -226 -298c-60 0 -97 35 -97 81c0 33 19 54 52 54c28 0 47 -19 47 -47
c0 -23 -16 -25 -16 -40c0 -7 9 -13 22 -13c35 0 50 31 86 189l89 388h-73l10 42h73c34 109 52 158 106 205c36 31 88 50 143 50c23 0 50 0 101 -15zM372 449l30 119c-15 11 -21 23 -21 39c0 22 21 34 21 49c0 10 -18 19 -36 19c-34 0 -63 -23 -89 -62
c-22 -33 -35 -76 -56 -164h151z" />
    <glyph glyph-name="ffi" unicode="ffi" horiz-adv-x="856" 
d="M792 140l22 -13c-67 -105 -107 -136 -167 -136c-45 0 -71 24 -71 66c0 17 0 28 15 84l70 266h-150l-94 -385c-13 -52 -46 -121 -77 -160c-33 -42 -82 -67 -131 -67c-56 0 -97 33 -97 78c0 32 20 55 49 55s51 -21 51 -50c0 -23 -19 -26 -19 -39c0 -6 5 -13 17 -13
c44 0 61 38 93 180l89 401h-163c-56 -265 -68 -313 -95 -394c-31 -92 -54 -137 -90 -172c-32 -31 -70 -46 -114 -46c-56 0 -99 31 -99 79c0 31 24 55 51 55c26 0 50 -20 50 -49c0 -25 -16 -28 -16 -42c0 -8 8 -12 18 -12c40 0 59 41 90 189c6 29 38 172 88 392h-74l9 42h74
c20 71 43 135 79 181c34 42 79 68 147 68c60 0 97 -29 97 -78c0 -31 -20 -54 -51 -54c-28 0 -47 20 -47 48c0 23 16 28 16 42c0 8 -8 13 -18 13c-34 0 -68 -56 -92 -154l-16 -66h167c39 115 53 155 111 202c38 31 94 52 151 52c88 0 142 -39 142 -95c0 -35 -24 -58 -57 -58
s-58 25 -58 56c0 29 22 34 22 50c0 12 -9 17 -26 17c-37 0 -71 -14 -90 -37c-32 -39 -47 -75 -77 -187h117c15 0 55 4 156 10l-75 -280c-12 -46 -20 -91 -20 -102c0 -8 8 -16 15 -16c16 0 39 23 78 79z" />
    <glyph glyph-name="ffl" unicode="ffl" horiz-adv-x="854" 
d="M851 701l-151 -602c-4 -15 -4 -16 -4 -20c0 -9 8 -17 17 -17c18 0 41 22 76 75l20 -11c-68 -105 -104 -135 -163 -135c-43 0 -72 24 -72 58c0 11 2 24 5 37l79 321h-147l-76 -314c-46 -190 -123 -298 -226 -298c-60 0 -97 35 -97 81c0 33 19 54 52 54c28 0 47 -19 47 -47
c0 -23 -16 -25 -16 -40c0 -7 9 -13 22 -13c35 0 50 31 86 189l89 388h-163c-56 -265 -68 -313 -95 -394c-31 -92 -54 -137 -90 -172c-32 -31 -70 -46 -114 -46c-56 0 -99 31 -99 79c0 31 24 55 51 55c26 0 50 -20 50 -49c0 -25 -16 -28 -16 -42c0 -8 8 -12 18 -12
c40 0 59 41 90 189c6 29 38 172 88 392h-74l9 42h74c20 71 43 135 79 181c34 42 79 68 147 68c60 0 97 -30 97 -79c0 -31 -20 -54 -51 -54c-28 0 -47 21 -47 49c0 23 16 28 16 42c0 8 -8 13 -18 13c-34 0 -68 -56 -92 -154l-16 -66h166c34 109 52 158 106 205
c36 31 88 50 143 50c23 0 50 0 101 -15zM670 449l30 119c-15 11 -21 23 -21 39c0 22 21 34 21 49c0 10 -18 19 -36 19c-34 0 -63 -23 -89 -62c-22 -33 -35 -76 -56 -164h151z" />
    <glyph glyph-name="uniE0B3" unicode="fj" horiz-adv-x="556" 
d="M27 449h76c39 115 53 155 111 202c38 31 94 52 151 52c88 0 152 -39 152 -95c0 -35 -24 -58 -57 -58s-58 25 -58 56c0 29 12 34 12 50c0 12 -9 17 -26 17c-37 0 -71 -14 -90 -37c-32 -39 -47 -75 -77 -187h117c15 0 89 3 178 13l-116 -444c-42 -160 -107 -223 -207 -223
c-63 0 -105 33 -105 77c0 29 22 53 49 53c29 0 51 -19 51 -49c0 -21 -17 -21 -17 -35c0 -10 12 -15 24 -15c28 0 49 34 74 134l89 350c8 30 12 54 12 67c0 19 -11 30 -35 30h-124l-94 -385c-13 -52 -46 -121 -77 -160c-33 -42 -82 -67 -131 -67c-56 0 -97 33 -97 78
c0 32 20 55 49 55s51 -21 51 -50c0 -23 -19 -26 -19 -39c0 -6 5 -10 17 -10c44 0 61 35 93 177l89 401h-75z" />
    <glyph glyph-name=".notdef" horiz-adv-x="250" 
 />
    <glyph glyph-name="space" unicode=" " horiz-adv-x="250" 
 />
    <glyph glyph-name="exclam" unicode="!" horiz-adv-x="389" 
d="M196 204l-29 9c30 157 47 273 52 353c3 60 15 118 79 118c50 0 72 -29 72 -73c0 -27 -6 -41 -30 -89c-57 -113 -102 -209 -144 -318zM213 58c0 -40 -33 -71 -74 -71c-42 0 -72 30 -72 71c0 42 32 75 73 75c38 0 73 -35 73 -75z" />
    <glyph glyph-name="quotedbl" unicode="&#x22;" horiz-adv-x="555" 
d="M396 398l15 214c3 38 41 73 80 73c25 0 45 -22 45 -49c0 -14 -2 -21 -13 -47l-85 -191h-42zM136 398l15 214c3 38 41 73 80 73c25 0 45 -22 45 -49c0 -12 -1 -20 -13 -47l-85 -191h-42z" />
    <glyph glyph-name="numbersign" unicode="#" 
d="M532 490l-20 -73h-96l-54 -134h86l-20 -73h-96l-85 -210h-78l85 210h-113l-85 -210h-78l85 210h-95l20 73h105l54 134h-95l20 73h104l87 210h77l-86 -210h113l87 210h77l-86 -210h87zM338 417h-113l-54 -134h113z" />
    <glyph glyph-name="dollar" unicode="$" 
d="M497 598l-42 -134l-21 5c1 11 1 25 1 31c0 69 -19 105 -84 125l-59 -215c112 -97 140 -141 140 -212c0 -117 -92 -198 -254 -198l-28 -100h-52l29 107c-63 15 -98 32 -147 80l42 141l22 -6c3 -108 19 -143 93 -180l74 261c-106 81 -132 122 -132 190
c0 110 84 177 196 177c8 0 16 0 38 -2l18 65h50l-20 -72c33 -6 87 -24 136 -63zM248 436l55 199c-5 2 -9 2 -15 2c-67 0 -110 -37 -110 -95c0 -40 17 -66 70 -106zM253 274l-67 -242c76 0 137 40 137 129c0 47 -13 74 -70 113z" />
    <glyph glyph-name="percent" unicode="%" horiz-adv-x="757" 
d="M707 214c0 -70 -28 -143 -73 -190c-25 -27 -61 -42 -99 -42c-76 0 -128 56 -128 138c0 113 91 213 195 213c66 0 105 -45 105 -119zM682 220c0 46 -25 80 -59 80c-21 0 -41 -15 -62 -46c-32 -48 -56 -125 -56 -178c0 -43 17 -66 50 -66c30 0 55 16 79 51
c28 43 48 108 48 159zM645 706l-438 -735h-48l388 655c-40 -30 -73 -42 -113 -42c-21 0 -35 3 -60 13c2 -19 3 -29 3 -42c0 -71 -28 -147 -70 -189c-28 -28 -65 -44 -101 -44c-74 0 -126 57 -126 139c0 114 92 213 197 213c26 0 45 -8 71 -29c29 -23 47 -30 83 -30
c66 0 115 27 166 91h48zM351 560c0 34 -6 44 -32 54c-7 3 -10 4 -21 11s-15 9 -20 9c-42 0 -102 -127 -102 -216c0 -42 18 -66 50 -66c64 0 125 101 125 208z" />
    <glyph glyph-name="ampersand" unicode="&#x26;" horiz-adv-x="849" 
d="M745 101l26 -21c-61 -74 -102 -98 -168 -98c-55 0 -98 18 -142 62c-62 -47 -128 -63 -198 -63c-115 0 -187 58 -187 161c0 177 157 224 240 242c-9 46 -11 67 -11 92c0 127 79 206 189 206c84 0 134 -47 134 -114c0 -72 -59 -126 -182 -172c10 -76 45 -161 86 -227
c59 70 74 101 74 129c0 22 -13 31 -56 38v25h212v-25c-59 -4 -68 -24 -205 -203c37 -51 71 -72 110 -72c27 0 49 11 78 40zM548 582c0 42 -19 67 -52 67c-45 0 -70 -44 -70 -113c0 -25 2 -46 11 -102c86 46 111 88 111 148zM433 80c-60 85 -86 155 -109 263
c-84 -41 -115 -83 -115 -153c0 -79 52 -138 125 -138c31 0 63 6 99 28z" />
    <glyph glyph-name="quotesingle" unicode="'" horiz-adv-x="278" 
d="M128 398l16 215c3 47 40 72 79 72c25 0 45 -22 45 -49c0 -14 -4 -23 -15 -48l-83 -190h-42z" />
    <glyph glyph-name="parenleft" unicode="(" horiz-adv-x="333" 
d="M326 685l18 -20c-81 -74 -118 -119 -155 -200c-45 -99 -67 -218 -67 -346c0 -119 16 -186 71 -283l-23 -15c-101 138 -142 238 -142 386c0 122 41 231 117 321c41 48 97 95 181 157z" />
    <glyph glyph-name="parenright" unicode=")" horiz-adv-x="333" 
d="M105 670l23 15c55 -75 78 -111 102 -172c28 -70 41 -144 41 -214c0 -97 -25 -179 -68 -251c-51 -86 -129 -158 -230 -227l-17 20c92 82 122 126 161 222c39 95 60 218 60 331c0 114 -21 187 -72 276z" />
    <glyph glyph-name="asterisk" unicode="*" 
d="M312 468l11 -6c33 -18 42 -23 88 -23c36 0 81 -11 81 -51c0 -29 -25 -54 -52 -54c-25 0 -39 11 -60 47c-22 36 -31 49 -65 67l-11 6v-12c0 -32 7 -54 26 -87c13 -22 17 -37 17 -52c0 -31 -20 -51 -51 -51c-30 0 -50 20 -50 52c0 14 4 29 17 51c19 33 26 55 26 87v12
l-11 -6c-34 -18 -43 -31 -65 -67c-21 -36 -35 -47 -60 -47c-27 0 -52 25 -52 54c0 40 45 51 81 51c46 0 55 5 88 23l11 6l-11 6c-33 18 -44 22 -88 23c-38 0 -81 12 -81 52c0 28 24 54 49 54c24 0 41 -12 63 -47c24 -38 35 -51 65 -68l11 -6v12c0 33 -7 56 -26 88
c-13 22 -17 36 -17 51c0 32 20 52 50 52c31 0 51 -20 51 -52c0 -15 -4 -29 -17 -51c-19 -32 -26 -55 -26 -88v-12l11 6c30 17 41 30 65 68c22 35 39 47 63 47c26 0 49 -26 49 -54c0 -40 -43 -52 -81 -52c-44 -1 -55 -5 -88 -23z" />
    <glyph glyph-name="plus" unicode="+" horiz-adv-x="570" 
d="M537 209h-208v-209h-88v209h-208v88h208v209h88v-209h208v-88z" />
    <glyph glyph-name="comma" unicode="," horiz-adv-x="250" 
d="M-47 -182l-13 25c79 42 118 80 118 116c0 14 -6 24 -30 37c-32 18 -40 38 -40 65c0 48 32 73 73 73c53 0 83 -40 83 -94c0 -89 -72 -172 -191 -222z" />
    <glyph glyph-name="hyphen" unicode="-" horiz-adv-x="333" 
d="M271 282l-23 -116h-246l24 116h245z" />
    <glyph glyph-name="period" unicode="." horiz-adv-x="250" 
d="M139 61c0 -42 -33 -74 -75 -74c-41 0 -73 32 -73 73c0 43 32 75 75 75c40 0 73 -33 73 -74z" />
    <glyph glyph-name="slash" unicode="/" horiz-adv-x="278" 
d="M342 685l-319 -703h-87l319 703h87z" />
    <glyph glyph-name="zero" unicode="0" 
d="M477 442c0 -153 -73 -317 -166 -401c-41 -37 -81 -55 -134 -55c-104 0 -160 87 -160 220c0 154 64 306 152 407c46 53 103 70 158 70c96 0 150 -95 150 -241zM374 582c0 45 -18 72 -49 72c-28 0 -49 -25 -76 -83c-60 -133 -129 -409 -129 -490c0 -40 20 -66 50 -66
c42 0 71 40 106 144c31 95 98 318 98 423z" />
    <glyph glyph-name="one" unicode="1" 
d="M419 683l-154 -560c-7 -26 -14 -48 -14 -63c0 -28 22 -35 99 -37v-23h-345v23c76 4 103 19 121 82l124 445c2 9 6 24 6 30c0 22 -17 33 -48 33c-19 0 -36 -1 -62 -5l2 23c115 15 180 30 271 52z" />
    <glyph glyph-name="two" unicode="2" 
d="M86 507l-22 12c40 98 116 164 218 164c104 0 164 -73 164 -168c0 -79 -43 -151 -144 -237l-196 -167h138c86 0 117 14 151 80h24l-80 -191h-366v24l89 92c184 191 250 273 250 360c0 69 -25 117 -92 117c-52 0 -93 -25 -134 -86z" />
    <glyph glyph-name="three" unicode="3" 
d="M117 537l-21 13c60 97 126 133 207 133c80 0 147 -58 147 -136c0 -60 -30 -115 -119 -149v-2c57 -43 77 -80 77 -146c0 -141 -123 -263 -290 -263c-82 0 -132 31 -132 80c0 34 22 58 59 58c49 0 63 -57 90 -84c8 -8 24 -14 40 -14c61 0 110 79 110 162
c0 48 -12 85 -36 112c-33 37 -68 43 -122 46l4 22c129 27 190 76 190 153c0 55 -25 90 -87 90c-47 0 -76 -18 -117 -75z" />
    <glyph glyph-name="four" unicode="4" 
d="M503 683l-119 -435h70l-27 -98h-69l-42 -150h-128l41 150h-244l28 105l427 428h63zM335 528l-282 -280h203z" />
    <glyph glyph-name="five" unicode="5" 
d="M486 669l-36 -109h-253l-34 -77c106 -20 127 -26 176 -67c47 -40 73 -98 73 -165c0 -141 -121 -264 -286 -264c-85 0 -137 31 -137 79c0 34 24 58 59 58c30 0 52 -16 71 -54c18 -36 37 -43 59 -43c63 0 129 76 129 162c0 65 -37 123 -101 155c-37 19 -68 25 -133 28
l131 297h282z" />
    <glyph glyph-name="six" unicode="6" 
d="M503 679l6 -24c-129 -45 -214 -128 -278 -246c21 9 42 13 62 13c93 0 150 -58 150 -171c0 -156 -109 -266 -246 -266c-112 0 -174 77 -174 204c0 138 65 267 176 360c92 77 158 102 304 130zM319 315c0 46 -17 67 -68 67c-28 0 -39 -6 -55 -44c-36 -84 -61 -185 -61 -243
c0 -53 18 -78 55 -78c26 0 42 9 61 39c38 60 68 189 68 259z" />
    <glyph glyph-name="seven" unicode="7" 
d="M525 669l-381 -669h-92l332 556h-127c-113 0 -136 -12 -173 -77h-26l87 190h380z" />
    <glyph glyph-name="eight" unicode="8" 
d="M183 341v4c-56 59 -74 96 -74 154c0 114 87 184 191 184c56 0 99 -17 130 -44c28 -25 46 -54 46 -99c0 -71 -39 -120 -143 -160v-4c66 -74 86 -119 86 -183c0 -128 -99 -206 -228 -206c-115 0 -188 67 -188 166c0 87 60 143 180 188zM383 544c0 64 -34 106 -77 106
c-52 0 -86 -37 -86 -98c0 -50 19 -92 90 -149c58 60 73 90 73 141zM306 140c0 52 -10 89 -97 181c-76 -48 -109 -98 -109 -180c0 -77 38 -124 96 -124c62 0 110 53 110 123z" />
    <glyph glyph-name="nine" unicode="9" 
d="M-6 -10l-6 25c122 37 216 120 277 244c-25 -11 -38 -14 -61 -14c-90 0 -151 67 -151 167c0 152 108 271 246 271c50 0 89 -15 118 -44c37 -38 58 -97 58 -163c0 -146 -81 -292 -212 -384c-77 -55 -138 -78 -269 -102zM363 582c0 46 -16 69 -49 69c-32 0 -59 -22 -79 -63
c-31 -63 -58 -172 -58 -236c0 -41 23 -64 66 -64c42 0 50 9 77 89c32 95 43 147 43 205z" />
    <glyph glyph-name="colon" unicode=":" horiz-adv-x="333" 
d="M264 385c0 -42 -33 -74 -75 -74s-73 32 -73 74s32 74 75 74c40 0 73 -34 73 -74zM171 61c0 -42 -33 -74 -75 -74s-73 32 -73 74s32 74 75 74c40 0 73 -34 73 -74z" />
    <glyph glyph-name="semicolon" unicode=";" horiz-adv-x="333" 
d="M264 385c0 -42 -33 -74 -75 -74s-73 32 -73 74s32 74 75 74c40 0 73 -34 73 -74zM-12 -183l-13 25c79 42 118 80 118 116c0 14 -6 24 -30 37c-32 18 -41 38 -41 65c0 48 33 73 74 73c53 0 83 -40 83 -94c0 -89 -72 -172 -191 -222z" />
    <glyph glyph-name="less" unicode="&#x3c;" horiz-adv-x="570" 
d="M539 -12l-508 223v84l508 223v-96l-385 -169l385 -169v-96z" />
    <glyph glyph-name="equal" unicode="=" horiz-adv-x="570" 
d="M537 311h-504v88h504v-88zM537 107h-504v88h504v-88z" />
    <glyph glyph-name="greater" unicode="&#x3e;" horiz-adv-x="570" 
d="M539 211l-508 -223v96l385 169l-385 169v96l508 -223v-84z" />
    <glyph glyph-name="question" unicode="?" 
d="M196 208l-29 8c4 55 22 115 112 209c49 51 64 101 64 149c0 49 -26 79 -69 79c-32 0 -62 -18 -62 -38c0 -26 29 -26 29 -67c0 -33 -27 -62 -61 -62c-35 0 -61 34 -61 72c0 67 79 126 181 126c95 0 170 -52 170 -144c0 -63 -33 -117 -126 -171
c-103 -60 -120 -91 -148 -161zM227 61c0 -42 -33 -74 -75 -74s-73 32 -73 74s32 74 75 74c40 0 73 -34 73 -74z" />
    <glyph glyph-name="at" unicode="@" horiz-adv-x="939" 
d="M703 77l13 -35c-95 -49 -158 -60 -231 -60c-212 0 -367 161 -367 343c0 207 165 360 373 360c189 0 334 -117 334 -298c0 -132 -68 -244 -187 -245c-49 0 -91 34 -93 75c-35 -46 -79 -74 -122 -74c-58 0 -96 47 -96 114c0 117 76 258 201 258c36 0 49 -10 72 -52l11 38
h71l-61 -243c-2 -10 -6 -23 -6 -34c0 -29 17 -44 41 -44c81 0 123 139 123 206c0 146 -130 260 -287 260c-165 0 -283 -134 -283 -327c0 -164 115 -291 287 -291c70 0 138 8 207 49zM583 402c0 40 -13 64 -42 65c-84 1 -138 -111 -138 -192c0 -52 23 -85 59 -85
c29 0 60 25 82 68c21 41 39 100 39 144z" />
    <glyph glyph-name="A" unicode="A" horiz-adv-x="667" 
d="M593 0h-303v25c53 4 77 19 77 49c0 5 -1 9 -2 15l-12 119h-215l-57 -96c-11 -18 -17 -35 -17 -50c0 -24 16 -37 64 -37v-25h-195l-1 25c37 4 55 27 86 76l370 582h25l94 -560c14 -82 23 -94 86 -98v-25zM346 248l-37 243l-148 -243h185z" />
    <glyph glyph-name="B" unicode="B" horiz-adv-x="667" 
d="M118 669h265c161 0 241 -50 241 -146c0 -109 -86 -138 -189 -168v-1c96 -27 137 -73 137 -148c0 -134 -112 -206 -295 -206h-302v25c48 6 68 24 84 83l119 438c7 25 11 47 11 57c0 39 -32 41 -71 41v25zM334 577l-57 -209c69 5 116 5 153 40c30 28 47 72 47 128
c0 67 -29 101 -87 101c-32 0 -41 -4 -56 -60zM269 338l-64 -236c-5 -19 -7 -29 -7 -37c0 -23 18 -33 57 -33c53 0 90 21 121 59c29 35 43 88 43 138c0 37 -12 67 -35 85c-21 16 -50 22 -115 24z" />
    <glyph glyph-name="C" unicode="C" horiz-adv-x="667" 
d="M677 685l-51 -235l-32 6c2 13 3 23 3 36c0 93 -46 158 -131 158c-53 0 -107 -30 -145 -73c-77 -87 -135 -220 -135 -368c0 -109 61 -174 155 -174c87 0 138 43 204 119l31 -22c-32 -44 -49 -63 -78 -85c-57 -43 -128 -65 -199 -65c-163 0 -267 101 -267 252
c0 148 62 276 159 358c69 58 156 93 249 93c41 0 86 -7 131 -21c15 -5 30 -8 38 -8c15 0 24 7 38 29h30z" />
    <glyph glyph-name="D" unicode="D" horiz-adv-x="722" 
d="M94 669h290c189 0 301 -101 301 -264c0 -109 -44 -218 -119 -288c-79 -73 -191 -117 -324 -117h-288v25c48 6 66 22 83 84l115 422c13 46 15 61 15 71c0 24 -9 33 -39 37l-34 5v25zM318 600l-126 -465c-11 -39 -15 -55 -15 -67c0 -24 20 -34 58 -34c87 0 156 34 210 105
c62 81 93 193 93 318c0 122 -54 181 -165 181c-33 0 -47 -10 -55 -38z" />
    <glyph glyph-name="E" unicode="E" horiz-adv-x="667" 
d="M653 669l-43 -190l-27 5c-3 71 -4 96 -45 123c-30 19 -76 30 -137 30c-41 0 -55 -6 -67 -51l-59 -216c132 0 158 13 205 107l28 -4l-74 -274l-28 4c3 19 4 30 4 44c0 69 -31 91 -144 91l-63 -234c-5 -20 -8 -31 -8 -38c0 -24 18 -34 61 -34c88 0 157 19 214 61
c37 27 57 50 91 106l25 -5l-60 -194h-553v25c52 8 65 19 82 80l119 432c9 33 12 55 12 70c0 20 -10 29 -41 33l-33 4v25h541z" />
    <glyph glyph-name="F" unicode="F" horiz-adv-x="667" 
d="M660 669l-43 -190l-27 5c0 51 -4 80 -20 100c-32 40 -73 53 -157 53c-41 0 -52 -10 -63 -48l-61 -219c131 1 156 13 198 107l28 -4l-74 -274l-28 5c3 19 4 30 4 44c0 68 -30 88 -137 90l-55 -206c-8 -30 -15 -50 -15 -63c0 -31 15 -40 71 -44v-25h-294v25
c58 6 67 24 82 79l121 442c6 23 10 46 10 61c0 20 -11 29 -42 33l-31 4v25h533z" />
    <glyph glyph-name="G" unicode="G" horiz-adv-x="722" 
d="M705 330v-26c-50 -4 -60 -14 -82 -96l-44 -167l-28 -13c-57 -27 -156 -46 -234 -46c-176 0 -296 104 -296 274c0 130 63 254 163 337c74 61 162 92 264 92c46 0 81 -6 124 -21c19 -7 27 -9 36 -9c20 0 31 8 42 30h31l-51 -221l-29 4c-2 61 -8 91 -24 119
c-23 40 -63 62 -115 62c-69 0 -129 -42 -173 -98c-67 -87 -112 -211 -112 -335c0 -130 58 -196 164 -196c39 0 81 11 94 30l31 104c22 75 27 89 27 114c0 9 -6 20 -12 24c-11 6 -20 8 -63 12v26h287z" />
    <glyph glyph-name="H" unicode="H" horiz-adv-x="778" 
d="M799 669v-25c-49 0 -68 -21 -82 -74l-111 -408c-15 -57 -22 -81 -22 -96c0 -29 18 -39 73 -41v-25h-316v25c67 4 85 16 102 79l62 225h-239l-54 -197c-10 -36 -12 -52 -12 -67s7 -35 71 -40v-25h-295v25c50 7 65 16 81 74l121 447c8 28 11 46 11 58c0 22 -11 32 -42 36
l-31 4v25h316v-25c-65 -2 -84 -15 -102 -80l-52 -191h239l47 173c5 19 10 49 10 61c0 20 -10 29 -41 33l-31 4v25h297z" />
    <glyph glyph-name="I" unicode="I" horiz-adv-x="389" 
d="M406 669v-25c-49 -5 -67 -17 -84 -80l-112 -412c-14 -51 -17 -71 -17 -87c0 -28 14 -37 71 -40v-25h-296v25c49 6 64 11 83 82l117 429c8 29 14 59 14 71c0 20 -15 30 -42 33l-32 4v25h298z" />
    <glyph glyph-name="J" unicode="J" 
d="M524 669v-25c-49 -6 -65 -11 -85 -85l-122 -457c-36 -135 -115 -201 -215 -201c-88 0 -148 36 -148 101c0 40 28 72 64 72c35 0 63 -25 63 -65c0 -31 -23 -36 -23 -54c0 -12 8 -18 27 -18c37 0 51 30 88 170l114 432c10 39 13 53 13 64c0 18 -11 31 -41 36l-33 5v25h298z
" />
    <glyph glyph-name="K" unicode="K" horiz-adv-x="667" 
d="M702 669v-25c-43 -6 -51 -9 -94 -48l-216 -199l157 -333c11 -24 25 -35 63 -39v-25h-280l1 25l26 4c27 4 38 9 38 23c0 12 -5 27 -15 49l-111 236l-67 -249c-1 -5 -2 -11 -2 -17c0 -33 13 -42 65 -46v-25h-288v25c45 5 65 15 79 68l123 453c8 28 11 46 11 58
c0 22 -10 32 -41 36l-33 4v25h311v-25c-59 -5 -80 -20 -94 -72l-62 -227l197 175c59 52 77 78 77 97c0 15 -10 23 -35 25l-21 2v25h211z" />
    <glyph glyph-name="L" unicode="L" horiz-adv-x="611" 
d="M590 195l-60 -195h-552v25c55 7 67 24 82 78l121 443c5 19 11 49 11 61c0 20 -10 28 -41 32c-11 2 -24 4 -34 5v25h318v-25c-66 -4 -85 -17 -99 -70l-129 -473c-4 -16 -6 -31 -6 -39c0 -21 27 -30 72 -30c70 0 127 14 178 45c52 31 76 59 115 123z" />
    <glyph glyph-name="M" unicode="M" horiz-adv-x="889" 
d="M917 669v-25c-51 -6 -67 -19 -84 -81l-119 -438c-5 -17 -10 -45 -10 -57c0 -32 12 -43 71 -43v-25h-311v25c69 4 85 21 101 79l123 457l-375 -573h-28l-67 559l-101 -369c-14 -50 -20 -75 -20 -92c0 -45 16 -55 80 -61v-25h-206v25c54 12 67 33 103 157l107 369
c7 26 11 44 11 58c0 28 -7 35 -71 35v25h219l54 -480l311 480h212z" />
    <glyph glyph-name="N" unicode="N" horiz-adv-x="722" 
d="M748 669v-25c-56 -11 -66 -24 -102 -153l-143 -506h-28l-257 547l-99 -354c-12 -42 -19 -75 -19 -94c0 -39 20 -54 79 -59v-25h-206v25c55 11 60 17 101 155l120 407c-19 44 -27 52 -82 57v25h193l216 -467l81 289c11 41 19 75 19 94c0 38 -21 59 -81 59v25h208z" />
    <glyph glyph-name="O" unicode="O" horiz-adv-x="722" 
d="M691 444c0 -128 -73 -271 -180 -366c-70 -62 -155 -96 -248 -96c-141 0 -236 84 -236 239c0 135 75 282 186 372c72 58 152 92 236 92c137 0 242 -95 242 -241zM547 528c0 83 -41 123 -101 123c-63 0 -112 -36 -162 -120c-60 -101 -113 -269 -113 -388
c0 -75 39 -127 102 -127c64 0 108 41 157 114c67 99 117 285 117 398z" />
    <glyph glyph-name="P" unicode="P" horiz-adv-x="611" 
d="M112 669h282c147 0 219 -54 219 -155c0 -53 -21 -98 -59 -131c-48 -42 -122 -66 -214 -66c-27 0 -46 1 -81 5l-54 -199c-5 -17 -11 -48 -11 -58c0 -27 16 -37 72 -40v-25h-294v25c52 8 66 17 84 82l117 426c11 39 13 59 13 74c0 20 -10 29 -41 33l-33 4v25zM330 584
l-61 -229c17 -3 29 -3 42 -3c62 0 96 18 123 62c22 35 33 93 33 136c0 53 -31 87 -84 87c-35 0 -41 -9 -53 -53z" />
    <glyph glyph-name="Q" unicode="Q" horiz-adv-x="722" 
d="M203 -17l2 4c-5 2 -8 3 -16 6c-101 36 -162 108 -162 218c0 150 74 293 180 381c71 59 155 93 242 93c140 0 242 -98 242 -233c0 -124 -56 -256 -155 -351c-87 -84 -143 -112 -284 -118l-44 -47v-3c43 -2 113 -9 186 -35c37 -13 58 -16 85 -16c61 0 97 18 155 78l21 -19
c-79 -115 -150 -149 -259 -149c-41 0 -74 6 -136 26c-52 16 -75 21 -104 21c-32 0 -58 -6 -114 -28l-14 24zM547 532c0 71 -41 119 -101 119c-63 0 -114 -38 -162 -119c-60 -101 -113 -286 -113 -396c0 -73 39 -119 102 -119c68 0 125 57 169 137c57 105 105 272 105 378z
" />
    <glyph glyph-name="R" unicode="R" horiz-adv-x="667" 
d="M110 669h286c147 0 227 -47 227 -143c0 -69 -36 -114 -96 -151c-24 -15 -50 -23 -96 -32l85 -254c16 -49 31 -59 87 -64v-25h-202l-107 331h-30l-52 -182c-14 -48 -18 -68 -18 -82c0 -30 14 -38 72 -42v-25h-294v25c49 6 66 25 82 84l120 437c5 19 10 49 10 61
c0 20 -9 31 -42 34l-32 3v25zM330 583l-57 -220c62 1 101 8 127 25c44 27 72 88 72 154c0 61 -29 95 -82 95c-31 0 -48 -8 -60 -54z" />
    <glyph glyph-name="S" unicode="S" horiz-adv-x="556" 
d="M526 681l-40 -202l-27 4c-5 42 -9 76 -22 101c-23 46 -64 66 -116 66c-53 0 -98 -40 -98 -105c0 -60 36 -86 107 -137c106 -77 138 -127 138 -217c0 -84 -41 -150 -110 -184c-33 -16 -74 -25 -120 -25c-40 0 -73 7 -122 24c-23 8 -36 11 -46 11c-19 0 -26 -6 -38 -35h-30
l36 225l29 -2c8 -66 16 -103 48 -139c27 -31 62 -50 106 -50c38 0 67 11 89 34c23 23 37 47 37 92c0 59 -34 96 -115 154s-130 114 -130 198c0 114 90 191 204 191c88 0 108 -30 146 -30c21 0 35 8 44 26h30z" />
    <glyph glyph-name="T" unicode="T" horiz-adv-x="611" 
d="M650 669l-36 -192l-27 2c0 114 -38 155 -138 155l-135 -489c-7 -24 -17 -53 -17 -74c0 -29 23 -46 83 -46v-25h-331v25h15c46 0 77 20 91 72l148 537c-102 -2 -167 -37 -218 -143l-25 7l39 171h551z" />
    <glyph glyph-name="U" unicode="U" horiz-adv-x="722" 
d="M744 669v-25c-55 -11 -65 -13 -102 -147l-65 -234c-30 -107 -62 -187 -121 -234c-39 -31 -92 -47 -166 -47c-131 0 -223 56 -223 163c0 40 14 101 37 189l51 193c10 37 15 66 15 78c0 22 -9 33 -41 36l-32 3v25h311v-25c-62 -3 -78 -17 -94 -76l-81 -294
c-26 -94 -28 -107 -28 -135c0 -72 46 -101 122 -101c55 0 94 17 123 47c43 44 67 114 90 197l57 209c12 44 19 79 19 96c0 36 -22 57 -79 57v25h207z" />
    <glyph glyph-name="V" unicode="V" horiz-adv-x="667" 
d="M715 669v-25c-30 -6 -50 -25 -62 -44l-390 -618h-32l-76 513c-20 136 -27 149 -89 149v25h296v-25c-68 -6 -75 -11 -75 -45c0 -5 1 -17 2 -23l50 -394l187 297c43 69 63 107 63 129c0 19 -13 32 -41 34l-24 2v25h191z" />
    <glyph glyph-name="W" unicode="W" horiz-adv-x="889" 
d="M940 669v-24c-42 -6 -55 -15 -88 -82l-282 -581h-29l-59 489l-233 -489h-29l-78 572c-10 71 -14 80 -78 91v24h278v-25c-47 -6 -61 -19 -61 -50c0 -6 0 -14 1 -19l40 -349l149 314c0 79 -10 97 -70 105v24h267v-25c-53 -5 -62 -16 -62 -54c0 -12 3 -34 7 -73l33 -291
l155 327c12 26 15 34 15 46c0 36 -7 41 -63 45v25h187z" />
    <glyph glyph-name="X" unicode="X" horiz-adv-x="667" 
d="M694 669v-25c-36 -5 -56 -16 -99 -61l-199 -205l75 -237c27 -86 43 -108 115 -116v-25h-307v25c57 5 67 12 67 38c0 22 -11 63 -37 141l-20 60l-130 -144c-23 -25 -32 -42 -32 -55c0 -23 18 -36 63 -40v-25h-214v25c56 10 82 47 231 210l68 74l-83 269
c-17 55 -33 60 -93 66v25h305v-25l-29 -3c-33 -3 -45 -10 -45 -33c0 -15 12 -59 35 -132l17 -55l94 99c52 55 70 80 70 98c0 15 -10 22 -33 24l-21 2v25h202z" />
    <glyph glyph-name="Y" unicode="Y" horiz-adv-x="611" 
d="M659 669v-25c-38 -5 -60 -27 -92 -72l-189 -264l-52 -191c-5 -20 -10 -37 -10 -51c0 -28 17 -41 79 -41v-25h-323v25c66 6 87 15 104 78l57 208l-87 270c-16 48 -23 52 -75 63v25h285v-25c-55 -2 -69 -9 -69 -39c0 -18 8 -44 29 -110l46 -143l128 183c21 30 28 49 28 67
c0 31 -13 40 -66 42v25h207z" />
    <glyph glyph-name="Z" unicode="Z" horiz-adv-x="611" 
d="M589 640l-434 -605h75c92 0 147 12 199 50c36 27 69 69 97 114l27 -5l-60 -194h-505v29l434 605h-83c-105 0 -168 -36 -247 -147l-28 4l58 178h467v-29z" />
    <glyph glyph-name="bracketleft" unicode="[" horiz-adv-x="333" 
d="M362 674l-7 -35h-69c-36 0 -39 -6 -53 -66l-155 -667c-1 -3 -1 -7 -1 -9c0 -15 13 -21 34 -21h78l-7 -35h-219l199 833h200z" />
    <glyph glyph-name="backslash" unicode="\" horiz-adv-x="278" 
d="M279 -18h-84l-196 703h85z" />
    <glyph glyph-name="bracketright" unicode="]" horiz-adv-x="333" 
d="M343 674l-200 -831h-199l7 35h68c36 0 37 5 51 63l157 667c1 5 1 10 1 10c0 13 -14 21 -34 21h-78l7 35h220z" />
    <glyph glyph-name="asciicircum" unicode="^" horiz-adv-x="570" 
d="M503 304h-89l-129 272l-129 -272h-89l178 365h80z" />
    <glyph glyph-name="underscore" unicode="_" 
d="M500 -125h-500v50h500v-50z" />
    <glyph glyph-name="grave" unicode="`" horiz-adv-x="333" 
d="M297 516h-46l-132 88c-22 15 -34 32 -34 48c0 24 21 45 45 45c19 0 38 -9 56 -33z" />
    <glyph glyph-name="a" unicode="a" 
d="M435 127l21 -15c-58 -94 -109 -126 -156 -126c-37 0 -63 21 -63 64c0 14 2 28 14 69c-56 -95 -103 -132 -164 -132c-65 0 -108 51 -108 127c0 80 36 164 87 231c53 70 121 117 186 117c43 0 65 -21 74 -72h1l17 59l111 7l-75 -251c-24 -79 -30 -108 -30 -133
c0 -9 4 -15 12 -15c16 0 32 15 73 70zM303 373c0 27 -15 47 -37 47c-42 0 -80 -58 -108 -115c-35 -71 -56 -152 -56 -190c0 -40 17 -57 43 -57c27 0 59 26 86 75c39 69 72 180 72 240z" />
    <glyph glyph-name="b" unicode="b" 
d="M284 699l-91 -326c48 66 93 89 144 89c64 0 107 -58 107 -131c0 -179 -152 -344 -320 -344c-66 0 -138 24 -138 61c0 6 10 45 20 81l94 327c27 94 39 143 39 156c0 20 -16 30 -46 30h-19v27c89 10 140 17 210 30zM319 325c0 46 -12 69 -41 69c-33 0 -66 -29 -92 -84
c-22 -48 -45 -124 -62 -182c-10 -34 -15 -73 -15 -81c0 -16 13 -27 31 -27c40 0 74 28 108 78c41 60 71 169 71 227z" />
    <glyph glyph-name="c" unicode="c" horiz-adv-x="444" 
d="M318 142l28 -18c-38 -52 -70 -96 -115 -119c-23 -12 -50 -18 -83 -18c-91 0 -153 53 -153 151c0 92 43 177 105 239c51 52 113 85 180 85c60 0 112 -37 112 -90c0 -42 -25 -71 -62 -71c-34 0 -58 23 -58 53s21 36 21 58c0 10 -12 17 -24 17c-38 0 -65 -37 -93 -88
c-33 -61 -53 -134 -53 -201c0 -58 29 -89 73 -89c43 0 74 24 122 91z" />
    <glyph glyph-name="d" unicode="d" 
d="M517 699l-117 -421c-35 -126 -51 -194 -51 -203c0 -6 5 -15 11 -15c15 0 40 26 68 71l22 -16c-55 -88 -101 -126 -150 -126c-38 0 -60 23 -60 61c0 16 2 29 11 68c-52 -94 -105 -131 -166 -131s-106 42 -106 125c0 99 58 212 131 282c43 42 93 68 138 68
c29 0 53 -8 75 -33l18 64c25 88 29 113 29 122c0 18 -15 28 -41 28h-21v27c100 8 149 15 209 29zM308 371c0 28 -15 49 -37 49c-43 1 -85 -54 -114 -112c-33 -66 -54 -144 -54 -186c0 -36 16 -63 41 -63c29 0 59 25 86 74c36 64 78 194 78 238z" />
    <glyph glyph-name="e" unicode="e" horiz-adv-x="444" 
d="M317 143l29 -17c-56 -100 -118 -139 -195 -139c-87 0 -146 48 -146 147c0 165 143 328 288 328c65 0 105 -36 105 -87c0 -43 -29 -88 -69 -122c-43 -36 -91 -54 -188 -71c-4 -20 -6 -33 -6 -49c0 -54 22 -82 64 -82c43 0 72 23 118 92zM306 390c0 23 -7 39 -31 39
c-48 0 -91 -76 -127 -215c90 20 158 93 158 176z" />
    <glyph glyph-name="f" unicode="f" horiz-adv-x="333" 
d="M47 449h74c20 71 43 135 79 181c34 42 79 68 147 68c60 0 99 -31 99 -80c0 -31 -20 -54 -51 -54c-28 0 -49 22 -49 50c0 23 16 28 16 42c0 8 -8 13 -18 13c-34 0 -68 -56 -92 -154l-16 -66h91l-9 -42h-89c-56 -265 -68 -313 -95 -394c-31 -92 -54 -137 -90 -172
c-32 -31 -70 -46 -114 -46c-56 0 -99 31 -99 79c0 31 24 55 51 55c26 0 50 -20 50 -49c0 -25 -16 -28 -16 -42c0 -8 8 -12 18 -12c40 0 59 41 90 189c6 29 38 172 88 392h-74z" />
    <glyph glyph-name="g" unicode="g" 
d="M477 373h-66c6 -12 6 -26 6 -42c0 -53 -25 -99 -71 -132s-88 -46 -145 -46c-17 0 -39 4 -51 8c-13 0 -28 -14 -28 -36c0 -16 22 -33 54 -41l50 -12c110 -26 149 -62 149 -123c0 -81 -88 -152 -237 -152c-115 0 -190 33 -190 101c0 89 80 107 133 109
c-44 15 -62 34 -62 66c0 37 21 67 96 97c-54 23 -80 58 -80 110c0 104 95 182 218 182c46 0 83 -7 114 -33h110v-56zM300 372c0 35 -12 59 -45 59c-22 0 -42 -14 -57 -32c-33 -41 -47 -110 -47 -156c0 -38 15 -59 42 -59c31 0 57 23 78 69c17 37 29 85 29 119zM266 -100
c0 24 -14 44 -42 58c-22 10 -97 35 -109 36c-9 -1 -38 -17 -51 -30c-20 -19 -29 -36 -29 -55c0 -46 46 -78 113 -78c72 0 118 34 118 69z" />
    <glyph glyph-name="h" unicode="h" horiz-adv-x="556" 
d="M476 142l22 -15c-66 -103 -106 -136 -167 -136c-39 0 -66 24 -66 64c0 41 11 77 61 225l20 59c5 15 7 24 7 30c0 16 -8 21 -20 21c-27 0 -63 -31 -106 -94c-49 -72 -68 -121 -119 -296h-121l152 562c6 22 10 38 10 47c0 23 -13 33 -42 33h-22v27c81 7 132 15 209 30
l-108 -416c99 141 145 179 213 179c49 0 76 -28 76 -75c0 -19 -9 -56 -29 -118l-59 -182c-3 -8 -3 -9 -3 -12c0 -7 9 -16 17 -16c13 0 32 21 75 83z" />
    <glyph glyph-name="i" unicode="i" horiz-adv-x="278" 
d="M262 616c0 -37 -30 -66 -68 -66s-66 30 -66 69c0 34 31 65 65 65c38 0 69 -31 69 -68zM216 142l22 -14c-66 -108 -108 -137 -168 -137c-41 0 -68 20 -68 63c0 14 5 40 15 76l55 203c6 24 8 37 8 45c0 19 -16 29 -46 29h-14v27c78 6 149 16 203 28l-91 -334
c-5 -17 -9 -42 -9 -51c0 -12 7 -16 15 -16c15 0 37 23 64 61z" />
    <glyph glyph-name="j" unicode="j" horiz-adv-x="278" 
d="M279 617c0 -37 -31 -67 -69 -67c-37 0 -66 30 -66 69c0 35 31 66 66 66c38 0 69 -31 69 -68zM239 462l-116 -444c-42 -160 -107 -225 -207 -225c-63 0 -105 33 -105 77c0 29 22 53 49 53c29 0 49 -19 49 -49c0 -21 -15 -21 -15 -35c0 -10 12 -15 24 -15
c28 0 49 36 74 136l89 350c8 30 12 54 12 67c0 21 -12 30 -41 30h-22v27c112 10 149 15 209 28z" />
    <glyph glyph-name="k" unicode="k" 
d="M483 449v-25c-46 -6 -67 -14 -135 -76l-64 -58c39 -195 57 -227 79 -227c19 0 37 16 64 64l22 -11c-45 -95 -88 -124 -138 -124c-62 0 -90 48 -123 223l-39 -27l-50 -188h-122l157 566c7 24 7 32 7 42c0 28 -10 34 -30 34h-34v27c77 4 132 13 209 30l-124 -461
c126 99 165 137 165 163c0 16 -11 21 -50 23v25h206z" />
    <glyph glyph-name="l" unicode="l" horiz-adv-x="278" 
d="M290 699l-145 -523c-15 -54 -22 -86 -22 -100c0 -8 5 -15 15 -15c18 0 39 21 79 80l22 -14c-69 -105 -105 -136 -169 -136c-41 0 -68 27 -68 63c0 23 14 84 34 155l74 259c21 73 34 121 34 145c0 20 -15 30 -42 30c-5 0 -11 0 -22 -1v27c75 7 124 14 210 30z" />
    <glyph glyph-name="m" unicode="m" horiz-adv-x="778" 
d="M701 135l22 -13c-52 -97 -99 -131 -161 -131c-43 0 -67 20 -67 66c0 29 15 87 37 151l44 130c4 13 7 24 7 30c0 11 -11 21 -23 21c-30 0 -70 -41 -112 -116c-36 -63 -43 -81 -101 -273h-120l65 207c32 102 45 143 45 160c0 16 -8 22 -18 22c-15 0 -43 -21 -65 -47
c-57 -68 -94 -153 -147 -342h-121l66 232c28 97 36 135 36 150c0 16 -12 25 -38 25h-18v27c113 9 137 12 200 27l-63 -199h1c48 74 77 115 104 142c32 32 74 58 114 58c42 0 67 -25 67 -67c0 -28 -6 -53 -26 -105c81 132 126 172 198 172c48 0 77 -30 77 -71
c0 -26 -8 -66 -23 -109l-45 -128c-18 -51 -21 -59 -21 -77c0 -12 7 -18 16 -18c13 0 35 21 58 58c4 7 8 13 12 18z" />
    <glyph glyph-name="n" unicode="n" horiz-adv-x="556" 
d="M472 135l22 -13c-55 -97 -100 -131 -160 -131c-43 0 -68 19 -68 60c0 26 10 77 26 125l55 165c3 10 7 25 7 28c0 17 -12 21 -25 21c-18 0 -49 -27 -69 -54c-62 -81 -99 -162 -145 -336h-121l57 204c33 120 45 167 45 179c0 19 -13 23 -55 24v27c56 2 135 13 199 27
l-62 -198h1c67 99 85 123 122 158c27 26 63 41 100 41c51 0 73 -28 73 -77c0 -24 -12 -69 -28 -116l-35 -104c-19 -56 -24 -79 -24 -89s6 -17 14 -17c17 0 31 14 71 76z" />
    <glyph glyph-name="o" unicode="o" 
d="M280 462h4c97 0 157 -59 157 -151c0 -94 -44 -188 -105 -249c-49 -49 -108 -75 -175 -75c-94 0 -164 50 -164 148c0 100 40 191 100 250c51 50 115 77 183 77zM322 372c0 38 -18 61 -47 61c-21 0 -41 -10 -60 -31c-60 -67 -99 -220 -99 -322c0 -44 19 -64 49 -64
c26 0 50 15 71 49c49 80 86 220 86 307z" />
    <glyph glyph-name="p" unicode="p" 
d="M177 347h1c56 87 101 115 158 115c72 0 110 -47 110 -121c0 -185 -135 -354 -277 -354c-21 0 -46 6 -68 22l-12 -41c-19 -66 -24 -100 -24 -114c0 -24 15 -31 65 -32v-27h-250v27c48 0 59 10 78 86l96 380c13 52 22 84 22 94c0 19 -9 23 -54 25v27c52 6 90 12 192 28z
M321 336c0 40 -15 55 -39 55c-31 0 -61 -32 -87 -71c-18 -27 -22 -40 -44 -113c-27 -91 -38 -132 -38 -149c0 -20 17 -36 39 -36s43 12 62 30c67 66 107 223 107 284z" />
    <glyph glyph-name="q" unicode="q" 
d="M471 449l-129 -461c-20 -73 -36 -127 -36 -138c0 -20 17 -28 49 -28h17v-27h-268v27c61 0 75 13 92 69l61 207c-44 -82 -94 -111 -154 -111c-65 0 -102 48 -102 130c0 55 19 117 54 178c59 103 142 167 218 167c23 0 47 -9 57 -22c9 -11 12 -22 17 -50l15 59h109z
M325 371c0 28 -12 48 -35 48c-39 0 -86 -65 -111 -115c-32 -66 -53 -140 -53 -188c0 -38 13 -57 39 -57c31 0 59 24 88 74c35 62 72 180 72 238z" />
    <glyph glyph-name="r" unicode="r" horiz-adv-x="389" 
d="M160 253h1c79 159 117 209 171 209c34 0 57 -26 57 -66c0 -42 -25 -73 -58 -73c-39 0 -41 38 -61 38c-14 0 -38 -27 -65 -76c-26 -47 -41 -81 -74 -186l-31 -99h-121c71 240 102 357 102 382c0 19 -12 25 -56 25v27c121 10 140 13 200 28z" />
    <glyph glyph-name="s" unicode="s" horiz-adv-x="389" 
d="M333 461l-23 -154l-27 2c-16 83 -42 120 -88 120c-32 0 -53 -21 -53 -53c0 -23 18 -54 57 -99c60 -70 80 -114 80 -162c0 -75 -66 -128 -148 -128c-21 0 -42 3 -64 12c-13 5 -23 8 -30 8c-13 0 -23 -6 -29 -20h-27l22 166l27 -3c11 -88 42 -133 93 -133c40 0 60 22 60 54
c0 30 -16 59 -56 104c-68 77 -80 107 -80 161c0 80 53 126 134 126c20 0 41 -4 58 -12s27 -10 37 -10c15 0 19 4 28 21h29z" />
    <glyph glyph-name="t" unicode="t" horiz-adv-x="278" 
d="M281 407h-83l-34 -119c-35 -122 -53 -185 -53 -209c0 -13 8 -18 16 -18c16 0 42 27 76 80l23 -15c-66 -103 -110 -135 -170 -135c-42 0 -67 21 -67 65c0 18 10 63 25 115l67 236h-52v35c82 28 130 67 184 152h35l-39 -145h72v-42z" />
    <glyph glyph-name="u" unicode="u" horiz-adv-x="556" 
d="M471 133l22 -13c-52 -89 -99 -129 -159 -129c-44 0 -68 19 -68 60c0 29 8 55 26 110h-1c-94 -138 -133 -170 -198 -170c-50 0 -78 26 -78 79c0 25 8 56 22 106l37 128c8 29 17 59 17 75c0 15 -12 25 -58 28v27c51 1 149 15 210 28l-93 -302c-14 -45 -16 -57 -16 -72
c0 -17 10 -25 24 -25c18 0 40 16 70 55c58 76 88 131 142 331h118l-78 -266c-13 -46 -25 -91 -25 -103c0 -10 3 -21 14 -21c17 0 37 20 72 74z" />
    <glyph glyph-name="v" unicode="v" horiz-adv-x="444" 
d="M15 408v27c82 11 107 15 156 27c21 -67 31 -146 31 -334c99 113 126 154 126 189c0 11 -5 19 -20 36c-18 20 -25 36 -25 53c0 31 27 56 57 56c38 0 61 -32 61 -67c0 -42 -20 -96 -60 -154c-55 -80 -103 -133 -230 -254h-26c5 91 5 173 5 177c0 108 -9 193 -25 225
c-7 13 -19 19 -50 19z" />
    <glyph glyph-name="w" unicode="w" horiz-adv-x="667" 
d="M387 462l31 -333c88 103 120 157 120 187c0 10 -6 22 -20 38c-17 19 -22 33 -22 48c0 40 27 60 57 60c33 0 61 -29 61 -62c0 -84 -89 -223 -272 -413h-27l-23 285c-34 -63 -70 -135 -114 -201l-56 -84h-27v46c0 13 1 32 1 62c0 121 -18 284 -38 302c-8 7 -18 10 -43 10
v27c80 13 115 19 156 28c23 -86 33 -154 33 -274l156 274h27z" />
    <glyph glyph-name="x" unicode="x" 
d="M41 438l165 24c19 -28 31 -53 47 -138c78 114 111 138 158 138c31 0 58 -29 58 -61c0 -29 -26 -53 -56 -53c-24 0 -34 20 -57 20s-60 -37 -92 -94l32 -157c8 -39 18 -53 37 -53c18 0 28 9 67 59l21 -14c-61 -88 -103 -122 -151 -122c-50 0 -75 40 -97 155l-24 -39
c-59 -96 -81 -116 -131 -116c-38 0 -63 24 -63 59c0 32 23 57 54 57c30 0 41 -22 62 -22c18 0 26 6 47 40l44 71l-29 152c-9 49 -25 69 -57 69c-9 0 -16 0 -35 -2v27z" />
    <glyph glyph-name="y" unicode="y" horiz-adv-x="444" 
d="M239 110h2c70 134 87 176 87 207c0 13 -7 19 -25 34c-22 18 -31 29 -31 54s21 57 58 57c33 0 62 -30 62 -64c0 -101 -119 -338 -249 -497c-55 -67 -120 -106 -175 -106c-35 0 -62 26 -62 60c0 29 24 56 50 56c47 0 58 -36 94 -36c17 0 46 22 67 52c17 24 25 48 25 71
c0 31 -16 126 -50 288c-13 59 -24 97 -40 113c-11 11 -15 12 -40 12v27c65 6 102 12 150 24c18 -47 48 -149 66 -274z" />
    <glyph glyph-name="z" unicode="z" horiz-adv-x="389" 
d="M368 439l-281 -335c39 -17 61 -35 86 -69c21 -29 39 -84 68 -84c13 0 22 8 22 17c0 16 -20 17 -20 45s23 53 50 53c28 0 53 -25 53 -53c0 -62 -49 -91 -110 -91c-41 0 -80 15 -129 50c-35 25 -54 33 -74 33c-11 0 -17 -3 -32 -14c-6 -5 -12 -10 -19 -14l-25 22l292 354
h-136c-37 0 -58 -14 -73 -61l-27 3l44 154h311v-10z" />
    <glyph glyph-name="braceleft" unicode="{" horiz-adv-x="348" 
d="M436 686l-3 -12c-82 -15 -118 -48 -138 -124l-45 -171c-22 -85 -54 -111 -152 -130c75 -20 93 -34 93 -76c0 -23 -10 -70 -29 -130c-19 -63 -30 -113 -30 -140c0 -46 22 -67 81 -78l-3 -12c-139 3 -182 25 -182 91c0 30 16 103 35 159c16 49 26 92 26 116
c0 35 -23 54 -85 70c89 19 119 41 138 116l46 179c28 109 89 142 248 142z" />
    <glyph glyph-name="bar" unicode="|" horiz-adv-x="220" 
d="M154 -18h-88v703h88v-703z" />
    <glyph glyph-name="braceright" unicode="}" horiz-adv-x="348" 
d="M94 674l3 12c94 -2 133 -10 158 -32c16 -14 24 -33 24 -56c0 -31 -16 -105 -35 -162c-16 -49 -26 -92 -26 -116c0 -35 23 -54 85 -70c-89 -20 -119 -44 -138 -116l-46 -179c-28 -111 -89 -142 -248 -142l3 12c82 15 118 48 138 124l45 171c22 85 54 111 152 130
c-75 20 -93 34 -93 76c0 23 8 64 28 130c20 69 31 115 31 141c0 44 -23 66 -81 77z" />
    <glyph glyph-name="asciitilde" unicode="~" horiz-adv-x="570" 
d="M461 308l55 -48c-46 -64 -77 -85 -123 -85c-33 0 -60 7 -105 33c-46 26 -77 35 -112 35c-29 0 -45 -10 -69 -42l-53 46c33 58 71 84 121 84c36 0 60 -7 136 -41c49 -22 64 -27 82 -27c24 0 43 13 68 45z" />
    <glyph glyph-name="uni00A0" unicode="&#xa0;" horiz-adv-x="250" 
 />
    <glyph glyph-name="exclamdown" unicode="&#xa1;" horiz-adv-x="389" 
d="M320 423c0 -42 -32 -75 -73 -75c-39 0 -73 35 -73 75s33 71 74 71c42 0 72 -30 72 -71zM193 275l29 -8c-30 -154 -48 -278 -53 -354c-2 -41 -4 -54 -12 -72c-14 -29 -38 -46 -69 -46c-42 0 -69 29 -69 74c0 26 6 40 31 88c57 109 101 209 143 318z" />
    <glyph glyph-name="cent" unicode="&#xa2;" 
d="M431 576l-45 -127c36 -20 53 -45 53 -79c0 -39 -28 -68 -65 -68c-14 0 -25 3 -35 11l-92 -261c42 2 77 29 118 89l27 -18c-63 -90 -100 -120 -167 -133l-47 -133h-34l46 130c-94 6 -148 61 -148 151c0 161 143 324 285 324c9 0 16 -1 28 -3l41 117h35zM339 413v2
c-1 9 -9 14 -22 14c-31 0 -58 -23 -86 -73c-36 -64 -62 -151 -62 -209c0 -44 14 -72 45 -90z" />
    <glyph glyph-name="sterling" unicode="&#xa3;" 
d="M45 370h105c25 124 49 182 98 237c42 49 96 76 153 76c63 0 109 -39 109 -91c0 -38 -26 -68 -61 -68c-30 0 -53 22 -53 51c0 10 2 22 4 34c2 7 3 14 3 19c0 12 -10 21 -24 21c-29 0 -50 -27 -60 -77l-39 -202h114l-10 -60h-115c-13 -58 -37 -127 -64 -169l-11 -17
c59 -23 92 -32 125 -32c48 0 68 14 90 63h25c-12 -58 -24 -86 -45 -114c-26 -33 -65 -53 -106 -53c-42 0 -76 16 -127 61c-27 -43 -55 -60 -98 -60c-53 0 -90 35 -90 86c0 52 39 87 96 87c21 0 35 -3 61 -14c7 66 9 79 19 162h-109zM113 90c-24 22 -42 30 -64 30
c-31 0 -51 -20 -51 -50s23 -51 56 -51c30 0 48 22 59 71z" />
    <glyph glyph-name="currency" unicode="&#xa4;" 
d="M526 48l-58 -58l-96 98c-42 -26 -78 -37 -122 -37s-80 11 -122 37l-96 -98l-58 58l98 98c-26 39 -37 73 -37 120c0 46 11 82 37 122l-98 98l58 56l96 -96c40 25 76 35 122 35c47 0 82 -10 122 -35l96 96l58 -56l-98 -98c27 -43 37 -76 37 -122c0 -47 -11 -84 -37 -120z
M377 264c0 76 -56 135 -127 135s-127 -58 -127 -133c0 -74 56 -133 127 -133c69 0 127 60 127 131z" />
    <glyph glyph-name="yen" unicode="&#xa5;" 
d="M628 669v-25c-40 -8 -61 -25 -93 -69l-166 -233h135l-13 -50h-150l-21 -78h152l-14 -50h-152l-3 -11c-12 -44 -16 -66 -16 -85c0 -33 14 -40 81 -43v-25h-322v25c77 5 93 17 109 72l19 67h-141l14 50h141l22 78h-142l14 50h125l-79 239c-17 52 -27 56 -82 63v25h280v-25
c-57 -2 -75 -9 -75 -32c0 -9 2 -20 6 -32l80 -236l135 194c21 30 26 42 26 60c0 35 -14 44 -70 46v25h200z" />
    <glyph glyph-name="brokenbar" unicode="&#xa6;" horiz-adv-x="220" 
d="M154 426h-88v259h88v-259zM154 -18h-88v259h88v-259z" />
    <glyph glyph-name="section" unicode="&#xa7;" 
d="M221 419l2 3c-36 40 -55 85 -55 129c0 79 63 134 155 134c79 0 136 -41 136 -98c0 -35 -25 -62 -58 -62c-30 0 -55 25 -55 55c0 40 36 37 36 55c0 15 -28 28 -59 28c-50 0 -85 -30 -85 -73c0 -32 19 -63 69 -122l69 -81c39 -45 59 -97 59 -144c0 -81 -53 -122 -117 -122
c-10 0 -18 1 -30 4l-2 -4c43 -54 59 -88 59 -130c0 -75 -72 -134 -164 -134c-82 0 -145 46 -145 105c0 35 24 61 58 61c33 0 56 -22 56 -51c0 -32 -35 -35 -35 -63c0 -15 33 -29 67 -29c51 0 86 31 86 76c0 33 -13 51 -84 137l-66 80c-35 43 -50 83 -50 126
c0 84 46 126 104 126c13 0 36 -3 49 -6zM364 206c0 67 -111 194 -169 194c-32 0 -56 -25 -56 -58c0 -21 11 -51 29 -76c25 -35 57 -72 79 -91c23 -20 37 -27 58 -27c32 0 59 27 59 58z" />
    <glyph glyph-name="dieresis" unicode="&#xa8;" horiz-adv-x="333" 
d="M397 589c0 -35 -30 -64 -66 -64c-34 0 -64 30 -64 64c0 36 29 66 64 66c36 0 66 -30 66 -66zM185 589c0 -35 -30 -64 -66 -64c-34 0 -64 30 -64 64c0 36 29 66 64 66c36 0 66 -30 66 -66z" />
    <glyph glyph-name="copyright" unicode="&#xa9;" horiz-adv-x="747" 
d="M544 250l-17 -72c-2 -10 -3 -11 -12 -14c-5 -3 -9 -4 -52 -15c-28 -8 -38 -9 -66 -9c-135 0 -217 73 -217 195c0 123 89 203 225 203c36 0 64 -5 100 -18c15 -6 22 -12 22 -21v-71h-17c-13 61 -49 90 -110 90c-86 0 -135 -64 -135 -176c0 -115 50 -179 138 -179
c58 0 94 26 123 87h18zM718 334c0 -200 -150 -352 -349 -352c-187 0 -339 157 -339 350c0 197 152 353 344 353s344 -155 344 -351zM657 334c0 166 -128 305 -283 305s-283 -138 -283 -306c0 -165 128 -305 279 -305c160 0 287 136 287 306z" />
    <glyph glyph-name="ordfeminine" unicode="&#xaa;" horiz-adv-x="266" 
d="M330 680l-46 -140c-16 -48 -22 -73 -22 -89c0 -6 2 -9 5 -9c7 0 22 13 41 36l5 6l13 -9c-38 -53 -67 -76 -97 -76c-24 0 -44 18 -44 38c0 11 1 17 11 51c-37 -65 -66 -88 -110 -88c-42 0 -70 31 -70 76c0 96 97 209 180 209c26 0 40 -13 47 -45l11 36zM218 630
c0 15 -8 28 -20 28c-35 1 -104 -119 -104 -185c0 -15 11 -28 24 -28c20 0 43 23 64 62c19 37 36 95 36 123z" />
    <glyph glyph-name="guillemotleft" unicode="&#xab;" 
d="M197 226l170 124c24 17 34 25 47 37c19 19 33 28 41 28c7 0 13 -6 13 -12c0 -21 -30 -61 -101 -134c-17 -18 -25 -29 -45 -49l40 -83c23 -48 33 -75 33 -90c0 -8 -6 -15 -15 -15c-5 0 -8 2 -15 10c-24 27 -83 88 -168 175v9zM12 226l170 124c24 17 34 25 47 37
c19 19 33 28 41 28c7 0 13 -6 13 -12c0 -21 -30 -61 -101 -134c-17 -18 -27 -28 -45 -49l40 -83c23 -48 33 -75 33 -90c0 -8 -6 -15 -15 -15c-5 0 -8 2 -15 10c-24 27 -83 88 -168 175v9z" />
    <glyph glyph-name="logicalnot" unicode="&#xac;" horiz-adv-x="606" 
d="M555 108h-88v203h-416v88h504v-291z" />
    <glyph glyph-name="uni00AD" unicode="&#xad;" horiz-adv-x="333" 
d="M271 282l-23 -116h-246l24 116h245z" />
    <glyph glyph-name="registered" unicode="&#xae;" horiz-adv-x="747" 
d="M562 151h-70c-18 0 -34 19 -68 81c-18 32 -29 50 -52 85h-44v-101c0 -43 0 -44 48 -49v-16h-166v16c47 5 47 6 47 49v247c0 42 0 43 -47 48v16h183c72 0 117 -36 117 -95c0 -49 -27 -84 -81 -104l59 -82c31 -44 53 -68 74 -84v-11zM328 337h41c44 0 68 33 68 91
c0 52 -23 78 -69 78h-40v-169zM718 334c0 -200 -150 -352 -349 -352c-187 0 -339 157 -339 350c0 197 152 353 344 353s344 -155 344 -351zM657 334c0 166 -128 305 -283 305s-283 -138 -283 -306c0 -165 128 -305 279 -305c160 0 287 136 287 306z" />
    <glyph glyph-name="macron" unicode="&#xaf;" horiz-adv-x="333" 
d="M393 623l-16 -70h-326l17 70h325z" />
    <glyph glyph-name="degree" unicode="&#xb0;" horiz-adv-x="400" 
d="M369 545c0 -79 -64 -143 -143 -143s-143 64 -143 143s64 143 143 143s143 -64 143 -143zM314 545c0 49 -39 88 -88 88s-88 -39 -88 -88s39 -88 88 -88s88 39 88 88z" />
    <glyph glyph-name="plusminus" unicode="&#xb1;" horiz-adv-x="570" 
d="M537 271h-208v-143h-88v143h-208v88h208v209h88v-209h208v-88zM537 0h-504v88h504v-88z" />
    <glyph glyph-name="twosuperior" unicode="&#xb2;" horiz-adv-x="300" 
d="M79 574l-18 11c36 67 82 98 144 98c61 0 108 -43 108 -99c0 -48 -25 -86 -92 -140l-125 -101h89c50 0 65 8 90 45h16l-51 -114h-238v16c100 95 119 113 148 145c51 56 70 89 70 121c0 41 -22 66 -59 66c-29 0 -50 -12 -82 -48z" />
    <glyph glyph-name="threesuperior" unicode="&#xb3;" horiz-adv-x="300" 
d="M103 590l-14 13c40 56 79 80 133 80c56 0 99 -35 99 -81c0 -37 -14 -54 -72 -87l-7 -4c38 -26 52 -49 52 -88c0 -87 -86 -158 -191 -158c-55 0 -86 18 -86 50c0 24 15 41 37 41c16 0 30 -9 43 -28c21 -28 24 -30 42 -30c40 0 71 40 71 92c0 58 -33 88 -100 91l2 14
c82 15 121 42 121 85c0 32 -21 52 -55 52c-28 0 -47 -10 -75 -42z" />
    <glyph glyph-name="acute" unicode="&#xb4;" horiz-adv-x="333" 
d="M139 516l122 131c36 38 52 50 70 50c26 0 48 -21 48 -47c0 -19 -9 -30 -39 -47l-152 -87h-49z" />
    <glyph glyph-name="mu" unicode="&#xb5;" horiz-adv-x="576" 
d="M516 449l-104 -336c-3 -10 -5 -20 -5 -27c0 -8 5 -14 12 -14c15 0 33 17 63 62l22 -16c-73 -105 -110 -131 -166 -131c-37 0 -63 26 -63 63c0 18 2 30 11 68c-53 -90 -85 -118 -132 -118c-24 0 -52 9 -62 24c-14 -43 -23 -89 -23 -133c0 -62 -29 -98 -79 -98
c-37 0 -50 27 -50 66c0 51 41 103 74 215l111 375h135l-93 -312c-4 -14 -7 -31 -7 -42c0 -16 7 -25 19 -25c42 0 117 106 151 215l51 164h135z" />
    <glyph glyph-name="paragraph" unicode="&#xb6;" horiz-adv-x="617" 
d="M679 669l-6 -25c-78 0 -82 -4 -101 -76l-166 -636c-4 -17 -11 -41 -11 -60s12 -35 45 -38l23 -2l-7 -25h-171l217 837h-55l-217 -837h-170l7 25c50 4 67 8 78 18c7 7 12 21 28 82l85 326c-89 0 -145 42 -145 133c0 76 33 166 76 212c41 44 106 66 195 66h295zM264 283
l94 361c-65 -16 -92 -35 -121 -85c-27 -46 -45 -113 -45 -165s25 -96 72 -111z" />
    <glyph glyph-name="periodcentered" unicode="&#xb7;" horiz-adv-x="250" 
d="M199 331c0 -42 -33 -74 -75 -74s-73 32 -73 74s32 74 75 74c40 0 73 -34 73 -74z" />
    <glyph glyph-name="cedilla" unicode="&#xb8;" horiz-adv-x="333" 
d="M85 5l-45 -67c10 2 16 3 26 3c52 0 90 -30 90 -72c0 -50 -53 -87 -124 -87c-36 0 -68 7 -112 25l22 33c29 -13 45 -17 67 -17c34 0 56 16 56 41c0 23 -17 36 -47 36c-10 0 -18 -1 -30 -4l-13 12l66 97h44z" />
    <glyph glyph-name="onesuperior" unicode="&#xb9;" horiz-adv-x="300" 
d="M301 683l-100 -330c-4 -12 -6 -25 -6 -34c0 -22 10 -26 59 -26v-19h-224v19c56 0 71 14 88 80c2 8 7 23 13 41c24 70 62 197 60 199c-3 14 -12 21 -26 21c-7 0 -18 -1 -32 -2l-11 -1l2 21c72 11 114 18 177 31z" />
    <glyph glyph-name="ordmasculine" unicode="&#xba;" horiz-adv-x="300" 
d="M347 587c0 -100 -93 -187 -185 -187c-61 0 -106 37 -106 89c0 100 91 196 187 196c64 0 104 -41 104 -98zM266 627c0 23 -8 38 -25 38c-24 1 -42 -17 -60 -48c-23 -40 -44 -118 -44 -162c0 -22 11 -35 28 -35c24 0 44 20 65 65c19 41 36 101 36 142z" />
    <glyph glyph-name="guillemotright" unicode="&#xbb;" 
d="M468 221l-170 -124c-24 -18 -34 -26 -47 -38c-19 -18 -32 -27 -41 -27c-7 0 -13 5 -13 12c0 21 30 61 101 134l45 49l-40 83c-24 49 -33 74 -33 90c0 8 6 15 15 15c5 0 8 -2 15 -10c41 -46 71 -77 168 -175v-9zM283 221l-170 -124c-24 -18 -34 -26 -47 -38
c-19 -18 -32 -27 -41 -27c-7 0 -13 5 -13 12c0 21 30 61 101 134l45 49l-40 83c-24 49 -33 74 -33 90c0 8 6 15 15 15c5 0 8 -2 15 -10c41 -46 71 -77 168 -175v-9z" />
    <glyph glyph-name="onequarter" unicode="&#xbc;" horiz-adv-x="750" 
d="M721 410l-78 -261h45l-17 -61h-44l-28 -88h-86l27 88h-159l16 67l278 255h46zM609 319l-184 -170h132zM629 683l-435 -697h-58l435 697h58zM278 683l-100 -330c-4 -12 -6 -25 -6 -34c0 -22 10 -26 59 -26v-19h-224v19c56 0 70 14 88 80c3 12 8 26 13 41
c28 86 60 188 60 199s-12 21 -26 21c-7 0 -18 -1 -32 -2l-11 -1l2 21c72 11 114 18 177 31z" />
    <glyph glyph-name="onehalf" unicode="&#xbd;" horiz-adv-x="750" 
d="M489 300l-18 11c36 67 82 98 144 98c61 0 108 -43 108 -99c0 -48 -25 -86 -92 -140l-125 -101h89c50 0 65 8 90 45h16l-51 -114h-238v16c100 95 119 113 148 145c51 56 70 89 70 121c0 41 -22 66 -59 66c-29 0 -50 -12 -82 -48zM614 683l-435 -697h-58l435 697h58z
M262 683l-100 -330c-4 -12 -6 -25 -6 -34c0 -22 10 -26 59 -26v-19h-224v19c56 0 70 14 88 80c3 12 8 26 13 41c28 86 60 188 60 199s-12 21 -26 21c-7 0 -18 -1 -32 -2l-11 -1l2 21c72 11 114 18 177 31z" />
    <glyph glyph-name="threequarters" unicode="&#xbe;" horiz-adv-x="750" 
d="M726 410l-78 -261h45l-17 -61h-44l-28 -88h-86l27 88h-159l16 67l278 255h46zM614 319l-184 -170h132zM634 683l-435 -697h-58l435 697h58zM93 590l-14 13c40 56 80 80 133 80c56 0 99 -35 99 -81c0 -37 -14 -54 -72 -87l-7 -4c38 -26 52 -49 52 -88
c0 -87 -86 -158 -191 -158c-55 0 -86 18 -86 50c0 24 15 41 37 41c16 0 30 -9 43 -28c21 -28 24 -30 42 -30c40 0 71 40 71 91c0 59 -32 89 -100 92l2 14c82 15 121 42 121 85c0 32 -21 52 -55 52c-28 0 -47 -10 -75 -42z" />
    <glyph glyph-name="questiondown" unicode="&#xbf;" 
d="M421 418c0 -42 -32 -74 -75 -74c-40 0 -73 34 -73 74c0 42 33 74 75 74s73 -32 73 -74zM262 105l-41 -51c-45 -55 -64 -101 -64 -148c0 -50 26 -80 69 -80c32 0 62 19 62 38c0 6 -3 12 -11 22c-13 17 -18 30 -18 45c0 34 27 60 61 60s61 -29 61 -67
c0 -75 -74 -129 -175 -129c-106 0 -176 58 -176 144c0 63 36 113 126 171l66 43c38 25 54 48 82 118l29 -7c-5 -55 -25 -101 -71 -159z" />
    <glyph glyph-name="Agrave" unicode="&#xc0;" horiz-adv-x="667" 
d="M593 0h-303v25c53 4 77 19 77 49c0 5 -1 9 -2 15l-12 119h-215l-57 -96c-11 -18 -17 -35 -17 -50c0 -24 16 -37 64 -37v-25h-195l-1 25c37 4 55 27 86 76l370 582h25l94 -560c14 -82 23 -94 86 -98v-25zM346 248l-37 243l-148 -243h185zM516 766h-46l-132 88
c-22 15 -34 32 -34 48c0 24 21 45 45 45c19 0 38 -9 56 -33z" />
    <glyph glyph-name="Aacute" unicode="&#xc1;" horiz-adv-x="667" 
d="M593 0h-303v25c53 4 77 19 77 49c0 5 -1 9 -2 15l-12 119h-215l-57 -96c-11 -18 -17 -35 -17 -50c0 -24 16 -37 64 -37v-25h-195l-1 25c37 4 55 27 86 76l370 582h25l94 -560c14 -82 23 -94 86 -98v-25zM346 248l-37 243l-148 -243h185zM326 766l122 131
c36 38 52 50 70 50c26 0 48 -21 48 -47c0 -19 -9 -30 -39 -47l-152 -87h-49z" />
    <glyph glyph-name="Acircumflex" unicode="&#xc2;" horiz-adv-x="667" 
d="M593 0h-303v25c53 4 77 19 77 49c0 5 -1 9 -2 15l-12 119h-215l-57 -96c-11 -18 -17 -35 -17 -50c0 -24 16 -37 64 -37v-25h-195l-1 25c37 4 55 27 86 76l370 582h25l94 -560c14 -82 23 -94 86 -98v-25zM346 248l-37 243l-148 -243h185zM587 766h-51l-88 95l-131 -95h-57
l160 174h81z" />
    <glyph glyph-name="Atilde" unicode="&#xc3;" horiz-adv-x="667" 
d="M571 905h41c-22 -84 -57 -119 -117 -119c-19 0 -30 2 -57 13l-59 23c-13 5 -27 8 -38 8c-22 0 -35 -11 -48 -43h-40c13 72 59 118 116 118c25 0 56 -8 97 -26c27 -11 42 -16 54 -16c23 0 36 10 51 42zM593 0h-303v25c53 4 77 19 77 49c0 5 -1 9 -2 15l-12 119h-215
l-57 -96c-11 -18 -17 -35 -17 -50c0 -24 16 -37 64 -37v-25h-195l-1 25c37 4 55 27 86 76l370 582h25l94 -560c14 -82 23 -94 86 -98v-25zM346 248l-37 243l-148 -243h185z" />
    <glyph glyph-name="Adieresis" unicode="&#xc4;" horiz-adv-x="667" 
d="M593 0h-303v25c53 4 77 19 77 49c0 5 -1 9 -2 15l-12 119h-215l-57 -96c-11 -18 -17 -35 -17 -50c0 -24 16 -37 64 -37v-25h-195l-1 25c37 4 55 27 86 76l370 582h25l94 -560c14 -82 23 -94 86 -98v-25zM346 248l-37 243l-148 -243h185zM599 839c0 -35 -30 -64 -66 -64
c-34 0 -64 30 -64 64c0 36 29 66 64 66c36 0 66 -30 66 -66zM387 839c0 -35 -30 -64 -66 -64c-34 0 -64 30 -64 64c0 36 29 66 64 66c36 0 66 -30 66 -66z" />
    <glyph glyph-name="Aring" unicode="&#xc5;" horiz-adv-x="667" 
d="M593 0h-303v25c53 4 77 19 77 49c0 5 -1 9 -2 15l-12 119h-215l-57 -96c-11 -18 -17 -35 -17 -50c0 -24 16 -37 64 -37v-25h-195l-1 25c37 4 55 27 86 76l370 582h25l94 -560c14 -82 23 -94 86 -98v-25zM346 248l-37 243l-148 -243h185zM546 898
c0 -59 -48 -107 -107 -107c-64 0 -106 45 -106 108c0 59 49 105 107 105c63 0 106 -47 106 -106zM498 896c0 33 -27 60 -60 60c-31 0 -57 -27 -57 -59s26 -58 57 -58c33 0 60 26 60 57z" />
    <glyph glyph-name="AE" unicode="&#xc6;" horiz-adv-x="944" 
d="M918 669l-45 -190l-24 5l-2 40c-4 75 -58 113 -162 113c-42 0 -52 -5 -59 -32l-65 -235h19c102 0 135 20 175 106l26 -4l-73 -273l-25 5c2 16 3 35 3 46c0 66 -18 81 -133 88l-63 -241c-3 -12 -5 -22 -5 -28c0 -26 26 -37 68 -37c78 0 124 12 170 47c36 27 66 70 101 120
l26 -3l-59 -196h-527v25c52 8 65 27 81 81l43 149h-192l-114 -157c-10 -13 -15 -27 -15 -39c0 -22 16 -30 64 -34v-25h-195v25c17 2 22 4 30 9c5 2 20 18 59 68l364 472c12 16 20 33 20 44c0 19 -15 24 -80 28v23h589zM490 627h-12l-253 -333h173z" />
    <glyph glyph-name="Ccedilla" unicode="&#xc7;" horiz-adv-x="667" 
d="M677 685l-51 -234l-32 6c2 13 3 22 3 35c0 98 -50 158 -131 158c-67 0 -127 -45 -168 -100c-66 -86 -112 -213 -112 -341c0 -109 62 -174 150 -174c31 0 62 6 90 18c42 18 65 41 119 101l31 -22c-32 -44 -49 -63 -78 -85c-57 -43 -123 -65 -194 -65c-21 0 -42 0 -64 4
l-33 -48c10 2 16 3 26 3c52 0 90 -30 90 -72c0 -50 -53 -87 -124 -87c-36 0 -69 7 -112 25l22 33c28 -13 45 -17 67 -17c34 0 56 16 56 41c0 23 -17 36 -47 36c-10 0 -18 -1 -30 -4l-13 12l59 88c-109 36 -169 126 -169 245c0 127 51 243 131 324c73 74 171 120 277 120
c41 0 86 -7 131 -21c15 -5 30 -8 38 -8c15 0 24 7 38 29h30z" />
    <glyph glyph-name="Egrave" unicode="&#xc8;" horiz-adv-x="667" 
d="M653 669l-43 -190l-27 5c-3 71 -4 96 -45 123c-30 19 -76 30 -137 30c-41 0 -55 -6 -67 -51l-59 -216c132 0 158 13 205 107l28 -4l-74 -274l-28 4c3 19 4 30 4 44c0 69 -31 91 -144 91l-63 -234c-5 -20 -8 -31 -8 -38c0 -24 18 -34 61 -34c88 0 157 19 214 61
c37 27 57 50 91 106l25 -5l-60 -194h-553v25c52 8 65 19 82 80l119 432c9 33 12 55 12 70c0 20 -10 29 -41 33l-33 4v25h541zM531 766h-46l-132 88c-22 15 -34 32 -34 48c0 24 21 45 45 45c19 0 38 -9 56 -33z" />
    <glyph glyph-name="Eacute" unicode="&#xc9;" horiz-adv-x="667" 
d="M653 669l-43 -190l-27 5c-3 71 -4 96 -45 123c-30 19 -76 30 -137 30c-41 0 -55 -6 -67 -51l-59 -216c132 0 158 13 205 107l28 -4l-74 -274l-28 4c3 19 4 30 4 44c0 69 -31 91 -144 91l-63 -234c-5 -20 -8 -31 -8 -38c0 -24 18 -34 61 -34c88 0 157 19 214 61
c37 27 57 50 91 106l25 -5l-60 -194h-553v25c52 8 65 19 82 80l119 432c9 33 12 55 12 70c0 20 -10 29 -41 33l-33 4v25h541zM306 766l122 131c36 38 52 50 70 50c26 0 48 -21 48 -47c0 -19 -9 -30 -39 -47l-152 -87h-49z" />
    <glyph glyph-name="Ecircumflex" unicode="&#xca;" horiz-adv-x="667" 
d="M653 669l-43 -190l-27 5c-3 71 -4 96 -45 123c-30 19 -76 30 -137 30c-41 0 -55 -6 -67 -51l-59 -216c132 0 158 13 205 107l28 -4l-74 -274l-28 4c3 19 4 30 4 44c0 69 -31 91 -144 91l-63 -234c-5 -20 -8 -31 -8 -38c0 -24 18 -34 61 -34c88 0 157 19 214 61
c37 27 57 50 91 106l25 -5l-60 -194h-553v25c52 8 65 19 82 80l119 432c9 33 12 55 12 70c0 20 -10 29 -41 33l-33 4v25h541zM586 766h-51l-88 95l-131 -95h-57l160 174h81z" />
    <glyph glyph-name="Edieresis" unicode="&#xcb;" horiz-adv-x="667" 
d="M653 669l-43 -190l-27 5c-3 71 -4 96 -45 123c-30 19 -76 30 -137 30c-41 0 -55 -6 -67 -51l-59 -216c132 0 158 13 205 107l28 -4l-74 -274l-28 4c3 19 4 30 4 44c0 69 -31 91 -144 91l-63 -234c-5 -20 -8 -31 -8 -38c0 -24 18 -34 61 -34c88 0 157 19 214 61
c37 27 57 50 91 106l25 -5l-60 -194h-553v25c52 8 65 19 82 80l119 432c9 33 12 55 12 70c0 20 -10 29 -41 33l-33 4v25h541zM601 839c0 -35 -30 -64 -66 -64c-34 0 -64 30 -64 64c0 36 29 66 64 66c36 0 66 -30 66 -66zM389 839c0 -35 -30 -64 -66 -64c-34 0 -64 30 -64 64
c0 36 29 66 64 66c36 0 66 -30 66 -66z" />
    <glyph glyph-name="Igrave" unicode="&#xcc;" horiz-adv-x="389" 
d="M406 669v-25c-49 -5 -67 -17 -84 -80l-112 -412c-14 -51 -17 -71 -17 -87c0 -28 14 -37 71 -40v-25h-296v25c49 6 64 11 83 82l117 429c8 29 14 59 14 71c0 20 -15 30 -42 33l-32 4v25h298zM404 766h-46l-132 88c-22 15 -34 32 -34 48c0 24 21 45 45 45
c19 0 38 -9 56 -33z" />
    <glyph glyph-name="Iacute" unicode="&#xcd;" horiz-adv-x="389" 
d="M406 669v-25c-49 -5 -67 -17 -84 -80l-112 -412c-14 -51 -17 -71 -17 -87c0 -28 14 -37 71 -40v-25h-296v25c49 6 64 11 83 82l117 429c8 29 14 59 14 71c0 20 -15 30 -42 33l-32 4v25h298zM200 766l122 131c36 38 52 50 70 50c26 0 48 -21 48 -47c0 -19 -9 -30 -39 -47
l-152 -87h-49z" />
    <glyph glyph-name="Icircumflex" unicode="&#xce;" horiz-adv-x="389" 
d="M406 669v-25c-49 -5 -67 -17 -84 -80l-112 -412c-14 -51 -17 -71 -17 -87c0 -28 14 -37 71 -40v-25h-296v25c49 6 64 11 83 82l117 429c8 29 14 59 14 71c0 20 -15 30 -42 33l-32 4v25h298zM469 766h-51l-88 95l-131 -95h-57l160 174h81z" />
    <glyph glyph-name="Idieresis" unicode="&#xcf;" horiz-adv-x="389" 
d="M406 669v-25c-49 -5 -67 -17 -84 -80l-112 -412c-14 -51 -17 -71 -17 -87c0 -28 14 -37 71 -40v-25h-296v25c49 6 64 11 83 82l117 429c8 29 14 59 14 71c0 20 -15 30 -42 33l-32 4v25h298zM480 839c0 -35 -30 -64 -66 -64c-34 0 -64 30 -64 64c0 36 29 66 64 66
c36 0 66 -30 66 -66zM268 839c0 -35 -30 -64 -66 -64c-34 0 -64 30 -64 64c0 36 29 66 64 66c36 0 66 -30 66 -66z" />
    <glyph glyph-name="Eth" unicode="&#xd0;" horiz-adv-x="722" 
d="M109 669h290c189 0 301 -102 301 -273c0 -228 -189 -396 -445 -396h-286v25c48 6 66 21 80 72l63 232h-102l12 44h102l46 170c9 33 12 49 12 59c0 24 -14 32 -42 37l-31 5v25zM260 329l-56 -207c-7 -27 -12 -42 -12 -54c0 -24 16 -34 54 -34c97 0 168 38 223 118
c52 77 84 194 84 305c0 122 -54 181 -165 181c-33 0 -48 -10 -55 -38l-61 -227h122l-12 -44h-122z" />
    <glyph glyph-name="Ntilde" unicode="&#xd1;" horiz-adv-x="722" 
d="M619 905h41c-22 -84 -57 -119 -117 -119c-19 0 -30 2 -57 13l-59 23c-13 5 -27 8 -38 8c-22 0 -35 -11 -48 -43h-40c13 72 59 118 116 118c25 0 56 -8 97 -26c27 -11 42 -16 54 -16c23 0 36 10 51 42zM748 669v-25c-56 -11 -66 -24 -102 -153l-143 -506h-28l-257 547
l-99 -354c-12 -42 -19 -75 -19 -94c0 -39 20 -54 79 -59v-25h-206v25c55 11 60 17 101 155l120 407c-19 44 -27 52 -82 57v25h193l216 -467l81 289c11 41 19 75 19 94c0 38 -21 59 -81 59v25h208z" />
    <glyph glyph-name="Ograve" unicode="&#xd2;" horiz-adv-x="722" 
d="M691 444c0 -128 -73 -271 -180 -366c-70 -62 -155 -96 -248 -96c-141 0 -236 84 -236 239c0 135 75 282 186 372c72 58 152 92 236 92c137 0 242 -95 242 -241zM547 528c0 83 -41 123 -101 123c-63 0 -112 -36 -162 -120c-60 -101 -113 -269 -113 -388
c0 -75 39 -127 102 -127c64 0 108 41 157 114c67 99 117 285 117 398zM580 766h-46l-132 88c-22 15 -34 32 -34 48c0 24 21 45 45 45c19 0 38 -9 56 -33z" />
    <glyph glyph-name="Oacute" unicode="&#xd3;" horiz-adv-x="722" 
d="M691 444c0 -128 -73 -271 -180 -366c-70 -62 -155 -96 -248 -96c-141 0 -236 84 -236 239c0 135 75 282 186 372c72 58 152 92 236 92c137 0 242 -95 242 -241zM547 528c0 83 -41 123 -101 123c-63 0 -112 -36 -162 -120c-60 -101 -113 -269 -113 -388
c0 -75 39 -127 102 -127c64 0 108 41 157 114c67 99 117 285 117 398zM355 766l122 131c36 38 52 50 70 50c26 0 48 -21 48 -47c0 -19 -9 -30 -39 -47l-152 -87h-49z" />
    <glyph glyph-name="Ocircumflex" unicode="&#xd4;" horiz-adv-x="722" 
d="M691 444c0 -128 -73 -271 -180 -366c-70 -62 -155 -96 -248 -96c-141 0 -236 84 -236 239c0 135 75 282 186 372c72 58 152 92 236 92c137 0 242 -95 242 -241zM547 528c0 83 -41 123 -101 123c-63 0 -112 -36 -162 -120c-60 -101 -113 -269 -113 -388
c0 -75 39 -127 102 -127c64 0 108 41 157 114c67 99 117 285 117 398zM638 766h-51l-88 95l-131 -95h-57l160 174h81z" />
    <glyph glyph-name="Otilde" unicode="&#xd5;" horiz-adv-x="722" 
d="M620 905h41c-22 -84 -57 -119 -117 -119c-19 0 -30 2 -57 13l-59 23c-13 5 -27 8 -38 8c-22 0 -35 -11 -48 -43h-40c13 72 59 118 116 118c25 0 56 -8 97 -26c27 -11 42 -16 54 -16c23 0 36 10 51 42zM691 444c0 -128 -73 -271 -180 -366c-70 -62 -155 -96 -248 -96
c-141 0 -236 84 -236 239c0 135 75 282 186 372c72 58 152 92 236 92c137 0 242 -95 242 -241zM547 528c0 83 -41 123 -101 123c-63 0 -112 -36 -162 -120c-60 -101 -113 -269 -113 -388c0 -75 39 -127 102 -127c64 0 108 41 157 114c67 99 117 285 117 398z" />
    <glyph glyph-name="Odieresis" unicode="&#xd6;" horiz-adv-x="722" 
d="M691 444c0 -128 -73 -271 -180 -366c-70 -62 -155 -96 -248 -96c-141 0 -236 84 -236 239c0 135 75 282 186 372c72 58 152 92 236 92c137 0 242 -95 242 -241zM547 528c0 83 -41 123 -101 123c-63 0 -112 -36 -162 -120c-60 -101 -113 -269 -113 -388
c0 -75 39 -127 102 -127c64 0 108 41 157 114c67 99 117 285 117 398zM651 839c0 -35 -30 -64 -66 -64c-34 0 -64 30 -64 64c0 36 29 66 64 66c36 0 66 -30 66 -66zM439 839c0 -35 -30 -64 -66 -64c-34 0 -64 30 -64 64c0 36 29 66 64 66c36 0 66 -30 66 -66z" />
    <glyph glyph-name="multiply" unicode="&#xd7;" horiz-adv-x="570" 
d="M522 78l-62 -62l-175 176l-175 -176l-62 62l175 175l-175 175l62 62l175 -176l175 176l62 -62l-176 -175z" />
    <glyph glyph-name="Oslash" unicode="&#xd8;" horiz-adv-x="722" 
d="M633 764l-63 -108c74 -35 121 -117 121 -203c0 -152 -72 -283 -183 -376c-73 -61 -151 -95 -240 -95c-31 0 -54 3 -85 13l-70 -120h-48l79 136c-78 42 -117 113 -117 201c0 249 199 473 422 473c30 0 50 -3 82 -13l53 92h49zM182 77l324 553c-19 15 -37 21 -63 21
c-61 0 -116 -43 -165 -130c-58 -103 -107 -278 -107 -380c0 -22 4 -44 11 -64zM533 593l-325 -555c20 -16 41 -22 67 -22c62 0 128 57 166 135c51 105 106 275 106 376c0 22 -5 43 -14 66z" />
    <glyph glyph-name="Ugrave" unicode="&#xd9;" horiz-adv-x="722" 
d="M744 669v-25c-55 -11 -65 -13 -102 -147l-65 -234c-30 -107 -62 -187 -121 -234c-39 -31 -92 -47 -166 -47c-131 0 -223 56 -223 163c0 40 14 101 37 189l51 193c10 37 15 66 15 78c0 22 -9 33 -41 36l-32 3v25h311v-25c-62 -3 -78 -17 -94 -76l-81 -294
c-26 -94 -28 -107 -28 -135c0 -72 46 -101 122 -101c55 0 94 17 123 47c43 44 67 114 90 197l57 209c12 44 19 79 19 96c0 36 -22 57 -79 57v25h207zM578 766h-46l-132 88c-22 15 -34 32 -34 48c0 24 21 45 45 45c19 0 38 -9 56 -33z" />
    <glyph glyph-name="Uacute" unicode="&#xda;" horiz-adv-x="722" 
d="M744 669v-25c-55 -11 -65 -13 -102 -147l-65 -234c-30 -107 -62 -187 -121 -234c-39 -31 -92 -47 -166 -47c-131 0 -223 56 -223 163c0 40 14 101 37 189l51 193c10 37 15 66 15 78c0 22 -9 33 -41 36l-32 3v25h311v-25c-62 -3 -78 -17 -94 -76l-81 -294
c-26 -94 -28 -107 -28 -135c0 -72 46 -101 122 -101c55 0 94 17 123 47c43 44 67 114 90 197l57 209c12 44 19 79 19 96c0 36 -22 57 -79 57v25h207zM354 766l122 131c36 38 52 50 70 50c26 0 48 -21 48 -47c0 -19 -9 -30 -39 -47l-152 -87h-49z" />
    <glyph glyph-name="Ucircumflex" unicode="&#xdb;" horiz-adv-x="722" 
d="M744 669v-25c-55 -11 -65 -13 -102 -147l-65 -234c-30 -107 -62 -187 -121 -234c-39 -31 -92 -47 -166 -47c-131 0 -223 56 -223 163c0 40 14 101 37 189l51 193c10 37 15 66 15 78c0 22 -9 33 -41 36l-32 3v25h311v-25c-62 -3 -78 -17 -94 -76l-81 -294
c-26 -94 -28 -107 -28 -135c0 -72 46 -101 122 -101c55 0 94 17 123 47c43 44 67 114 90 197l57 209c12 44 19 79 19 96c0 36 -22 57 -79 57v25h207zM637 766h-51l-88 95l-131 -95h-57l160 174h81z" />
    <glyph glyph-name="Udieresis" unicode="&#xdc;" horiz-adv-x="722" 
d="M744 669v-25c-55 -11 -65 -13 -102 -147l-65 -234c-30 -107 -62 -187 -121 -234c-39 -31 -92 -47 -166 -47c-131 0 -223 56 -223 163c0 40 14 101 37 189l51 193c10 37 15 66 15 78c0 22 -9 33 -41 36l-32 3v25h311v-25c-62 -3 -78 -17 -94 -76l-81 -294
c-26 -94 -28 -107 -28 -135c0 -72 46 -101 122 -101c55 0 94 17 123 47c43 44 67 114 90 197l57 209c12 44 19 79 19 96c0 36 -22 57 -79 57v25h207zM648 839c0 -35 -30 -64 -66 -64c-34 0 -64 30 -64 64c0 36 29 66 64 66c36 0 66 -30 66 -66zM436 839
c0 -35 -30 -64 -66 -64c-34 0 -64 30 -64 64c0 36 29 66 64 66c36 0 66 -30 66 -66z" />
    <glyph glyph-name="Yacute" unicode="&#xdd;" horiz-adv-x="611" 
d="M659 669v-25c-38 -5 -60 -27 -92 -72l-189 -264l-52 -191c-5 -20 -10 -37 -10 -51c0 -28 17 -41 79 -41v-25h-323v25c66 6 87 15 104 78l57 208l-87 270c-16 48 -23 52 -75 63v25h285v-25c-55 -2 -69 -9 -69 -39c0 -18 8 -44 29 -110l46 -143l128 183c21 30 28 49 28 67
c0 31 -13 40 -66 42v25h207zM357 766l122 131c36 38 52 50 70 50c26 0 48 -21 48 -47c0 -19 -9 -30 -39 -47l-152 -87h-49z" />
    <glyph glyph-name="Thorn" unicode="&#xde;" horiz-adv-x="611" 
d="M312 534h44c146 0 217 -47 217 -148c0 -56 -23 -109 -64 -143c-48 -39 -120 -61 -209 -61c-27 0 -46 1 -81 5l-16 -61c-9 -35 -8 -52 -8 -62c0 -27 15 -36 71 -39v-25h-293v25c52 8 67 26 81 77l120 436c8 31 12 54 12 69c0 20 -12 29 -43 33l-31 4v25h295l-1 -25
c-53 -8 -61 -15 -81 -72zM292 451l-63 -232c17 -1 29 -2 42 -2c57 0 92 15 117 52c23 35 39 98 39 142c0 58 -31 91 -84 91c-35 0 -41 -14 -51 -51z" />
    <glyph glyph-name="germandbls" unicode="&#xdf;" 
d="M-16 -20l92 423c43 198 129 302 251 302c85 0 146 -50 146 -126c0 -61 -21 -98 -69 -135c-26 -20 -58 -27 -113 -45v-1c88 -14 144 -60 144 -143c0 -73 -34 -143 -73 -190c-41 -49 -90 -72 -149 -72c-30 0 -48 6 -71 22l20 35l4 -5c8 -10 29 -18 45 -18c26 0 42 20 61 60
c25 53 43 153 43 217c0 30 -9 54 -24 65c-10 7 -23 11 -52 15l7 37h17c23 0 53 16 70 53s29 93 29 140c0 42 -15 61 -46 61c-46 0 -76 -49 -102 -166l-89 -398c-52 -231 -123 -311 -228 -311c-60 0 -97 31 -97 77c0 32 21 56 52 56c30 0 47 -18 47 -46
c0 -26 -17 -24 -17 -41c0 -8 4 -15 16 -15c25 0 40 12 49 34c13 25 26 65 37 115z" />
    <glyph glyph-name="agrave" unicode="&#xe0;" 
d="M435 127l21 -15c-58 -94 -109 -126 -156 -126c-37 0 -63 21 -63 64c0 14 2 28 14 69c-56 -95 -103 -132 -164 -132c-65 0 -108 51 -108 127c0 80 36 164 87 231c53 70 121 117 186 117c43 0 65 -21 74 -72h1l17 59l111 7l-75 -251c-24 -79 -30 -108 -30 -133
c0 -9 4 -15 12 -15c16 0 32 15 73 70zM303 373c0 27 -15 47 -37 47c-42 0 -80 -58 -108 -115c-35 -71 -56 -152 -56 -190c0 -40 17 -57 43 -57c27 0 59 26 86 75c39 69 72 180 72 240zM416 516h-46l-132 88c-22 15 -34 32 -34 48c0 24 21 45 45 45c19 0 38 -9 56 -33z" />
    <glyph glyph-name="aacute" unicode="&#xe1;" 
d="M435 127l21 -15c-58 -94 -109 -126 -156 -126c-37 0 -63 21 -63 64c0 14 2 28 14 69c-56 -95 -103 -132 -164 -132c-65 0 -108 51 -108 127c0 80 36 164 87 231c53 70 121 117 186 117c43 0 65 -21 74 -72h1l17 59l111 7l-75 -251c-24 -79 -30 -108 -30 -133
c0 -9 4 -15 12 -15c16 0 32 15 73 70zM303 373c0 27 -15 47 -37 47c-42 0 -80 -58 -108 -115c-35 -71 -56 -152 -56 -190c0 -40 17 -57 43 -57c27 0 59 26 86 75c39 69 72 180 72 240zM192 516l122 131c36 38 52 50 70 50c26 0 48 -21 48 -47c0 -19 -9 -30 -39 -47l-152 -87
h-49z" />
    <glyph glyph-name="acircumflex" unicode="&#xe2;" 
d="M435 127l21 -15c-58 -94 -109 -126 -156 -126c-37 0 -63 21 -63 64c0 14 2 28 14 69c-56 -95 -103 -132 -164 -132c-65 0 -108 51 -108 127c0 80 36 164 87 231c53 70 121 117 186 117c43 0 65 -21 74 -72h1l17 59l111 7l-75 -251c-24 -79 -30 -108 -30 -133
c0 -9 4 -15 12 -15c16 0 32 15 73 70zM303 373c0 27 -15 47 -37 47c-42 0 -80 -58 -108 -115c-35 -71 -56 -152 -56 -190c0 -40 17 -57 43 -57c27 0 59 26 86 75c39 69 72 180 72 240zM475 516h-51l-88 95l-131 -95h-57l160 174h81z" />
    <glyph glyph-name="atilde" unicode="&#xe3;" 
d="M456 655h41c-22 -84 -57 -119 -117 -119c-19 0 -30 2 -57 13l-59 23c-13 5 -27 8 -38 8c-22 0 -35 -11 -48 -43h-40c13 72 59 118 116 118c25 0 56 -8 97 -26c27 -11 42 -16 54 -16c23 0 36 10 51 42zM435 127l21 -15c-58 -94 -109 -126 -156 -126c-37 0 -63 21 -63 64
c0 14 2 28 14 69c-56 -95 -103 -132 -164 -132c-65 0 -108 51 -108 127c0 80 36 164 87 231c53 70 121 117 186 117c43 0 65 -21 74 -72h1l17 59l111 7l-75 -251c-24 -79 -30 -108 -30 -133c0 -9 4 -15 12 -15c16 0 32 15 73 70zM303 373c0 27 -15 47 -37 47
c-42 0 -80 -58 -108 -115c-35 -71 -56 -152 -56 -190c0 -40 17 -57 43 -57c27 0 59 26 86 75c39 69 72 180 72 240z" />
    <glyph glyph-name="adieresis" unicode="&#xe4;" 
d="M435 127l21 -15c-58 -94 -109 -126 -156 -126c-37 0 -63 21 -63 64c0 14 2 28 14 69c-56 -95 -103 -132 -164 -132c-65 0 -108 51 -108 127c0 80 36 164 87 231c53 70 121 117 186 117c43 0 65 -21 74 -72h1l17 59l111 7l-75 -251c-24 -79 -30 -108 -30 -133
c0 -9 4 -15 12 -15c16 0 32 15 73 70zM303 373c0 27 -15 47 -37 47c-42 0 -80 -58 -108 -115c-35 -71 -56 -152 -56 -190c0 -40 17 -57 43 -57c27 0 59 26 86 75c39 69 72 180 72 240zM485 589c0 -35 -30 -64 -66 -64c-34 0 -64 30 -64 64c0 36 29 66 64 66
c36 0 66 -30 66 -66zM273 589c0 -35 -30 -64 -66 -64c-34 0 -64 30 -64 64c0 36 29 66 64 66c36 0 66 -30 66 -66z" />
    <glyph glyph-name="aring" unicode="&#xe5;" 
d="M435 127l21 -15c-58 -94 -109 -126 -156 -126c-37 0 -63 21 -63 64c0 14 2 28 14 69c-56 -95 -103 -132 -164 -132c-65 0 -108 51 -108 127c0 80 36 164 87 231c53 70 121 117 186 117c43 0 65 -21 74 -72h1l17 59l111 7l-75 -251c-24 -79 -30 -108 -30 -133
c0 -9 4 -15 12 -15c16 0 32 15 73 70zM303 373c0 27 -15 47 -37 47c-42 0 -80 -58 -108 -115c-35 -71 -56 -152 -56 -190c0 -40 17 -57 43 -57c27 0 59 26 86 75c39 69 72 180 72 240zM426 650c0 -59 -48 -107 -107 -107c-64 0 -106 45 -106 108c0 59 49 105 107 105
c63 0 106 -47 106 -106zM378 648c0 33 -27 60 -60 60c-31 0 -57 -27 -57 -59s26 -58 57 -58c33 0 60 26 60 57z" />
    <glyph glyph-name="ae" unicode="&#xe6;" horiz-adv-x="722" 
d="M473 459l-20 -65c38 49 71 65 120 65c63 0 100 -32 100 -87c0 -82 -83 -161 -230 -185l-37 -6c-4 -20 -5 -31 -5 -46c0 -53 25 -85 66 -85c48 0 90 31 124 90l28 -17c-43 -88 -110 -136 -194 -136c-89 0 -133 45 -143 131c-56 -93 -106 -130 -173 -130
c-66 0 -114 38 -114 118c0 90 45 188 107 259c50 58 111 97 168 97c44 0 64 -16 82 -66l18 58zM418 231l-5 -17c85 10 170 92 170 174c0 29 -12 41 -35 41c-50 0 -91 -64 -130 -198zM333 363c0 33 -20 56 -48 56c-93 0 -164 -215 -164 -295c0 -43 18 -66 48 -66
c34 0 63 28 93 79c40 68 71 171 71 226z" />
    <glyph glyph-name="ccedilla" unicode="&#xe7;" horiz-adv-x="444" 
d="M31 -92l60 88c-60 18 -96 67 -96 142c0 86 41 173 101 235c52 54 122 89 183 89s113 -37 113 -91c0 -42 -25 -70 -62 -70c-34 0 -58 23 -58 53c0 25 21 36 21 58c0 10 -10 17 -22 17c-42 0 -72 -38 -96 -87c-34 -70 -52 -163 -52 -202c0 -53 29 -89 73 -89
c43 0 74 23 122 90l28 -18c-33 -50 -63 -90 -103 -113c-26 -15 -57 -23 -95 -23c-6 0 -11 0 -18 1l-34 -50c10 2 16 3 26 3c52 0 90 -30 90 -72c0 -50 -53 -87 -124 -87c-36 0 -68 7 -112 25l22 33c28 -13 45 -17 67 -17c34 0 56 16 56 41c0 23 -17 36 -47 36
c-10 0 -18 -1 -30 -4z" />
    <glyph glyph-name="egrave" unicode="&#xe8;" horiz-adv-x="444" 
d="M317 143l29 -17c-56 -100 -118 -139 -195 -139c-87 0 -146 48 -146 147c0 165 143 328 288 328c65 0 105 -36 105 -87c0 -43 -29 -88 -69 -122c-43 -36 -91 -54 -188 -71c-4 -20 -6 -33 -6 -49c0 -54 22 -82 64 -82c43 0 72 23 118 92zM306 390c0 23 -7 39 -31 39
c-48 0 -91 -76 -127 -215c90 20 158 93 158 176zM388 516h-46l-132 88c-22 15 -34 32 -34 48c0 24 21 45 45 45c19 0 38 -9 56 -33z" />
    <glyph glyph-name="eacute" unicode="&#xe9;" horiz-adv-x="444" 
d="M317 143l29 -17c-56 -100 -118 -139 -195 -139c-87 0 -146 48 -146 147c0 165 143 328 288 328c65 0 105 -36 105 -87c0 -43 -29 -88 -69 -122c-43 -36 -91 -54 -188 -71c-4 -20 -6 -33 -6 -49c0 -54 22 -82 64 -82c43 0 72 23 118 92zM306 390c0 23 -7 39 -31 39
c-48 0 -91 -76 -127 -215c90 20 158 93 158 176zM179 516l122 131c36 38 52 50 70 50c26 0 48 -21 48 -47c0 -19 -9 -30 -39 -47l-152 -87h-49z" />
    <glyph glyph-name="ecircumflex" unicode="&#xea;" horiz-adv-x="444" 
d="M317 143l29 -17c-56 -100 -118 -139 -195 -139c-87 0 -146 48 -146 147c0 165 143 328 288 328c65 0 105 -36 105 -87c0 -43 -29 -88 -69 -122c-43 -36 -91 -54 -188 -71c-4 -20 -6 -33 -6 -49c0 -54 22 -82 64 -82c43 0 72 23 118 92zM306 390c0 23 -7 39 -31 39
c-48 0 -91 -76 -127 -215c90 20 158 93 158 176zM462 516h-51l-88 95l-131 -95h-57l160 174h81z" />
    <glyph glyph-name="edieresis" unicode="&#xeb;" horiz-adv-x="444" 
d="M317 143l29 -17c-56 -100 -118 -139 -195 -139c-87 0 -146 48 -146 147c0 165 143 328 288 328c65 0 105 -36 105 -87c0 -43 -29 -88 -69 -122c-43 -36 -91 -54 -188 -71c-4 -20 -6 -33 -6 -49c0 -54 22 -82 64 -82c43 0 72 23 118 92zM306 390c0 23 -7 39 -31 39
c-48 0 -91 -76 -127 -215c90 20 158 93 158 176zM470 589c0 -35 -30 -64 -66 -64c-34 0 -64 30 -64 64c0 36 29 66 64 66c36 0 66 -30 66 -66zM258 589c0 -35 -30 -64 -66 -64c-34 0 -64 30 -64 64c0 36 29 66 64 66c36 0 66 -30 66 -66z" />
    <glyph glyph-name="igrave" unicode="&#xec;" horiz-adv-x="278" 
d="M216 142l22 -14c-66 -108 -108 -137 -168 -137c-41 0 -68 20 -68 63c0 14 5 40 15 76l55 203c6 24 8 37 8 45c0 19 -16 29 -46 29h-14v27c78 6 149 16 203 28l-91 -334c-5 -17 -9 -42 -9 -51c0 -12 7 -16 15 -16c15 0 37 23 64 61zM294 516h-46l-132 88
c-22 15 -34 32 -34 48c0 24 21 45 45 45c19 0 38 -9 56 -33z" />
    <glyph glyph-name="iacute" unicode="&#xed;" horiz-adv-x="278" 
d="M216 142l22 -14c-66 -108 -108 -137 -168 -137c-41 0 -68 20 -68 63c0 14 5 40 15 76l55 203c6 24 8 37 8 45c0 19 -16 29 -46 29h-14v27c78 6 149 16 203 28l-91 -334c-5 -17 -9 -42 -9 -51c0 -12 7 -16 15 -16c15 0 37 23 64 61zM70 516l122 131c36 38 52 50 70 50
c26 0 48 -21 48 -47c0 -19 -9 -30 -39 -47l-152 -87h-49z" />
    <glyph glyph-name="icircumflex" unicode="&#xee;" horiz-adv-x="278" 
d="M216 142l22 -14c-66 -108 -108 -137 -168 -137c-41 0 -68 20 -68 63c0 14 5 40 15 76l55 203c6 24 8 37 8 45c0 19 -16 29 -46 29h-14v27c78 6 149 16 203 28l-91 -334c-5 -17 -9 -42 -9 -51c0 -12 7 -16 15 -16c15 0 37 23 64 61zM353 516h-51l-88 95l-131 -95h-57
l160 174h81z" />
    <glyph glyph-name="idieresis" unicode="&#xef;" horiz-adv-x="278" 
d="M216 142l22 -14c-66 -108 -108 -137 -168 -137c-41 0 -68 20 -68 63c0 14 5 40 15 76l55 203c6 24 8 37 8 45c0 19 -16 29 -46 29h-14v27c78 6 149 16 203 28l-91 -334c-5 -17 -9 -42 -9 -51c0 -12 7 -16 15 -16c15 0 37 23 64 61zM362 589c0 -35 -30 -64 -66 -64
c-34 0 -64 30 -64 64c0 36 29 66 64 66c36 0 66 -30 66 -66zM150 589c0 -35 -30 -64 -66 -64c-34 0 -64 30 -64 64c0 36 29 66 64 66c36 0 66 -30 66 -66z" />
    <glyph glyph-name="eth" unicode="&#xf0;" 
d="M454 664l-107 -56c68 -74 94 -137 94 -228c0 -209 -119 -393 -286 -393c-94 0 -158 63 -158 147c0 175 137 328 275 328c31 0 54 -12 71 -42l2 4c-4 54 -23 100 -62 150l-119 -62l-33 31l122 64c-40 38 -77 58 -117 65l45 27c49 -7 89 -25 132 -60l107 57zM322 375
c0 36 -18 58 -46 58c-88 0 -160 -239 -160 -347c0 -47 16 -70 49 -70c51 0 84 63 109 129c27 73 48 173 48 230z" />
    <glyph glyph-name="ntilde" unicode="&#xf1;" horiz-adv-x="556" 
d="M466 655h41c-22 -84 -57 -119 -117 -119c-19 0 -30 2 -57 13l-59 23c-13 5 -27 8 -38 8c-22 0 -35 -11 -48 -43h-40c13 72 59 118 116 118c25 0 56 -8 97 -26c27 -11 42 -16 54 -16c23 0 36 10 51 42zM472 135l22 -13c-55 -97 -100 -131 -160 -131c-43 0 -68 19 -68 60
c0 26 10 77 26 125l55 165c3 10 7 25 7 28c0 17 -12 21 -25 21c-18 0 -49 -27 -69 -54c-62 -81 -99 -162 -145 -336h-121l57 204c33 120 45 167 45 179c0 19 -13 23 -55 24v27c56 2 135 13 199 27l-62 -198h1c67 99 85 123 122 158c27 26 63 41 100 41c51 0 73 -28 73 -77
c0 -24 -12 -69 -28 -116l-35 -104c-19 -56 -24 -79 -24 -89s6 -17 14 -17c17 0 31 14 71 76z" />
    <glyph glyph-name="ograve" unicode="&#xf2;" 
d="M280 462h4c97 0 157 -59 157 -151c0 -94 -44 -188 -105 -249c-49 -49 -108 -75 -175 -75c-94 0 -164 50 -164 148c0 100 40 191 100 250c51 50 115 77 183 77zM322 372c0 38 -18 61 -47 61c-21 0 -41 -10 -60 -31c-60 -67 -99 -220 -99 -322c0 -44 19 -64 49 -64
c26 0 50 15 71 49c49 80 86 220 86 307zM405 516h-46l-132 88c-22 15 -34 32 -34 48c0 24 21 45 45 45c19 0 38 -9 56 -33z" />
    <glyph glyph-name="oacute" unicode="&#xf3;" 
d="M280 462h4c97 0 157 -59 157 -151c0 -94 -44 -188 -105 -249c-49 -49 -108 -75 -175 -75c-94 0 -164 50 -164 148c0 100 40 191 100 250c51 50 115 77 183 77zM322 372c0 38 -18 61 -47 61c-21 0 -41 -10 -60 -31c-60 -67 -99 -220 -99 -322c0 -44 19 -64 49 -64
c26 0 50 15 71 49c49 80 86 220 86 307zM179 516l122 131c36 38 52 50 70 50c26 0 48 -21 48 -47c0 -19 -9 -30 -39 -47l-152 -87h-49z" />
    <glyph glyph-name="ocircumflex" unicode="&#xf4;" 
d="M280 462h4c97 0 157 -59 157 -151c0 -94 -44 -188 -105 -249c-49 -49 -108 -75 -175 -75c-94 0 -164 50 -164 148c0 100 40 191 100 250c51 50 115 77 183 77zM322 372c0 38 -18 61 -47 61c-21 0 -41 -10 -60 -31c-60 -67 -99 -220 -99 -322c0 -44 19 -64 49 -64
c26 0 50 15 71 49c49 80 86 220 86 307zM462 516h-51l-88 95l-131 -95h-57l160 174h81z" />
    <glyph glyph-name="otilde" unicode="&#xf5;" 
d="M444 655h41c-22 -84 -57 -119 -117 -119c-19 0 -30 2 -57 13l-59 23c-13 5 -27 8 -38 8c-22 0 -35 -11 -48 -43h-40c13 72 59 118 116 118c25 0 56 -8 97 -26c27 -11 42 -16 54 -16c23 0 36 10 51 42zM280 462h4c97 0 157 -59 157 -151c0 -94 -44 -188 -105 -249
c-49 -49 -108 -75 -175 -75c-94 0 -164 50 -164 148c0 100 40 191 100 250c51 50 115 77 183 77zM322 372c0 38 -18 61 -47 61c-21 0 -41 -10 -60 -31c-60 -67 -99 -220 -99 -322c0 -44 19 -64 49 -64c26 0 50 15 71 49c49 80 86 220 86 307z" />
    <glyph glyph-name="odieresis" unicode="&#xf6;" 
d="M280 462h4c97 0 157 -59 157 -151c0 -94 -44 -188 -105 -249c-49 -49 -108 -75 -175 -75c-94 0 -164 50 -164 148c0 100 40 191 100 250c51 50 115 77 183 77zM322 372c0 38 -18 61 -47 61c-21 0 -41 -10 -60 -31c-60 -67 -99 -220 -99 -322c0 -44 19 -64 49 -64
c26 0 50 15 71 49c49 80 86 220 86 307zM470 589c0 -35 -30 -64 -66 -64c-34 0 -64 30 -64 64c0 36 29 66 64 66c36 0 66 -30 66 -66zM258 589c0 -35 -30 -64 -66 -64c-34 0 -64 30 -64 64c0 36 29 66 64 66c36 0 66 -30 66 -66z" />
    <glyph glyph-name="divide" unicode="&#xf7;" horiz-adv-x="570" 
d="M359 461c0 -42 -33 -74 -75 -74s-73 32 -73 74s32 74 75 74c40 0 73 -34 73 -74zM537 209h-504v88h504v-88zM359 45c0 -42 -33 -74 -75 -74s-73 32 -73 74s32 74 75 74c40 0 73 -34 73 -74z" />
    <glyph glyph-name="oslash" unicode="&#xf8;" 
d="M424 560l-65 -116c57 -28 82 -69 82 -133c0 -169 -136 -324 -284 -324c-18 0 -31 2 -51 8l-64 -114h-40l72 126c-53 30 -77 70 -77 127c0 170 139 328 289 328c14 0 24 -1 42 -6l59 104h37zM116 78l191 341c-10 10 -19 14 -32 14c-32 0 -61 -23 -86 -68
c-36 -65 -73 -205 -73 -279v-8zM321 377l-193 -343c10 -13 21 -18 37 -18c39 0 70 33 101 109c29 69 56 187 56 247c0 2 0 3 -1 5z" />
    <glyph glyph-name="ugrave" unicode="&#xf9;" horiz-adv-x="556" 
d="M471 133l22 -13c-52 -89 -99 -129 -159 -129c-44 0 -68 19 -68 60c0 29 8 55 26 110h-1c-94 -138 -133 -170 -198 -170c-50 0 -78 26 -78 79c0 25 8 56 22 106l37 128c8 29 17 59 17 75c0 15 -12 25 -58 28v27c51 1 149 15 210 28l-93 -302c-14 -45 -16 -57 -16 -72
c0 -17 10 -25 24 -25c18 0 40 16 70 55c58 76 88 131 142 331h118l-78 -266c-13 -46 -25 -91 -25 -103c0 -10 3 -21 14 -21c17 0 37 20 72 74zM422 516h-46l-132 88c-22 15 -34 32 -34 48c0 24 21 45 45 45c19 0 38 -9 56 -33z" />
    <glyph glyph-name="uacute" unicode="&#xfa;" horiz-adv-x="556" 
d="M471 133l22 -13c-52 -89 -99 -129 -159 -129c-44 0 -68 19 -68 60c0 29 8 55 26 110h-1c-94 -138 -133 -170 -198 -170c-50 0 -78 26 -78 79c0 25 8 56 22 106l37 128c8 29 17 59 17 75c0 15 -12 25 -58 28v27c51 1 149 15 210 28l-93 -302c-14 -45 -16 -57 -16 -72
c0 -17 10 -25 24 -25c18 0 40 16 70 55c58 76 88 131 142 331h118l-78 -266c-13 -46 -25 -91 -25 -103c0 -10 3 -21 14 -21c17 0 37 20 72 74zM196 516l122 131c36 38 52 50 70 50c26 0 48 -21 48 -47c0 -19 -9 -30 -39 -47l-152 -87h-49z" />
    <glyph glyph-name="ucircumflex" unicode="&#xfb;" horiz-adv-x="556" 
d="M471 133l22 -13c-52 -89 -99 -129 -159 -129c-44 0 -68 19 -68 60c0 29 8 55 26 110h-1c-94 -138 -133 -170 -198 -170c-50 0 -78 26 -78 79c0 25 8 56 22 106l37 128c8 29 17 59 17 75c0 15 -12 25 -58 28v27c51 1 149 15 210 28l-93 -302c-14 -45 -16 -57 -16 -72
c0 -17 10 -25 24 -25c18 0 40 16 70 55c58 76 88 131 142 331h118l-78 -266c-13 -46 -25 -91 -25 -103c0 -10 3 -21 14 -21c17 0 37 20 72 74zM481 516h-51l-88 95l-131 -95h-57l160 174h81z" />
    <glyph glyph-name="udieresis" unicode="&#xfc;" horiz-adv-x="556" 
d="M471 133l22 -13c-52 -89 -99 -129 -159 -129c-44 0 -68 19 -68 60c0 29 8 55 26 110h-1c-94 -138 -133 -170 -198 -170c-50 0 -78 26 -78 79c0 25 8 56 22 106l37 128c8 29 17 59 17 75c0 15 -12 25 -58 28v27c51 1 149 15 210 28l-93 -302c-14 -45 -16 -57 -16 -72
c0 -17 10 -25 24 -25c18 0 40 16 70 55c58 76 88 131 142 331h118l-78 -266c-13 -46 -25 -91 -25 -103c0 -10 3 -21 14 -21c17 0 37 20 72 74zM489 589c0 -35 -30 -64 -66 -64c-34 0 -64 30 -64 64c0 36 29 66 64 66c36 0 66 -30 66 -66zM277 589c0 -35 -30 -64 -66 -64
c-34 0 -64 30 -64 64c0 36 29 66 64 66c36 0 66 -30 66 -66z" />
    <glyph glyph-name="yacute" unicode="&#xfd;" horiz-adv-x="444" 
d="M239 110h2c70 134 87 176 87 207c0 13 -7 19 -25 34c-22 18 -31 29 -31 54s21 57 58 57c33 0 62 -30 62 -64c0 -101 -119 -338 -249 -497c-55 -67 -120 -106 -175 -106c-35 0 -62 26 -62 60c0 29 24 56 50 56c47 0 58 -36 94 -36c17 0 46 22 67 52c17 24 25 48 25 71
c0 31 -16 126 -50 288c-13 59 -24 97 -40 113c-11 11 -15 12 -40 12v27c65 6 102 12 150 24c18 -47 48 -149 66 -274zM161 516l122 131c36 38 52 50 70 50c26 0 48 -21 48 -47c0 -19 -9 -30 -39 -47l-152 -87h-49z" />
    <glyph glyph-name="thorn" unicode="&#xfe;" 
d="M185 359l3 -3c51 76 94 106 151 106c65 0 107 -48 107 -121c0 -173 -141 -354 -277 -354c-21 0 -33 4 -68 22c-4 -15 -4 -17 -11 -41c-19 -70 -26 -100 -26 -114c0 -24 15 -31 65 -32v-27h-249v27c48 0 61 18 78 85l162 630c13 49 17 68 17 75c0 20 -15 30 -45 30h-18v27
c90 10 138 17 206 30zM321 334c0 33 -11 57 -39 57c-26 0 -60 -24 -85 -63c-15 -23 -24 -48 -46 -121c-27 -91 -38 -132 -38 -149c0 -20 17 -36 39 -36c34 0 66 28 97 82c36 65 72 164 72 230z" />
    <glyph glyph-name="ydieresis" unicode="&#xff;" horiz-adv-x="444" 
d="M239 110h2c70 134 87 176 87 207c0 13 -7 19 -25 34c-22 18 -31 29 -31 54s21 57 58 57c33 0 62 -30 62 -64c0 -101 -119 -338 -249 -497c-55 -67 -120 -106 -175 -106c-35 0 -62 26 -62 60c0 29 24 56 50 56c47 0 58 -36 94 -36c17 0 46 22 67 52c17 24 25 48 25 71
c0 31 -16 126 -50 288c-13 59 -24 97 -40 113c-11 11 -15 12 -40 12v27c65 6 102 12 150 24c18 -47 48 -149 66 -274zM460 589c0 -35 -30 -64 -66 -64c-34 0 -64 30 -64 64c0 36 29 66 64 66c36 0 66 -30 66 -66zM248 589c0 -35 -30 -64 -66 -64c-34 0 -64 30 -64 64
c0 36 29 66 64 66c36 0 66 -30 66 -66z" />
    <glyph glyph-name="uni0100" unicode="&#x100;" horiz-adv-x="667" 
d="M290 0v25c53 4 77 19 77 49c0 5 -1 9 -2 15l-12 119h-215l-57 -96c-11 -18 -17 -35 -17 -50c0 -24 16 -37 64 -37v-25h-195l-1 25c37 4 55 27 86 76l370 582h25l94 -560c14 -82 23 -94 86 -98v-25h-303zM161 248h185l-37 243zM571 793l-16 -70h-326l17 70h325z" />
    <glyph glyph-name="uni0101" unicode="&#x101;" 
d="M435 127l21 -15c-58 -94 -109 -126 -156 -126c-37 0 -63 21 -63 64c0 14 2 28 14 69c-56 -95 -103 -132 -164 -132c-65 0 -108 51 -108 127c0 80 36 164 87 231c53 70 121 117 186 117c43 0 65 -21 74 -72h1l17 59l111 7l-75 -251c-24 -79 -30 -108 -30 -133
c0 -9 4 -15 12 -15c16 0 32 15 73 70zM266 420c-42 0 -80 -58 -108 -115c-35 -71 -56 -152 -56 -190c0 -40 17 -57 43 -57c27 0 59 26 86 75c39 69 72 180 72 240c0 27 -15 47 -37 47zM486 586l-16 -70h-326l17 70h325z" />
    <glyph glyph-name="uni0102" unicode="&#x102;" horiz-adv-x="667" 
d="M290 0v25c53 4 77 19 77 49c0 5 -1 9 -2 15l-12 119h-215l-57 -96c-11 -18 -17 -35 -17 -50c0 -24 16 -37 64 -37v-25h-195l-1 25c37 4 55 27 86 76l370 582h25l94 -560c14 -82 23 -94 86 -98v-25h-303zM161 248h185l-37 243zM519 885h39c-21 -103 -81 -162 -178 -162
c-93 0 -138 54 -138 149v13h43c5 -57 35 -90 99 -90c66 0 104 24 135 90z" />
    <glyph glyph-name="uni0103" unicode="&#x103;" 
d="M435 127l21 -15c-58 -94 -109 -126 -156 -126c-37 0 -63 21 -63 64c0 14 2 28 14 69c-56 -95 -103 -132 -164 -132c-65 0 -108 51 -108 127c0 80 36 164 87 231c53 70 121 117 186 117c43 0 65 -21 74 -72h1l17 59l111 7l-75 -251c-24 -79 -30 -108 -30 -133
c0 -9 4 -15 12 -15c16 0 32 15 73 70zM266 420c-42 0 -80 -58 -108 -115c-35 -71 -56 -152 -56 -190c0 -40 17 -57 43 -57c27 0 59 26 86 75c39 69 72 180 72 240c0 27 -15 47 -37 47zM444 678h39c-21 -103 -81 -162 -178 -162c-93 0 -138 54 -138 149v13h43
c5 -57 35 -90 99 -90c66 0 104 24 135 90z" />
    <glyph glyph-name="uni0104" unicode="&#x104;" horiz-adv-x="667" 
d="M453 0h-163v25c53 4 77 19 77 49c0 5 -1 9 -2 15l-12 119h-215l-57 -96c-11 -18 -17 -35 -17 -50c0 -24 16 -37 64 -37v-25h-195l-1 25c37 4 55 27 86 76l370 582h25l94 -560c14 -82 23 -94 86 -98v-25h-92c-4 -19 -6 -31 -6 -42c0 -45 23 -62 61 -62c16 0 28 3 48 13
c8 4 9 5 14 7l22 -14c-25 -47 -75 -75 -126 -75c-61 0 -103 28 -103 81c0 30 11 53 42 92zM161 248h185l-37 243z" />
    <glyph glyph-name="uni0105" unicode="&#x105;" 
d="M485 -84l22 -14c-25 -47 -75 -75 -126 -75c-61 0 -103 28 -103 81c0 27 9 47 32 79c-4 -1 -7 -1 -10 -1c-37 0 -63 21 -63 64c0 14 2 28 14 69c-56 -95 -103 -132 -164 -132c-65 0 -108 51 -108 127c0 80 36 164 87 231c53 70 121 117 186 117c43 0 65 -21 74 -72h1
l17 59l111 7l-75 -251c-24 -79 -30 -108 -30 -133c0 -9 4 -15 12 -15c16 0 32 15 73 70l21 -15c-30 -49 -58 -81 -85 -100c-6 -26 -9 -41 -9 -54c0 -45 23 -62 61 -62c16 0 28 3 48 13c8 4 9 5 14 7zM266 420c-42 0 -80 -58 -108 -115c-35 -71 -56 -152 -56 -190
c0 -40 17 -57 43 -57c27 0 59 26 86 75c39 69 72 180 72 240c0 27 -15 47 -37 47z" />
    <glyph glyph-name="uni0106" unicode="&#x106;" horiz-adv-x="667" 
d="M677 685l-51 -235l-32 6c2 13 3 23 3 36c0 93 -46 158 -131 158c-53 0 -107 -30 -145 -73c-77 -87 -135 -220 -135 -368c0 -109 61 -174 155 -174c87 0 138 43 204 119l31 -22c-32 -44 -49 -63 -78 -85c-57 -43 -128 -65 -199 -65c-163 0 -267 101 -267 252
c0 148 62 276 159 358c69 58 156 93 249 93c41 0 86 -7 131 -21c15 -5 30 -8 38 -8c15 0 24 7 38 29h30zM409 723h-49l122 131c36 38 52 50 70 50c26 0 48 -21 48 -47c0 -19 -9 -30 -39 -47z" />
    <glyph glyph-name="uni0107" unicode="&#x107;" horiz-adv-x="444" 
d="M318 142l28 -18c-38 -52 -70 -96 -115 -119c-23 -12 -50 -18 -83 -18c-91 0 -153 53 -153 151c0 92 43 177 105 239c51 52 113 85 180 85c60 0 112 -37 112 -90c0 -42 -25 -71 -62 -71c-34 0 -58 23 -58 53s21 36 21 58c0 10 -12 17 -24 17c-38 0 -65 -37 -93 -88
c-33 -61 -53 -134 -53 -201c0 -58 29 -89 73 -89c43 0 74 24 122 91zM188 516h-49l122 131c36 38 52 50 70 50c26 0 48 -21 48 -47c0 -19 -9 -30 -39 -47z" />
    <glyph glyph-name="uni0108" unicode="&#x108;" horiz-adv-x="667" 
d="M677 685l-51 -235l-32 6c2 13 3 23 3 36c0 93 -46 158 -131 158c-53 0 -107 -30 -145 -73c-77 -87 -135 -220 -135 -368c0 -109 61 -174 155 -174c87 0 138 43 204 119l31 -22c-32 -44 -49 -63 -78 -85c-57 -43 -128 -65 -199 -65c-163 0 -267 101 -267 252
c0 148 62 276 159 358c69 58 156 93 249 93c41 0 86 -7 131 -21c15 -5 30 -8 38 -8c15 0 24 7 38 29h30zM573 723l-88 95l-131 -95h-57l160 174h81l86 -174h-51z" />
    <glyph glyph-name="uni0109" unicode="&#x109;" horiz-adv-x="444" 
d="M318 142l28 -18c-38 -52 -70 -96 -115 -119c-23 -12 -50 -18 -83 -18c-91 0 -153 53 -153 151c0 92 43 177 105 239c51 52 113 85 180 85c60 0 112 -37 112 -90c0 -42 -25 -71 -62 -71c-34 0 -58 23 -58 53s21 36 21 58c0 10 -12 17 -24 17c-38 0 -65 -37 -93 -88
c-33 -61 -53 -134 -53 -201c0 -58 29 -89 73 -89c43 0 74 24 122 91zM364 516l-88 95l-131 -95h-57l160 174h81l86 -174h-51z" />
    <glyph glyph-name="uni010A" unicode="&#x10a;" horiz-adv-x="667" 
d="M677 685l-51 -235l-32 6c2 13 3 23 3 36c0 93 -46 158 -131 158c-53 0 -107 -30 -145 -73c-77 -87 -135 -220 -135 -368c0 -109 61 -174 155 -174c87 0 138 43 204 119l31 -22c-32 -44 -49 -63 -78 -85c-57 -43 -128 -65 -199 -65c-163 0 -267 101 -267 252
c0 148 62 276 159 358c69 58 156 93 249 93c41 0 86 -7 131 -21c15 -5 30 -8 38 -8c15 0 24 7 38 29h30zM449 862c36 0 66 -30 66 -66c0 -35 -30 -64 -66 -64c-34 0 -64 30 -64 64c0 36 29 66 64 66z" />
    <glyph glyph-name="uni010B" unicode="&#x10b;" horiz-adv-x="444" 
d="M318 142l28 -18c-38 -52 -70 -96 -115 -119c-23 -12 -50 -18 -83 -18c-91 0 -153 53 -153 151c0 92 43 177 105 239c51 52 113 85 180 85c60 0 112 -37 112 -90c0 -42 -25 -71 -62 -71c-34 0 -58 23 -58 53s21 36 21 58c0 10 -12 17 -24 17c-38 0 -65 -37 -93 -88
c-33 -61 -53 -134 -53 -201c0 -58 29 -89 73 -89c43 0 74 24 122 91zM279 655c36 0 66 -30 66 -66c0 -35 -30 -64 -66 -64c-34 0 -64 30 -64 64c0 36 29 66 64 66z" />
    <glyph glyph-name="uni010C" unicode="&#x10c;" horiz-adv-x="667" 
d="M677 685l-51 -235l-32 6c2 13 3 23 3 36c0 93 -46 158 -131 158c-53 0 -107 -30 -145 -73c-77 -87 -135 -220 -135 -368c0 -109 61 -174 155 -174c87 0 138 43 204 119l31 -22c-32 -44 -49 -63 -78 -85c-57 -43 -128 -65 -199 -65c-163 0 -267 101 -267 252
c0 148 62 276 159 358c69 58 156 93 249 93c41 0 86 -7 131 -21c15 -5 30 -8 38 -8c15 0 24 7 38 29h30zM616 897l-162 -174h-82l-88 174h51l90 -97l134 97h57z" />
    <glyph glyph-name="uni010D" unicode="&#x10d;" horiz-adv-x="444" 
d="M318 142l28 -18c-38 -52 -70 -96 -115 -119c-23 -12 -50 -18 -83 -18c-91 0 -153 53 -153 151c0 92 43 177 105 239c51 52 113 85 180 85c60 0 112 -37 112 -90c0 -42 -25 -71 -62 -71c-34 0 -58 23 -58 53s21 36 21 58c0 10 -12 17 -24 17c-38 0 -65 -37 -93 -88
c-33 -61 -53 -134 -53 -201c0 -58 29 -89 73 -89c43 0 74 24 122 91zM437 690l-162 -174h-82l-88 174h51l90 -97l134 97h57z" />
    <glyph glyph-name="uni010E" unicode="&#x10e;" horiz-adv-x="722" 
d="M37 109l115 422c13 46 15 61 15 71c0 24 -9 33 -39 37l-34 5v25h290c189 0 301 -101 301 -264c0 -109 -44 -218 -119 -288c-79 -73 -191 -117 -324 -117h-288v25c48 6 66 22 83 84zM318 600l-126 -465c-11 -39 -15 -55 -15 -67c0 -24 20 -34 58 -34c87 0 156 34 210 105
c62 81 93 193 93 318c0 122 -54 181 -165 181c-33 0 -47 -10 -55 -38zM586 897l-162 -174h-82l-88 174h51l90 -97l134 97h57z" />
    <glyph glyph-name="uni010F" unicode="&#x10f;" horiz-adv-x="658" 
d="M535 394l-13 25c79 42 118 80 118 116c0 14 -6 24 -30 37c-32 18 -40 38 -40 65c0 48 32 73 73 73c53 0 83 -40 83 -94c0 -89 -72 -172 -191 -222zM517 699l-117 -421c-35 -126 -51 -194 -51 -203c0 -6 5 -15 11 -15c15 0 40 26 68 71l22 -16
c-55 -88 -101 -126 -150 -126c-38 0 -60 23 -60 61c0 16 2 29 11 68c-52 -94 -105 -131 -166 -131s-106 42 -106 125c0 99 58 212 131 282c43 42 93 68 138 68c29 0 53 -8 75 -33l18 64c25 88 29 113 29 122c0 18 -15 28 -41 28h-21v27c100 8 149 15 209 29zM308 371
c0 28 -15 49 -37 49c-43 1 -85 -54 -114 -112c-33 -66 -54 -144 -54 -186c0 -36 16 -63 41 -63c29 0 59 25 86 74c36 64 78 194 78 238z" />
    <glyph glyph-name="uni0110" unicode="&#x110;" horiz-adv-x="722" 
d="M124 373l46 170c9 33 12 49 12 59c0 24 -14 32 -42 37l-31 5v25h290c189 0 301 -102 301 -273c0 -228 -189 -396 -445 -396h-286v25c48 6 66 21 80 72l63 232h-102l12 44h102zM272 373h122l-12 -44h-122l-56 -207c-7 -27 -12 -42 -12 -54c0 -24 16 -34 54 -34
c97 0 168 38 223 118c52 77 84 194 84 305c0 122 -54 181 -165 181c-33 0 -48 -10 -55 -38z" />
    <glyph glyph-name="uni0111" unicode="&#x111;" 
d="M180 568h181c7 29 9 41 9 47c0 18 -15 28 -41 28h-21v27c100 8 149 15 209 29l-37 -131h61l-14 -50h-61l-66 -240c-35 -126 -51 -194 -51 -203c0 -6 5 -15 11 -15c15 0 40 26 68 71l22 -16c-55 -88 -101 -126 -150 -126c-38 0 -60 23 -60 61c0 16 2 29 11 68
c-52 -94 -105 -131 -166 -131s-106 42 -106 125c0 99 58 212 131 282c43 42 93 68 138 68c29 0 53 -8 75 -33l25 89h-182zM271 420c-43 1 -85 -54 -114 -112c-33 -66 -54 -144 -54 -186c0 -36 16 -63 41 -63c29 0 59 25 86 74c36 64 78 194 78 238c0 28 -15 49 -37 49z" />
    <glyph glyph-name="uni0112" unicode="&#x112;" horiz-adv-x="667" 
d="M586 194l-60 -194h-553v25c52 8 65 19 82 80l119 432c9 33 12 55 12 70c0 20 -10 29 -41 33l-33 4v25h541l-43 -190l-27 5c-3 71 -4 96 -45 123c-30 19 -76 30 -137 30c-41 0 -55 -6 -67 -51l-59 -216c132 0 158 13 205 107l28 -4l-74 -274l-28 4c3 19 4 30 4 44
c0 69 -31 91 -144 91l-63 -234c-5 -20 -8 -31 -8 -38c0 -24 18 -34 61 -34c88 0 157 19 214 61c37 27 57 50 91 106zM601 793l-16 -70h-326l17 70h325z" />
    <glyph glyph-name="uni0113" unicode="&#x113;" horiz-adv-x="444" 
d="M317 143l29 -17c-56 -100 -118 -139 -195 -139c-87 0 -146 48 -146 147c0 165 143 328 288 328c65 0 105 -36 105 -87c0 -43 -29 -88 -69 -122c-43 -36 -91 -54 -188 -71c-4 -20 -6 -33 -6 -49c0 -54 22 -82 64 -82c43 0 72 23 118 92zM148 214c90 20 158 93 158 176
c0 23 -7 39 -31 39c-48 0 -91 -76 -127 -215zM431 586l-16 -70h-326l17 70h325z" />
    <glyph glyph-name="uni0114" unicode="&#x114;" horiz-adv-x="667" 
d="M586 194l-60 -194h-553v25c52 8 65 19 82 80l119 432c9 33 12 55 12 70c0 20 -10 29 -41 33l-33 4v25h541l-43 -190l-27 5c-3 71 -4 96 -45 123c-30 19 -76 30 -137 30c-41 0 -55 -6 -67 -51l-59 -216c132 0 158 13 205 107l28 -4l-74 -274l-28 4c3 19 4 30 4 44
c0 69 -31 91 -144 91l-63 -234c-5 -20 -8 -31 -8 -38c0 -24 18 -34 61 -34c88 0 157 19 214 61c37 27 57 50 91 106zM569 885h39c-21 -103 -81 -162 -178 -162c-93 0 -138 54 -138 149v13h43c5 -57 35 -90 99 -90c66 0 104 24 135 90z" />
    <glyph glyph-name="uni0115" unicode="&#x115;" horiz-adv-x="444" 
d="M317 143l29 -17c-56 -100 -118 -139 -195 -139c-87 0 -146 48 -146 147c0 165 143 328 288 328c65 0 105 -36 105 -87c0 -43 -29 -88 -69 -122c-43 -36 -91 -54 -188 -71c-4 -20 -6 -33 -6 -49c0 -54 22 -82 64 -82c43 0 72 23 118 92zM148 214c90 20 158 93 158 176
c0 23 -7 39 -31 39c-48 0 -91 -76 -127 -215zM439 678h39c-21 -103 -81 -162 -178 -162c-93 0 -138 54 -138 149v13h43c5 -57 35 -90 99 -90c66 0 104 24 135 90z" />
    <glyph glyph-name="uni0116" unicode="&#x116;" horiz-adv-x="667" 
d="M586 194l-60 -194h-553v25c52 8 65 19 82 80l119 432c9 33 12 55 12 70c0 20 -10 29 -41 33l-33 4v25h541l-43 -190l-27 5c-3 71 -4 96 -45 123c-30 19 -76 30 -137 30c-41 0 -55 -6 -67 -51l-59 -216c132 0 158 13 205 107l28 -4l-74 -274l-28 4c3 19 4 30 4 44
c0 69 -31 91 -144 91l-63 -234c-5 -20 -8 -31 -8 -38c0 -24 18 -34 61 -34c88 0 157 19 214 61c37 27 57 50 91 106zM429 862c36 0 66 -30 66 -66c0 -35 -30 -64 -66 -64c-34 0 -64 30 -64 64c0 36 29 66 64 66z" />
    <glyph glyph-name="uni0117" unicode="&#x117;" horiz-adv-x="444" 
d="M317 143l29 -17c-56 -100 -118 -139 -195 -139c-87 0 -146 48 -146 147c0 165 143 328 288 328c65 0 105 -36 105 -87c0 -43 -29 -88 -69 -122c-43 -36 -91 -54 -188 -71c-4 -20 -6 -33 -6 -49c0 -54 22 -82 64 -82c43 0 72 23 118 92zM148 214c90 20 158 93 158 176
c0 23 -7 39 -31 39c-48 0 -91 -76 -127 -215zM289 655c36 0 66 -30 66 -66c0 -35 -30 -64 -66 -64c-34 0 -64 30 -64 64c0 36 29 66 64 66z" />
    <glyph glyph-name="uni0118" unicode="&#x118;" horiz-adv-x="667" 
d="M311 0h-338v25c52 8 65 19 82 80l119 432c9 33 12 55 12 70c0 20 -10 29 -41 33l-33 4v25h541l-43 -190l-27 5c-3 71 -4 96 -45 123c-30 19 -76 30 -137 30c-41 0 -55 -6 -67 -51l-59 -216c132 0 158 13 205 107l28 -4l-74 -274l-28 4c3 19 4 30 4 44
c0 69 -31 91 -144 91l-63 -234c-5 -20 -8 -31 -8 -38c0 -24 18 -34 61 -34c88 0 157 19 214 61c37 27 57 50 91 106l25 -5l-60 -194h-172c-5 -24 -8 -38 -8 -51c0 -45 23 -62 61 -62c16 0 28 3 48 13c8 4 9 5 14 7l22 -14c-25 -47 -75 -75 -126 -75c-61 0 -103 28 -103 81
c0 33 13 56 49 101z" />
    <glyph glyph-name="uni0119" unicode="&#x119;" horiz-adv-x="444" 
d="M153 -13h-2c-87 0 -146 48 -146 147c0 165 143 328 288 328c65 0 105 -36 105 -87c0 -43 -29 -88 -69 -122c-43 -36 -91 -54 -188 -71c-4 -20 -6 -33 -6 -49c0 -54 22 -82 64 -82c43 0 72 23 118 92l29 -17c-42 -75 -88 -116 -141 -132c-5 -20 -7 -33 -7 -45
c0 -45 23 -62 61 -62c16 0 28 3 48 13c8 4 9 5 14 7l22 -14c-25 -47 -75 -75 -126 -75c-61 0 -103 28 -103 81c0 29 10 51 39 88zM148 214c90 20 158 93 158 176c0 23 -7 39 -31 39c-48 0 -91 -76 -127 -215z" />
    <glyph glyph-name="uni011A" unicode="&#x11a;" horiz-adv-x="667" 
d="M586 194l-60 -194h-553v25c52 8 65 19 82 80l119 432c9 33 12 55 12 70c0 20 -10 29 -41 33l-33 4v25h541l-43 -190l-27 5c-3 71 -4 96 -45 123c-30 19 -76 30 -137 30c-41 0 -55 -6 -67 -51l-59 -216c132 0 158 13 205 107l28 -4l-74 -274l-28 4c3 19 4 30 4 44
c0 69 -31 91 -144 91l-63 -234c-5 -20 -8 -31 -8 -38c0 -24 18 -34 61 -34c88 0 157 19 214 61c37 27 57 50 91 106zM616 897l-162 -174h-82l-88 174h51l90 -97l134 97h57z" />
    <glyph glyph-name="uni011B" unicode="&#x11b;" horiz-adv-x="444" 
d="M317 143l29 -17c-56 -100 -118 -139 -195 -139c-87 0 -146 48 -146 147c0 165 143 328 288 328c65 0 105 -36 105 -87c0 -43 -29 -88 -69 -122c-43 -36 -91 -54 -188 -71c-4 -20 -6 -33 -6 -49c0 -54 22 -82 64 -82c43 0 72 23 118 92zM148 214c90 20 158 93 158 176
c0 23 -7 39 -31 39c-48 0 -91 -76 -127 -215zM486 690l-162 -174h-82l-88 174h51l90 -97l134 97h57z" />
    <glyph glyph-name="uni011C" unicode="&#x11c;" horiz-adv-x="722" 
d="M705 330v-26c-50 -4 -60 -14 -82 -96l-44 -167l-28 -13c-57 -27 -156 -46 -234 -46c-176 0 -296 104 -296 274c0 130 63 254 163 337c74 61 162 92 264 92c46 0 81 -6 124 -21c19 -7 27 -9 36 -9c20 0 31 8 42 30h31l-51 -221l-29 4c-2 61 -8 91 -24 119
c-23 40 -63 62 -115 62c-69 0 -129 -42 -173 -98c-67 -87 -112 -211 -112 -335c0 -130 58 -196 164 -196c39 0 81 11 94 30l31 104c22 75 27 89 27 114c0 9 -6 20 -12 24c-11 6 -20 8 -63 12v26h287zM563 723l-88 95l-131 -95h-57l160 174h81l86 -174h-51z" />
    <glyph glyph-name="uni011D" unicode="&#x11d;" 
d="M477 429v-56h-66c6 -12 6 -26 6 -42c0 -53 -25 -99 -71 -132s-88 -46 -145 -46c-17 0 -39 4 -51 8c-13 0 -28 -14 -28 -36c0 -16 22 -33 54 -41l50 -12c110 -26 149 -62 149 -123c0 -81 -88 -152 -237 -152c-115 0 -190 33 -190 101c0 89 80 107 133 109
c-44 15 -62 34 -62 66c0 37 21 67 96 97c-54 23 -80 58 -80 110c0 104 95 182 218 182c46 0 83 -7 114 -33h110zM115 -6c-9 -1 -38 -17 -51 -30c-20 -19 -29 -36 -29 -55c0 -46 46 -78 113 -78c72 0 118 34 118 69c0 24 -14 44 -42 58c-22 10 -97 35 -109 36zM255 431
c-22 0 -42 -14 -57 -32c-33 -41 -47 -110 -47 -156c0 -38 15 -59 42 -59c31 0 57 23 78 69c17 37 29 85 29 119c0 35 -12 59 -45 59zM403 516l-88 95l-131 -95h-57l160 174h81l86 -174h-51z" />
    <glyph glyph-name="uni011E" unicode="&#x11e;" horiz-adv-x="722" 
d="M705 330v-26c-50 -4 -60 -14 -82 -96l-44 -167l-28 -13c-57 -27 -156 -46 -234 -46c-176 0 -296 104 -296 274c0 130 63 254 163 337c74 61 162 92 264 92c46 0 81 -6 124 -21c19 -7 27 -9 36 -9c20 0 31 8 42 30h31l-51 -221l-29 4c-2 61 -8 91 -24 119
c-23 40 -63 62 -115 62c-69 0 -129 -42 -173 -98c-67 -87 -112 -211 -112 -335c0 -130 58 -196 164 -196c39 0 81 11 94 30l31 104c22 75 27 89 27 114c0 9 -6 20 -12 24c-11 6 -20 8 -63 12v26h287zM579 885h39c-21 -103 -81 -162 -178 -162c-93 0 -138 54 -138 149v13h43
c5 -57 35 -90 99 -90c66 0 104 24 135 90z" />
    <glyph glyph-name="uni011F" unicode="&#x11f;" 
d="M477 429v-56h-66c6 -12 6 -26 6 -42c0 -53 -25 -99 -71 -132s-88 -46 -145 -46c-17 0 -39 4 -51 8c-13 0 -28 -14 -28 -36c0 -16 22 -33 54 -41l50 -12c110 -26 149 -62 149 -123c0 -81 -88 -152 -237 -152c-115 0 -190 33 -190 101c0 89 80 107 133 109
c-44 15 -62 34 -62 66c0 37 21 67 96 97c-54 23 -80 58 -80 110c0 104 95 182 218 182c46 0 83 -7 114 -33h110zM115 -6c-9 -1 -38 -17 -51 -30c-20 -19 -29 -36 -29 -55c0 -46 46 -78 113 -78c72 0 118 34 118 69c0 24 -14 44 -42 58c-22 10 -97 35 -109 36zM255 431
c-22 0 -42 -14 -57 -32c-33 -41 -47 -110 -47 -156c0 -38 15 -59 42 -59c31 0 57 23 78 69c17 37 29 85 29 119c0 35 -12 59 -45 59zM429 678h39c-21 -103 -81 -162 -178 -162c-93 0 -138 54 -138 149v13h43c5 -57 35 -90 99 -90c66 0 104 24 135 90z" />
    <glyph glyph-name="uni0120" unicode="&#x120;" horiz-adv-x="722" 
d="M705 330v-26c-50 -4 -60 -14 -82 -96l-44 -167l-28 -13c-57 -27 -156 -46 -234 -46c-176 0 -296 104 -296 274c0 130 63 254 163 337c74 61 162 92 264 92c46 0 81 -6 124 -21c19 -7 27 -9 36 -9c20 0 31 8 42 30h31l-51 -221l-29 4c-2 61 -8 91 -24 119
c-23 40 -63 62 -115 62c-69 0 -129 -42 -173 -98c-67 -87 -112 -211 -112 -335c0 -130 58 -196 164 -196c39 0 81 11 94 30l31 104c22 75 27 89 27 114c0 9 -6 20 -12 24c-11 6 -20 8 -63 12v26h287zM459 862c36 0 66 -30 66 -66c0 -35 -30 -64 -66 -64c-34 0 -64 30 -64 64
c0 36 29 66 64 66z" />
    <glyph glyph-name="uni0121" unicode="&#x121;" 
d="M477 429v-56h-66c6 -12 6 -26 6 -42c0 -53 -25 -99 -71 -132s-88 -46 -145 -46c-17 0 -39 4 -51 8c-13 0 -28 -14 -28 -36c0 -16 22 -33 54 -41l50 -12c110 -26 149 -62 149 -123c0 -81 -88 -152 -237 -152c-115 0 -190 33 -190 101c0 89 80 107 133 109
c-44 15 -62 34 -62 66c0 37 21 67 96 97c-54 23 -80 58 -80 110c0 104 95 182 218 182c46 0 83 -7 114 -33h110zM115 -6c-9 -1 -38 -17 -51 -30c-20 -19 -29 -36 -29 -55c0 -46 46 -78 113 -78c72 0 118 34 118 69c0 24 -14 44 -42 58c-22 10 -97 35 -109 36zM255 431
c-22 0 -42 -14 -57 -32c-33 -41 -47 -110 -47 -156c0 -38 15 -59 42 -59c31 0 57 23 78 69c17 37 29 85 29 119c0 35 -12 59 -45 59zM279 655c36 0 66 -30 66 -66c0 -35 -30 -64 -66 -64c-34 0 -64 30 -64 64c0 36 29 66 64 66z" />
    <glyph glyph-name="uni0122" unicode="&#x122;" horiz-adv-x="722" 
d="M705 330v-26c-50 -4 -60 -14 -82 -96l-44 -167l-28 -13c-57 -27 -156 -46 -234 -46c-176 0 -296 104 -296 274c0 130 63 254 163 337c74 61 162 92 264 92c46 0 81 -6 124 -21c19 -7 27 -9 36 -9c20 0 31 8 42 30h31l-51 -221l-29 4c-2 61 -8 91 -24 119
c-23 40 -63 62 -115 62c-69 0 -129 -42 -173 -98c-67 -87 -112 -211 -112 -335c0 -130 58 -196 164 -196c39 0 81 11 94 30l31 104c22 75 27 89 27 114c0 9 -6 20 -12 24c-11 6 -20 8 -63 12v26h287zM171 -359l-13 25c79 42 118 80 118 116c0 14 -6 24 -30 37
c-32 18 -40 38 -40 65c0 43 32 73 73 73c53 0 83 -40 83 -94c0 -89 -72 -172 -191 -222z" />
    <glyph glyph-name="uni0123" unicode="&#x123;" 
d="M477 429v-56h-66c6 -12 6 -26 6 -42c0 -53 -25 -99 -71 -132s-88 -46 -145 -46c-17 0 -39 4 -51 8c-13 0 -28 -14 -28 -36c0 -16 22 -33 54 -41l50 -12c110 -26 149 -62 149 -123c0 -81 -88 -152 -237 -152c-115 0 -190 33 -190 101c0 89 80 107 133 109
c-44 15 -62 34 -62 66c0 37 21 67 96 97c-54 23 -80 58 -80 110c0 104 95 182 218 182c46 0 83 -7 114 -33h110zM115 -6c-9 -1 -38 -17 -51 -30c-20 -19 -29 -36 -29 -55c0 -46 46 -78 113 -78c72 0 118 34 118 69c0 24 -14 44 -42 58c-22 10 -97 35 -109 36zM255 431
c-22 0 -42 -14 -57 -32c-33 -41 -47 -110 -47 -156c0 -38 15 -59 42 -59c31 0 57 23 78 69c17 37 29 85 29 119c0 35 -12 59 -45 59zM370 832l13 -25c-79 -42 -118 -80 -118 -116c0 -14 6 -24 30 -37c32 -18 40 -38 40 -65c0 -48 -32 -73 -73 -73c-53 0 -83 40 -83 94
c0 89 72 172 191 222z" />
    <glyph glyph-name="uni0124" unicode="&#x124;" horiz-adv-x="778" 
d="M505 329h-239l-54 -197c-10 -36 -12 -52 -12 -67s7 -35 71 -40v-25h-295v25c50 7 65 16 81 74l121 447c8 28 11 46 11 58c0 22 -11 32 -42 36l-31 4v25h316v-25c-65 -2 -84 -15 -102 -80l-52 -191h239l47 173c5 19 10 49 10 61c0 20 -10 29 -41 33l-31 4v25h297v-25
c-49 0 -68 -21 -82 -74l-111 -408c-15 -57 -22 -81 -22 -96c0 -29 18 -39 73 -41v-25h-316v25c67 4 85 16 102 79zM583 723l-88 95l-131 -95h-57l160 174h81l86 -174h-51z" />
    <glyph glyph-name="uni0125" unicode="&#x125;" horiz-adv-x="556" 
d="M476 142l22 -15c-66 -103 -106 -136 -167 -136c-39 0 -66 24 -66 64c0 41 11 77 61 225l20 59c5 15 7 24 7 30c0 16 -8 21 -20 21c-27 0 -63 -31 -106 -94c-49 -72 -68 -121 -119 -296h-121l152 562c6 22 10 38 10 47c0 23 -13 33 -42 33h-22v27c81 7 132 15 209 30
l-108 -416c99 141 145 179 213 179c49 0 76 -28 76 -75c0 -19 -9 -56 -29 -118l-59 -182c-3 -8 -3 -9 -3 -12c0 -7 9 -16 17 -16c13 0 32 21 75 83zM443 723l-88 95l-131 -95h-57l160 174h81l86 -174h-51z" />
    <glyph glyph-name="uni0126" unicode="&#x126;" horiz-adv-x="778" 
d="M62 496v44h114c10 34 13 52 13 64c0 22 -11 32 -42 36l-31 4v25h316v-25c-65 -2 -83 -15 -102 -80l-7 -24h239c7 25 12 55 12 67c0 20 -10 29 -41 33l-31 4v25h297v-25c-49 0 -68 -21 -82 -74l-8 -30h91v-44h-103l-91 -334c-15 -57 -22 -81 -22 -96c0 -29 18 -39 73 -41
v-25h-316v25c67 4 85 16 102 79l62 225h-239l-54 -197c-10 -36 -12 -52 -12 -67s7 -35 71 -40v-25h-295v25c50 7 65 16 81 74l107 397h-102zM278 373h239l33 123h-239z" />
    <glyph glyph-name="uni0127" unicode="&#x127;" horiz-adv-x="556" 
d="M65 514l12 44h61c7 25 11 42 11 51c0 23 -13 33 -42 33h-22v27c81 7 132 15 209 30l-37 -141h159l-12 -44h-158l-60 -231c99 141 145 179 213 179c49 0 76 -28 76 -75c0 -19 -9 -56 -29 -118l-59 -182c-3 -8 -3 -9 -3 -12c0 -7 9 -16 17 -16c13 0 32 21 75 83l22 -15
c-66 -103 -106 -136 -167 -136c-39 0 -66 24 -66 64c0 41 11 77 61 225l20 59c5 15 7 24 7 30c0 16 -8 21 -20 21c-27 0 -63 -31 -106 -94c-49 -72 -68 -121 -119 -296h-121l139 514h-61z" />
    <glyph glyph-name="uni0128" unicode="&#x128;" horiz-adv-x="389" 
d="M51 107l117 429c8 29 14 59 14 71c0 20 -15 30 -42 33l-32 4v25h298v-25c-49 -5 -67 -17 -84 -80l-112 -412c-14 -51 -17 -71 -17 -87c0 -28 14 -37 71 -40v-25h-296v25c49 6 64 11 83 82zM429 862h41c-22 -84 -57 -119 -117 -119c-19 0 -30 2 -57 13l-59 23
c-13 5 -27 8 -38 8c-22 0 -35 -11 -48 -43h-40c13 72 59 118 116 118c25 0 56 -8 97 -26c27 -11 42 -16 54 -16c23 0 36 10 51 42z" />
    <glyph glyph-name="uni0129" unicode="&#x129;" horiz-adv-x="278" 
d="M216 142l22 -14c-66 -108 -108 -137 -168 -137c-41 0 -68 20 -68 63c0 14 5 40 15 76l55 203c6 24 8 37 8 45c0 19 -16 29 -46 29h-14v27c78 6 149 16 203 28l-91 -334c-5 -17 -9 -42 -9 -51c0 -12 7 -16 15 -16c15 0 37 23 64 61zM309 655h41
c-22 -84 -57 -119 -117 -119c-19 0 -30 2 -57 13l-59 23c-13 5 -27 8 -38 8c-22 0 -35 -11 -48 -43h-40c13 72 59 118 116 118c25 0 56 -8 97 -26c27 -11 42 -16 54 -16c23 0 36 10 51 42z" />
    <glyph glyph-name="uni012A" unicode="&#x12a;" horiz-adv-x="389" 
d="M51 107l117 429c8 29 14 59 14 71c0 20 -15 30 -42 33l-32 4v25h298v-25c-49 -5 -67 -17 -84 -80l-112 -412c-14 -51 -17 -71 -17 -87c0 -28 14 -37 71 -40v-25h-296v25c49 6 64 11 83 82zM451 793l-16 -70h-326l17 70h325z" />
    <glyph glyph-name="uni012B" unicode="&#x12b;" horiz-adv-x="278" 
d="M216 142l22 -14c-66 -108 -108 -137 -168 -137c-41 0 -68 20 -68 63c0 14 5 40 15 76l55 203c6 24 8 37 8 45c0 19 -16 29 -46 29h-14v27c78 6 149 16 203 28l-91 -334c-5 -17 -9 -42 -9 -51c0 -12 7 -16 15 -16c15 0 37 23 64 61zM331 586l-16 -70h-326l17 70h325z" />
    <glyph glyph-name="uni012C" unicode="&#x12c;" horiz-adv-x="389" 
d="M51 107l117 429c8 29 14 59 14 71c0 20 -15 30 -42 33l-32 4v25h298v-25c-49 -5 -67 -17 -84 -80l-112 -412c-14 -51 -17 -71 -17 -87c0 -28 14 -37 71 -40v-25h-296v25c49 6 64 11 83 82zM419 885h39c-21 -103 -81 -162 -178 -162c-93 0 -138 54 -138 149v13h43
c5 -57 35 -90 99 -90c66 0 104 24 135 90z" />
    <glyph glyph-name="uni012D" unicode="&#x12d;" horiz-adv-x="278" 
d="M216 142l22 -14c-66 -108 -108 -137 -168 -137c-41 0 -68 20 -68 63c0 14 5 40 15 76l55 203c6 24 8 37 8 45c0 19 -16 29 -46 29h-14v27c78 6 149 16 203 28l-91 -334c-5 -17 -9 -42 -9 -51c0 -12 7 -16 15 -16c15 0 37 23 64 61zM289 678h39
c-21 -103 -81 -162 -178 -162c-93 0 -138 54 -138 149v13h43c5 -57 35 -90 99 -90c66 0 104 24 135 90z" />
    <glyph glyph-name="uni012E" unicode="&#x12e;" horiz-adv-x="389" 
d="M90 0h-122v25c49 6 64 11 83 82l117 429c8 29 14 59 14 71c0 20 -15 30 -42 33l-32 4v25h298v-25c-49 -5 -67 -17 -84 -80l-112 -412c-14 -51 -17 -71 -17 -87c0 -28 14 -37 71 -40v-25h-126c-4 -19 -6 -31 -6 -42c0 -45 23 -62 61 -62c16 0 28 3 48 13c8 4 9 5 14 7
l22 -14c-25 -47 -75 -75 -126 -75c-61 0 -103 28 -103 81c0 30 11 53 42 92z" />
    <glyph glyph-name="uni012F" unicode="&#x12f;" horiz-adv-x="278" 
d="M222 -84l22 -14c-25 -47 -75 -75 -126 -75c-61 0 -103 28 -103 81c0 28 10 50 36 85c-30 5 -49 25 -49 61c0 14 5 40 15 76l55 203c6 24 8 37 8 45c0 19 -16 29 -46 29h-14v27c78 6 149 16 203 28l-91 -334c-5 -17 -9 -42 -9 -51c0 -12 7 -16 15 -16c15 0 37 23 64 61
l14 20l22 -14c-53 -86 -90 -122 -134 -133c-3 -16 -5 -27 -5 -37c0 -45 23 -62 61 -62c16 0 28 3 48 13c8 4 9 5 14 7zM193 684c38 0 69 -31 69 -68s-30 -66 -68 -66s-66 30 -66 69c0 34 31 65 65 65z" />
    <glyph glyph-name="uni0130" unicode="&#x130;" horiz-adv-x="389" 
d="M51 107l117 429c8 29 14 59 14 71c0 20 -15 30 -42 33l-32 4v25h298v-25c-49 -5 -67 -17 -84 -80l-112 -412c-14 -51 -17 -71 -17 -87c0 -28 14 -37 71 -40v-25h-296v25c49 6 64 11 83 82zM279 862c36 0 66 -30 66 -66c0 -35 -30 -64 -66 -64c-34 0 -64 30 -64 64
c0 36 29 66 64 66z" />
    <glyph glyph-name="dotlessi" unicode="&#x131;" horiz-adv-x="278" 
d="M216 142l22 -14c-66 -108 -108 -137 -168 -137c-41 0 -68 20 -68 63c0 14 5 40 15 76l55 203c6 24 8 37 8 45c0 19 -16 29 -46 29h-14v27c78 6 149 16 203 28l-91 -334c-5 -17 -9 -42 -9 -51c0 -12 7 -16 15 -16c15 0 37 23 64 61z" />
    <glyph glyph-name="uni0134" unicode="&#x134;" 
d="M439 559l-122 -457c-36 -135 -115 -201 -215 -201c-88 0 -148 36 -148 101c0 40 28 72 64 72c35 0 63 -25 63 -65c0 -31 -23 -36 -23 -54c0 -12 8 -18 27 -18c37 0 51 30 88 170l114 432c10 39 13 53 13 64c0 18 -11 31 -41 36l-33 5v25h298v-25c-49 -6 -65 -11 -85 -85z
M503 723l-88 95l-131 -95h-57l160 174h81l86 -174h-51z" />
    <glyph glyph-name="uni0135" unicode="&#x135;" horiz-adv-x="278" 
d="M202 322l-79 -304c-42 -160 -107 -225 -207 -225c-63 0 -105 33 -105 77c0 29 22 53 49 53c29 0 49 -19 49 -49c0 -21 -15 -21 -15 -35c0 -10 12 -15 24 -15c28 0 49 36 74 136l89 350c8 30 12 54 12 67c0 21 -12 30 -41 30h-22v27c112 10 149 15 209 28zM263 516l-88 95
l-131 -95h-57l160 174h81l86 -174h-51z" />
    <glyph glyph-name="uni0136" unicode="&#x136;" horiz-adv-x="667" 
d="M392 397l157 -333c11 -24 25 -35 63 -39v-25h-280l1 25l26 4c27 4 38 9 38 23c0 12 -5 27 -15 49l-111 236l-67 -249c-1 -5 -2 -11 -2 -17c0 -33 13 -42 65 -46v-25h-288v25c45 5 65 15 79 68l123 453c8 28 11 46 11 58c0 22 -10 32 -41 36l-33 4v25h311v-25
c-59 -5 -80 -20 -94 -72l-62 -227l197 175c59 52 77 78 77 97c0 15 -10 23 -35 25l-21 2v25h211v-25c-43 -6 -51 -9 -94 -48zM161 -359l-13 25c79 42 118 80 118 116c0 14 -6 24 -30 37c-32 18 -40 38 -40 65c0 43 32 73 73 73c53 0 83 -40 83 -94c0 -89 -72 -172 -191 -222
z" />
    <glyph glyph-name="uni0137" unicode="&#x137;" 
d="M149 188l-50 -188h-122l157 566c7 24 7 32 7 42c0 28 -10 34 -30 34h-34v27c77 4 132 13 209 30l-124 -461c126 99 165 137 165 163c0 16 -11 21 -50 23v25h206v-25c-46 -6 -67 -14 -135 -76l-64 -58c39 -195 57 -227 79 -227c19 0 37 16 64 64l22 -11
c-45 -95 -88 -124 -138 -124c-62 0 -90 48 -123 223zM51 -359l-13 25c79 42 118 80 118 116c0 14 -6 24 -30 37c-32 18 -40 38 -40 65c0 43 32 73 73 73c53 0 83 -40 83 -94c0 -89 -72 -172 -191 -222z" />
    <glyph glyph-name="uni0138" unicode="&#x138;" horiz-adv-x="600" 
d="M614 0h-168c-26 3 -53 36 -69 76c-15 36 -11 53 -31 103c-13 34 -37 47 -56 54c-5 -1 -10 -1 -27 -1l-40 -145c-4 -15 -7 -28 -7 -37c0 -17 10 -25 42 -26l-7 -24h-245l7 24c35 8 55 18 67 62l84 305c3 9 4 17 4 24c0 23 -16 29 -41 31l7 24h245l-7 -24
c-42 -6 -54 -12 -66 -56l-29 -108c18 0 28 1 39 3c56 12 82 20 102 32c34 21 61 46 90 88c36 52 45 65 110 65c37 0 71 -26 71 -56c0 -27 -22 -42 -50 -42c-44 0 -43 40 -65 40c-17 0 -26 -8 -38 -28c-31 -50 -69 -88 -108 -112c10 -4 23 -13 33 -34c12 -28 37 -109 49 -138
c18 -47 42 -69 111 -76z" />
    <glyph glyph-name="uni0139" unicode="&#x139;" horiz-adv-x="611" 
d="M590 195l-60 -195h-552v25c55 7 67 24 82 78l121 443c5 19 11 49 11 61c0 20 -10 28 -41 32c-11 2 -24 4 -34 5v25h318v-25c-66 -4 -85 -17 -99 -70l-129 -473c-4 -16 -6 -31 -6 -39c0 -21 27 -30 72 -30c70 0 127 14 178 45c52 31 76 59 115 123zM311 723h-49l122 131
c36 38 52 50 70 50c26 0 48 -21 48 -47c0 -19 -9 -30 -39 -47z" />
    <glyph glyph-name="uni013A" unicode="&#x13a;" horiz-adv-x="278" 
d="M217 141l22 -14c-69 -105 -105 -136 -169 -136c-41 0 -68 27 -68 63c0 23 14 84 34 155l74 259c21 73 34 121 34 145c0 20 -15 30 -42 30c-5 0 -11 0 -22 -1v27c75 7 124 14 210 30l-145 -523c-15 -54 -22 -86 -22 -100c0 -8 5 -15 15 -15c18 0 39 21 79 80zM153 723h-49
l122 131c36 38 52 50 70 50c26 0 48 -21 48 -47c0 -19 -9 -30 -39 -47z" />
    <glyph glyph-name="uni013B" unicode="&#x13b;" horiz-adv-x="611" 
d="M590 195l-60 -195h-552v25c55 7 67 24 82 78l121 443c5 19 11 49 11 61c0 20 -10 28 -41 32c-11 2 -24 4 -34 5v25h318v-25c-66 -4 -85 -17 -99 -70l-129 -473c-4 -16 -6 -31 -6 -39c0 -21 27 -30 72 -30c70 0 127 14 178 45c52 31 76 59 115 123zM141 -359l-13 25
c79 42 118 80 118 116c0 14 -6 24 -30 37c-32 18 -40 38 -40 65c0 43 32 73 73 73c53 0 83 -40 83 -94c0 -89 -72 -172 -191 -222z" />
    <glyph glyph-name="uni013C" unicode="&#x13c;" horiz-adv-x="278" 
d="M217 141l22 -14c-69 -105 -105 -136 -169 -136c-41 0 -68 27 -68 63c0 23 14 84 34 155l74 259c21 73 34 121 34 145c0 20 -15 30 -42 30c-5 0 -11 0 -22 -1v27c75 7 124 14 210 30l-145 -523c-15 -54 -22 -86 -22 -100c0 -8 5 -15 15 -15c18 0 39 21 79 80zM-49 -359
l-13 25c79 42 118 80 118 116c0 14 -6 24 -30 37c-32 18 -40 38 -40 65c0 43 32 73 73 73c53 0 83 -40 83 -94c0 -89 -72 -172 -191 -222z" />
    <glyph glyph-name="uni013D" unicode="&#x13d;" horiz-adv-x="611" 
d="M590 195l-60 -195h-552v25c55 7 67 24 82 78l121 443c5 19 11 49 11 61c0 20 -10 28 -41 32c-11 2 -24 4 -34 5v25h318v-25c-66 -4 -85 -17 -99 -70l-129 -473c-4 -16 -6 -31 -6 -39c0 -21 27 -30 72 -30c70 0 127 14 178 45c52 31 76 59 115 123zM476 369l-13 25
c79 42 118 80 118 116c0 14 -6 24 -30 37c-32 18 -40 38 -40 65c0 48 32 73 73 73c53 0 83 -40 83 -94c0 -89 -72 -172 -191 -222z" />
    <glyph glyph-name="uni013E" unicode="&#x13e;" horiz-adv-x="451" 
d="M308 394l-13 25c79 42 118 80 118 116c0 14 -6 24 -30 37c-32 18 -40 38 -40 65c0 48 32 73 73 73c53 0 83 -40 83 -94c0 -89 -72 -172 -191 -222zM290 699l-145 -523c-15 -54 -22 -86 -22 -100c0 -8 5 -15 15 -15c18 0 39 21 79 80l22 -14c-69 -105 -105 -136 -169 -136
c-41 0 -68 27 -68 63c0 23 14 84 34 155l74 259c21 73 34 121 34 145c0 20 -15 30 -42 30c-5 0 -11 0 -22 -1v27c75 7 124 14 210 30z" />
    <glyph glyph-name="uni013F" unicode="&#x13f;" horiz-adv-x="611" 
d="M590 195l-60 -195h-552v25c55 7 67 24 82 78l121 443c5 19 11 49 11 61c0 20 -10 28 -41 32c-11 2 -24 4 -34 5v25h318v-25c-66 -4 -85 -17 -99 -70l-129 -473c-4 -16 -6 -31 -6 -39c0 -21 27 -30 72 -30c70 0 127 14 178 45c52 31 76 59 115 123zM415 409
c40 0 73 -34 73 -74c0 -42 -33 -74 -75 -74s-73 32 -73 74s32 74 75 74z" />
    <glyph glyph-name="uni0140" unicode="&#x140;" horiz-adv-x="375" 
d="M217 141l22 -14c-69 -105 -105 -136 -169 -136c-41 0 -68 27 -68 63c0 23 14 84 34 155l74 259c21 73 34 121 34 145c0 20 -15 30 -42 30c-5 0 -11 0 -22 -1v27c75 7 124 14 210 30l-145 -523c-15 -54 -22 -86 -22 -100c0 -8 5 -15 15 -15c18 0 39 21 79 80zM309 402
c40 0 73 -34 73 -74c0 -42 -33 -74 -75 -74s-73 32 -73 74s32 74 75 74z" />
    <glyph glyph-name="Lslash" unicode="&#x141;" horiz-adv-x="611" 
d="M590 194l-60 -194h-552v25c50 7 65 19 80 72l50 182l-104 -56l22 70l100 53l55 200c5 19 10 49 10 61c0 20 -10 27 -41 32l-32 5v25h317v-25c-66 -4 -85 -16 -101 -75l-44 -158l150 81l-21 -70l-148 -83l-66 -245c-3 -11 -5 -22 -5 -30c0 -21 24 -32 69 -32
c72 0 133 12 181 44c52 34 75 61 116 123z" />
    <glyph glyph-name="lslash" unicode="&#x142;" horiz-adv-x="278" 
d="M216 141l22 -14c-65 -103 -102 -136 -167 -136c-47 0 -69 23 -69 62c0 27 11 82 62 257l-77 -43l19 70l78 43c45 162 60 218 60 235c0 18 -15 28 -42 28c-7 0 -12 0 -22 -1v27c75 7 124 14 210 30l-75 -271l86 47l-19 -68l-86 -47l-51 -184c-14 -52 -22 -86 -22 -100
c0 -8 8 -15 16 -15c18 0 37 21 77 80z" />
    <glyph glyph-name="uni0143" unicode="&#x143;" horiz-adv-x="722" 
d="M305 669l216 -467l81 289c11 41 19 75 19 94c0 38 -21 59 -81 59v25h208v-25c-56 -11 -66 -24 -102 -153l-143 -506h-28l-257 547l-99 -354c-12 -42 -19 -75 -19 -94c0 -39 20 -54 79 -59v-25h-206v25c55 11 60 17 101 155l120 407c-19 44 -27 52 -82 57v25h193zM399 723
h-49l122 131c36 38 52 50 70 50c26 0 48 -21 48 -47c0 -19 -9 -30 -39 -47z" />
    <glyph glyph-name="uni0144" unicode="&#x144;" horiz-adv-x="556" 
d="M472 135l22 -13c-55 -97 -100 -131 -160 -131c-43 0 -68 19 -68 60c0 26 10 77 26 125l55 165c3 10 7 25 7 28c0 17 -12 21 -25 21c-18 0 -49 -27 -69 -54c-62 -81 -99 -162 -145 -336h-121l57 204c33 120 45 167 45 179c0 19 -13 23 -55 24v27c56 2 135 13 199 27
l-62 -198h1c67 99 85 123 122 158c27 26 63 41 100 41c51 0 73 -28 73 -77c0 -24 -12 -69 -28 -116l-35 -104c-19 -56 -24 -79 -24 -89s6 -17 14 -17c17 0 31 14 71 76zM210 516h-49l122 131c36 38 52 50 70 50c26 0 48 -21 48 -47c0 -19 -9 -30 -39 -47z" />
    <glyph glyph-name="uni0145" unicode="&#x145;" horiz-adv-x="722" 
d="M305 669l216 -467l81 289c11 41 19 75 19 94c0 38 -21 59 -81 59v25h208v-25c-56 -11 -66 -24 -102 -153l-143 -506h-28l-257 547l-99 -354c-12 -42 -19 -75 -19 -94c0 -39 20 -54 79 -59v-25h-206v25c55 11 60 17 101 155l120 407c-19 44 -27 52 -82 57v25h193z
M141 -359l-13 25c79 42 118 80 118 116c0 14 -6 24 -30 37c-32 18 -40 38 -40 65c0 43 32 73 73 73c53 0 83 -40 83 -94c0 -89 -72 -172 -191 -222z" />
    <glyph glyph-name="uni0146" unicode="&#x146;" horiz-adv-x="556" 
d="M472 135l22 -13c-55 -97 -100 -131 -160 -131c-43 0 -68 19 -68 60c0 26 10 77 26 125l55 165c3 10 7 25 7 28c0 17 -12 21 -25 21c-18 0 -49 -27 -69 -54c-62 -81 -99 -162 -145 -336h-121l57 204c33 120 45 167 45 179c0 19 -13 23 -55 24v27c56 2 135 13 199 27
l-62 -198h1c67 99 85 123 122 158c27 26 63 41 100 41c51 0 73 -28 73 -77c0 -24 -12 -69 -28 -116l-35 -104c-19 -56 -24 -79 -24 -89s6 -17 14 -17c17 0 31 14 71 76zM81 -359l-13 25c79 42 118 80 118 116c0 14 -6 24 -30 37c-32 18 -40 38 -40 65c0 43 32 73 73 73
c53 0 83 -40 83 -94c0 -89 -72 -172 -191 -222z" />
    <glyph glyph-name="uni0147" unicode="&#x147;" horiz-adv-x="722" 
d="M305 669l216 -467l81 289c11 41 19 75 19 94c0 38 -21 59 -81 59v25h208v-25c-56 -11 -66 -24 -102 -153l-143 -506h-28l-257 547l-99 -354c-12 -42 -19 -75 -19 -94c0 -39 20 -54 79 -59v-25h-206v25c55 11 60 17 101 155l120 407c-19 44 -27 52 -82 57v25h193zM636 897
l-162 -174h-82l-88 174h51l90 -97l134 97h57z" />
    <glyph glyph-name="uni0148" unicode="&#x148;" horiz-adv-x="556" 
d="M472 135l22 -13c-55 -97 -100 -131 -160 -131c-43 0 -68 19 -68 60c0 26 10 77 26 125l55 165c3 10 7 25 7 28c0 17 -12 21 -25 21c-18 0 -49 -27 -69 -54c-62 -81 -99 -162 -145 -336h-121l57 204c33 120 45 167 45 179c0 19 -13 23 -55 24v27c56 2 135 13 199 27
l-62 -198h1c67 99 85 123 122 158c27 26 63 41 100 41c51 0 73 -28 73 -77c0 -24 -12 -69 -28 -116l-35 -104c-19 -56 -24 -79 -24 -89s6 -17 14 -17c17 0 31 14 71 76zM506 690l-162 -174h-82l-88 174h51l90 -97l134 97h57z" />
    <glyph glyph-name="uni0149" unicode="&#x149;" horiz-adv-x="700" 
d="M635 135l22 -13c-55 -97 -100 -131 -160 -131c-43 0 -68 19 -68 60c0 26 10 77 26 125l55 165c3 10 7 25 7 28c0 17 -12 21 -25 21c-18 0 -49 -27 -69 -54c-62 -81 -99 -162 -145 -336h-121l57 204c33 120 45 167 45 179c0 19 -13 23 -55 24v27c56 2 135 13 199 27
l-62 -198h1c67 99 85 123 122 158c27 26 63 41 100 41c51 0 73 -28 73 -77c0 -24 -12 -69 -28 -116l-35 -104c-19 -56 -24 -79 -24 -89s6 -17 14 -17c17 0 31 14 71 76zM55 394l-13 25c79 42 118 80 118 116c0 14 -6 24 -30 37c-32 18 -40 38 -40 65c0 48 32 73 73 73
c53 0 83 -40 83 -94c0 -89 -72 -172 -191 -222z" />
    <glyph glyph-name="uni014A" unicode="&#x14a;" horiz-adv-x="722" 
d="M94 669h290c189 0 301 -101 301 -264c0 -211 -165 -608 -402 -608c-88 0 -148 36 -148 101c0 40 28 72 64 72c35 0 63 -25 63 -65c0 -31 -23 -36 -23 -54c0 -12 8 -18 27 -18c93 -1 272 354 272 624c0 122 -54 181 -165 181c-33 0 -47 -10 -55 -38l-168 -600h-196v25
c48 6 66 22 83 84l115 422c13 46 15 61 15 71c0 24 -9 33 -39 37l-34 5v25z" />
    <glyph glyph-name="uni014B" unicode="&#x14b;" horiz-adv-x="543" 
d="M249 -38l95 354c2 7 10 38 10 53c0 17 -12 21 -25 21c-18 0 -49 -27 -69 -54c-62 -81 -99 -162 -145 -336h-121l57 204c33 120 45 167 45 179c0 19 -13 24 -55 24v27c56 2 137 13 199 27l-62 -198h1c67 99 85 123 122 158c27 26 63 41 100 41c51 0 73 -28 73 -77
c0 -24 -12 -70 -88 -361c-42 -160 -109 -231 -209 -231c-63 0 -105 33 -105 77c0 29 22 53 49 53c29 0 49 -19 49 -49c0 -21 -15 -21 -15 -35c0 -10 12 -15 24 -15c28 0 43 38 70 138z" />
    <glyph glyph-name="uni014C" unicode="&#x14c;" horiz-adv-x="722" 
d="M449 685c137 0 242 -95 242 -241c0 -128 -73 -271 -180 -366c-70 -62 -155 -96 -248 -96c-141 0 -236 84 -236 239c0 135 75 282 186 372c72 58 152 92 236 92zM446 651c-63 0 -112 -36 -162 -120c-60 -101 -113 -269 -113 -388c0 -75 39 -127 102 -127
c64 0 108 41 157 114c67 99 117 285 117 398c0 83 -41 123 -101 123zM651 793l-16 -70h-326l17 70h325z" />
    <glyph glyph-name="uni014D" unicode="&#x14d;" 
d="M280 462h4c97 0 157 -59 157 -151c0 -94 -44 -188 -105 -249c-49 -49 -108 -75 -175 -75c-94 0 -164 50 -164 148c0 100 40 191 100 250c51 50 115 77 183 77zM275 433c-21 0 -41 -10 -60 -31c-60 -67 -99 -220 -99 -322c0 -44 19 -64 49 -64c26 0 50 15 71 49
c49 80 86 220 86 307c0 38 -18 61 -47 61zM461 586l-16 -70h-326l17 70h325z" />
    <glyph glyph-name="uni014E" unicode="&#x14e;" horiz-adv-x="722" 
d="M449 685c137 0 242 -95 242 -241c0 -128 -73 -271 -180 -366c-70 -62 -155 -96 -248 -96c-141 0 -236 84 -236 239c0 135 75 282 186 372c72 58 152 92 236 92zM446 651c-63 0 -112 -36 -162 -120c-60 -101 -113 -269 -113 -388c0 -75 39 -127 102 -127
c64 0 108 41 157 114c67 99 117 285 117 398c0 83 -41 123 -101 123zM629 885h39c-21 -103 -81 -162 -178 -162c-93 0 -138 54 -138 149v13h43c5 -57 35 -90 99 -90c66 0 104 24 135 90z" />
    <glyph glyph-name="uni014F" unicode="&#x14f;" 
d="M280 462h4c97 0 157 -59 157 -151c0 -94 -44 -188 -105 -249c-49 -49 -108 -75 -175 -75c-94 0 -164 50 -164 148c0 100 40 191 100 250c51 50 115 77 183 77zM275 433c-21 0 -41 -10 -60 -31c-60 -67 -99 -220 -99 -322c0 -44 19 -64 49 -64c26 0 50 15 71 49
c49 80 86 220 86 307c0 38 -18 61 -47 61zM449 678h39c-21 -103 -81 -162 -178 -162c-93 0 -138 54 -138 149v13h43c5 -57 35 -90 99 -90c66 0 104 24 135 90z" />
    <glyph glyph-name="uni0150" unicode="&#x150;" horiz-adv-x="722" 
d="M449 685c137 0 242 -95 242 -241c0 -128 -73 -271 -180 -366c-70 -62 -155 -96 -248 -96c-141 0 -236 84 -236 239c0 135 75 282 186 372c72 58 152 92 236 92zM446 651c-63 0 -112 -36 -162 -120c-60 -101 -113 -269 -113 -388c0 -75 39 -127 102 -127
c64 0 108 41 157 114c67 99 117 285 117 398c0 83 -41 123 -101 123zM323 723h-52l122 133c35 39 52 48 70 48c26 0 48 -19 48 -45c0 -19 -9 -34 -39 -51zM510 723h-50l122 133c35 39 52 48 70 48c26 0 48 -21 48 -47c0 -19 -9 -32 -39 -49z" />
    <glyph glyph-name="uni0151" unicode="&#x151;" 
d="M280 462h4c97 0 157 -59 157 -151c0 -94 -44 -188 -105 -249c-49 -49 -108 -75 -175 -75c-94 0 -164 50 -164 148c0 100 40 191 100 250c51 50 115 77 183 77zM275 433c-21 0 -41 -10 -60 -31c-60 -67 -99 -220 -99 -322c0 -44 19 -64 49 -64c26 0 50 15 71 49
c49 80 86 220 86 307c0 38 -18 61 -47 61zM142 516h-52l122 133c35 39 52 48 70 48c26 0 48 -19 48 -45c0 -19 -9 -34 -39 -51zM329 516h-50l122 133c35 39 52 48 70 48c26 0 48 -21 48 -47c0 -19 -9 -32 -39 -49z" />
    <glyph glyph-name="OE" unicode="&#x152;" horiz-adv-x="944" 
d="M946 669l-46 -191l-25 6c1 14 2 28 2 37c0 39 -13 68 -40 87c-24 17 -74 29 -125 29c-35 0 -42 -6 -53 -47l-61 -220h25c89 0 132 26 164 103l27 -3l-72 -272l-27 5l1 19c1 17 3 32 3 41c0 19 -7 37 -21 48c-15 13 -34 17 -109 25l-64 -245c-2 -9 -4 -19 -4 -25
c0 -24 21 -34 73 -34c117 0 188 46 257 167l27 -5l-60 -194h-324c-67 0 -138 -8 -200 -8h-18c-83 0 -140 18 -184 57c-45 40 -69 101 -69 175c0 144 79 295 201 383c71 51 135 70 240 70c16 0 26 0 56 -3c42 -3 73 -5 91 -5h335zM392 123l108 391c7 27 12 53 12 69
c0 40 -26 62 -73 62c-61 0 -113 -34 -161 -106c-62 -91 -114 -266 -114 -381c0 -80 48 -133 121 -133c58 0 87 27 107 98z" />
    <glyph glyph-name="oe" unicode="&#x153;" horiz-adv-x="722" 
d="M591 139l28 -15c-25 -51 -45 -75 -72 -97c-34 -26 -74 -40 -116 -40c-46 0 -78 16 -117 57c-43 -39 -89 -57 -148 -57c-95 0 -160 64 -160 157c0 82 44 179 104 239c54 53 121 79 190 79c53 0 84 -17 116 -62c59 47 94 62 146 62c69 0 112 -35 112 -90
c0 -46 -30 -90 -87 -127c-45 -29 -70 -41 -173 -61c-6 -29 -8 -40 -8 -56c0 -51 23 -78 67 -78c46 0 73 20 118 89zM421 218c78 23 115 47 143 97c13 24 22 53 22 77c0 25 -14 40 -37 40c-14 0 -27 -6 -36 -16c-31 -36 -47 -59 -92 -198zM282 433c-32 0 -60 -23 -86 -74
c-33 -64 -72 -189 -72 -262c0 -52 19 -81 53 -81c36 0 66 30 97 97c29 64 63 195 63 246c0 49 -19 74 -55 74z" />
    <glyph glyph-name="uni0154" unicode="&#x154;" horiz-adv-x="667" 
d="M431 343l85 -254c16 -49 31 -59 87 -64v-25h-202l-107 331h-30l-52 -182c-14 -48 -18 -68 -18 -82c0 -30 14 -38 72 -42v-25h-294v25c49 6 66 25 82 84l120 437c5 19 10 49 10 61c0 20 -9 31 -42 34l-32 3v25h286c147 0 227 -47 227 -143c0 -69 -36 -114 -96 -151
c-24 -15 -50 -23 -96 -32zM330 583l-57 -220c62 1 101 8 127 25c44 27 72 88 72 154c0 61 -29 95 -82 95c-31 0 -48 -8 -60 -54zM329 723h-49l122 131c36 38 52 50 70 50c26 0 48 -21 48 -47c0 -19 -9 -30 -39 -47z" />
    <glyph glyph-name="uni0155" unicode="&#x155;" horiz-adv-x="389" 
d="M25 407v27c121 10 140 13 200 28l-65 -209h1c79 159 117 209 171 209c34 0 57 -26 57 -66c0 -42 -25 -73 -58 -73c-39 0 -41 38 -61 38c-14 0 -38 -27 -65 -76c-26 -47 -41 -81 -74 -186l-31 -99h-121c71 240 102 357 102 382c0 19 -12 25 -56 25zM188 516h-49l122 131
c36 38 52 50 70 50c26 0 48 -21 48 -47c0 -19 -9 -30 -39 -47z" />
    <glyph glyph-name="uni0156" unicode="&#x156;" horiz-adv-x="667" 
d="M431 343l85 -254c16 -49 31 -59 87 -64v-25h-202l-107 331h-30l-52 -182c-14 -48 -18 -68 -18 -82c0 -30 14 -38 72 -42v-25h-294v25c49 6 66 25 82 84l120 437c5 19 10 49 10 61c0 20 -9 31 -42 34l-32 3v25h286c147 0 227 -47 227 -143c0 -69 -36 -114 -96 -151
c-24 -15 -50 -23 -96 -32zM330 583l-57 -220c62 1 101 8 127 25c44 27 72 88 72 154c0 61 -29 95 -82 95c-31 0 -48 -8 -60 -54zM140 -359l-13 25c79 42 118 80 118 116c0 14 -6 24 -30 37c-32 18 -40 38 -40 65c0 43 32 73 73 73c53 0 83 -40 83 -94
c0 -89 -72 -172 -191 -222z" />
    <glyph glyph-name="uni0157" unicode="&#x157;" horiz-adv-x="389" 
d="M25 407v27c121 10 140 13 200 28l-65 -209h1c79 159 117 209 171 209c34 0 57 -26 57 -66c0 -42 -25 -73 -58 -73c-39 0 -41 38 -61 38c-14 0 -38 -27 -65 -76c-26 -47 -41 -81 -74 -186l-31 -99h-121c71 240 102 357 102 382c0 19 -12 25 -56 25zM-89 -359l-13 25
c79 42 118 80 118 116c0 14 -6 24 -30 37c-32 18 -40 38 -40 65c0 43 32 73 73 73c53 0 83 -40 83 -94c0 -89 -72 -172 -191 -222z" />
    <glyph glyph-name="uni0158" unicode="&#x158;" horiz-adv-x="667" 
d="M431 343l85 -254c16 -49 31 -59 87 -64v-25h-202l-107 331h-30l-52 -182c-14 -48 -18 -68 -18 -82c0 -30 14 -38 72 -42v-25h-294v25c49 6 66 25 82 84l120 437c5 19 10 49 10 61c0 20 -9 31 -42 34l-32 3v25h286c147 0 227 -47 227 -143c0 -69 -36 -114 -96 -151
c-24 -15 -50 -23 -96 -32zM330 583l-57 -220c62 1 101 8 127 25c44 27 72 88 72 154c0 61 -29 95 -82 95c-31 0 -48 -8 -60 -54zM566 897l-162 -174h-82l-88 174h51l90 -97l134 97h57z" />
    <glyph glyph-name="uni0159" unicode="&#x159;" horiz-adv-x="389" 
d="M25 407v27c121 10 140 13 200 28l-65 -209h1c79 159 117 209 171 209c34 0 57 -26 57 -66c0 -42 -25 -73 -58 -73c-39 0 -41 38 -61 38c-14 0 -38 -27 -65 -76c-26 -47 -41 -81 -74 -186l-31 -99h-121c71 240 102 357 102 382c0 19 -12 25 -56 25zM411 690l-162 -174h-82
l-88 174h51l90 -97l134 97h57z" />
    <glyph glyph-name="uni015A" unicode="&#x15a;" horiz-adv-x="556" 
d="M2 -18l36 225l29 -2c8 -66 16 -103 48 -139c27 -31 62 -50 106 -50c38 0 67 11 89 34c23 23 37 47 37 92c0 59 -34 96 -115 154s-130 114 -130 198c0 114 90 191 204 191c88 0 108 -30 146 -30c21 0 35 8 44 26h30l-40 -202l-27 4c-5 42 -9 76 -22 101
c-23 46 -64 66 -116 66c-53 0 -98 -40 -98 -105c0 -60 36 -86 107 -137c106 -77 138 -127 138 -217c0 -84 -41 -150 -110 -184c-33 -16 -74 -25 -120 -25c-40 0 -73 7 -122 24c-23 8 -36 11 -46 11c-19 0 -26 -6 -38 -35h-30zM249 723h-49l122 131c36 38 52 50 70 50
c26 0 48 -21 48 -47c0 -19 -9 -30 -39 -47z" />
    <glyph glyph-name="uni015B" unicode="&#x15b;" horiz-adv-x="389" 
d="M333 461l-23 -154l-27 2c-16 83 -42 120 -88 120c-32 0 -53 -21 -53 -53c0 -23 18 -54 57 -99c60 -70 80 -114 80 -162c0 -75 -66 -128 -148 -128c-21 0 -42 3 -64 12c-13 5 -23 8 -30 8c-13 0 -23 -6 -29 -20h-27l22 166l27 -3c11 -88 42 -133 93 -133c40 0 60 22 60 54
c0 30 -16 59 -56 104c-68 77 -80 107 -80 161c0 80 53 126 134 126c20 0 41 -4 58 -12s27 -10 37 -10c15 0 19 4 28 21h29zM188 516h-49l122 131c36 38 52 50 70 50c26 0 48 -21 48 -47c0 -19 -9 -30 -39 -47z" />
    <glyph glyph-name="uni015C" unicode="&#x15c;" horiz-adv-x="556" 
d="M2 -18l36 225l29 -2c8 -66 16 -103 48 -139c27 -31 62 -50 106 -50c38 0 67 11 89 34c23 23 37 47 37 92c0 59 -34 96 -115 154s-130 114 -130 198c0 114 90 191 204 191c88 0 108 -30 146 -30c21 0 35 8 44 26h30l-40 -202l-27 4c-5 42 -9 76 -22 101
c-23 46 -64 66 -116 66c-53 0 -98 -40 -98 -105c0 -60 36 -86 107 -137c106 -77 138 -127 138 -217c0 -84 -41 -150 -110 -184c-33 -16 -74 -25 -120 -25c-40 0 -73 7 -122 24c-23 8 -36 11 -46 11c-19 0 -26 -6 -38 -35h-30zM433 723l-88 95l-131 -95h-57l160 174h81
l86 -174h-51z" />
    <glyph glyph-name="uni015D" unicode="&#x15d;" horiz-adv-x="389" 
d="M333 461l-23 -154l-27 2c-16 83 -42 120 -88 120c-32 0 -53 -21 -53 -53c0 -23 18 -54 57 -99c60 -70 80 -114 80 -162c0 -75 -66 -128 -148 -128c-21 0 -42 3 -64 12c-13 5 -23 8 -30 8c-13 0 -23 -6 -29 -20h-27l22 166l27 -3c11 -88 42 -133 93 -133c40 0 60 22 60 54
c0 30 -16 59 -56 104c-68 77 -80 107 -80 161c0 80 53 126 134 126c20 0 41 -4 58 -12s27 -10 37 -10c15 0 19 4 28 21h29zM316 516l-88 95l-131 -95h-57l160 174h81l86 -174h-51z" />
    <glyph glyph-name="uni015E" unicode="&#x15e;" horiz-adv-x="556" 
d="M172 -92l51 74c-34 2 -64 9 -107 24c-23 8 -36 11 -46 11c-19 0 -26 -6 -38 -35h-30l36 225l29 -2c8 -66 16 -103 48 -139c27 -31 62 -50 106 -50c38 0 67 11 89 34c23 23 37 47 37 92c0 59 -34 96 -115 154s-130 114 -130 198c0 114 90 191 204 191
c88 0 108 -30 146 -30c21 0 35 8 44 26h30l-40 -202l-27 4c-5 42 -9 76 -22 101c-23 46 -64 66 -116 66c-53 0 -98 -40 -98 -105c0 -60 36 -86 107 -137c106 -77 138 -127 138 -217c0 -84 -41 -150 -110 -184c-26 -13 -56 -21 -91 -24l-30 -45c10 2 16 3 26 3
c52 0 90 -30 90 -72c0 -50 -53 -87 -124 -87c-36 0 -68 7 -112 25l22 33c29 -13 45 -17 67 -17c34 0 56 16 56 41c0 23 -17 36 -47 36c-10 0 -18 -1 -30 -4z" />
    <glyph glyph-name="uni015F" unicode="&#x15f;" horiz-adv-x="389" 
d="M65 -92l54 79c-17 1 -34 5 -52 12c-13 5 -23 8 -30 8c-13 0 -23 -6 -29 -20h-27l22 166l27 -3c11 -88 42 -133 93 -133c40 0 60 22 60 54c0 30 -16 59 -56 104c-68 77 -80 107 -80 161c0 80 53 126 134 126c20 0 41 -4 58 -12s27 -10 37 -10c15 0 19 4 28 21h29l-23 -154
l-27 2c-16 83 -42 120 -88 120c-32 0 -53 -21 -53 -53c0 -23 18 -54 57 -99c60 -70 80 -114 80 -162c0 -64 -49 -112 -114 -125l-35 -52c10 2 16 3 26 3c52 0 90 -30 90 -72c0 -50 -53 -87 -124 -87c-36 0 -68 7 -112 25l22 33c29 -13 45 -17 67 -17c34 0 56 16 56 41
c0 23 -17 36 -47 36c-10 0 -18 -1 -30 -4z" />
    <glyph glyph-name="Scaron" unicode="&#x160;" horiz-adv-x="556" 
d="M2 -18l36 225l29 -2c8 -66 16 -103 48 -139c27 -31 62 -50 106 -50c38 0 67 11 89 34c23 23 37 47 37 92c0 59 -34 96 -115 154s-130 114 -130 198c0 114 90 191 204 191c88 0 108 -30 146 -30c21 0 35 8 44 26h30l-40 -202l-27 4c-5 42 -9 76 -22 101
c-23 46 -64 66 -116 66c-53 0 -98 -40 -98 -105c0 -60 36 -86 107 -137c106 -77 138 -127 138 -217c0 -84 -41 -150 -110 -184c-33 -16 -74 -25 -120 -25c-40 0 -73 7 -122 24c-23 8 -36 11 -46 11c-19 0 -26 -6 -38 -35h-30zM516 897l-162 -174h-82l-88 174h51l90 -97
l134 97h57z" />
    <glyph glyph-name="scaron" unicode="&#x161;" horiz-adv-x="389" 
d="M333 461l-23 -154l-27 2c-16 83 -42 120 -88 120c-32 0 -53 -21 -53 -53c0 -23 18 -54 57 -99c60 -70 80 -114 80 -162c0 -75 -66 -128 -148 -128c-21 0 -42 3 -64 12c-13 5 -23 8 -30 8c-13 0 -23 -6 -29 -20h-27l22 166l27 -3c11 -88 42 -133 93 -133c40 0 60 22 60 54
c0 30 -16 59 -56 104c-68 77 -80 107 -80 161c0 80 53 126 134 126c20 0 41 -4 58 -12s27 -10 37 -10c15 0 19 4 28 21h29zM411 690l-162 -174h-82l-88 174h51l90 -97l134 97h57z" />
    <glyph glyph-name="uni0162" unicode="&#x162;" horiz-adv-x="611" 
d="M190 0h-141v25h15c46 0 77 20 91 72l148 537c-102 -2 -167 -37 -218 -143l-25 7l39 171h551l-36 -192l-27 2c0 114 -38 155 -138 155l-135 -489c-7 -24 -17 -53 -17 -74c0 -29 23 -46 83 -46v-25h-146l-42 -62c10 2 16 3 26 3c52 0 90 -30 90 -72c0 -50 -53 -87 -124 -87
c-36 0 -68 7 -112 25l22 33c29 -13 45 -17 67 -17c34 0 56 16 56 41c0 23 -17 36 -47 36c-10 0 -18 -1 -30 -4l-13 12z" />
    <glyph glyph-name="uni0163" unicode="&#x163;" horiz-adv-x="278" 
d="M-20 -92l59 86c-27 7 -42 28 -42 62c0 18 10 63 25 115l67 236h-52v35c82 28 130 67 184 152h35l-39 -145h72v-42h-83l-34 -119c-35 -122 -53 -185 -53 -209c0 -13 8 -18 16 -18c16 0 42 27 76 80l23 -15c-60 -93 -101 -128 -153 -134l-36 -54c10 2 16 3 26 3
c52 0 90 -30 90 -72c0 -50 -53 -87 -124 -87c-36 0 -68 7 -112 25l22 33c29 -13 45 -17 67 -17c34 0 56 16 56 41c0 23 -17 36 -47 36c-10 0 -18 -1 -30 -4z" />
    <glyph glyph-name="uni0164" unicode="&#x164;" horiz-adv-x="611" 
d="M650 669l-36 -192l-27 2c0 114 -38 155 -138 155l-135 -489c-7 -24 -17 -53 -17 -74c0 -29 23 -46 83 -46v-25h-331v25h15c46 0 77 20 91 72l148 537c-102 -2 -167 -37 -218 -143l-25 7l39 171h551zM596 897l-162 -174h-82l-88 174h51l90 -97l134 97h57z" />
    <glyph glyph-name="uni0165" unicode="&#x165;" horiz-adv-x="411" 
d="M308 394l-13 25c79 42 118 80 118 116c0 14 -6 24 -30 37c-32 18 -40 38 -40 65c0 48 32 73 73 73c53 0 83 -40 83 -94c0 -89 -72 -172 -191 -222zM266 407h-68l-34 -119c-11 -38 -53 -173 -53 -209c0 -10 5 -18 16 -18c24 0 65 62 76 80l23 -15
c-39 -62 -89 -135 -170 -135c-42 0 -67 22 -67 65c0 27 17 88 25 115l67 236h-52v35c88 30 135 74 184 152h35l-39 -145h57v-42z" />
    <glyph glyph-name="uni0166" unicode="&#x166;" horiz-adv-x="611" 
d="M100 322l9 34h117l77 278c-102 -2 -167 -37 -218 -143l-25 7l39 171h551l-36 -192l-27 2c0 114 -38 155 -138 155l-77 -278h114l-9 -34h-114l-49 -177c-7 -24 -17 -53 -17 -74c0 -29 23 -46 83 -46v-25h-331v25h15c46 0 77 20 91 72l62 225h-117z" />
    <glyph glyph-name="uni0167" unicode="&#x167;" horiz-adv-x="278" 
d="M-30 232l16 56h61l34 119h-52v35c82 28 130 67 184 152h35l-39 -145h72v-42h-83l-34 -119h92l-16 -56h-92c-28 -101 -37 -137 -37 -153c0 -13 8 -18 16 -18c16 0 42 27 76 80l23 -15c-66 -103 -110 -135 -170 -135c-42 0 -67 21 -67 65c0 18 10 63 25 115l17 61h-61z" />
    <glyph glyph-name="uni0168" unicode="&#x168;" horiz-adv-x="722" 
d="M642 497l-65 -234c-30 -107 -62 -187 -121 -234c-39 -31 -92 -47 -166 -47c-131 0 -223 56 -223 163c0 40 14 101 37 189l51 193c10 37 15 66 15 78c0 22 -9 33 -41 36l-32 3v25h311v-25c-62 -3 -78 -17 -94 -76l-81 -294c-26 -94 -28 -107 -28 -135
c0 -72 46 -101 122 -101c55 0 94 17 123 47c43 44 67 114 90 197l57 209c12 44 19 79 19 96c0 36 -22 57 -79 57v25h207v-25c-55 -11 -65 -13 -102 -147zM599 841h41c-22 -84 -57 -119 -117 -119c-19 0 -30 2 -57 13l-59 23c-13 5 -27 8 -38 8c-22 0 -35 -11 -48 -43h-40
c13 72 59 118 116 118c25 0 56 -8 97 -26c27 -11 42 -16 54 -16c23 0 36 10 51 42z" />
    <glyph glyph-name="uni0169" unicode="&#x169;" horiz-adv-x="556" 
d="M471 133l22 -13c-52 -89 -99 -129 -159 -129c-44 0 -68 19 -68 60c0 29 8 55 26 110h-1c-94 -138 -133 -170 -198 -170c-50 0 -78 26 -78 79c0 25 8 56 22 106l37 128c8 29 17 59 17 75c0 15 -12 25 -58 28v27c51 1 149 15 210 28l-93 -302c-14 -45 -16 -57 -16 -72
c0 -17 10 -25 24 -25c18 0 40 16 70 55c58 76 88 131 142 331h118l-78 -266c-13 -46 -25 -91 -25 -103c0 -10 3 -21 14 -21c17 0 37 20 72 74zM449 655h41c-22 -84 -57 -119 -117 -119c-19 0 -30 2 -57 13l-59 23c-13 5 -27 8 -38 8c-22 0 -35 -11 -48 -43h-40
c13 72 59 118 116 118c25 0 56 -8 97 -26c27 -11 42 -16 54 -16c23 0 36 10 51 42z" />
    <glyph glyph-name="uni016A" unicode="&#x16a;" horiz-adv-x="722" 
d="M642 497l-65 -234c-30 -107 -62 -187 -121 -234c-39 -31 -92 -47 -166 -47c-131 0 -223 56 -223 163c0 40 14 101 37 189l51 193c10 37 15 66 15 78c0 22 -9 33 -41 36l-32 3v25h311v-25c-62 -3 -78 -17 -94 -76l-81 -294c-26 -94 -28 -107 -28 -135
c0 -72 46 -101 122 -101c55 0 94 17 123 47c43 44 67 114 90 197l57 209c12 44 19 79 19 96c0 36 -22 57 -79 57v25h207v-25c-55 -11 -65 -13 -102 -147zM641 793l-16 -70h-326l17 70h325z" />
    <glyph glyph-name="uni016B" unicode="&#x16b;" horiz-adv-x="556" 
d="M471 133l22 -13c-52 -89 -99 -129 -159 -129c-44 0 -68 19 -68 60c0 29 8 55 26 110h-1c-94 -138 -133 -170 -198 -170c-50 0 -78 26 -78 79c0 25 8 56 22 106l37 128c8 29 17 59 17 75c0 15 -12 25 -58 28v27c51 1 149 15 210 28l-93 -302c-14 -45 -16 -57 -16 -72
c0 -17 10 -25 24 -25c18 0 40 16 70 55c58 76 88 131 142 331h118l-78 -266c-13 -46 -25 -91 -25 -103c0 -10 3 -21 14 -21c17 0 37 20 72 74zM481 586l-16 -70h-326l17 70h325z" />
    <glyph glyph-name="uni016C" unicode="&#x16c;" horiz-adv-x="722" 
d="M642 497l-65 -234c-30 -107 -62 -187 -121 -234c-39 -31 -92 -47 -166 -47c-131 0 -223 56 -223 163c0 40 14 101 37 189l51 193c10 37 15 66 15 78c0 22 -9 33 -41 36l-32 3v25h311v-25c-62 -3 -78 -17 -94 -76l-81 -294c-26 -94 -28 -107 -28 -135
c0 -72 46 -101 122 -101c55 0 94 17 123 47c43 44 67 114 90 197l57 209c12 44 19 79 19 96c0 36 -22 57 -79 57v25h207v-25c-55 -11 -65 -13 -102 -147zM589 885h39c-21 -103 -81 -162 -178 -162c-93 0 -138 54 -138 149v13h43c5 -57 35 -90 99 -90c66 0 104 24 135 90z
" />
    <glyph glyph-name="uni016D" unicode="&#x16d;" horiz-adv-x="556" 
d="M471 133l22 -13c-52 -89 -99 -129 -159 -129c-44 0 -68 19 -68 60c0 29 8 55 26 110h-1c-94 -138 -133 -170 -198 -170c-50 0 -78 26 -78 79c0 25 8 56 22 106l37 128c8 29 17 59 17 75c0 15 -12 25 -58 28v27c51 1 149 15 210 28l-93 -302c-14 -45 -16 -57 -16 -72
c0 -17 10 -25 24 -25c18 0 40 16 70 55c58 76 88 131 142 331h118l-78 -266c-13 -46 -25 -91 -25 -103c0 -10 3 -21 14 -21c17 0 37 20 72 74zM439 678h39c-21 -103 -81 -162 -178 -162c-93 0 -138 54 -138 149v13h43c5 -57 35 -90 99 -90c66 0 104 24 135 90z" />
    <glyph glyph-name="uni016E" unicode="&#x16e;" horiz-adv-x="722" 
d="M642 497l-65 -234c-30 -107 -62 -187 -121 -234c-39 -31 -92 -47 -166 -47c-131 0 -223 56 -223 163c0 40 14 101 37 189l51 193c10 37 15 66 15 78c0 22 -9 33 -41 36l-32 3v25h311v-25c-62 -3 -78 -17 -94 -76l-81 -294c-26 -94 -28 -107 -28 -135
c0 -72 46 -101 122 -101c55 0 94 17 123 47c43 44 67 114 90 197l57 209c12 44 19 79 19 96c0 36 -22 57 -79 57v25h207v-25c-55 -11 -65 -13 -102 -147zM461 921c63 0 106 -47 106 -106s-48 -107 -107 -107c-64 0 -106 45 -106 108c0 59 49 105 107 105zM459 873
c-31 0 -57 -27 -57 -59s26 -58 57 -58c33 0 60 26 60 57c0 33 -27 60 -60 60z" />
    <glyph glyph-name="uni016F" unicode="&#x16f;" horiz-adv-x="556" 
d="M471 133l22 -13c-52 -89 -99 -129 -159 -129c-44 0 -68 19 -68 60c0 29 8 55 26 110h-1c-94 -138 -133 -170 -198 -170c-50 0 -78 26 -78 79c0 25 8 56 22 106l37 128c8 29 17 59 17 75c0 15 -12 25 -58 28v27c51 1 149 15 210 28l-93 -302c-14 -45 -16 -57 -16 -72
c0 -17 10 -25 24 -25c18 0 40 16 70 55c58 76 88 131 142 331h118l-78 -266c-13 -46 -25 -91 -25 -103c0 -10 3 -21 14 -21c17 0 37 20 72 74zM311 729c63 0 106 -47 106 -106s-48 -107 -107 -107c-64 0 -106 45 -106 108c0 59 49 105 107 105zM309 681
c-31 0 -57 -27 -57 -59s26 -58 57 -58c33 0 60 26 60 57c0 33 -27 60 -60 60z" />
    <glyph glyph-name="uni0170" unicode="&#x170;" horiz-adv-x="722" 
d="M642 497l-65 -234c-30 -107 -62 -187 -121 -234c-39 -31 -92 -47 -166 -47c-131 0 -223 56 -223 163c0 40 14 101 37 189l51 193c10 37 15 66 15 78c0 22 -9 33 -41 36l-32 3v25h311v-25c-62 -3 -78 -17 -94 -76l-81 -294c-26 -94 -28 -107 -28 -135
c0 -72 46 -101 122 -101c55 0 94 17 123 47c43 44 67 114 90 197l57 209c12 44 19 79 19 96c0 36 -22 57 -79 57v25h207v-25c-55 -11 -65 -13 -102 -147zM301 708h-52l122 133c35 39 52 48 70 48c26 0 48 -19 48 -45c0 -19 -9 -34 -39 -51zM488 708h-50l122 133
c35 39 52 48 70 48c26 0 48 -21 48 -47c0 -19 -9 -32 -39 -49z" />
    <glyph glyph-name="uni0171" unicode="&#x171;" horiz-adv-x="556" 
d="M471 133l22 -13c-52 -89 -99 -129 -159 -129c-44 0 -68 19 -68 60c0 29 8 55 26 110h-1c-94 -138 -133 -170 -198 -170c-50 0 -78 26 -78 79c0 25 8 56 22 106l37 128c8 29 17 59 17 75c0 15 -12 25 -58 28v27c51 1 149 15 210 28l-93 -302c-14 -45 -16 -57 -16 -72
c0 -17 10 -25 24 -25c18 0 40 16 70 55c58 76 88 131 142 331h118l-78 -266c-13 -46 -25 -91 -25 -103c0 -10 3 -21 14 -21c17 0 37 20 72 74zM150 516h-52l122 133c35 39 52 48 70 48c26 0 48 -19 48 -45c0 -19 -9 -34 -39 -51zM337 516h-50l122 133c35 39 52 48 70 48
c26 0 48 -21 48 -47c0 -19 -9 -32 -39 -49z" />
    <glyph glyph-name="uni0172" unicode="&#x172;" horiz-adv-x="722" 
d="M496 -84l22 -14c-25 -47 -75 -75 -126 -75c-61 0 -103 28 -103 81c0 26 8 46 29 75c-9 -1 -18 -1 -28 -1c-131 0 -223 56 -223 163c0 40 14 101 37 189l51 193c10 37 15 66 15 78c0 22 -9 33 -41 36l-32 3v25h311v-25c-62 -3 -78 -17 -94 -76l-81 -294
c-26 -94 -28 -107 -28 -135c0 -72 46 -101 122 -101c55 0 94 17 123 47c43 44 67 114 90 197l57 209c12 44 19 79 19 96c0 36 -22 57 -79 57v25h207v-25c-55 -11 -65 -13 -102 -147l-65 -234c-30 -107 -62 -187 -121 -234c-22 -17 -47 -30 -79 -37c-3 -15 -4 -25 -4 -34
c0 -45 23 -62 61 -62c16 0 28 3 48 13c8 4 9 5 14 7z" />
    <glyph glyph-name="uni0173" unicode="&#x173;" horiz-adv-x="556" 
d="M337 -9h-3c-44 0 -68 19 -68 60c0 29 8 55 26 110h-1c-94 -138 -133 -170 -198 -170c-50 0 -78 26 -78 79c0 25 8 56 22 106l37 128c8 29 17 59 17 75c0 15 -12 25 -58 28v27c51 1 149 15 210 28l-93 -302c-14 -45 -16 -57 -16 -72c0 -17 10 -25 24 -25c18 0 40 16 70 55
c58 76 88 131 142 331h118l-78 -266c-13 -46 -25 -91 -25 -103c0 -10 3 -21 14 -21c17 0 37 20 72 74l22 -13c-34 -57 -65 -94 -99 -113c-5 -23 -8 -37 -8 -49c0 -45 23 -62 61 -62c16 0 28 3 48 13c8 4 9 5 14 7l22 -14c-25 -47 -75 -75 -126 -75c-61 0 -103 28 -103 81
c0 28 9 49 35 83z" />
    <glyph glyph-name="uni0174" unicode="&#x174;" horiz-adv-x="889" 
d="M570 -18h-29l-59 489l-233 -489h-29l-78 572c-10 71 -14 80 -78 91v24h278v-25c-47 -6 -61 -19 -61 -50c0 -6 0 -14 1 -19l40 -349l149 314c0 79 -10 97 -70 105v24h267v-25c-53 -5 -62 -16 -62 -54c0 -12 3 -34 7 -73l33 -291l155 327c12 26 15 34 15 46
c0 36 -7 41 -63 45v25h187v-24c-42 -6 -55 -15 -88 -82zM653 723l-88 95l-131 -95h-57l160 174h81l86 -174h-51z" />
    <glyph glyph-name="uni0175" unicode="&#x175;" horiz-adv-x="667" 
d="M15 407v27c80 13 115 19 156 28c23 -86 33 -154 33 -274l156 274h27l31 -333c88 103 120 157 120 187c0 10 -6 22 -20 38c-17 19 -22 33 -22 48c0 40 27 60 57 60c33 0 61 -29 61 -62c0 -84 -89 -223 -272 -413h-27l-23 285c-34 -63 -70 -135 -114 -201l-56 -84h-27v46
c0 13 1 32 1 62c0 121 -18 284 -38 302c-8 7 -18 10 -43 10zM483 516l-88 95l-131 -95h-57l160 174h81l86 -174h-51z" />
    <glyph glyph-name="uni0176" unicode="&#x176;" horiz-adv-x="611" 
d="M233 311l-87 270c-16 48 -23 52 -75 63v25h285v-25c-55 -2 -69 -9 -69 -39c0 -18 8 -44 29 -110l46 -143l128 183c21 30 28 49 28 67c0 31 -13 40 -66 42v25h207v-25c-38 -5 -60 -27 -92 -72l-189 -264l-52 -191c-5 -20 -10 -37 -10 -51c0 -28 17 -41 79 -41v-25h-323v25
c66 6 87 15 104 78zM513 723l-88 95l-131 -95h-57l160 174h81l86 -174h-51z" />
    <glyph glyph-name="uni0177" unicode="&#x177;" horiz-adv-x="444" 
d="M12 411v27c65 6 102 12 150 24c18 -47 48 -149 66 -274l11 -78h2c70 134 87 176 87 207c0 13 -7 19 -25 34c-22 18 -31 29 -31 54s21 57 58 57c33 0 62 -30 62 -64c0 -101 -119 -338 -249 -497c-55 -67 -120 -106 -175 -106c-35 0 -62 26 -62 60c0 29 24 56 50 56
c47 0 58 -36 94 -36c17 0 46 22 67 52c17 24 25 48 25 71c0 31 -16 126 -50 288c-13 59 -24 97 -40 113c-11 11 -15 12 -40 12zM342 516l-88 95l-131 -95h-57l160 174h81l86 -174h-51z" />
    <glyph glyph-name="Ydieresis" unicode="&#x178;" horiz-adv-x="611" 
d="M233 311l-87 270c-16 48 -23 52 -75 63v25h285v-25c-55 -2 -69 -9 -69 -39c0 -18 8 -44 29 -110l46 -143l128 183c21 30 28 49 28 67c0 31 -13 40 -66 42v25h207v-25c-38 -5 -60 -27 -92 -72l-189 -264l-52 -191c-5 -20 -10 -37 -10 -51c0 -28 17 -41 79 -41v-25h-323v25
c66 6 87 15 104 78zM293 862c36 0 66 -30 66 -66c0 -35 -30 -64 -66 -64c-34 0 -64 30 -64 64c0 36 29 66 64 66zM505 862c36 0 66 -30 66 -66c0 -35 -30 -64 -66 -64c-34 0 -64 30 -64 64c0 36 29 66 64 66z" />
    <glyph glyph-name="uni0179" unicode="&#x179;" horiz-adv-x="611" 
d="M553 194l-60 -194h-505v29l434 605h-83c-105 0 -168 -36 -247 -147l-28 4l58 178h467v-29l-434 -605h75c92 0 147 12 199 50c36 27 69 69 97 114zM319 723h-49l122 131c36 38 52 50 70 50c26 0 48 -21 48 -47c0 -19 -9 -30 -39 -47z" />
    <glyph glyph-name="uni017A" unicode="&#x17a;" horiz-adv-x="389" 
d="M13 295l44 154h311v-10l-281 -335c39 -17 61 -35 86 -69c21 -29 39 -84 68 -84c13 0 22 8 22 17c0 16 -20 17 -20 45s23 53 50 53c28 0 53 -25 53 -53c0 -62 -49 -91 -110 -91c-41 0 -80 15 -129 50c-35 25 -54 33 -74 33c-11 0 -17 -3 -32 -14c-6 -5 -12 -10 -19 -14
l-25 22l292 354h-136c-37 0 -58 -14 -73 -61zM188 516h-49l122 131c36 38 52 50 70 50c26 0 48 -21 48 -47c0 -19 -9 -30 -39 -47z" />
    <glyph glyph-name="uni017B" unicode="&#x17b;" horiz-adv-x="611" 
d="M553 194l-60 -194h-505v29l434 605h-83c-105 0 -168 -36 -247 -147l-28 4l58 178h467v-29l-434 -605h75c92 0 147 12 199 50c36 27 69 69 97 114zM369 862c36 0 66 -30 66 -66c0 -35 -30 -64 -66 -64c-34 0 -64 30 -64 64c0 36 29 66 64 66z" />
    <glyph glyph-name="uni017C" unicode="&#x17c;" horiz-adv-x="389" 
d="M13 295l44 154h311v-10l-281 -335c39 -17 61 -35 86 -69c21 -29 39 -84 68 -84c13 0 22 8 22 17c0 16 -20 17 -20 45s23 53 50 53c28 0 53 -25 53 -53c0 -62 -49 -91 -110 -91c-41 0 -80 15 -129 50c-35 25 -54 33 -74 33c-11 0 -17 -3 -32 -14c-6 -5 -12 -10 -19 -14
l-25 22l292 354h-136c-37 0 -58 -14 -73 -61zM227 655c36 0 66 -30 66 -66c0 -35 -30 -64 -66 -64c-34 0 -64 30 -64 64c0 36 29 66 64 66z" />
    <glyph glyph-name="Zcaron" unicode="&#x17d;" horiz-adv-x="611" 
d="M553 194l-60 -194h-505v29l434 605h-83c-105 0 -168 -36 -247 -147l-28 4l58 178h467v-29l-434 -605h75c92 0 147 12 199 50c36 27 69 69 97 114zM556 897l-162 -174h-82l-88 174h51l90 -97l134 97h57z" />
    <glyph glyph-name="zcaron" unicode="&#x17e;" horiz-adv-x="389" 
d="M13 295l44 154h311v-10l-281 -335c39 -17 61 -35 86 -69c21 -29 39 -84 68 -84c13 0 22 8 22 17c0 16 -20 17 -20 45s23 53 50 53c28 0 53 -25 53 -53c0 -62 -49 -91 -110 -91c-41 0 -80 15 -129 50c-35 25 -54 33 -74 33c-11 0 -17 -3 -32 -14c-6 -5 -12 -10 -19 -14
l-25 22l292 354h-136c-37 0 -58 -14 -73 -61zM411 690l-162 -174h-82l-88 174h51l90 -97l134 97h57z" />
    <glyph glyph-name="uni017F" unicode="&#x17f;" horiz-adv-x="333" 
d="M165 418h-41l10 44h41c18 79 38 138 80 178c35 33 69 51 143 51c81 0 138 -43 138 -99c0 -38 -26 -64 -63 -64c-34 0 -59 28 -59 55c0 37 22 43 22 59c0 11 -11 18 -27 18c-36 0 -55 -20 -68 -79l-107 -474c-4 -17 -6 -30 -6 -41c0 -31 18 -41 70 -42l-6 -24h-278l6 24
c47 5 61 18 71 63z" />
    <glyph glyph-name="uni0180" unicode="&#x180;" 
d="M232 515l-39 -142c48 66 93 89 144 89c64 0 107 -58 107 -131c0 -179 -152 -344 -320 -344c-66 0 -138 24 -138 61c0 6 10 45 20 81l110 386h-115l14 46h114c7 27 10 44 10 51c0 20 -16 30 -46 30h-19v27c89 10 140 17 210 30l-39 -138h118l-13 -46h-118zM319 325
c0 46 -12 69 -41 69c-33 0 -66 -29 -92 -84c-22 -48 -45 -124 -62 -182c-10 -34 -15 -73 -15 -81c0 -16 13 -27 31 -27c40 0 74 28 108 78c41 60 71 169 71 227z" />
    <glyph glyph-name="uni0188" unicode="&#x188;" horiz-adv-x="560" 
d="M361 435l17 63c12 44 50 78 117 78c68 0 132 -35 132 -101c0 -36 -24 -63 -61 -63c-34 0 -60 26 -60 57c0 35 22 43 22 57c0 12 -7 19 -25 19c-33 0 -68 -13 -79 -57l-34 -136c-7 -30 -28 -51 -60 -51c-34 0 -58 23 -58 53s21 36 21 58c0 10 -12 17 -24 17
c-38 0 -65 -37 -93 -88c-33 -61 -53 -134 -53 -201c0 -58 29 -89 73 -89c43 0 74 24 122 91l28 -18c-38 -52 -70 -96 -115 -119c-23 -12 -50 -18 -83 -18c-91 0 -153 53 -153 151c0 92 43 177 105 239c51 52 113 85 180 85c29 0 60 -10 81 -27z" />
    <glyph glyph-name="uni0190" unicode="&#x190;" horiz-adv-x="512" 
d="M566 174l39 -12c-81 -138 -198 -166 -321 -166c-104 0 -230 32 -230 137c0 100 85 193 183 221c-48 15 -86 63 -86 114c0 155 185 218 310 218c41 0 92 -7 119 -18c46 -19 96 -56 96 -102c0 -34 -15 -68 -57 -68c-41 0 -61 25 -71 79c-6 31 -34 56 -85 56
c-75 0 -157 -75 -157 -191c0 -18 8 -59 53 -59c34 0 68 11 98 11c26 0 55 -9 55 -33c0 -29 -49 -47 -77 -47c-13 0 -73 5 -89 5c-67 0 -137 -83 -137 -176c0 -52 39 -78 113 -78c92 0 179 3 244 109z" />
    <glyph glyph-name="florin" unicode="&#x192;" 
d="M86 440h107c37 168 124 267 234 267c63 0 110 -37 110 -87c0 -37 -24 -61 -60 -61c-32 0 -53 20 -53 50c0 16 6 27 20 40c6 6 9 9 9 13c0 9 -10 15 -25 15c-21 0 -40 -13 -54 -37c-18 -32 -27 -70 -49 -200h118l-9 -44h-116l-27 -154c-47 -269 -134 -398 -268 -398
c-66 0 -110 35 -110 87c0 35 24 60 57 60c30 0 53 -22 53 -50c0 -12 -6 -24 -18 -38c-8 -8 -10 -12 -10 -17c0 -9 8 -13 25 -13c18 0 28 4 38 15c20 20 43 80 55 144l70 364h-105z" />
    <glyph glyph-name="uni0195" unicode="&#x195;" horiz-adv-x="735" 
d="M467 338l-80 -251c-3 -8 -7 -25 -7 -28c0 -18 23 -19 34 -19c117 0 214 150 214 250c0 44 -24 47 -42 70c-14 17 -19 31 -19 48c0 25 23 54 57 54c53 0 68 -56 68 -112c0 -166 -125 -360 -316 -360c-65 0 -112 10 -112 65c0 18 4 36 9 52l76 232c5 15 6 24 6 30
c0 16 -8 21 -20 21c-27 0 -65 -31 -108 -94c-49 -72 -68 -121 -119 -296h-121l152 562c6 22 10 38 10 47c0 23 -13 33 -42 33h-22v27c81 7 132 15 209 30l-108 -416c99 141 145 179 213 179c49 0 76 -28 76 -75c0 -10 -1 -26 -8 -49z" />
    <glyph glyph-name="uni0199" unicode="&#x199;" 
d="M483 449v-25c-46 -6 -67 -14 -135 -76l-64 -58c39 -195 57 -227 79 -227c19 0 37 16 64 64l22 -11c-45 -95 -88 -124 -138 -124c-62 0 -90 48 -123 223l-39 -27l-50 -188h-122l135 486c29 103 90 205 199 205c85 0 142 -41 142 -100c0 -37 -24 -64 -61 -64
c-34 0 -60 26 -60 57c0 35 22 43 22 57c0 12 -11 19 -29 19c-32 0 -55 -19 -67 -65l-96 -357c126 99 165 137 165 163c0 16 -11 21 -50 23v25h206z" />
    <glyph glyph-name="uni019A" unicode="&#x19a;" horiz-adv-x="278" 
d="M290 699l-87 -313h51l-13 -46h-51l-45 -164c-15 -54 -22 -86 -22 -100c0 -8 5 -15 15 -15c18 0 39 21 79 80l22 -14c-69 -105 -105 -136 -169 -136c-41 0 -68 27 -68 63c0 23 14 84 34 155l37 131h-55l12 46h56l24 82c21 73 34 121 34 145c0 20 -15 30 -42 30
c-5 0 -11 0 -22 -1v27c75 7 124 14 210 30z" />
    <glyph glyph-name="uni019B" unicode="&#x19b;" horiz-adv-x="480" 
d="M452 568l-79 -56l53 -512h-40l-27 294l-193 -294h-150l322 474l-1 15l-184 -134v67l176 124c-4 34 -22 63 -38 63c-13 0 -18 -10 -18 -18c0 -4 3 -11 3 -18c0 -30 -26 -53 -60 -53c-38 0 -62 29 -62 67c0 47 40 79 97 79c52 0 92 -27 110 -97l91 67v-68z" />
    <glyph glyph-name="uni019E" unicode="&#x19e;" horiz-adv-x="536" 
d="M178 263h1c67 99 85 123 122 158c27 26 63 41 100 41c51 0 73 -28 73 -77c0 -24 -12 -69 -28 -116l-161 -474h-118l179 546c3 10 7 25 7 28c0 17 -11 21 -24 21c-18 0 -49 -27 -69 -54c-62 -81 -99 -162 -145 -336h-121l57 204c33 120 45 167 45 179c0 19 -13 23 -55 24
v27c56 2 135 13 199 27z" />
    <glyph glyph-name="uni01A0" unicode="&#x1a0;" horiz-adv-x="722" 
d="M806 649c0 -45 -32 -73 -71 -81c-12 -3 -52 -4 -73 -4c18 -34 29 -75 29 -120c0 -128 -73 -271 -180 -366c-70 -62 -155 -96 -248 -96c-141 0 -236 84 -236 239c0 135 75 282 186 372c72 58 152 92 236 92c76 0 143 -30 187 -82c10 -6 24 -18 52 -18s43 8 44 26
c-21 13 -41 30 -41 56c0 21 20 49 53 49c32 0 62 -23 62 -67zM547 528c0 83 -41 123 -101 123c-63 0 -112 -36 -162 -120c-60 -101 -113 -269 -113 -388c0 -75 39 -127 102 -127c64 0 108 41 157 114c67 99 117 285 117 398z" />
    <glyph glyph-name="uni01A1" unicode="&#x1a1;" horiz-adv-x="537" 
d="M307 462h4c58 0 103 -22 130 -59c10 -8 24 -27 42 -27c30 0 37 9 38 27c-21 13 -42 31 -42 57c0 21 22 47 55 47c32 0 61 -24 61 -64c0 -45 -32 -76 -71 -84c-10 -3 -40 -4 -62 -4c4 -14 6 -29 6 -44c0 -94 -44 -188 -105 -249c-49 -49 -108 -75 -175 -75
c-94 0 -164 50 -164 148c0 100 40 191 100 250c51 50 115 77 183 77zM349 372c0 38 -18 61 -47 61c-21 0 -41 -10 -60 -31c-60 -67 -99 -220 -99 -322c0 -44 19 -64 49 -64c26 0 50 15 71 49c49 80 86 220 86 307z" />
    <glyph glyph-name="uni01A5" unicode="&#x1a5;" horiz-adv-x="520" 
d="M197 347h1c56 87 101 115 158 115c72 0 110 -47 110 -121c0 -185 -135 -354 -277 -354c-21 0 -46 6 -68 22l-12 -41c-19 -66 -24 -100 -24 -114c0 -24 15 -31 65 -32v-27h-250v27c48 0 59 10 78 86l138 545c25 98 79 220 195 220c85 0 142 -41 142 -100
c0 -37 -24 -64 -61 -64c-34 0 -60 26 -60 57c0 35 22 43 22 57c0 11 -10 19 -28 19c-36 0 -56 -22 -70 -74zM341 336c0 40 -15 55 -39 55c-31 0 -61 -32 -87 -71c-18 -27 -22 -40 -44 -113c-27 -91 -38 -132 -38 -149c0 -20 17 -36 39 -36s43 12 62 30
c67 66 107 223 107 284z" />
    <glyph glyph-name="uni01AA" unicode="&#x1aa;" horiz-adv-x="400" 
d="M233 455h-18c-41 0 -104 39 -104 114c0 62 57 115 124 115c84 0 145 -73 145 -132c0 -47 -12 -90 -27 -133l-155 -429c-10 -28 -39 -126 -39 -154c0 -20 0 -39 22 -39c12 0 23 7 23 14c0 9 -18 23 -18 48s22 47 53 47c32 0 54 -27 54 -61c0 -46 -39 -78 -109 -78
c-92 0 -138 48 -138 125c0 41 12 82 27 124zM276 569c0 32 -28 59 -59 59c-36 0 -58 -30 -58 -60c0 -32 30 -57 57 -57c33 0 60 25 60 58z" />
    <glyph glyph-name="uni01AB" unicode="&#x1ab;" horiz-adv-x="286" 
d="M289 407h-83l-34 -119c-35 -122 -53 -185 -53 -209c0 -13 8 -18 16 -18c16 0 42 27 76 80l23 -15l-54 -197c-19 -69 -40 -147 -107 -147c-83 0 -122 41 -122 100c0 37 25 64 62 64c33 0 59 -26 59 -57c0 -35 -22 -43 -22 -57c0 -8 7 -19 25 -19c23 0 38 20 59 94l38 136
c-36 -38 -69 -52 -108 -52c-42 0 -67 21 -67 65c0 18 10 63 25 115l67 236h-52v35c82 28 130 67 184 152h35l-39 -145h72v-42z" />
    <glyph glyph-name="uni01AD" unicode="&#x1ad;" horiz-adv-x="360" 
d="M37 407v35c28 10 47 18 70 32c23 82 46 130 84 166c36 33 86 51 116 51c86 0 143 -41 143 -100c0 -37 -24 -64 -61 -64c-34 0 -60 26 -60 57c0 35 22 43 22 57c0 11 -10 19 -28 19c-33 0 -54 -16 -67 -66l-39 -145h72v-42h-83l-34 -119c-35 -122 -53 -185 -53 -209
c0 -13 8 -18 16 -18c16 0 42 27 76 80l23 -15c-66 -103 -110 -135 -170 -135c-42 0 -67 21 -67 65c0 18 10 63 25 115l67 236h-52z" />
    <glyph glyph-name="uni01AF" unicode="&#x1af;" horiz-adv-x="775" 
d="M537 669h227c28 0 55 7 55 29c-21 13 -42 24 -42 61c0 16 21 44 54 44c32 0 62 -20 62 -64c0 -48 -37 -75 -76 -83c-12 -3 -67 -10 -92 -16c-39 -10 -50 -26 -83 -143l-65 -234c-30 -107 -62 -187 -121 -234c-39 -31 -92 -47 -166 -47c-131 0 -223 56 -223 163
c0 40 14 101 37 189l51 193c10 37 15 66 15 78c0 22 -9 33 -41 36l-32 3v25h311v-25c-62 -3 -78 -17 -94 -76l-81 -294c-26 -94 -28 -107 -28 -135c0 -72 46 -101 122 -101c55 0 94 17 123 47c43 44 67 114 90 197l57 209c12 44 19 79 19 96c0 36 -22 57 -79 57v25z" />
    <glyph glyph-name="uni01B0" unicode="&#x1b0;" horiz-adv-x="556" 
d="M370 449h118c18 0 37 1 56 3c24 3 37 9 38 27c-28 8 -42 29 -42 55c0 21 20 49 55 49c32 0 61 -22 61 -64c0 -45 -34 -82 -73 -90c-26 -6 -85 -7 -102 -7l-71 -239c-14 -46 -25 -91 -25 -103c0 -10 3 -21 14 -21c17 0 37 20 72 74l22 -13c-52 -89 -99 -129 -159 -129
c-44 0 -68 19 -68 60c0 29 8 55 26 110h-1c-94 -138 -133 -170 -198 -170c-50 0 -78 26 -78 79c0 25 8 56 22 106l37 128c8 29 17 59 17 75c0 15 -12 25 -58 28v27c51 1 149 15 210 28l-93 -302c-14 -45 -16 -57 -16 -72c0 -17 10 -25 24 -25c18 0 40 16 70 55
c58 76 88 131 142 331z" />
    <glyph glyph-name="uni01BA" unicode="&#x1ba;" horiz-adv-x="496" 
d="M458 423l-236 -167c11 3 39 4 45 4c76 0 119 -37 119 -92c0 -58 -49 -116 -106 -144l-181 -90c-35 -17 -70 -50 -70 -86c0 -29 20 -48 49 -48s63 16 70 53c8 45 32 64 66 64c43 0 59 -26 59 -50c0 -30 -16 -58 -65 -80c-38 -17 -94 -24 -121 -24c-53 0 -87 14 -107 29
c-25 20 -32 46 -32 69c0 73 54 120 114 152c49 26 98 48 145 70c18 9 50 30 50 69c0 29 -31 44 -71 44c-21 0 -65 -2 -122 -47l-21 24l285 204h-189c-23 0 -74 -30 -95 -83h-26l76 156h364v-27z" />
    <glyph glyph-name="uni01BB" unicode="&#x1bb;" 
d="M469 376l-16 -62h-111l-40 -36l-196 -167h138c77 0 114 8 151 80h24l-80 -191h-366v24l89 92c60 62 127 128 177 198h-233l15 62h262c17 31 29 64 29 100c0 62 -21 117 -92 117c-62 0 -101 -37 -134 -86l-22 12c38 94 112 164 218 164c100 0 164 -69 164 -168
c0 -52 -19 -97 -50 -139h73z" />
    <glyph glyph-name="uni01BE" unicode="&#x1be;" 
d="M304 438l-10 -47c14 2 22 2 31 2c99 0 138 -71 138 -150c0 -149 -123 -253 -269 -253c-34 0 -67 9 -100 26c-30 16 -57 44 -57 80c0 19 16 48 53 48c43 0 61 -26 71 -61c9 -33 18 -64 54 -64c62 0 119 134 119 187c0 58 -45 89 -93 89h-32l38 143h-64l13 46h64l15 57h52
l-12 -57h111l-13 -46h-109z" />
    <glyph glyph-name="uni01C0" unicode="&#x1c0;" horiz-adv-x="208" 
d="M278 740l-198 -740h-66l198 740h66z" />
    <glyph glyph-name="uni01C1" unicode="&#x1c1;" horiz-adv-x="345" 
d="M415 740l-198 -740h-66l198 740h66zM278 740l-198 -740h-66l198 740h66z" />
    <glyph glyph-name="uni01C2" unicode="&#x1c2;" horiz-adv-x="368" 
d="M438 476l-18 -66h-148l-23 -84h148l-17 -66h-148l-70 -260h-66l70 260h-152l17 66h152l23 84h-152l18 66h152l70 264h66l-70 -264h148z" />
    <glyph glyph-name="uni01C3" unicode="&#x1c3;" horiz-adv-x="300" 
d="M168 203l-31 9c32 157 50 274 55 354c4 60 17 118 86 118c53 0 77 -29 77 -73c0 -27 -6 -41 -32 -89c-62 -114 -110 -210 -155 -319zM214 70c0 -48 -36 -83 -84 -83c-47 0 -85 37 -85 84c0 49 35 85 84 85c47 0 85 -36 85 -86z" />
    <glyph glyph-name="uni01F0" unicode="&#x1f0;" horiz-adv-x="350" 
d="M474 690l-162 -174h-82l-88 174h51l90 -97l134 97h57zM324 462l-37 -140l-79 -304c-42 -160 -107 -225 -207 -225c-63 0 -105 33 -105 77c0 29 22 53 49 53c29 0 49 -19 49 -49c0 -21 -15 -21 -15 -35c0 -10 12 -15 24 -15c28 0 49 36 74 136l89 350c8 30 12 54 12 67
c0 21 -12 30 -41 30h-22v27c112 10 149 15 209 28z" />
    <glyph glyph-name="uni01FA" unicode="&#x1fa;" horiz-adv-x="667" 
d="M419 646l88 -523c14 -82 23 -94 86 -98v-25h-303v25c53 4 77 19 77 49c0 5 -1 9 -2 15l-12 119h-215l-57 -96c-11 -18 -17 -35 -17 -50c0 -24 16 -37 64 -37v-25h-195l-1 25c37 4 55 27 86 76l355 558c-27 15 -44 44 -44 78c0 48 41 90 92 90c47 0 89 -41 89 -89
c0 -51 -41 -92 -90 -92h-1zM346 248l-37 243l-148 -243h185zM462 736c0 23 -14 43 -44 43c-24 0 -41 -20 -41 -42c0 -23 19 -43 41 -43c24 0 44 19 44 42zM304 825l146 125c17 15 25 22 44 22c23 0 32 -12 32 -33c0 -19 -14 -26 -45 -43l-132 -71h-45z" />
    <glyph glyph-name="uni01FB" unicode="&#x1fb;" 
d="M160 728l122 131c36 38 52 50 70 50c26 0 48 -21 48 -47c0 -19 -9 -30 -39 -47l-152 -87h-49zM387 623c0 -59 -48 -107 -107 -107c-64 0 -106 45 -106 108c0 59 49 105 107 105c63 0 106 -47 106 -106zM339 621c0 33 -27 60 -60 60c-31 0 -57 -27 -57 -59s26 -58 57 -58
c33 0 60 26 60 57zM435 127l21 -15c-58 -94 -109 -126 -156 -126c-37 0 -63 21 -63 64c0 14 2 28 14 69c-56 -95 -103 -132 -164 -132c-65 0 -108 51 -108 127c0 80 36 164 87 231c53 70 121 117 186 117c43 0 65 -21 74 -72h1l17 59l111 7l-75 -251
c-24 -79 -30 -108 -30 -133c0 -9 4 -15 12 -15c16 0 32 15 73 70zM303 373c0 27 -15 47 -37 47c-42 0 -80 -58 -108 -115c-35 -71 -56 -152 -56 -190c0 -40 17 -57 43 -57c27 0 59 26 86 75c39 69 72 180 72 240z" />
    <glyph glyph-name="uni01FC" unicode="&#x1fc;" horiz-adv-x="944" 
d="M520 723l122 131c36 38 52 50 70 50c26 0 48 -21 48 -47c0 -19 -9 -30 -39 -47l-152 -87h-49zM918 669l-45 -190l-24 5l-2 40c-4 75 -58 113 -162 113c-42 0 -52 -5 -59 -32l-65 -235h19c102 0 135 20 175 106l26 -4l-73 -273l-25 5c2 16 3 35 3 46c0 66 -18 81 -133 88
l-63 -241c-3 -12 -5 -22 -5 -28c0 -26 26 -37 68 -37c78 0 124 12 170 47c36 27 66 70 101 120l26 -3l-59 -196h-527v25c52 8 65 27 81 81l43 149h-192l-114 -157c-10 -13 -15 -27 -15 -39c0 -22 16 -30 64 -34v-25h-195v25c17 2 22 4 30 9c5 2 20 18 59 68l364 472
c12 16 20 33 20 44c0 19 -15 24 -80 28v23h589zM490 627h-12l-253 -333h173z" />
    <glyph glyph-name="uni01FD" unicode="&#x1fd;" horiz-adv-x="722" 
d="M300 516l122 131c36 38 52 50 70 50c26 0 48 -21 48 -47c0 -19 -9 -30 -39 -47l-152 -87h-49zM473 459l-20 -65c38 49 71 65 120 65c63 0 100 -32 100 -87c0 -82 -83 -161 -230 -185l-37 -6c-4 -20 -5 -31 -5 -46c0 -53 25 -85 66 -85c48 0 90 31 124 90l28 -17
c-43 -88 -110 -136 -194 -136c-89 0 -133 45 -143 131c-56 -93 -106 -130 -173 -130c-66 0 -114 38 -114 118c0 90 45 188 107 259c50 58 111 97 168 97c44 0 64 -16 82 -66l18 58zM418 231l-5 -17c85 10 170 92 170 174c0 29 -12 41 -35 41c-50 0 -91 -64 -130 -198z
M333 363c0 33 -20 56 -48 56c-93 0 -164 -215 -164 -295c0 -43 18 -66 48 -66c34 0 63 28 93 79c40 68 71 171 71 226z" />
    <glyph glyph-name="uni01FE" unicode="&#x1fe;" horiz-adv-x="722" 
d="M290 723l122 131c36 38 52 50 70 50c26 0 48 -21 48 -47c0 -19 -9 -30 -39 -47l-152 -87h-49zM633 764l-63 -108c74 -35 121 -117 121 -203c0 -152 -72 -283 -183 -376c-73 -61 -151 -95 -240 -95c-31 0 -54 3 -85 13l-70 -120h-48l79 136c-78 42 -117 113 -117 201
c0 249 199 473 422 473c30 0 50 -3 82 -13l53 92h49zM182 77l324 553c-19 15 -37 21 -63 21c-61 0 -116 -43 -165 -130c-58 -103 -107 -278 -107 -380c0 -22 4 -44 11 -64zM533 593l-325 -555c20 -16 41 -22 67 -22c62 0 128 57 166 135c51 105 106 275 106 376
c0 22 -5 43 -14 66z" />
    <glyph glyph-name="uni01FF" unicode="&#x1ff;" 
d="M139 516l122 131c36 38 52 50 70 50c26 0 48 -21 48 -47c0 -19 -9 -30 -39 -47l-152 -87h-49zM424 560l-65 -116c57 -28 82 -69 82 -133c0 -169 -136 -324 -284 -324c-18 0 -31 2 -51 8l-64 -114h-40l72 126c-53 30 -77 70 -77 127c0 170 139 328 289 328
c14 0 24 -1 42 -6l59 104h37zM116 78l191 341c-10 10 -19 14 -32 14c-32 0 -61 -23 -86 -68c-36 -65 -73 -205 -73 -279v-8zM321 377l-193 -343c10 -13 21 -18 37 -18c39 0 70 33 101 109c29 69 56 187 56 247c0 2 0 3 -1 5z" />
    <glyph glyph-name="uni0237" unicode="&#x237;" horiz-adv-x="278" 
d="M239 462l-116 -444c-42 -160 -107 -225 -207 -225c-63 0 -105 33 -105 77c0 29 22 53 49 53c29 0 49 -19 49 -49c0 -21 -15 -21 -15 -35c0 -10 12 -15 24 -15c28 0 49 36 74 136l89 350c8 30 12 54 12 67c0 21 -12 30 -41 30h-22v27c112 10 149 15 209 28z" />
    <glyph glyph-name="uni0250" unicode="&#x250;" horiz-adv-x="512" 
d="M50 395l-10 21c49 41 85 57 128 57c49 0 63 -18 63 -69c69 50 120 69 178 69c52 0 83 -21 83 -69c0 -63 -34 -112 -99 -149c-44 -25 -96 -43 -221 -76l-18 -68c-4 -17 -7 -31 -7 -43c0 -34 19 -50 63 -50c36 0 86 10 86 35c0 24 -30 34 -30 65c0 37 27 62 69 62
c40 0 64 -25 64 -71c0 -82 -108 -123 -221 -123c-105 0 -165 35 -165 100c0 10 2 22 5 34l70 261c1 5 2 9 2 13c0 10 -5 15 -15 15c-5 0 -9 -1 -25 -14zM221 362l-40 -148c92 26 159 71 159 148c0 27 -15 40 -38 40c-24 0 -51 -9 -81 -40z" />
    <glyph glyph-name="uni0251" unicode="&#x251;" horiz-adv-x="612" 
d="M592 473l-104 -388c-1 -6 -2 -10 -2 -14c0 -7 2 -11 10 -11c7 0 22 1 61 7v-19l-214 -56l14 53c-19 -13 -72 -59 -161 -59c-45 0 -171 16 -171 153c0 168 153 334 325 334c57 0 90 -25 109 -46l119 46h14zM374 109l62 231c3 10 4 19 4 27c0 50 -43 74 -78 74
c-81 0 -194 -134 -194 -277c0 -85 54 -120 110 -120c29 0 86 27 96 65z" />
    <glyph glyph-name="uni0252" unicode="&#x252;" horiz-adv-x="612" 
d="M274 467l-14 -53c19 13 72 59 161 59c45 0 171 -16 171 -153c0 -168 -152 -334 -325 -334c-57 0 -90 25 -109 46l-119 -46h-14l104 388c1 6 2 10 2 14c0 7 -2 11 -10 11c-7 0 -23 -2 -61 -7v18zM243 350l-62 -231c-3 -10 -4 -19 -4 -27c0 -50 43 -74 78 -74
c81 0 194 134 194 277c0 85 -54 120 -110 120c-29 0 -86 -27 -96 -65z" />
    <glyph glyph-name="uni0253" unicode="&#x253;" 
d="M6 129l103 358c48 167 102 204 198 204c85 0 142 -41 142 -100c0 -37 -24 -64 -61 -64c-34 0 -60 26 -60 57c0 35 22 43 22 57c0 11 -10 19 -28 19c-34 0 -55 -21 -70 -76l-59 -211c48 66 93 89 144 89c64 0 107 -58 107 -131c0 -179 -152 -344 -320 -344
c-66 0 -138 24 -138 61c0 6 10 45 20 81zM319 325c0 46 -12 69 -41 69c-33 0 -66 -29 -92 -84c-22 -48 -45 -124 -62 -182c-10 -34 -15 -73 -15 -81c0 -16 13 -27 31 -27c40 0 74 28 108 78c41 60 71 169 71 227z" />
    <glyph glyph-name="uni0254" unicode="&#x254;" horiz-adv-x="444" 
d="M69 307l-28 18c38 52 70 96 115 119c23 12 50 18 83 18c91 0 153 -53 153 -151c0 -92 -43 -177 -105 -239c-51 -52 -113 -85 -180 -85c-60 0 -112 37 -112 90c0 42 25 71 62 71c34 0 58 -23 58 -53s-21 -36 -21 -58c0 -10 12 -17 24 -17c38 0 65 37 93 88
c33 61 53 134 53 201c0 58 -29 89 -73 89c-43 0 -74 -24 -122 -91z" />
    <glyph glyph-name="uni0255" unicode="&#x255;" horiz-adv-x="444" 
d="M-1 -157l112 147c-72 14 -116 64 -116 148c0 92 43 177 105 239c51 52 113 85 180 85c60 0 112 -37 112 -90c0 -42 -25 -71 -62 -71c-34 0 -58 23 -58 53s21 36 21 58c0 10 -12 17 -24 17c-38 0 -65 -37 -93 -88c-33 -61 -53 -134 -53 -201c0 -44 17 -70 38 -81
c45 57 106 115 167 115c50 0 78 -34 78 -71c0 -67 -69 -121 -163 -121h-25c-22 0 -51 1 -63 3l-108 -142h-48zM361 99c0 23 -23 30 -44 30c-33 0 -73 -32 -120 -86c27 -14 51 -16 77 -16c59 0 87 39 87 72z" />
    <glyph glyph-name="uni0256" unicode="&#x256;" 
d="M517 699l-199 -725c-7 -24 -32 -102 -32 -120c0 -41 31 -56 62 -56c17 0 28 7 28 19c0 14 -22 22 -22 57c0 31 26 57 60 57c37 0 61 -27 61 -64c0 -60 -58 -100 -143 -100c-91 0 -135 34 -135 110c0 33 8 72 20 116c31 114 32 119 34 125c-52 -94 -105 -131 -166 -131
s-106 42 -106 125c0 99 58 212 131 282c43 42 93 68 138 68c29 0 53 -8 75 -33l18 64c25 88 29 113 29 122c0 18 -15 28 -41 28h-21v27c100 8 149 15 209 29zM308 371c0 28 -15 49 -37 49c-43 1 -85 -54 -114 -112c-33 -66 -54 -144 -54 -186c0 -36 16 -64 41 -64
c29 0 59 26 86 75c36 64 78 194 78 238z" />
    <glyph glyph-name="uni0257" unicode="&#x257;" horiz-adv-x="570" 
d="M323 429l18 64c28 98 57 190 170 190c85 0 142 -41 142 -100c0 -37 -24 -64 -61 -64c-34 0 -60 26 -60 57c0 35 22 43 22 57c0 11 -10 19 -28 19c-9 0 -22 0 -34 -43l-129 -471c-10 -38 -14 -58 -14 -63c0 -6 5 -15 11 -15c15 0 40 26 68 71l22 -16
c-55 -88 -101 -126 -150 -126c-38 0 -60 23 -60 61c0 16 2 29 11 68c-52 -94 -105 -131 -166 -131s-106 42 -106 125c0 99 58 212 131 282c43 42 93 68 138 68c29 0 53 -8 75 -33zM308 371c0 28 -15 49 -37 49c-43 1 -85 -54 -114 -112c-33 -66 -54 -144 -54 -186
c0 -36 16 -64 41 -64c29 0 59 26 86 75c36 64 78 194 78 238z" />
    <glyph glyph-name="uni0258" unicode="&#x258;" horiz-adv-x="444" 
d="M5 126l37 17c10 -69 56 -92 99 -92c55 0 112 64 128 131c-110 26 -169 58 -169 136c0 83 83 144 167 144c98 0 154 -74 154 -172c0 -150 -125 -303 -266 -303c-77 0 -148 39 -150 139zM306 365c0 42 -13 64 -39 64c-48 0 -75 -80 -75 -115c0 -49 33 -86 86 -100
c19 64 28 115 28 151z" />
    <glyph glyph-name="uni0259" unicode="&#x259;" horiz-adv-x="444" 
d="M86 306l-29 17c56 100 118 139 195 139c87 0 146 -48 146 -147c0 -165 -143 -328 -288 -328c-65 0 -105 36 -105 87c0 43 29 88 69 122c43 36 91 54 188 71c4 20 6 33 6 49c0 54 -22 82 -64 82c-43 0 -72 -23 -118 -92zM255 235c-90 -20 -158 -93 -158 -176
c0 -23 7 -39 31 -39c48 0 91 76 127 215z" />
    <glyph glyph-name="uni025A" unicode="&#x25a;" horiz-adv-x="626" 
d="M626 279l-18 -27c-21 -32 -59 -57 -98 -57c-43 0 -65 19 -65 54c0 9 1 19 4 29l26 93l-78 -40c1 -5 1 -11 1 -16c0 -165 -143 -328 -288 -328c-65 0 -105 36 -105 87c0 93 73 132 107 149l156 80v16c0 47 -20 79 -64 79c-43 0 -72 -23 -118 -92l-29 17
c56 100 118 139 195 139c70 0 123 -32 140 -96l127 65l10 -12l-45 -142c-1 -5 -2 -18 -2 -22c0 -20 16 -23 37 -23c33 0 57 25 64 35l17 25zM261 262l-89 -46c-61 -32 -75 -114 -75 -157c0 -23 7 -39 31 -39c56 0 104 110 133 242z" />
    <glyph glyph-name="uni025B" unicode="&#x25b;" horiz-adv-x="444" 
d="M394 102l19 -18c-90 -90 -166 -98 -240 -98c-84 0 -168 31 -168 106c0 76 73 137 156 158c-41 21 -66 43 -66 80c0 112 119 145 221 145c21 0 53 -4 75 -11c47 -15 91 -51 91 -84c0 -24 -10 -50 -49 -50s-52 18 -72 70c-9 23 -23 38 -55 38c-46 0 -91 -38 -91 -105
c0 -40 43 -69 74 -69h17v-37h-53c-54 0 -108 -60 -108 -128c0 -40 27 -64 70 -64c61 0 113 9 179 67z" />
    <glyph glyph-name="uni025C" unicode="&#x25c;" horiz-adv-x="480" 
d="M198 264h24c64 0 127 58 127 127c0 32 -17 47 -53 47c-32 0 -46 -20 -51 -33c-21 -53 -32 -75 -73 -75c-32 0 -50 16 -50 51c0 32 47 71 97 85c22 6 48 9 78 9c82 0 172 -20 172 -90c0 -71 -54 -106 -124 -135c53 -15 88 -53 88 -100c0 -116 -144 -164 -242 -164
c-74 0 -146 8 -186 98l27 18c36 -58 82 -67 143 -67c66 0 123 61 123 132c0 37 -20 60 -57 60h-43v37z" />
    <glyph glyph-name="uni025D" unicode="&#x25d;" horiz-adv-x="689" 
d="M689 289l-18 -27c-21 -32 -59 -57 -98 -57c-43 0 -65 19 -65 54c0 9 1 19 4 29l26 93l-78 -40c-16 -42 -61 -69 -115 -91c53 -15 88 -53 88 -100c0 -116 -144 -164 -242 -164c-74 0 -146 8 -186 98l27 18c36 -58 82 -67 143 -67c66 0 123 61 123 132c0 37 -20 60 -57 60
h-43v37h24c64 0 127 58 127 127c0 32 -17 47 -53 47c-32 0 -46 -20 -51 -33c-21 -53 -32 -75 -73 -75c-32 0 -50 16 -50 51c0 32 47 71 97 85c22 6 48 9 78 9c60 0 172 -10 172 -92l113 58l10 -12l-45 -142c-1 -5 -2 -18 -2 -22c0 -20 16 -23 37 -23c33 0 57 25 64 35l17 25
z" />
    <glyph glyph-name="uni025E" unicode="&#x25e;" horiz-adv-x="486" 
d="M475 385c0 -69 -52 -106 -124 -135c53 -15 88 -53 88 -100c0 -109 -130 -164 -245 -164c-62 0 -187 27 -187 162c0 177 150 327 294 327c93 0 174 -23 174 -90zM204 264h24c64 0 127 58 127 127c0 30 -15 47 -52 47c-112 0 -222 -140 -222 -274c0 -80 41 -129 99 -129
c67 0 124 60 124 133c0 37 -21 59 -57 59h-43v37z" />
    <glyph glyph-name="uni025F" unicode="&#x25f;" horiz-adv-x="367" 
d="M364 462v-24c-45 -1 -56 -44 -60 -62l-30 -122h51l-13 -46h-50l-49 -187c-38 -144 -96 -228 -208 -228c-63 0 -105 33 -105 77c0 29 22 53 49 53c29 0 49 -19 49 -49c0 -21 -15 -21 -15 -35c0 -10 12 -15 24 -15c28 0 49 36 74 136l63 248h-109l13 46h108l31 124
c3 10 4 19 4 27c0 20 -10 33 -44 33v24h217z" />
    <glyph glyph-name="uni0260" unicode="&#x260;" horiz-adv-x="720" 
d="M258 -68l43 154c-44 -64 -90 -99 -155 -99c-44 0 -102 22 -102 135c0 136 136 340 270 340c31 0 59 -10 76 -33c31 98 62 171 97 203c36 33 70 51 123 51c84 0 141 -41 141 -100c0 -37 -24 -64 -61 -64c-34 0 -60 26 -60 57c0 35 22 43 22 57c0 12 -11 19 -29 19
c-36 0 -58 -19 -75 -80l-164 -588c-32 -116 -101 -229 -265 -229c-59 0 -89 12 -121 31c-27 16 -50 40 -50 80c0 35 25 60 62 60c33 0 59 -24 59 -54c0 -27 -23 -42 -23 -59c0 -22 22 -27 41 -27c78 0 150 72 171 146zM368 369c0 30 -12 50 -35 50
c-73 0 -164 -199 -164 -298c0 -62 25 -62 46 -62c22 0 59 30 88 87c31 61 65 169 65 223z" />
    <glyph glyph-name="uni0261" unicode="&#x261;" horiz-adv-x="549" 
d="M520 472l-136 -488c-33 -117 -101 -229 -265 -229c-59 0 -89 12 -121 31c-27 16 -50 40 -50 80c0 35 25 60 62 60c33 0 59 -24 59 -54c0 -27 -23 -42 -23 -59c0 -22 22 -27 41 -27c78 0 150 72 171 146l43 154c-44 -64 -90 -99 -155 -99c-44 0 -102 22 -102 135
c0 136 136 340 270 340c39 0 64 -9 99 -45l91 55h16zM368 369c0 30 -12 50 -35 50c-73 0 -164 -199 -164 -298c0 -62 25 -62 46 -62c22 0 59 30 88 87c31 61 65 169 65 223z" />
    <glyph glyph-name="uni0262" unicode="&#x262;" horiz-adv-x="561" 
d="M544 460l-42 -157h-18c-12 51 -19 72 -42 100c-23 26 -55 37 -90 37c-110 0 -203 -165 -203 -313c0 -68 21 -116 102 -116c50 0 74 23 83 56l16 59c2 8 3 15 3 21c0 19 -15 27 -63 30v16h250v-16c-57 -6 -68 -26 -80 -68l-22 -78c-54 -26 -136 -42 -211 -42
c-125 0 -206 63 -206 169c0 162 162 304 326 304c39 0 68 -8 107 -24c13 -7 23 -9 30 -9c15 0 23 6 41 31h19z" />
    <glyph glyph-name="uni0263" unicode="&#x263;" horiz-adv-x="444" 
d="M236 188l11 -81c72 134 89 179 89 210c0 13 -7 19 -25 34c-22 18 -31 29 -31 54s21 57 58 57c33 0 62 -30 62 -64c0 -73 -62 -215 -144 -349l17 -122c3 -18 4 -50 4 -68c0 -61 -64 -93 -131 -93c-47 0 -73 21 -73 67c0 29 16 56 31 78l50 72c-5 50 -20 141 -54 303
c-13 59 -24 97 -40 113c-11 11 -15 12 -40 12v27c65 6 102 12 150 24c18 -47 49 -149 66 -274zM162 -69l-30 -47c-11 -17 -19 -36 -19 -55c0 -26 14 -30 26 -30c25 0 32 24 32 49c0 5 -2 31 -3 37z" />
    <glyph glyph-name="uni0264" unicode="&#x264;" horiz-adv-x="493" 
d="M240 263l102 116c23 26 63 71 90 71c34 0 56 -30 56 -62c0 -25 -7 -50 -16 -73h-10c-6 23 -20 42 -46 42c-28 0 -55 -27 -72 -47l-83 -94c13 -35 38 -90 38 -127c0 -71 -88 -99 -146 -99c-40 0 -76 18 -76 62c0 34 19 59 41 83l49 52l-48 117c-9 22 -21 53 -49 53
c-22 0 -36 -23 -41 -42h-10c-5 12 -9 24 -9 37c0 53 49 98 101 98c43 0 67 -37 82 -73zM208 65c0 20 -13 51 -21 70c-25 -25 -50 -45 -50 -84c0 -17 11 -28 28 -28c22 0 43 20 43 42z" />
    <glyph glyph-name="uni0265" unicode="&#x265;" horiz-adv-x="556" 
d="M498 450l-152 -562c-6 -22 -10 -38 -10 -47c0 -23 13 -33 42 -33h22v-27c-81 -7 -132 -15 -209 -30l108 416c-99 -141 -145 -179 -213 -179c-49 0 -76 28 -76 75c0 9 1 27 7 46l81 254c3 8 3 9 3 12c0 11 -9 16 -17 16c-13 0 -32 -21 -75 -83l-22 15
c66 103 106 136 167 136c39 0 67 -24 67 -64c0 -24 -4 -36 -10 -55l-75 -229c-5 -15 -6 -24 -6 -30c0 -16 8 -21 20 -21c27 0 65 31 108 94c49 72 68 121 119 296h121z" />
    <glyph glyph-name="uni0266" unicode="&#x266;" horiz-adv-x="556" 
d="M476 142l22 -15c-66 -103 -106 -136 -167 -136c-39 0 -67 24 -67 64c0 13 2 31 7 46l78 238c5 15 6 24 6 30c0 16 -8 21 -20 21c-27 0 -65 -31 -108 -94c-49 -72 -68 -121 -119 -296h-121l150 555c23 85 79 128 182 128c85 0 142 -41 142 -100c0 -37 -24 -64 -61 -64
c-34 0 -60 26 -60 57c0 35 22 43 22 57c0 12 -11 19 -29 19c-34 0 -56 -19 -69 -69l-78 -300c99 141 145 179 213 179c49 0 76 -28 76 -75c0 -15 -3 -32 -7 -46l-81 -254c-3 -8 -3 -9 -3 -12c0 -11 9 -16 17 -16c13 0 32 21 75 83z" />
    <glyph glyph-name="uni0267" unicode="&#x267;" horiz-adv-x="533" 
d="M264 583l-78 -300c99 141 145 179 213 179c49 0 76 -28 76 -75c0 -15 -4 -35 -8 -49l-108 -338c-15 -46 -33 -97 -61 -129c-41 -49 -83 -76 -152 -76c-82 0 -140 41 -140 100c0 36 25 61 62 61c33 0 59 -24 59 -54c0 -28 -23 -40 -23 -59c0 -11 15 -17 34 -17
c31 0 51 21 65 65l146 448c5 15 6 24 6 30c0 16 -8 21 -20 21c-27 0 -65 -31 -108 -94c-49 -72 -68 -121 -119 -296h-121l150 555c23 85 79 128 182 128c85 0 142 -41 142 -100c0 -37 -24 -64 -61 -64c-34 0 -60 26 -60 57c0 35 22 43 22 57c0 12 -11 19 -29 19
c-34 0 -56 -19 -69 -69z" />
    <glyph glyph-name="uni0268" unicode="&#x268;" horiz-adv-x="278" 
d="M262 616c0 -37 -30 -66 -68 -66s-66 30 -66 69c0 34 31 65 65 65c38 0 69 -31 69 -68zM216 142l22 -14c-66 -108 -108 -137 -168 -137c-41 0 -68 20 -68 63c0 14 5 40 15 76l25 93h-52l13 46h51l18 64c7 24 8 37 8 45c0 19 -16 29 -46 29h-14v27c78 6 149 16 203 28
l-53 -193h57l-13 -46h-56l-26 -95c-5 -17 -9 -42 -9 -51c0 -12 7 -16 15 -16c15 0 37 23 64 61z" />
    <glyph glyph-name="uni0269" unicode="&#x269;" horiz-adv-x="253" 
d="M225 95l12 -17c-29 -33 -64 -86 -142 -86c-63 0 -93 29 -93 79c0 17 5 33 12 59l56 207c5 20 7 32 7 40c0 7 -2 11 -6 11c-10 0 -25 -3 -47 -10l8 27c67 23 140 51 166 51c11 0 15 -6 15 -14c0 -4 -1 -10 -2 -14l-82 -300c-3 -11 -9 -41 -9 -48c0 -23 12 -30 22 -30
c13 0 43 6 83 45z" />
    <glyph glyph-name="uni026A" unicode="&#x26a;" horiz-adv-x="304" 
d="M321 462v-17c-50 -2 -68 -13 -78 -52l-86 -320c-3 -11 -5 -20 -5 -27c0 -22 16 -27 55 -29v-17h-239v17c52 5 68 13 79 56l85 320c2 8 3 15 3 21c0 22 -15 29 -52 31v17h238z" />
    <glyph glyph-name="uni026B" unicode="&#x26b;" horiz-adv-x="320" 
d="M327 447h41c-22 -84 -57 -119 -117 -119c-10 0 -18 0 -26 2l-43 -154c-15 -54 -22 -86 -22 -100c0 -8 5 -15 15 -15c18 0 39 21 79 80l22 -14c-69 -105 -105 -136 -169 -136c-41 0 -68 27 -68 63c0 23 14 84 34 155l45 159c-7 2 -15 2 -21 2c-22 0 -35 -9 -48 -41h-40
c13 72 56 118 113 118c5 0 13 -1 19 -2l34 129c4 16 6 30 6 39c0 20 -15 30 -42 30c-5 0 -11 0 -22 -1v27c75 7 124 14 210 30l-80 -288c12 -4 21 -6 29 -6c23 0 36 10 51 42z" />
    <glyph glyph-name="uni026C" unicode="&#x26c;" horiz-adv-x="445" 
d="M412 384l5 -21s-63 -72 -159 -115l-20 -72c-15 -54 -22 -86 -22 -100c0 -8 5 -15 15 -15c18 0 39 21 79 80l22 -14c-69 -105 -105 -136 -169 -136c-41 0 -68 27 -68 63c0 23 14 84 34 155l6 21c-11 -1 -19 -1 -28 -1c-51 0 -90 26 -90 79c0 95 86 150 152 150
c8 0 27 -4 30 -5l29 105c4 16 9 46 9 55c0 20 -15 30 -42 30c-5 0 -11 0 -22 -1v27c75 7 124 14 210 30l-111 -399c59 20 116 65 140 84zM148 276l40 141c-5 2 -15 4 -25 4c-43 0 -86 -55 -86 -97c0 -24 15 -41 41 -47c5 -1 24 -1 30 -1z" />
    <glyph glyph-name="uni026D" unicode="&#x26d;" horiz-adv-x="291" 
d="M290 699l-224 -809c-3 -11 -5 -22 -5 -33c0 -33 15 -59 39 -59c19 0 32 7 32 17c0 16 -23 33 -23 59c0 30 26 54 59 54c37 0 62 -25 62 -61c0 -59 -58 -100 -140 -100c-91 0 -137 48 -137 124c0 16 2 33 7 51l150 526c21 73 34 121 34 145c0 20 -15 30 -42 30
c-5 0 -11 0 -22 -1v27c75 7 124 14 210 30z" />
    <glyph glyph-name="uni026E" unicode="&#x26e;" horiz-adv-x="623" 
d="M585 423l-209 -191h17c59 0 112 -50 112 -137c0 -199 -170 -331 -301 -331c-55 0 -117 16 -143 35c-35 25 -44 45 -44 69s16 50 59 50c37 0 60 -22 67 -67c5 -31 38 -50 69 -50c92 0 166 200 166 292c0 42 -16 75 -56 75c-10 0 -22 -3 -43 -23l-102 -98
c-47 -45 -76 -56 -107 -56c-45 0 -68 31 -68 62c0 16 11 75 24 120l105 370c7 24 13 61 13 70c0 18 -14 30 -40 30c-8 0 -16 0 -24 -1v27c90 9 141 17 210 30l-69 -249h364v-27zM476 377h-211c-18 0 -72 -28 -84 -71l-48 -174c-5 -17 -10 -42 -10 -47c0 -10 3 -19 11 -19
c10 0 46 38 59 50z" />
    <glyph glyph-name="uni026F" unicode="&#x26f;" horiz-adv-x="778" 
d="M723 453l-66 -232c-28 -97 -36 -135 -36 -150c0 -16 12 -25 38 -25h18v-27c-113 -9 -137 -12 -200 -27l63 199h-1c-48 -74 -77 -115 -104 -142c-32 -32 -74 -58 -114 -58c-42 0 -67 25 -67 67c0 28 6 53 26 105c-81 -132 -126 -172 -198 -172c-48 0 -77 30 -77 71
c0 16 1 38 9 61l72 214c6 19 8 27 8 39s-7 18 -16 18c-13 0 -35 -21 -58 -58c-4 -7 -8 -13 -12 -18l-22 13c52 97 99 131 161 131c43 0 68 -20 68 -66c0 -14 -3 -36 -11 -62l-72 -219c-4 -13 -6 -24 -6 -30c0 -11 10 -21 22 -21c30 0 71 41 113 116c36 63 43 81 101 273h120
l-65 -207c-32 -102 -42 -143 -42 -160c0 -16 7 -22 17 -22c15 0 41 21 63 47c57 68 94 153 147 342h121z" />
    <glyph glyph-name="uni0270" unicode="&#x270;" horiz-adv-x="778" 
d="M723 453l-195 -686h-123l135 424h-1c-37 -57 -71 -108 -100 -138c-35 -36 -78 -62 -118 -62c-42 0 -67 25 -67 67c0 28 6 53 26 105c-81 -132 -126 -172 -198 -172c-48 0 -77 30 -77 71c0 16 1 38 9 61l72 214c6 19 8 27 8 39s-7 18 -16 18c-13 0 -35 -21 -58 -58
c-4 -7 -8 -13 -12 -18l-22 13c52 97 99 131 161 131c43 0 68 -20 68 -66c0 -14 -3 -36 -11 -62l-72 -219c-4 -13 -6 -24 -6 -30c0 -11 10 -21 22 -21c30 0 71 41 113 116c36 63 43 81 101 273h120l-65 -207c-32 -102 -42 -143 -42 -160c0 -16 7 -22 17 -22c15 0 41 21 63 47
c57 68 94 153 147 342h121z" />
    <glyph glyph-name="uni0271" unicode="&#x271;" horiz-adv-x="759" 
d="M169 262h1c48 74 77 115 104 142c32 32 74 58 114 58c42 0 67 -25 67 -67c0 -28 -6 -53 -26 -105c81 132 126 172 198 172c48 0 77 -30 77 -71c0 -16 -4 -47 -9 -62l-140 -422c-6 -17 -20 -50 -32 -64c-40 -50 -95 -76 -164 -76c-82 0 -140 41 -140 100c0 36 25 61 62 61
c33 0 59 -24 59 -55c0 -24 -23 -41 -23 -59c0 -10 15 -16 34 -16c31 0 56 21 70 65l156 475c4 13 6 24 6 30c0 11 -10 21 -22 21c-30 0 -71 -41 -113 -116c-36 -63 -43 -81 -101 -273h-120l65 207c32 102 42 143 42 160c0 16 -7 22 -17 22c-15 0 -41 -21 -63 -47
c-57 -68 -94 -153 -147 -342h-121l66 232c28 97 36 135 36 150c0 16 -12 25 -38 25h-18v27c113 9 137 12 200 27z" />
    <glyph glyph-name="uni0272" unicode="&#x272;" horiz-adv-x="694" 
d="M610 135l22 -13c-55 -97 -100 -131 -160 -131c-43 0 -68 19 -68 60c0 26 10 77 26 125l55 165c3 10 6 25 6 28c0 17 -11 21 -24 21c-18 0 -49 -27 -69 -54c-43 -56 -87 -131 -125 -264l-46 -161c-28 -99 -81 -144 -196 -144c-82 0 -140 41 -140 100c0 36 25 61 62 61
c33 0 59 -24 59 -54c0 -26 -23 -43 -23 -59c0 -10 13 -17 32 -17c31 0 61 20 73 65l95 341c33 120 45 167 45 179c0 19 -13 23 -55 24v27c56 2 135 13 199 27l-62 -198h1c67 99 85 123 122 158c27 26 63 41 100 41c51 0 73 -28 73 -77c0 -24 -12 -69 -28 -116l-35 -104
c-19 -56 -24 -79 -24 -89s6 -17 14 -17c17 0 31 14 71 76z" />
    <glyph glyph-name="uni0273" unicode="&#x273;" horiz-adv-x="505" 
d="M446 269l-127 -379c-5 -15 -7 -26 -7 -46c0 -26 23 -46 44 -46c19 0 32 7 32 17c0 15 -23 34 -23 59c0 30 26 54 59 54c37 0 62 -25 62 -61c0 -59 -58 -100 -140 -100c-91 0 -139 49 -139 127c0 12 7 46 15 70l124 377c3 10 7 25 7 28c0 17 -11 21 -24 21
c-18 0 -49 -27 -69 -54c-62 -81 -99 -162 -145 -336h-121l57 204c33 120 45 167 45 179c0 19 -13 23 -55 24v27c56 2 135 13 199 27l-62 -198h1c67 99 85 123 122 158c27 26 63 41 100 41c51 0 73 -28 73 -77c0 -24 -12 -69 -28 -116z" />
    <glyph glyph-name="uni0274" unicode="&#x274;" horiz-adv-x="588" 
d="M614 462v-17c-52 -7 -64 -13 -75 -56l-107 -401h-23l-244 372l-73 -271c-4 -14 -6 -25 -6 -34c0 -26 17 -34 61 -38v-17h-174v17c57 6 71 15 82 57l86 323c-21 38 -36 48 -52 48v17h167l190 -294l55 205c4 14 6 26 6 35c0 26 -17 34 -57 37v17h164z" />
    <glyph glyph-name="uni0275" unicode="&#x275;" 
d="M441 311c0 -94 -44 -188 -105 -249c-49 -49 -108 -75 -175 -75c-94 0 -164 50 -164 148c0 100 40 191 100 250c51 50 115 77 183 77c101 0 161 -59 161 -151zM143 253h164c10 44 15 84 15 119c0 38 -18 61 -47 61c-21 0 -41 -10 -60 -31c-31 -34 -55 -88 -72 -149z
M295 207h-165c-9 -44 -14 -90 -14 -127c0 -44 19 -64 49 -64c26 0 50 15 71 49c23 37 44 90 59 142z" />
    <glyph glyph-name="uni0276" unicode="&#x276;" horiz-adv-x="749" 
d="M751 457l-36 -137h-18c1 9 1 18 1 25c0 37 -8 55 -29 70c-17 12 -58 18 -111 18c-28 0 -37 -4 -41 -18l-45 -167c77 4 93 13 133 99h18l-62 -229h-17c2 15 3 30 3 41c0 47 -22 62 -81 65l-46 -170c-2 -5 -3 -10 -3 -14c0 -14 12 -18 46 -18c52 0 93 8 129 34
c29 22 50 40 85 86h20l-69 -144h-307c-35 0 -60 0 -78 -1c-10 -1 -21 -2 -30 -2c-116 0 -190 47 -190 160c0 109 67 212 159 266c46 26 104 41 156 41c10 0 49 -5 115 -5h298zM332 142l53 197c9 32 12 50 12 63c0 7 -1 13 -3 18c-6 15 -24 18 -50 18
c-113 0 -210 -181 -210 -336c0 -56 24 -83 89 -83c32 0 52 5 68 19c14 13 23 38 41 104z" />
    <glyph glyph-name="uni0277" unicode="&#x277;" horiz-adv-x="685" 
d="M626 265c0 -133 -115 -267 -256 -267c-46 0 -74 21 -94 48c-41 -37 -88 -48 -134 -48c-94 0 -145 62 -145 141c0 200 227 338 390 338c126 0 239 -80 239 -212zM489 314c0 95 -45 139 -109 139c-113 0 -246 -164 -246 -346c0 -35 15 -63 42 -63c23 0 84 15 84 73
c0 64 -5 96 -5 125c0 36 27 85 83 85c39 0 53 -31 53 -66c0 -59 -60 -96 -60 -164c0 -32 16 -53 38 -53c86 0 120 207 120 270z" />
    <glyph glyph-name="uni0278" unicode="&#x278;" horiz-adv-x="691" 
d="M483 591l-41 -156c87 -9 190 -61 190 -165c0 -152 -183 -264 -307 -271l-37 -138c-4 -15 -6 -27 -6 -36c0 -25 17 -30 56 -32v-24h-277v24c55 4 74 16 89 71l36 135c-94 6 -189 73 -189 175c0 160 190 253 306 261l41 153c4 14 5 25 5 34c0 27 -16 36 -56 39v24h277v-24
c-54 -3 -72 -12 -87 -70zM432 398l-97 -360c79 35 157 146 157 245c0 57 -23 99 -60 115zM196 39l97 359c-74 -23 -156 -133 -156 -232c0 -57 23 -106 59 -127z" />
    <glyph glyph-name="uni0279" unicode="&#x279;" horiz-adv-x="427" 
d="M289 462h121c-71 -240 -102 -357 -102 -382c0 -19 12 -25 56 -25v-27c-121 -10 -140 -13 -200 -28l65 209h-1c-79 -159 -117 -209 -171 -209c-34 0 -57 26 -57 66c0 42 25 73 58 73c39 0 41 -38 61 -38c14 0 38 27 65 76c26 47 41 81 74 186z" />
    <glyph glyph-name="uni027A" unicode="&#x27a;" horiz-adv-x="493" 
d="M476 699l-139 -489c-9 -32 -44 -151 -44 -158c0 -19 27 -25 71 -25v-27h-200l65 209h-1c-79 -159 -117 -209 -171 -209c-34 0 -57 26 -57 66c0 42 25 73 58 73c39 0 41 -38 61 -38c14 0 38 27 65 76c26 47 44 80 74 186l56 196c9 30 10 43 10 54c0 20 -9 30 -36 30
c-5 0 -11 0 -22 -1v28c75 7 124 13 210 29z" />
    <glyph glyph-name="uni027B" unicode="&#x27b;" horiz-adv-x="436" 
d="M409 462l-162 -569c-2 -6 -4 -22 -4 -28c0 -38 19 -67 43 -67c19 0 33 7 33 16c0 18 -23 33 -23 60c0 30 26 54 59 54c37 0 62 -25 62 -61c0 -59 -58 -100 -140 -100c-92 0 -140 51 -140 129c0 10 2 22 5 33l87 280h-1c-79 -159 -117 -209 -171 -209c-34 0 -57 26 -57 66
c0 42 25 73 58 73c39 0 41 -38 61 -38c14 0 38 27 65 76c26 47 41 81 74 186l31 99h120z" />
    <glyph glyph-name="uni027C" unicode="&#x27c;" horiz-adv-x="389" 
d="M160 253h1c79 159 117 209 171 209c34 0 57 -26 57 -66c0 -42 -25 -73 -58 -73c-39 0 -41 38 -61 38c-14 0 -38 -27 -65 -76c-26 -47 -41 -81 -74 -186l-103 -332h-115l134 468c18 62 34 135 34 147c0 19 -12 25 -56 25v27c121 10 140 13 200 28z" />
    <glyph glyph-name="uni027D" unicode="&#x27d;" horiz-adv-x="389" 
d="M160 253h1c79 159 117 209 171 209c34 0 57 -26 57 -66c0 -42 -25 -73 -58 -73c-39 0 -41 38 -61 38c-14 0 -38 -28 -65 -76c-25 -44 -34 -59 -101 -271c-42 -132 -45 -149 -45 -155c0 -33 18 -61 43 -61c19 0 32 7 32 17c0 15 -23 34 -23 59c0 30 26 54 59 54
c37 0 62 -25 62 -61c0 -59 -58 -100 -140 -100c-91 0 -139 49 -139 126c0 11 2 21 5 33l91 316c16 55 32 130 32 140c0 19 -12 25 -56 25v27c121 10 140 13 200 28z" />
    <glyph glyph-name="uni027E" unicode="&#x27e;" horiz-adv-x="360" 
d="M-21 0l76 267c22 77 39 127 81 166c36 33 84 51 139 51c85 0 142 -41 142 -100c0 -37 -24 -64 -61 -64c-34 0 -60 26 -60 57c0 35 22 43 22 57c0 12 -11 19 -29 19c-34 0 -56 -25 -72 -75l-118 -378h-120z" />
    <glyph glyph-name="uni027F" unicode="&#x27f;" horiz-adv-x="338" 
d="M63 0l110 380c4 13 5 24 5 33c0 28 -14 40 -40 40c-18 0 -29 -7 -29 -19c0 -14 22 -22 22 -57c0 -31 -26 -57 -60 -57c-37 0 -61 27 -61 64c0 59 57 100 142 100c64 0 112 -18 130 -51c7 -13 10 -28 10 -44c0 -34 -10 -77 -26 -127l-82 -262h-121z" />
    <glyph glyph-name="uni0280" unicode="&#x280;" horiz-adv-x="498" 
d="M123 464h215c117 0 177 -24 177 -95c0 -80 -69 -126 -144 -143l85 -194c4 -9 12 -15 26 -15v-17h-146l-84 215h-19l-36 -134c-5 -17 -7 -27 -7 -36c0 -19 13 -23 50 -28v-17h-232v17c54 6 62 11 77 66l79 295c5 17 7 28 7 38c0 22 -14 29 -48 31v17zM239 238h21
c89 0 137 58 137 148c0 39 -20 55 -68 55c-27 0 -38 -8 -44 -31z" />
    <glyph glyph-name="uni0281" unicode="&#x281;" horiz-adv-x="498" 
d="M597 464v-17c-12 0 -26 -6 -34 -15l-189 -194c52 -14 84 -39 84 -88c0 -104 -101 -150 -244 -150h-206v17c50 3 64 15 78 69l79 295c5 17 7 29 7 38c0 20 -14 24 -49 28v17h232v-17c-56 -7 -63 -13 -77 -64l-36 -134h19l199 215h137zM236 226l-47 -172
c-1 -5 -2 -9 -2 -13c0 -13 9 -18 30 -18c74 0 123 60 123 146c0 45 -34 56 -104 57z" />
    <glyph glyph-name="uni0282" unicode="&#x282;" horiz-adv-x="389" 
d="M333 461l-23 -154l-27 2c-16 83 -42 120 -88 120c-32 0 -53 -21 -53 -53c0 -23 18 -54 57 -99c60 -70 80 -114 80 -162c0 -75 -66 -128 -148 -128c-21 0 -42 3 -64 12c-13 5 -24 8 -31 8c-17 0 -28 -14 -29 -25l-9 -84c-1 -6 -1 -11 -1 -16c0 -48 25 -69 73 -69
c36 0 39 12 39 17c0 17 -23 32 -23 59c0 30 26 54 59 54c37 0 62 -25 62 -61c0 -59 -58 -100 -141 -100c-64 0 -98 26 -98 91c0 9 0 18 2 30l33 250l27 -3c11 -88 42 -133 93 -133c40 0 60 22 60 54c0 30 -16 59 -56 104c-68 77 -80 107 -80 161c0 80 53 126 134 126
c20 0 41 -4 58 -12s27 -10 37 -10c15 0 19 4 28 21h29z" />
    <glyph glyph-name="uni0283" unicode="&#x283;" horiz-adv-x="424" 
d="M106 -53l116 466c33 132 95 270 252 270c70 0 110 -31 110 -78c0 -34 -22 -61 -54 -61c-31 0 -53 22 -53 47c0 24 18 39 18 48c0 7 -10 14 -23 14c-55 0 -77 -93 -92 -151l-114 -454c-35 -141 -95 -281 -260 -281c-67 0 -110 30 -110 78c0 34 22 61 54 61
c31 0 53 -22 53 -47c0 -24 -18 -39 -18 -48c0 -8 12 -14 26 -14c59 0 78 82 95 150z" />
    <glyph glyph-name="uni0284" unicode="&#x284;" horiz-adv-x="394" 
d="M113 46l110 437c16 64 38 114 76 149c36 33 85 51 135 51c85 0 142 -41 142 -100c0 -37 -24 -64 -61 -64c-34 0 -60 26 -60 57c0 35 22 43 22 57c0 12 -11 19 -29 19c-32 0 -64 -16 -76 -60l-143 -546h68l-12 -46h-68c-42 -147 -106 -207 -202 -207
c-63 0 -105 33 -105 77c0 29 22 53 49 53c29 0 49 -19 49 -49c0 -21 -15 -21 -15 -35c0 -10 12 -15 24 -15c28 0 49 36 74 136l10 40h-62l12 46h62z" />
    <glyph glyph-name="uni0285" unicode="&#x285;" horiz-adv-x="415" 
d="M324 280l-103 -386c-4 -16 -11 -39 -11 -59c0 -21 0 -38 23 -38c12 0 22 8 22 14c0 9 -18 24 -18 48c0 25 22 47 53 47c32 0 54 -27 54 -61c0 -48 -41 -78 -111 -78c-92 0 -136 51 -136 126c0 20 3 41 9 64l107 397c4 15 8 34 8 50c0 20 -7 36 -29 36
c-14 0 -24 -7 -24 -14c0 -9 18 -24 18 -48c0 -25 -22 -47 -53 -47c-32 0 -54 27 -54 61c0 48 41 78 111 78c91 0 143 -50 143 -125c0 -20 -3 -42 -9 -65z" />
    <glyph glyph-name="uni0286" unicode="&#x286;" horiz-adv-x="521" 
d="M181 21l97 388c33 134 95 274 253 274c68 0 110 -30 110 -78c0 -35 -23 -61 -54 -61s-53 21 -53 47c0 24 18 39 18 48c0 7 -10 14 -22 14c-56 0 -78 -90 -92 -147l-108 -430c-11 -44 -24 -91 -34 -115c11 -22 18 -71 18 -105c0 -42 -3 -59 -17 -99h-42c12 32 19 54 19 82
c0 21 -4 36 -7 54c-43 -76 -107 -126 -211 -126c-69 0 -96 46 -96 91c0 102 79 167 189 167c4 0 20 -2 32 -4zM171 -19c-11 3 -31 4 -39 4c-76 0 -132 -57 -132 -119c0 -26 13 -59 65 -59c44 0 71 47 82 81c9 28 17 64 24 93z" />
    <glyph glyph-name="uni0287" unicode="&#x287;" horiz-adv-x="310" 
d="M85 363l-23 15c66 103 110 135 170 135c42 0 67 -21 67 -65c0 -18 -10 -63 -25 -115l-67 -236h52v-35c-82 -28 -130 -67 -184 -152h-35l39 145h-72v42h83l34 119c35 122 53 185 53 209c0 13 -8 18 -16 18c-16 0 -42 -27 -76 -80z" />
    <glyph glyph-name="uni0288" unicode="&#x288;" horiz-adv-x="311" 
d="M281 407h-83l-146 -512c-2 -7 -3 -21 -3 -28c0 -37 15 -69 40 -69c19 0 33 7 33 17c0 15 -23 34 -23 59c0 30 26 54 59 54c37 0 62 -25 62 -61c0 -59 -58 -100 -140 -100c-92 0 -140 46 -140 124c0 10 1 24 4 35l137 481h-52v35c82 28 130 67 184 152h35l-39 -145h72v-42
z" />
    <glyph glyph-name="uni0289" unicode="&#x289;" horiz-adv-x="556" 
d="M514 269l-13 -46h-80l-11 -40c-13 -46 -25 -91 -25 -103c0 -10 3 -21 14 -21c17 0 37 20 72 74l22 -13c-52 -89 -99 -129 -159 -129c-44 0 -68 19 -68 60c0 29 8 55 26 110h-1c-94 -138 -133 -170 -198 -170c-50 0 -78 26 -78 79c0 25 8 56 22 106l13 47h-66l15 46h65
l10 35c8 29 17 59 17 75c0 15 -12 25 -58 28v27c51 1 149 15 210 28l-60 -193h131c17 44 34 100 56 180h118l-53 -180h79zM294 223h-125l-19 -63c-14 -45 -16 -57 -16 -72c0 -17 10 -25 24 -25c18 0 40 16 70 55c26 34 46 64 66 105z" />
    <glyph glyph-name="uni028A" unicode="&#x28a;" 
d="M552 428h-75c-22 0 -32 -24 -32 -45c0 -30 52 -69 52 -140c0 -145 -161 -251 -299 -251c-116 0 -183 69 -183 166c0 102 96 182 128 207c11 9 25 24 25 38c0 13 -6 25 -17 25h-73v24h192c-69 -145 -124 -209 -124 -348c0 -46 13 -88 58 -88c87 0 130 136 145 191
c17 61 24 120 24 192c0 17 0 34 -1 53h180v-24z" />
    <glyph glyph-name="uni028B" unicode="&#x28b;" horiz-adv-x="534" 
d="M243 462l-101 -328c-4 -13 -4 -27 -4 -32c0 -38 39 -62 77 -62c114 0 213 147 213 250c0 44 -24 47 -42 70c-14 17 -19 31 -19 48c0 25 23 54 57 54c53 0 68 -56 68 -112c0 -166 -127 -360 -314 -360c-97 0 -160 30 -160 104c0 9 6 35 10 50l57 199c1 5 6 22 6 33
c0 12 -5 21 -20 25c-19 5 -21 5 -38 6v27c31 0 122 10 210 28z" />
    <glyph glyph-name="uni028C" unicode="&#x28c;" horiz-adv-x="444" 
d="M401 41v-27c-82 -11 -107 -15 -156 -27c-21 67 -31 146 -31 334c-99 -113 -126 -154 -126 -189c0 -11 5 -19 20 -36c18 -20 25 -36 25 -53c0 -31 -27 -56 -57 -56c-38 0 -61 32 -61 67c0 42 20 96 60 154c55 80 103 133 230 254h26c-5 -91 -5 -173 -5 -177
c0 -108 9 -193 25 -225c7 -13 19 -19 50 -19z" />
    <glyph glyph-name="uni028D" unicode="&#x28d;" horiz-adv-x="667" 
d="M614 42v-27c-80 -13 -115 -19 -156 -28c-23 86 -33 154 -33 274l-156 -274h-27l-31 333c-88 -103 -120 -157 -120 -187c0 -10 6 -22 20 -38c17 -19 22 -33 22 -48c0 -40 -27 -60 -57 -60c-33 0 -61 29 -61 62c0 84 89 223 272 413h27l23 -285c34 63 70 135 114 201l56 84
h27v-46c0 -13 -1 -32 -1 -62c0 -121 18 -284 38 -302c8 -7 18 -10 43 -10z" />
    <glyph glyph-name="uni028E" unicode="&#x28e;" horiz-adv-x="444" 
d="M169 352h-2c-70 -134 -87 -176 -87 -207c0 -13 7 -19 25 -34c22 -18 31 -29 31 -54s-21 -57 -58 -57c-33 0 -62 30 -62 64c0 101 119 338 249 497c55 67 120 106 175 106c35 0 62 -26 62 -60c0 -29 -24 -56 -50 -56c-47 0 -58 36 -94 36c-17 0 -46 -22 -67 -52
c-17 -24 -25 -48 -25 -71c0 -31 16 -126 50 -288c13 -59 24 -97 40 -113c11 -11 15 -12 40 -12v-27c-65 -6 -102 -12 -150 -24c-18 47 -48 149 -66 274z" />
    <glyph glyph-name="uni028F" unicode="&#x28f;" horiz-adv-x="633" 
d="M606 464v-17c-28 -4 -45 -12 -60 -27l-209 -214l-32 -122c-4 -15 -7 -26 -7 -35c0 -23 16 -28 61 -32v-17h-274v17c67 5 79 19 92 71l24 93l-81 225c-8 23 -29 39 -55 41v17h265v-17l-23 -2c-31 -3 -48 -4 -48 -24c0 -8 5 -23 9 -36l53 -159l118 122c30 32 53 58 53 78
c0 14 -14 18 -60 21v17h174z" />
    <glyph glyph-name="uni0290" unicode="&#x290;" horiz-adv-x="440" 
d="M343 156l-97 -275c-3 -9 -7 -28 -7 -34c0 -25 10 -34 31 -34c29 0 37 8 37 17c0 15 -23 34 -23 59c0 30 26 54 59 54c37 0 62 -25 62 -61c0 -59 -55 -100 -136 -100c-36 0 -68 21 -68 59c0 13 4 33 10 50l40 109h-275v22l273 331h-136c-37 0 -58 -14 -73 -61l-27 3
l44 154h311v-10l-287 -343h174c26 0 46 33 60 60h28z" />
    <glyph glyph-name="uni0291" unicode="&#x291;" horiz-adv-x="411" 
d="M80 96h95c32 50 70 84 114 84c65 0 87 -34 87 -75c0 -58 -47 -105 -143 -105h-71l-55 -97h-42l55 97h-144v22l273 331h-136c-37 0 -58 -14 -73 -61l-27 3l44 154h311v-10zM219 96h57c46 0 57 9 57 25c0 17 -22 26 -39 26c-19 0 -43 -8 -75 -51z" />
    <glyph glyph-name="uni0292" unicode="&#x292;" horiz-adv-x="499" 
d="M558 423l-246 -197c11 3 38 6 54 6c59 0 112 -50 112 -137c0 -199 -170 -331 -301 -331c-55 0 -117 16 -143 35c-35 25 -44 45 -44 69s16 50 59 50c37 0 60 -22 67 -67c5 -31 38 -50 69 -50c92 0 166 200 166 292c0 42 -16 75 -56 75c-21 0 -65 -2 -122 -47l-20 24
l290 232h-204c-23 0 -74 -30 -95 -83h-26l76 156h364v-27z" />
    <glyph glyph-name="uni0293" unicode="&#x293;" horiz-adv-x="499" 
d="M528 423l-246 -197c12 3 36 6 52 6c52 0 114 -38 114 -142c0 -115 -70 -252 -219 -311l22 -86h-48l-18 75c-20 -4 -36 -4 -53 -4c-96 0 -142 35 -142 94s51 94 122 94c46 0 80 -20 103 -122c57 46 106 194 106 255c0 44 -12 83 -56 83c-21 0 -64 -2 -122 -47l-20 24
l290 232h-204c-23 0 -74 -30 -95 -83h-26l76 156h364v-27zM177 -195c-13 52 -29 110 -59 110c-26 0 -41 -22 -41 -50c0 -37 35 -64 79 -64c4 0 17 2 21 4z" />
    <glyph glyph-name="uni0294" unicode="&#x294;" horiz-adv-x="530" 
d="M193 380h31c100 0 167 107 167 214c0 34 -7 62 -35 62c-36 0 -64 -33 -71 -62c-11 -43 -35 -63 -72 -63s-53 29 -53 48c0 34 22 60 55 79s89 27 123 27c104 0 182 -59 182 -146c0 -134 -99 -257 -248 -257l-44 -161c-4 -14 -12 -43 -12 -55c0 -22 13 -41 49 -42v-24h-240
v24c23 2 46 10 61 22c17 13 21 20 31 56z" />
    <glyph glyph-name="uni0295" unicode="&#x295;" horiz-adv-x="530" 
d="M152 84l54 198c-86 9 -127 77 -127 151c0 145 131 252 274 252c35 0 80 -13 106 -30c27 -17 50 -42 50 -76c0 -19 -16 -48 -53 -48c-35 0 -60 19 -71 60c-9 33 -17 65 -54 65c-59 0 -123 -133 -123 -186c0 -58 51 -90 100 -90h32l-81 -293c-2 -8 -3 -15 -3 -21
c0 -30 22 -41 49 -42v-24h-240v24c34 3 75 17 87 60z" />
    <glyph glyph-name="uni0296" unicode="&#x296;" horiz-adv-x="487" 
d="M453 669v-24c-34 -3 -75 -18 -86 -60l-52 -196c87 -9 137 -78 137 -152c0 -147 -127 -251 -269 -251c-75 0 -158 30 -158 87c0 35 16 67 62 67s55 -33 61 -65c6 -31 27 -60 62 -60c60 0 113 102 113 187c0 58 -62 89 -110 89h-32l78 291c2 8 3 15 3 21
c0 30 -22 41 -49 42v24h240z" />
    <glyph glyph-name="uni0297" unicode="&#x297;" horiz-adv-x="479" 
d="M24 -82l104 385c28 104 162 159 251 159c74 0 165 -48 165 -119c0 -21 -16 -62 -63 -62c-29 0 -57 16 -57 41c0 31 12 31 12 56c0 35 -18 46 -51 46c-52 0 -104 -41 -118 -93l-109 -405c-4 -13 -6 -26 -6 -38c0 -42 23 -75 64 -75c62 0 127 54 144 118l7 26h43l-11 -40
c-23 -83 -113 -154 -224 -154c-83 0 -155 50 -155 123c0 10 1 21 4 32z" />
    <glyph glyph-name="uni0298" unicode="&#x298;" horiz-adv-x="723" 
d="M438 328c0 -44 -33 -78 -77 -78c-45 0 -81 34 -81 78c0 45 34 80 80 80c43 0 78 -35 78 -80zM734 429c0 -235 -219 -446 -452 -446c-152 0 -269 96 -269 252c0 246 236 445 458 445c163 0 263 -104 263 -251zM606 464c0 107 -43 177 -151 177c-166 0 -314 -218 -314 -443
c0 -104 40 -172 152 -172c168 0 313 235 313 438z" />
    <glyph glyph-name="uni0299" unicode="&#x299;" horiz-adv-x="493" 
d="M105 464h229c98 0 152 -29 152 -83c0 -71 -50 -110 -145 -131c65 -9 111 -43 111 -94c0 -91 -89 -156 -234 -156h-228v17c53 6 66 15 76 54l86 320c3 10 4 18 4 25c0 21 -14 28 -51 31v17zM229 257h14c90 0 127 55 127 134c0 33 -16 50 -52 50c-27 0 -42 -8 -49 -35z
M223 234l-45 -167c-2 -9 -3 -14 -3 -19c0 -18 12 -25 36 -25c63 0 119 66 119 145c0 44 -28 66 -88 66h-19z" />
    <glyph glyph-name="uni029A" unicode="&#x29a;" horiz-adv-x="465" 
d="M504 307c0 -211 -187 -321 -304 -321c-100 0 -184 28 -184 106c0 76 73 137 156 158c-41 21 -66 43 -66 80c0 109 113 145 222 145c97 0 176 -60 176 -168zM317 227h-53c-55 0 -108 -61 -108 -129c0 -39 27 -63 70 -63c88 0 208 130 208 268c0 81 -48 135 -115 135
c-50 0 -93 -39 -93 -105c0 -41 44 -69 73 -69h18v-37z" />
    <glyph glyph-name="uni029B" unicode="&#x29b;" horiz-adv-x="580" 
d="M467 109l-21 -79c-53 -26 -135 -41 -211 -41c-125 0 -206 63 -206 171c0 160 161 302 326 302c43 0 76 -9 118 -28c10 30 24 52 44 73c26 20 58 31 81 31c54 0 92 -25 92 -65c0 -24 -17 -41 -41 -41c-22 0 -39 16 -39 36c0 22 15 31 15 39s-7 11 -19 11
c-20 0 -39 -10 -48 -41l-48 -172h-18c-12 51 -19 71 -42 98s-54 37 -91 37c-108 0 -203 -164 -203 -314c0 -68 22 -116 104 -116c50 0 73 22 83 57l12 43c2 8 6 32 6 35c0 23 -14 29 -63 32v16h251v-16c-58 -6 -71 -26 -82 -68z" />
    <glyph glyph-name="uni029C" unicode="&#x29c;" horiz-adv-x="582" 
d="M676 464v-17c-51 -4 -69 -14 -79 -51l-88 -329c-2 -8 -3 -14 -3 -20c0 -19 15 -25 55 -30v-17h-248v17c54 6 69 15 78 50l42 157h-177l-42 -157c-2 -8 -3 -15 -3 -20c0 -20 15 -25 56 -30v-17h-246v17c52 6 65 14 75 50l88 329c2 9 4 16 4 22c0 20 -15 26 -52 29v17h246
v-17c-52 -4 -70 -13 -80 -51l-37 -140h177l37 140c2 8 3 15 3 21c0 21 -15 27 -54 30v17h248z" />
    <glyph glyph-name="uni029D" unicode="&#x29d;" horiz-adv-x="475" 
d="M463 617c0 -37 -31 -67 -69 -67c-37 0 -66 30 -66 69c0 35 31 66 66 66c38 0 69 -31 69 -68zM423 462l-116 -444c-9 -34 -20 -66 -29 -87c47 -44 69 -107 96 -164h-48c-14 36 -34 87 -70 120c-55 -88 -111 -120 -192 -120c-70 0 -114 43 -114 98c0 91 95 139 165 139
c20 0 52 -4 69 -13l81 319c8 30 12 54 12 67c0 21 -12 30 -41 30h-22v27c112 10 149 15 209 28zM163 -87l10 35c-25 15 -58 16 -75 16c-45 0 -108 -38 -108 -98c0 -41 40 -59 76 -59c57 0 81 50 97 106z" />
    <glyph glyph-name="uni029E" unicode="&#x29e;" 
d="M528 449l-157 -566c-7 -24 -7 -32 -7 -42c0 -28 10 -34 30 -34h34v-27c-77 -4 -132 -13 -209 -30l124 461c-126 -99 -165 -137 -165 -163c0 -16 11 -21 50 -23v-25h-206v25c46 6 67 14 135 76l64 58c-39 195 -57 227 -79 227c-19 0 -37 -16 -64 -64l-22 11
c45 95 88 124 138 124c62 0 90 -48 123 -223l39 27l50 188h122z" />
    <glyph glyph-name="uni029F" unicode="&#x29f;" horiz-adv-x="485" 
d="M468 156l-66 -156h-392v17c49 6 62 24 68 50l81 328c2 10 4 18 4 24c0 20 -13 26 -46 28v17h238v-17c-57 -2 -67 -11 -81 -67l-76 -303c-2 -7 -4 -20 -4 -23c0 -23 22 -31 60 -31c53 0 82 12 112 36c26 21 52 54 80 97h22z" />
    <glyph glyph-name="uni02A0" unicode="&#x2a0;" horiz-adv-x="488" 
d="M347 390l24 93c19 73 82 99 161 99c85 0 142 -41 142 -100c0 -37 -24 -64 -61 -64c-34 0 -60 26 -60 57c0 35 22 43 22 57c0 12 -11 19 -29 19c-33 0 -51 -18 -64 -63l-140 -500c-20 -73 -36 -127 -36 -138c0 -20 17 -28 49 -28h17v-27h-268v27c61 0 75 13 92 69l61 207
c-44 -82 -94 -111 -154 -111c-65 0 -102 48 -102 130c0 55 19 117 54 178c59 103 142 167 218 167c23 0 47 -9 57 -22c9 -11 12 -22 17 -50zM325 371c0 28 -12 48 -35 48c-39 0 -86 -65 -111 -115c-32 -66 -53 -140 -53 -188c0 -38 13 -57 39 -57c31 0 59 24 88 74
c35 62 72 180 72 238z" />
    <glyph glyph-name="uni02A1" unicode="&#x2a1;" horiz-adv-x="530" 
d="M193 380h31c100 0 167 107 167 214c0 34 -7 62 -35 62c-36 0 -64 -33 -71 -62c-11 -43 -35 -63 -72 -63s-53 29 -53 48c0 34 22 60 55 79s89 27 123 27c104 0 182 -59 182 -146c0 -134 -99 -257 -248 -257l-21 -74h66l-12 -46h-66l-11 -41c-4 -15 -12 -43 -12 -55
c0 -22 13 -41 49 -42v-24h-240v24c23 2 46 10 61 22c17 13 21 20 31 56l16 60h-66l12 46h66z" />
    <glyph glyph-name="uni02A2" unicode="&#x2a2;" horiz-adv-x="530" 
d="M184 208l21 74c-86 9 -128 77 -128 151c0 146 132 252 274 252c28 0 70 -9 101 -27c34 -20 55 -47 55 -79c0 -19 -16 -48 -53 -48c-46 0 -63 31 -71 60c-10 37 -19 65 -54 65c-59 0 -123 -133 -123 -186c0 -58 51 -90 100 -90h32l-47 -172h66l-12 -46h-66l-21 -75
c-2 -8 -3 -15 -3 -21c0 -30 23 -41 50 -42v-24h-240v24c34 3 74 17 86 60l21 78h-65l12 46h65z" />
    <glyph glyph-name="uni02A3" unicode="&#x2a3;" horiz-adv-x="750" 
d="M735 439l-288 -343h175c26 0 46 33 60 60h28l-55 -156h-297c-23 -5 -43 -11 -58 -11c-38 0 -60 23 -60 61c0 16 2 29 11 68c-52 -94 -105 -131 -166 -131s-106 42 -106 125c0 99 58 212 131 282c43 42 93 68 138 68c29 0 53 -8 75 -33l18 64c25 88 29 113 29 122
c0 18 -15 28 -41 28h-21v27c100 8 149 15 209 29l-69 -250h287v-10zM616 353h-136c-37 0 -58 -14 -73 -61h-2l-42 -154c-10 -38 -14 -58 -14 -63c0 -6 5 -15 11 -15c9 0 24 12 35 25zM308 371c0 28 -15 49 -37 49c-43 1 -85 -54 -114 -112c-33 -66 -54 -144 -54 -186
c0 -36 16 -64 41 -64c29 0 59 26 86 75c36 64 78 194 78 238z" />
    <glyph glyph-name="uni02A4" unicode="&#x2a4;" horiz-adv-x="820" 
d="M813 423l-209 -191h17c59 0 112 -50 112 -137c0 -199 -170 -331 -301 -331c-55 0 -117 16 -143 35c-35 25 -44 45 -44 69s16 50 59 50c37 0 60 -22 67 -67c5 -31 38 -50 69 -50c92 0 166 200 166 292c0 42 -16 75 -56 75c-10 0 -22 -3 -43 -23l-102 -98
c-47 -45 -74 -58 -105 -58c-38 0 -60 23 -60 61c0 16 2 29 11 68c-52 -94 -105 -131 -166 -131s-106 42 -106 125c0 99 58 212 131 282c43 42 93 68 138 68c29 0 53 -8 75 -33l18 64c25 88 29 113 29 122c0 18 -15 28 -41 28h-21v27c100 8 149 15 209 29l-68 -249h364v-27z
M704 377h-211c-18 0 -72 -28 -84 -71l-50 -183c-3 -11 -8 -34 -8 -38c0 -10 3 -19 11 -19c10 0 46 38 59 50zM308 371c0 28 -15 49 -37 49c-43 1 -85 -54 -114 -112c-33 -66 -54 -144 -54 -186c0 -36 16 -64 41 -64c29 0 59 26 86 75c36 64 78 194 78 238z" />
    <glyph glyph-name="uni02A5" unicode="&#x2a5;" horiz-adv-x="817" 
d="M448 96h94c32 50 70 84 114 84c65 0 87 -34 87 -75c0 -58 -47 -105 -143 -105h-71l-55 -97h-42l55 97h-124c-28 -7 -44 -11 -63 -11c-38 0 -60 23 -60 61c0 16 2 29 11 68c-52 -94 -105 -131 -166 -131s-106 42 -106 125c0 99 58 212 131 282c43 42 93 68 138 68
c29 0 53 -8 75 -33l18 64c25 88 29 113 29 122c0 18 -15 28 -41 28h-21v27c100 8 149 15 209 29l-69 -250h287v-10zM586 96h57c46 0 57 9 57 25c0 17 -22 26 -39 26c-19 0 -43 -8 -75 -51zM616 353h-136c-37 0 -58 -14 -73 -61h-2l-42 -154c-10 -38 -14 -58 -14 -63
c0 -6 5 -15 11 -15c12 0 30 19 39 30zM308 371c0 28 -15 49 -37 49c-43 1 -85 -54 -114 -112c-33 -66 -54 -144 -54 -186c0 -36 16 -64 41 -64c29 0 59 26 86 75c36 64 78 194 78 238z" />
    <glyph glyph-name="uni02A6" unicode="&#x2a6;" horiz-adv-x="560" 
d="M524 461l-23 -154l-27 2c-16 83 -42 120 -88 120c-32 0 -53 -21 -53 -53c0 -23 18 -54 57 -99c60 -70 80 -114 80 -162c0 -75 -66 -128 -148 -128c-21 0 -42 3 -64 12c-22 8 -55 35 -73 59c-42 -50 -77 -67 -121 -67c-42 0 -67 21 -67 65c0 18 10 63 25 115l67 236h-52
v35c82 28 130 67 184 152h35l-39 -145h88c19 8 41 13 67 13c20 0 41 -4 58 -12s27 -10 37 -10c15 0 19 4 28 21h29zM211 141l23 -15c-3 -5 -5 -8 -7 -11c15 -68 44 -98 87 -98c40 0 60 22 60 54c0 30 -16 59 -56 104c-68 77 -80 107 -80 161c0 28 6 52 18 71h-50l-34 -119
c-35 -122 -53 -185 -53 -209c0 -13 8 -18 16 -18c16 0 42 27 76 80z" />
    <glyph glyph-name="uni02A7" unicode="&#x2a7;" horiz-adv-x="453" 
d="M190 449h128c35 120 99 234 242 234c70 0 110 -31 110 -78c0 -34 -22 -61 -54 -61c-31 0 -53 22 -53 47c0 24 18 39 18 48c0 7 -10 14 -23 14c-55 0 -77 -93 -92 -151l-114 -454c-35 -141 -95 -281 -260 -281c-67 0 -110 30 -110 78c0 34 22 61 54 61c31 0 53 -22 53 -47
c0 -24 -18 -39 -18 -48c0 -8 12 -14 26 -14c59 0 78 82 95 150l41 166c-61 -59 -124 -122 -196 -122c-42 0 -67 21 -67 65c0 18 10 63 25 115l67 236h-52v35c82 28 130 67 184 152h35zM306 407h-127l-34 -119c-35 -122 -53 -185 -53 -209c0 -13 8 -18 16 -18
c18 0 78 42 143 128z" />
    <glyph glyph-name="uni02A8" unicode="&#x2a8;" horiz-adv-x="600" 
d="M335 144v-19c76 29 144 49 205 49c50 0 78 -34 78 -71c0 -51 -36 -84 -70 -100c-42 -20 -67 -21 -115 -21c-62 0 -148 2 -201 63c-41 -21 -127 -54 -168 -54c-42 0 -67 21 -67 65c0 18 10 63 25 115l67 236h-52v35c82 28 130 67 184 152h35l-39 -145h72v-42h-83l-34 -119
c-35 -122 -53 -185 -53 -209c0 -13 8 -18 16 -18c21 0 51 9 81 18c-6 17 -9 42 -9 59c0 92 43 177 105 239c51 52 113 85 180 85c60 0 112 -37 112 -90c0 -42 -25 -71 -62 -71c-34 0 -58 23 -58 53s21 36 21 58c0 10 -12 17 -24 17c-38 0 -65 -37 -93 -88
c-32 -60 -53 -132 -53 -197zM573 99c0 27 -28 30 -47 30c-34 0 -92 -9 -179 -43c20 -41 85 -59 139 -59c59 0 87 39 87 72z" />
    <glyph glyph-name="uni02B0" unicode="&#x2b0;" horiz-adv-x="380" 
d="M349 440l16 -11c-46 -76 -74 -101 -117 -101c-27 0 -47 18 -47 48c0 10 0 19 4 31l56 179c3 11 4 18 4 22c0 12 -6 16 -14 16c-19 0 -46 -23 -76 -70c-34 -53 -48 -89 -83 -219h-85l106 414c4 15 7 30 7 37c0 17 -9 24 -29 24h-15v20c56 5 92 11 146 22l-76 -308
c70 105 102 133 150 133c34 0 53 -21 53 -56c0 -7 -1 -19 -6 -36l-56 -185c-2 -6 -2 -7 -2 -9c0 -9 6 -12 12 -12c9 0 22 15 52 61z" />
    <glyph glyph-name="uni02B1" unicode="&#x2b1;" horiz-adv-x="380" 
d="M349 441l16 -11c-46 -76 -74 -101 -117 -101c-27 0 -47 18 -47 48c0 9 2 23 5 34l55 176c3 11 4 18 4 22c0 12 -6 16 -14 16c-19 0 -46 -23 -76 -70c-34 -53 -48 -90 -83 -219h-85l105 411c16 63 55 94 127 94c60 0 100 -30 100 -74c0 -27 -17 -47 -43 -47
c-24 0 -42 19 -42 42c0 26 16 32 16 42c0 9 -8 14 -21 14c-24 0 -39 -14 -48 -51l-55 -222c70 105 102 133 150 133c34 0 53 -21 53 -56c0 -11 -2 -23 -5 -34l-57 -187c-2 -6 -2 -7 -2 -10c0 -8 6 -11 12 -11c9 0 22 15 52 61z" />
    <glyph glyph-name="uni02B2" unicode="&#x2b2;" horiz-adv-x="350" 
d="M384 810c0 -29 -24 -52 -53 -52c-28 0 -51 23 -51 53c0 27 24 51 51 51c29 0 53 -24 53 -52zM353 690l-89 -341c-32 -123 -82 -173 -159 -173c-49 0 -81 25 -81 59c0 22 17 41 38 41c22 0 37 -15 37 -38c0 -16 -11 -16 -11 -27c0 -8 9 -11 18 -11c22 0 37 27 57 104
l69 269c6 23 9 42 9 52c0 16 -9 23 -32 23h-16v21c86 7 114 11 160 21z" />
    <glyph glyph-name="uni02B3" unicode="&#x2b3;" horiz-adv-x="389" 
d="M181 533h1c70 120 103 157 151 157c30 0 51 -19 51 -49c0 -32 -22 -55 -52 -55c-34 0 -36 28 -54 28c-12 0 -33 -20 -57 -57c-23 -35 -37 -60 -66 -139l-27 -74h-107c63 180 90 267 90 286c0 14 -11 19 -50 19v20c108 8 124 10 178 21z" />
    <glyph glyph-name="uni02B4" unicode="&#x2b4;" horiz-adv-x="389" 
d="M258 690h107c-63 -180 -90 -267 -90 -286c0 -14 11 -19 50 -19v-20c-108 -8 -124 -10 -178 -21l58 157h-1c-70 -120 -103 -157 -151 -157c-30 0 -51 19 -51 49c0 32 22 55 52 55c34 0 36 -28 54 -28c12 0 33 20 57 57c23 35 37 60 66 139z" />
    <glyph glyph-name="uni02B5" unicode="&#x2b5;" horiz-adv-x="389" 
d="M364 690l-143 -425c-2 -4 -4 -16 -4 -21c0 -28 17 -50 38 -50c17 0 30 1 30 9c0 16 -21 15 -21 44c0 27 23 44 52 44c33 0 55 -24 55 -51c0 -44 -51 -69 -124 -69c-81 0 -123 38 -123 96c0 8 1 17 4 25l77 209h-1c-70 -119 -104 -156 -151 -156c-30 0 -51 19 -51 49
c0 32 22 55 52 55c34 0 36 -29 54 -29c12 0 33 21 57 57c23 35 37 60 66 139l27 74h106z" />
    </font>
</defs>
</svg>
