<?xml version="1.0" standalone="no"?>
<!DOCTYPE svg PUBLIC "-//W3C//DTD SVG 1.1//EN" "http://www.w3.org/Graphics/SVG/1.1/DTD/svg11.dtd" >
<svg xmlns="http://www.w3.org/2000/svg" xmlns:xlink="http://www.w3.org/1999/xlink" version="1.1">
<metadata>
Created by FontForge 20201107 at Mon Aug 15 08:59:30 2011
 By Jimmy Wärting
Copyright (c) 2001-2011 by the STI Pub Companies, consisting of the American Chemical Society, the American Institute of Physics, the American Mathematical Society, the American Physical Society, Elsevier, Inc., and The Institute of Electrical and Electronic Engineers, Inc.  Portions copyright (c) 1998-2003 by MicroPress, Inc.  Portions copyright (c) 1990 by Elsevier, Inc.  All rights reserved.
</metadata>
<defs>
<font id="STIXGeneral-Italic" horiz-adv-x="500" >
  <font-face 
    font-family="STIXGeneral"
    font-weight="400"
    font-style="italic"
    font-stretch="normal"
    units-per-em="1000"
    panose-1="0 0 0 0 0 0 0 0 0 0"
    ascent="750"
    descent="-250"
    x-height="428"
    cap-height="653"
    bbox="-970 -305 1429 1023"
    underline-thickness="50"
    underline-position="-100"
    slope="-16.33"
    stemh="31"
    stemv="42"
    unicode-range="U+0020-1D71B"
  />
<missing-glyph horiz-adv-x="250" 
 />
    <glyph glyph-name="uni0132" unicode="IJ" horiz-adv-x="750" 
d="M783 653v-16c-57 -8 -65 -14 -82 -74l-103 -367c-21 -76 -45 -125 -71 -159c-29 -38 -73 -55 -124 -55c-70 0 -117 35 -117 88c0 32 18 56 45 56s51 -21 51 -46c0 -12 -3 -18 -3 -27c0 -28 11 -39 35 -39s42 24 53 64l127 454c8 29 12 49 12 64c0 27 -14 35 -77 41v16
h254zM384 653v-16c-56 -7 -65 -16 -82 -77l-120 -429c-9 -32 -15 -56 -15 -76c0 -28 12 -32 69 -39v-16h-244v16c55 10 69 19 84 75l120 441c7 25 13 46 13 62c0 25 -16 40 -72 43v16h247z" />
    <glyph glyph-name="uni0133" unicode="ij" 
d="M500 598c0 -27 -24 -50 -50 -50c-30 0 -54 21 -54 52c0 30 25 52 53 52c27 0 51 -26 51 -54zM264 599c0 -28 -23 -51 -49 -51c-29 0 -48 21 -48 53c0 31 20 53 47 53s50 -26 50 -55zM467 438l-104 -410c-41 -162 -100 -235 -187 -235c-46 0 -79 25 -79 61
c0 24 18 44 41 44c27 0 39 -16 39 -37c0 -22 -12 -19 -12 -34c0 -7 6 -12 18 -12c40 0 63 44 97 182l72 292c12 49 16 70 16 80c0 22 -12 31 -48 31h-26v16c32 2 85 10 169 25zM222 114l13 -11c-55 -84 -87 -114 -137 -114c-33 0 -49 18 -49 55c0 20 7 55 22 111l48 177
c5 18 9 36 9 44c0 20 -10 23 -64 24v16c39 3 59 6 160 25l4 -3l-94 -343c-5 -17 -10 -30 -10 -44c0 -10 6 -15 14 -15c17 0 41 21 84 78z" />
    <glyph glyph-name="ff" unicode="ff" horiz-adv-x="527" 
d="M211 428h172c22 71 39 126 72 173c30 43 70 77 131 77c49 0 87 -26 87 -62c0 -22 -19 -43 -42 -43c-18 0 -37 15 -37 39c0 17 10 22 10 31c0 8 -8 13 -22 13c-56 0 -93 -70 -122 -228h107l-6 -32h-108l-72 -320c-42 -185 -109 -283 -200 -283c-45 0 -79 26 -79 61
c0 23 17 42 38 42c23 0 38 -16 38 -37c0 -13 -9 -18 -9 -29c0 -9 8 -16 20 -16c42 0 74 54 97 162l88 420h-170l-72 -320c-42 -185 -109 -283 -200 -283c-45 0 -79 26 -79 61c0 23 17 42 38 42c23 0 38 -16 38 -37c0 -13 -9 -18 -9 -29c0 -9 8 -16 20 -16c42 0 74 54 97 162
l88 420h-91l7 32h93c22 71 39 126 72 173c30 43 71 77 132 77c49 0 86 -26 86 -62c0 -22 -19 -43 -42 -43c-18 0 -37 15 -37 39c0 17 10 22 10 31c0 8 -8 13 -22 13c-56 0 -93 -70 -122 -228z" />
    <glyph glyph-name="fi" unicode="fi" 
d="M51 428h88c35 118 50 153 105 202c35 32 84 51 134 51c61 0 103 -30 103 -68c0 -25 -17 -45 -42 -45s-41 18 -41 43c0 11 2 16 9 23c3 4 4 6 4 9c0 10 -13 16 -34 16c-35 0 -60 -8 -86 -42c-34 -44 -46 -78 -75 -189h150c27 0 54 2 81 6c10 1 14 2 18 2l5 -3v-3
c0 -5 -2 -14 -5 -25l-1 -4c-4 -17 -10 -35 -15 -53c-4 -17 -2 -8 -7 -26c-40 -146 -72 -267 -72 -275c0 -6 5 -10 11 -10c13 0 38 21 77 70l16 -9c-57 -77 -93 -106 -133 -106c-32 0 -46 21 -46 50c0 24 15 83 74 296c12 42 12 44 12 48c0 7 -5 10 -16 10h-155l-72 -318
c-29 -126 -68 -209 -117 -252c-26 -22 -53 -33 -84 -33c-45 0 -78 24 -78 60c0 23 16 44 37 44s39 -19 39 -40c0 -5 -1 -9 -5 -16c-3 -5 -4 -8 -4 -11c0 -10 5 -13 20 -13c25 0 44 14 61 47c17 32 32 77 58 224c35 197 61 293 67 308h-88z" />
    <glyph glyph-name="fl" unicode="fl" 
d="M46 428h92c34 104 48 149 107 200c39 33 88 54 138 54c18 0 40 -2 61 -7c14 -2 26 -4 31 -4c4 0 19 5 28 8c4 2 8 3 10 3c3 0 5 -4 5 -9c0 -8 -5 -28 -21 -88c-39 -150 -127 -521 -127 -538c0 -6 5 -11 11 -11c14 0 33 17 78 69l16 -9c-60 -81 -90 -105 -132 -105
c-29 0 -48 20 -48 50c0 27 15 85 47 217l33 138h-166l-69 -310c-43 -193 -115 -290 -205 -290c-46 0 -76 26 -76 62c0 23 16 42 36 42c22 0 40 -19 40 -39c0 -5 -1 -10 -5 -17c-3 -5 -4 -7 -4 -10c0 -9 6 -13 20 -13c20 0 34 7 47 24c9 12 15 23 18 31c26 70 50 193 91 388
l28 132h-90zM383 428l37 148c0 3 -2 9 -5 15c-3 7 -5 12 -5 17c0 6 2 13 8 21c3 4 4 7 4 9c0 12 -20 22 -43 22c-37 0 -67 -16 -93 -51c-25 -34 -46 -85 -64 -157l-6 -24h167z" />
    <glyph glyph-name="ffi" unicode="ffi" horiz-adv-x="744" 
d="M211 428h172c35 118 50 153 105 202c35 32 84 51 134 51c61 0 103 -30 103 -68c0 -25 -17 -45 -42 -45s-41 18 -41 43c0 11 2 16 9 23c3 4 4 6 4 9c0 10 -13 13 -34 13c-35 0 -60 -5 -86 -39c-34 -44 -46 -78 -75 -189h150c27 0 54 2 81 6c10 1 14 2 18 2l5 -3v-3
c0 -5 -2 -14 -5 -25l-1 -4c-4 -17 -10 -35 -15 -53c-4 -17 -2 -8 -7 -26c-40 -146 -72 -267 -72 -275c0 -6 5 -10 11 -10c13 0 38 21 77 70l16 -9c-57 -77 -93 -106 -133 -106c-32 0 -46 21 -46 50c0 24 15 83 74 296c12 42 12 44 12 48c0 7 -5 10 -16 10h-155l-72 -318
c-29 -126 -68 -209 -117 -252c-26 -22 -53 -33 -84 -33c-45 0 -78 24 -78 60c0 23 16 44 37 44s39 -19 39 -40c0 -5 -1 -9 -5 -16c-3 -5 -4 -8 -4 -11c0 -10 5 -13 20 -13c25 0 44 14 61 47c17 32 32 77 58 224c35 197 58 293 66 308h-171l-72 -320
c-42 -185 -109 -283 -200 -283c-45 0 -79 26 -79 61c0 23 17 42 38 42c23 0 38 -16 38 -37c0 -13 -9 -18 -9 -29c0 -9 8 -16 20 -16c42 0 74 54 97 162l88 420h-91l7 32h93c22 71 39 126 72 173c30 43 71 77 132 77c49 0 86 -26 86 -62c0 -22 -19 -43 -42 -43
c-18 0 -37 15 -37 39c0 17 10 22 10 31c0 8 -8 13 -22 13c-56 0 -93 -70 -122 -228z" />
    <glyph glyph-name="ffl" unicode="ffl" horiz-adv-x="745" 
d="M211 428h172c34 104 48 149 107 200c39 33 88 54 138 54c18 0 40 -2 61 -7c14 -2 26 -4 31 -4c4 0 19 5 28 8c4 2 8 3 10 3c3 0 5 -4 5 -9c0 -8 -5 -28 -21 -88c-39 -150 -127 -521 -127 -538c0 -6 5 -11 11 -11c14 0 33 17 78 69l16 -9c-60 -81 -90 -105 -132 -105
c-29 0 -48 20 -48 50c0 27 15 85 47 217l33 138h-166l-69 -310c-43 -193 -115 -293 -205 -293c-46 0 -76 29 -76 65c0 23 16 42 36 42c22 0 40 -19 40 -39c0 -5 -1 -10 -5 -17c-3 -5 -4 -7 -4 -10c0 -9 6 -20 20 -20c20 0 34 14 47 31c9 12 15 23 18 31c26 70 50 193 91 388
l28 132h-171l-72 -320c-42 -185 -109 -283 -200 -283c-45 0 -79 26 -79 61c0 23 17 42 38 42c23 0 38 -16 38 -37c0 -13 -9 -18 -9 -29c0 -9 8 -16 20 -16c42 0 74 54 97 162l88 420h-91l7 32h93c22 71 39 126 72 173c30 43 71 77 132 77c49 0 86 -26 86 -62
c0 -22 -19 -43 -42 -43c-18 0 -37 15 -37 39c0 17 10 22 10 31c0 8 -8 13 -22 13c-56 0 -93 -70 -122 -228zM628 428l37 148c0 3 -2 9 -5 15c-3 7 -5 12 -5 17c0 6 2 13 8 21c3 4 4 7 4 9c0 12 -20 22 -43 22c-37 0 -67 -16 -93 -51c-25 -34 -46 -85 -64 -157l-6 -24h167z
" />
    <glyph glyph-name="uniE0B3" unicode="fj" 
d="M51 428h88c35 118 50 153 105 202c35 32 84 51 134 51c37 0 67 -11 85 -28c23 -5 41 -29 41 -54c0 -28 -23 -51 -49 -51c-24 0 -44 14 -50 37c-5 7 -7 16 -7 26c0 11 2 16 9 23c3 4 4 6 4 9c0 10 -13 16 -34 16c-35 0 -60 -8 -86 -42c-34 -44 -46 -78 -75 -189h150
c27 0 54 2 81 6c10 1 14 2 18 2l5 -3v-3c0 -5 -2 -14 -5 -25l-1 -4c-4 -17 -10 -35 -15 -53c-4 -17 -2 -8 -7 -26c-40 -146 -72 -286 -72 -294c-41 -162 -100 -235 -187 -235c-46 0 -79 25 -79 61c0 24 18 44 41 44c27 0 39 -16 39 -37c0 -22 -12 -19 -12 -34
c0 -7 6 -12 18 -12c40 0 63 44 97 182l83 341c10 42 11 44 11 48c0 7 -5 10 -16 10h-155l-72 -318c-29 -126 -68 -209 -117 -252c-26 -22 -53 -33 -84 -33c-45 0 -78 24 -78 60c0 23 16 44 37 44s39 -19 39 -40c0 -5 -1 -9 -5 -16c-3 -5 -4 -8 -4 -11c0 -10 5 -13 20 -13
c25 0 44 14 61 47c17 32 32 77 58 224c35 197 61 293 67 308h-88z" />
    <glyph glyph-name=".notdef" horiz-adv-x="250" 
 />
    <glyph glyph-name="space" unicode=" " horiz-adv-x="250" 
 />
    <glyph glyph-name="exclam" unicode="!" horiz-adv-x="333" 
d="M137 177l-17 5c41 190 49 227 71 369c13 85 31 116 69 116c28 0 44 -17 44 -51c0 -30 -8 -57 -39 -123c-46 -98 -68 -152 -128 -316zM145 41c0 -28 -26 -52 -56 -52s-50 23 -50 54c0 28 26 52 54 52c31 0 52 -25 52 -54z" />
    <glyph glyph-name="quotedbl" unicode="&#x22;" horiz-adv-x="420" 
d="M346 421h-23c8 100 17 179 22 203c6 27 29 42 54 42c17 0 33 -12 33 -28s-27 -89 -86 -217zM167 421h-23c8 100 17 179 22 203c6 27 30 42 55 42c17 0 32 -12 32 -28s-27 -90 -86 -217z" />
    <glyph glyph-name="numbersign" unicode="#" horiz-adv-x="501" 
d="M540 464l-11 -54h-104l-54 -143h94l-11 -54h-104l-79 -213h-62l80 213h-130l-79 -213h-62l80 213h-96l11 54h106l54 143h-97l11 54h106l80 212h61l-80 -212h130l80 212h61l-80 -212h95zM364 410h-130l-54 -143h130z" />
    <glyph glyph-name="dollar" unicode="$" 
d="M497 611l-28 -114l-15 2c-2 74 -22 111 -85 134l-56 -237c117 -86 142 -121 142 -206c0 -59 -24 -110 -67 -143c-55 -42 -87 -47 -173 -47l-21 -89h-35l22 91c-58 11 -113 34 -149 66l26 123l16 3c5 -105 37 -138 115 -162l69 297c-98 63 -135 103 -135 179
c0 47 16 78 42 106c42 45 85 54 158 54h18l17 63h34l-16 -68c47 -11 89 -29 121 -52zM336 641h-16c-73 0 -119 -53 -119 -109c0 -46 19 -77 80 -114zM289 306l-68 -281c106 9 159 57 159 144c0 58 -17 76 -85 132z" />
    <glyph glyph-name="percent" unicode="%" horiz-adv-x="755" 
d="M705 213c0 -121 -78 -232 -164 -232c-68 0 -121 60 -121 138c0 107 93 211 189 211c61 0 96 -43 96 -117zM682 215c0 52 -25 87 -63 87c-16 0 -37 -9 -49 -23c-44 -47 -78 -135 -78 -203c0 -39 24 -68 56 -68c69 0 134 101 134 207zM640 706l-430 -724h-47l394 658
c-37 -43 -68 -57 -121 -57c-26 0 -44 3 -76 14c3 -17 4 -28 4 -44c0 -70 -32 -145 -80 -190c-27 -26 -53 -37 -86 -37c-67 0 -118 59 -118 137c0 113 91 213 193 213c21 0 33 -6 60 -28c35 -29 59 -39 96 -39c62 0 75 8 167 97h44zM340 569c0 29 -4 36 -25 46
c-14 7 -27 16 -44 34c-41 -20 -52 -30 -72 -63c-31 -49 -48 -108 -48 -163c0 -42 23 -70 57 -70c71 0 132 101 132 216z" />
    <glyph glyph-name="ampersand" unicode="&#x26;" horiz-adv-x="778" 
d="M712 63l11 -11c-32 -53 -74 -70 -132 -70c-44 0 -94 26 -134 79c-79 -62 -135 -79 -199 -79c-111 0 -182 56 -182 153c0 55 26 111 75 151c36 29 79 48 180 92c-7 42 -7 83 -7 94c0 117 61 194 159 194c61 0 103 -41 103 -94c0 -35 -19 -71 -56 -103
c-27 -24 -55 -41 -116 -72c19 -101 56 -188 87 -237c62 71 79 104 79 139c0 22 -11 29 -51 32v19h188v-17c-50 -5 -60 -15 -111 -90c-28 -42 -56 -78 -86 -118c40 -67 75 -94 122 -94c23 0 46 9 70 32zM517 572c0 40 -14 62 -39 62c-40 0 -73 -41 -73 -130
c0 -26 1 -46 5 -76c85 53 107 94 107 144zM436 93c-34 43 -67 125 -103 252c-97 -38 -163 -107 -163 -185c0 -74 49 -126 128 -126c50 0 90 22 138 59z" />
    <glyph glyph-name="quotesingle" unicode="'" horiz-adv-x="214" 
d="M155 421h-23c8 100 17 182 23 206c5 22 22 39 51 39c22 0 35 -15 35 -31s-27 -87 -86 -214z" />
    <glyph glyph-name="parenleft" unicode="(" horiz-adv-x="333" 
d="M302 669l13 -15c-152 -144 -204 -365 -204 -569c0 -97 11 -158 48 -260l-18 -6c-64 103 -99 233 -99 361c0 103 22 205 74 290c39 63 94 115 186 199z" />
    <glyph glyph-name="parenright" unicode=")" horiz-adv-x="333" 
d="M171 664l19 5c47 -84 63 -123 80 -197c12 -56 19 -114 19 -168c0 -101 -28 -196 -78 -282c-39 -67 -91 -123 -182 -202l-13 15c84 89 121 156 155 262c31 96 49 211 49 305c0 100 -15 181 -49 262z" />
    <glyph glyph-name="asterisk" unicode="*" 
d="M328 459l37 -19c12 -6 31 -16 63 -20c45 -6 64 -21 64 -44c0 -25 -16 -37 -38 -37c-15 0 -27 9 -46 32c-26 33 -40 40 -71 62l-18 13c1 -53 5 -75 20 -117c6 -18 8 -25 8 -34c0 -24 -9 -40 -37 -40c-26 0 -37 16 -37 38c0 9 3 20 10 41c13 36 18 61 18 112
c-3 -3 -7 -5 -16 -10c-31 -19 -43 -28 -71 -63c-17 -21 -34 -33 -51 -33c-19 0 -35 11 -35 32c0 24 19 41 62 48c47 8 61 14 104 40l-12 7c-17 10 -51 27 -93 32c-41 5 -61 20 -61 44c0 20 13 39 33 39c16 0 29 -8 49 -31c33 -37 52 -53 91 -76c0 43 -4 61 -18 107
c-6 20 -8 33 -8 42c0 25 10 42 35 42c23 0 36 -18 36 -41c0 -11 -4 -24 -11 -48c-10 -32 -16 -57 -16 -104c44 29 46 31 100 88c15 17 25 21 38 21c23 0 35 -17 35 -39s-14 -38 -57 -43c-47 -6 -64 -14 -107 -41z" />
    <glyph glyph-name="plus" unicode="+" horiz-adv-x="675" 
d="M590 220h-219v-220h-66v220h-219v66h219v220h66v-220h219v-66z" />
    <glyph glyph-name="comma" unicode="," horiz-adv-x="250" 
d="M5 -129l-10 18c53 34 76 63 76 90c0 10 -4 17 -20 29c-20 15 -25 30 -25 49c0 24 22 44 51 44c36 0 58 -34 58 -74c0 -56 -46 -112 -130 -156z" />
    <glyph glyph-name="hyphen" unicode="-" horiz-adv-x="333" 
d="M282 255l-13 -63h-220l14 63h219z" />
    <glyph glyph-name="period" unicode="." horiz-adv-x="250" 
d="M138 43c0 -30 -26 -54 -58 -54c-28 0 -53 25 -53 54c0 32 25 57 55 57s56 -26 56 -57z" />
    <glyph glyph-name="slash" unicode="/" horiz-adv-x="278" 
d="M386 666l-378 -684h-73l378 684h73z" />
    <glyph glyph-name="zero" unicode="0" 
d="M497 425c0 -147 -78 -316 -181 -389c-41 -29 -84 -43 -126 -43c-102 0 -158 84 -158 223c0 235 149 460 306 460c102 0 159 -89 159 -251zM418 518c0 80 -24 130 -84 130c-45 0 -84 -30 -120 -95c-52 -94 -103 -290 -103 -397c0 -85 33 -135 81 -135c46 0 92 34 129 100
c58 102 97 267 97 397z" />
    <glyph glyph-name="one" unicode="1" 
d="M401 676h3c3 0 5 -3 5 -7c0 -5 -2 -15 -6 -29l-143 -519c-7 -25 -18 -64 -18 -74c0 -23 22 -32 66 -32h21v-15h-279v15c79 6 101 17 112 55l136 488c5 19 8 29 8 36c0 19 -13 31 -35 31h-3c-18 0 -40 -1 -59 -2v15l23 5c88 19 92 17 169 33z" />
    <glyph glyph-name="two" unicode="2" 
d="M101 507l-21 7c24 59 47 93 82 120c39 30 82 42 128 42c96 0 162 -74 162 -169c0 -67 -31 -113 -149 -234l-188 -192v-5h181c59 0 79 15 103 65l17 -7l-50 -134h-354v17l210 224c66 70 111 133 135 187c6 13 9 32 9 54c0 69 -40 121 -119 121c-60 0 -111 -29 -146 -96z
" />
    <glyph glyph-name="three" unicode="3" 
d="M178 567l-16 5c33 72 97 104 171 104c78 0 132 -50 132 -122c0 -74 -41 -113 -155 -153v-3c68 -26 95 -71 95 -144c0 -79 -36 -149 -93 -199c-49 -43 -113 -62 -185 -62s-111 24 -111 57c0 25 17 43 43 43c19 0 37 -6 64 -30c26 -23 52 -32 71 -32c33 0 68 18 93 46
c26 31 38 79 38 126c0 108 -64 158 -160 158h-24v16c90 16 132 30 175 60c42 29 62 64 62 106c0 55 -35 91 -88 91c-43 0 -76 -20 -112 -67z" />
    <glyph glyph-name="four" unicode="4" 
d="M479 676l-121 -435h96l-14 -63h-101l-46 -178h-79l49 178h-262l20 67l417 431h41zM373 563h-4l-304 -318v-4h212z" />
    <glyph glyph-name="five" unicode="5" 
d="M491 666l-23 -71h-230l-39 -88c132 -25 220 -88 220 -223c0 -165 -133 -291 -298 -291c-59 0 -106 17 -106 57c0 23 17 42 40 42c16 0 32 -8 56 -28c26 -21 36 -29 64 -29c90 0 175 99 175 211c0 53 -21 99 -53 125c-36 29 -72 47 -166 61v16l104 218h256z" />
    <glyph glyph-name="six" unicode="6" 
d="M521 686v-16c-120 -16 -252 -115 -322 -242l4 -2c26 16 64 21 92 21c92 0 167 -74 167 -176c0 -151 -114 -278 -254 -278c-120 0 -178 84 -178 215c0 135 68 269 184 360c94 74 165 101 307 118zM373 289c0 72 -47 122 -117 122c-39 0 -74 -19 -98 -56
c-30 -46 -52 -132 -52 -205c0 -82 42 -131 98 -131c46 0 79 22 111 69c35 52 58 135 58 201z" />
    <glyph glyph-name="seven" unicode="7" 
d="M537 656l-388 -664h-70l367 598l-2 3h-215c-66 0 -91 -16 -139 -73l-15 10l82 136h373z" />
    <glyph glyph-name="eight" unicode="8" 
d="M225 360v1c-66 73 -87 109 -87 163c0 96 75 152 182 152s173 -55 173 -136c0 -78 -44 -122 -164 -158v-1c86 -79 115 -127 115 -200c0 -111 -91 -188 -215 -188c-102 0 -199 49 -199 168c0 94 75 164 195 199zM425 530c0 71 -43 123 -107 123s-102 -43 -102 -108
c0 -42 17 -73 95 -146c87 41 114 76 114 131zM369 155c0 57 -12 75 -122 189c-90 -34 -149 -108 -149 -195c0 -82 71 -134 139 -134c79 0 132 71 132 140z" />
    <glyph glyph-name="nine" unicode="9" 
d="M352 272l-4 2c-53 -33 -88 -45 -129 -45c-88 0 -150 74 -150 179c0 80 37 160 93 211c42 38 95 57 149 57c117 0 181 -86 181 -218c0 -139 -69 -271 -192 -366c-80 -62 -145 -87 -277 -109v19c79 17 127 42 201 103c64 53 112 122 128 167zM417 518c0 83 -37 132 -99 132
c-47 0 -80 -24 -108 -61c-34 -45 -53 -112 -53 -175c0 -89 36 -139 100 -139c40 0 83 18 108 46c28 30 52 123 52 197z" />
    <glyph glyph-name="colon" unicode=":" horiz-adv-x="333" 
d="M261 384c0 -30 -25 -54 -57 -54c-30 0 -54 24 -54 54c0 32 24 57 55 57s56 -25 56 -57zM161 43c0 -30 -25 -54 -57 -54c-29 0 -54 25 -54 54c0 31 25 57 56 57c30 0 55 -26 55 -57z" />
    <glyph glyph-name="semicolon" unicode=";" horiz-adv-x="333" 
d="M261 384c0 -30 -25 -54 -57 -54c-30 0 -54 24 -54 54c0 32 24 57 55 57s56 -25 56 -57zM36 -129l-10 18c53 34 76 63 76 90c0 10 -4 17 -20 29c-20 15 -25 30 -25 49c0 24 22 44 51 44c36 0 58 -34 58 -74c0 -56 -46 -112 -130 -156z" />
    <glyph glyph-name="less" unicode="&#x3c;" horiz-adv-x="675" 
d="M592 -10l-508 230v66l508 230v-72l-420 -191l420 -191v-72z" />
    <glyph glyph-name="equal" unicode="=" horiz-adv-x="675" 
d="M590 320h-504v66h504v-66zM590 120h-504v66h504v-66z" />
    <glyph glyph-name="greater" unicode="&#x3e;" horiz-adv-x="675" 
d="M592 220l-508 -230v72l420 191l-420 191v72l508 -230v-66z" />
    <glyph glyph-name="question" unicode="?" 
d="M216 174l-18 3c18 100 28 131 116 219c65 65 84 112 84 164c0 44 -29 82 -80 82c-44 0 -70 -18 -70 -48c0 -8 2 -14 8 -27c5 -11 6 -17 6 -25c0 -16 -18 -36 -42 -36s-36 19 -36 49c0 64 57 109 135 109c98 0 153 -41 153 -124c0 -61 -15 -97 -131 -184
c-74 -55 -104 -97 -118 -154zM237 38c0 -28 -25 -50 -53 -50c-30 0 -52 20 -52 50c0 33 23 55 52 55s53 -26 53 -55z" />
    <glyph glyph-name="at" unicode="@" horiz-adv-x="920" 
d="M686 68l12 -29c-94 -44 -153 -57 -224 -57c-200 0 -356 147 -356 337c0 193 160 347 363 347c200 0 325 -141 325 -293c0 -128 -85 -235 -184 -235c-47 0 -79 26 -89 72c-34 -46 -79 -71 -121 -71c-50 0 -91 42 -91 105c0 104 77 257 198 257c31 0 55 -15 68 -52l10 37
h69l-61 -236c-6 -23 -7 -34 -7 -39c0 -27 16 -40 40 -40c61 0 128 93 128 201c0 142 -131 263 -287 263c-163 0 -278 -129 -278 -317c0 -174 113 -297 285 -297c66 0 123 12 200 47zM570 394c0 37 -11 62 -40 62c-25 0 -64 -20 -91 -55c-29 -38 -47 -85 -47 -136
c0 -52 22 -84 59 -84c57 0 119 110 119 213z" />
    <glyph glyph-name="A" unicode="A" horiz-adv-x="611" 
d="M564 0h-245v16c63 3 77 19 77 53c0 8 -1 17 -2 26l-20 131h-220l-59 -111c-14 -26 -22 -50 -22 -66c0 -19 15 -31 62 -33v-16h-186v16c46 9 59 26 134 156l285 496h26l92 -553c14 -84 25 -95 78 -99v-16zM369 262l-45 263l-149 -263h194z" />
    <glyph glyph-name="B" unicode="B" horiz-adv-x="611" 
d="M130 653h250c139 0 208 -51 208 -150c0 -54 -28 -89 -64 -113c-31 -21 -68 -30 -111 -39v-1c86 -26 126 -79 126 -150c0 -134 -113 -200 -275 -200h-272v16c55 8 66 18 83 80l121 436c7 25 11 49 11 64c0 29 -14 36 -77 41v16zM248 363h38c131 0 201 53 201 152
c0 74 -36 108 -117 108c-39 0 -49 0 -59 -36zM238 331l-32 -119c-20 -76 -35 -127 -35 -140c0 -28 25 -42 67 -42c115 0 193 59 193 170c0 62 -29 106 -67 119c-20 7 -63 12 -126 12z" />
    <glyph glyph-name="C" unicode="C" horiz-adv-x="667" 
d="M689 664l-37 -200l-18 3c-12 107 -61 163 -149 163c-74 0 -144 -38 -199 -97c-72 -77 -108 -191 -108 -301c0 -140 64 -205 175 -205c82 0 142 29 229 119l18 -15c-90 -106 -170 -149 -273 -149c-153 0 -261 96 -261 261c0 141 77 272 187 350c64 46 140 73 219 73
c33 0 75 -2 117 -17c20 -7 32 -7 41 -7c20 0 30 6 38 22h21z" />
    <glyph glyph-name="D" unicode="D" horiz-adv-x="722" 
d="M131 653h277c175 0 292 -94 292 -269c0 -124 -62 -225 -160 -301c-73 -57 -174 -83 -291 -83h-257v16c56 10 66 17 82 76l122 445c7 25 11 44 11 59c0 27 -15 39 -76 41v16zM310 584l-118 -422c-17 -62 -22 -82 -22 -95c0 -26 22 -37 68 -37c101 0 179 30 241 90
c71 69 110 187 110 288c0 80 -29 143 -78 180c-31 23 -73 35 -131 35c-38 0 -60 -4 -70 -39z" />
    <glyph glyph-name="E" unicode="E" horiz-adv-x="611" 
d="M634 653l-31 -154l-22 2c2 17 3 33 3 46c0 60 -35 73 -192 73c-57 0 -67 -4 -73 -26l-66 -233h78c90 0 101 12 139 97l18 -4l-68 -232l-20 5c5 22 7 34 7 52c0 17 -2 26 -7 31c-11 10 -38 15 -78 15h-78l-32 -112c-25 -88 -36 -134 -36 -146c0 -24 23 -34 79 -34
c98 0 152 12 203 39c32 17 56 45 94 98l16 -8l-62 -162h-507v16c56 10 65 16 81 74l123 442c6 20 11 52 11 64c0 27 -15 35 -77 41v16h497z" />
    <glyph glyph-name="F" unicode="F" horiz-adv-x="611" 
d="M645 653l-32 -154l-21 2c3 22 3 27 3 33c0 73 -23 86 -199 86c-46 0 -61 -6 -68 -32l-64 -227c168 2 171 4 216 94l18 -5l-76 -235l-17 5c6 31 8 45 8 61c0 40 -28 44 -75 44c-22 0 -46 1 -83 3l-59 -213c-7 -25 -14 -45 -14 -60c0 -24 18 -35 77 -39v-16h-251v16
c58 4 68 26 83 78l123 442c7 25 10 45 10 61c0 28 -10 34 -76 40v16h497z" />
    <glyph glyph-name="G" unicode="G" horiz-adv-x="722" 
d="M722 319v-16c-65 -4 -82 -15 -97 -72l-49 -187c-77 -43 -149 -62 -237 -62c-87 0 -162 25 -213 76c-47 48 -74 125 -74 193c0 141 75 268 183 343c65 45 141 72 220 72c41 0 90 -7 134 -24c23 -9 33 -10 44 -10c26 0 43 10 60 34l15 -5l-49 -197l-18 3
c-2 43 -15 79 -37 106c-31 38 -79 59 -141 59c-79 0 -147 -38 -195 -99c-65 -83 -106 -194 -106 -305c0 -131 73 -209 202 -209c45 0 83 12 105 34c12 12 17 24 39 101c20 67 26 91 26 113c0 18 -14 30 -47 33l-32 3v16h267z" />
    <glyph glyph-name="H" unicode="H" horiz-adv-x="722" 
d="M769 653v-16c-57 -10 -68 -16 -84 -74l-132 -481c-2 -8 -3 -16 -3 -24c0 -28 14 -35 79 -42v-16h-274v16c71 5 89 28 102 77l64 233h-285l-66 -244c-2 -7 -3 -15 -3 -22c0 -29 10 -36 70 -44v-16h-245v16c56 6 68 21 86 86l118 430c7 27 12 49 12 64c0 29 -14 35 -77 41
v16h271v-16c-60 -4 -87 -23 -100 -71l-54 -198h285l46 164c7 26 14 47 14 63c0 24 -16 38 -72 42v16h248z" />
    <glyph glyph-name="I" unicode="I" horiz-adv-x="333" 
d="M384 653v-16c-56 -7 -65 -16 -82 -77l-120 -429c-9 -32 -15 -56 -15 -76c0 -28 12 -32 69 -39v-16h-244v16c55 10 69 19 84 75l120 441c7 25 13 46 13 62c0 25 -16 40 -72 43v16h247z" />
    <glyph glyph-name="J" unicode="J" horiz-adv-x="444" 
d="M491 653v-16c-57 -8 -65 -14 -82 -74l-103 -367c-21 -76 -45 -125 -71 -159c-29 -38 -73 -55 -124 -55c-70 0 -117 35 -117 88c0 32 18 56 45 56s51 -21 51 -46c0 -12 -3 -18 -3 -27c0 -28 11 -39 35 -39s42 24 53 64l127 454c8 29 12 49 12 64c0 27 -14 35 -77 41v16
h254z" />
    <glyph glyph-name="K" unicode="K" horiz-adv-x="667" 
d="M722 653v-16c-25 0 -48 -15 -77 -37l-298 -225l168 -293c31 -54 41 -60 104 -66v-16h-275v16l29 3c31 3 46 15 46 32c0 21 -19 50 -37 82l-123 215l-65 -237c-8 -28 -11 -40 -11 -51c0 -31 16 -39 71 -44v-16h-247v16c60 7 66 18 81 71l124 445c7 25 14 46 14 62
c0 27 -17 40 -79 43v16h270v-16c-52 -4 -84 -18 -99 -74l-53 -194l153 109c89 63 143 113 143 137c0 11 -12 16 -36 19l-24 3v16h221z" />
    <glyph glyph-name="L" unicode="L" horiz-adv-x="556" 
d="M559 180l-58 -180h-509v16c56 6 64 15 82 78l122 438c8 27 11 47 11 62c0 29 -15 39 -77 43v16h273v-16c-60 -4 -85 -20 -101 -77l-120 -429c-6 -23 -10 -40 -10 -54c0 -31 23 -41 105 -41c100 0 131 5 180 38c32 21 54 54 82 112z" />
    <glyph glyph-name="M" unicode="M" horiz-adv-x="833" 
d="M872 653v-16c-57 -9 -67 -23 -81 -74l-123 -443c-7 -25 -14 -46 -14 -62c0 -26 18 -40 81 -42l-1 -16h-271v16c65 7 85 24 102 86l126 459l-376 -561h-17l-62 546l-118 -428c-5 -18 -9 -43 -9 -54c0 -28 19 -44 70 -48v-16h-197v16c52 6 68 22 100 134l114 401
c8 27 12 44 12 52c0 19 -24 31 -74 34v16h181l56 -492l335 492h166z" />
    <glyph glyph-name="N" unicode="N" horiz-adv-x="667" 
d="M727 653v-16c-63 -14 -65 -16 -102 -145l-146 -507h-18l-230 550l-114 -422c-6 -21 -9 -41 -9 -54c0 -28 18 -39 70 -43v-16h-198v16c56 8 70 24 106 152l117 415c-15 35 -39 54 -86 54v16h160l207 -499l106 388c6 21 8 32 8 44c0 36 -12 46 -69 51v16h198z" />
    <glyph glyph-name="O" unicode="O" horiz-adv-x="722" 
d="M699 418c0 -146 -88 -285 -207 -365c-65 -44 -140 -71 -214 -71c-130 0 -218 85 -218 234c0 122 73 262 177 353c69 60 152 97 237 97c144 1 225 -96 225 -248zM594 481c0 94 -49 152 -129 152c-74 0 -137 -51 -186 -117c-73 -99 -114 -232 -114 -332
c0 -109 46 -169 130 -169c67 0 124 39 170 95c84 104 129 269 129 371z" />
    <glyph glyph-name="P" unicode="P" horiz-adv-x="611" 
d="M146 653h241c147 0 218 -52 218 -148c0 -54 -27 -109 -68 -143c-46 -38 -116 -57 -205 -57c-42 0 -64 2 -90 8l-53 -193c-7 -27 -14 -48 -14 -63c0 -23 15 -35 69 -41v-16h-244v16c57 8 66 17 84 82l116 414c13 47 17 68 17 83c0 27 -14 35 -71 42v16zM320 592l-69 -245
c29 -5 34 -5 52 -5c62 0 97 6 128 24c44 25 71 69 71 134c0 89 -48 123 -130 123c-28 0 -46 -8 -52 -31z" />
    <glyph glyph-name="Q" unicode="Q" horiz-adv-x="722" 
d="M69 -169l-10 16c77 54 86 61 177 141c-114 23 -176 108 -176 237c0 123 64 253 173 347c77 65 165 94 241 94c137 0 225 -102 225 -237c0 -156 -104 -322 -256 -402c-54 -29 -89 -38 -164 -43l-54 -57h25c34 0 79 -10 123 -20c41 -10 78 -21 111 -21c72 0 112 19 168 77
l16 -11c-15 -21 -32 -41 -52 -59c-50 -45 -114 -75 -191 -75c-38 0 -91 8 -148 26c-43 14 -73 18 -93 18c-40 0 -77 -10 -115 -31zM594 480c0 95 -49 153 -129 153c-75 0 -137 -40 -194 -125c-58 -87 -106 -225 -106 -325c0 -101 50 -166 124 -166c75 0 142 41 198 124
c62 93 107 236 107 339z" />
    <glyph glyph-name="R" unicode="R" horiz-adv-x="611" 
d="M132 653h252c132 0 204 -56 204 -141c0 -48 -25 -97 -66 -128c-31 -24 -64 -36 -131 -51l89 -235c22 -59 42 -82 87 -82v-16h-147l-123 324l-66 5l-55 -203c-11 -39 -13 -53 -13 -63c0 -30 10 -41 67 -47v-16h-243v16c55 7 69 26 85 85l119 431c7 27 12 46 12 63
c0 11 -7 23 -14 28c-11 7 -15 8 -57 14v16zM306 593l-63 -227c25 -4 33 -5 51 -5c119 0 189 57 189 150c0 69 -42 112 -120 112c-31 0 -52 -11 -57 -30z" />
    <glyph glyph-name="S" unicode="S" 
d="M508 667l-40 -200l-18 3c0 102 -22 163 -119 163c-69 0 -112 -37 -112 -100c0 -49 8 -65 99 -156c91 -92 113 -135 113 -200c0 -114 -87 -195 -202 -195c-31 0 -58 7 -104 23c-27 10 -36 12 -47 12c-20 0 -36 -9 -43 -32h-18l34 224l20 -2c-2 -9 -2 -16 -2 -23
c0 -98 60 -167 144 -167c77 0 131 52 131 128c0 43 -14 73 -60 123l-39 42c-14 15 -26 29 -39 42c-60 64 -75 96 -75 150c0 105 82 164 178 164c31 0 64 -5 85 -14c21 -8 33 -11 46 -11c22 0 31 5 45 26h23z" />
    <glyph glyph-name="T" unicode="T" horiz-adv-x="556" 
d="M633 653l-44 -164l-17 2c2 17 3 33 3 46c0 53 -36 81 -101 81h-58l-137 -490c-6 -21 -14 -44 -14 -66c0 -31 12 -39 53 -43l35 -3v-16h-288v16c69 6 92 21 107 75l143 527c-158 0 -190 -16 -238 -124l-18 4l42 155h532z" />
    <glyph glyph-name="U" unicode="U" horiz-adv-x="722" 
d="M765 653v-16c-62 -14 -66 -19 -104 -149l-83 -285c-22 -75 -54 -133 -97 -169c-43 -37 -93 -52 -158 -52c-131 0 -221 69 -221 164c0 54 18 121 44 216l52 189c5 18 9 33 9 45c0 26 -18 39 -80 41v16h272v-16c-68 -7 -85 -22 -104 -91l-63 -226
c-27 -95 -40 -157 -40 -179c0 -71 60 -118 138 -118c113 0 175 68 220 232l64 233c16 59 23 94 23 103c0 30 -17 41 -70 46v16h198z" />
    <glyph glyph-name="V" unicode="V" horiz-adv-x="611" 
d="M688 653v-16c-23 -1 -39 -13 -56 -40l-373 -615h-19l-82 503c-23 140 -26 145 -82 152v16h240v-16c-63 -7 -76 -17 -76 -51c0 -5 0 -10 1 -15l65 -443l210 360c31 53 49 96 49 115s-17 29 -62 34v16h185z" />
    <glyph glyph-name="W" unicode="W" horiz-adv-x="833" 
d="M906 653v-16c-38 -12 -48 -20 -77 -75l-301 -580h-20l-50 453h-5l-222 -453h-19l-61 514c-11 94 -15 111 -29 126c-9 9 -19 11 -51 15v16h235v-16c-51 -5 -72 -13 -72 -51c0 -5 0 -13 1 -20l44 -404l172 348l-8 65c-6 51 -17 60 -75 62v16h236v-16
c-51 -5 -68 -16 -68 -48c0 -6 2 -12 2 -15l40 -412l188 365c13 25 23 49 23 68c0 25 -17 41 -67 42v16h184z" />
    <glyph glyph-name="X" unicode="X" horiz-adv-x="611" 
d="M655 653v-16c-43 -14 -75 -37 -125 -95l-169 -194l101 -255c24 -60 37 -69 105 -77v-16h-271v16c60 1 77 13 77 37c0 13 -6 31 -14 51l-67 165l-151 -172c-14 -16 -23 -34 -23 -48c0 -22 18 -33 66 -33v-16h-213v16c56 10 83 40 220 200l83 97l-103 255
c-19 48 -37 64 -95 69v16h263v-16c-55 -7 -71 -16 -71 -41c0 -13 5 -29 16 -56l59 -147l145 167c14 16 21 31 21 43c0 19 -18 32 -61 34v16h207z" />
    <glyph glyph-name="Y" unicode="Y" horiz-adv-x="556" 
d="M633 653v-16c-29 -10 -37 -20 -70 -61l-219 -270l-36 -123c-23 -79 -30 -106 -30 -127c0 -25 14 -34 53 -37l36 -3v-16h-289v16c66 4 89 17 107 81l59 205l-76 267c-15 52 -21 60 -77 68v16h239v-16c-60 -6 -72 -14 -72 -36c0 -15 12 -59 36 -144l31 -110l39 46
c105 124 149 186 149 213c0 17 -11 25 -40 28l-29 3v16h189z" />
    <glyph glyph-name="Z" unicode="Z" horiz-adv-x="556" 
d="M606 639l-483 -603h161c87 0 135 4 173 32c27 20 53 55 77 104l19 -3l-54 -169h-505v14l479 603h-171c-64 0 -112 -7 -142 -27c-31 -21 -39 -37 -66 -89l-19 5l45 147h486v-14z" />
    <glyph glyph-name="bracketleft" unicode="[" horiz-adv-x="389" 
d="M391 663l-7 -27h-62c-29 0 -41 -12 -47 -38l-158 -667c-4 -16 -6 -26 -6 -29c0 -19 17 -28 49 -28h56l-7 -27h-188l197 816h173z" />
    <glyph glyph-name="backslash" unicode="\" horiz-adv-x="278" 
d="M319 -18h-71l-289 684h72z" />
    <glyph glyph-name="bracketright" unicode="]" horiz-adv-x="389" 
d="M382 663l-197 -816h-173l7 27h62c30 0 40 12 47 41l160 670c4 16 4 21 4 25c0 18 -16 26 -49 26h-57l7 27h189z" />
    <glyph glyph-name="asciicircum" unicode="^" horiz-adv-x="422" 
d="M422 301h-68l-143 289h-1l-142 -289h-68l181 365h60z" />
    <glyph glyph-name="underscore" unicode="_" 
d="M500 -125h-500v50h500v-50z" />
    <glyph glyph-name="grave" unicode="`" horiz-adv-x="333" 
d="M311 492h-32l-140 106c-13 10 -19 20 -19 32c0 22 16 34 36 34c15 0 27 -6 40 -23z" />
    <glyph glyph-name="a" unicode="a" horiz-adv-x="501" 
d="M463 111l13 -11c-75 -91 -99 -110 -139 -110c-28 0 -40 12 -40 41c0 25 2 33 23 115c-75 -113 -133 -157 -203 -157c-56 0 -100 40 -100 116c0 155 153 336 286 336c43 0 72 -21 80 -58l11 48l3 3l61 7l7 -3c-2 -9 -3 -11 -6 -21c-47 -171 -89 -343 -89 -363
c0 -7 6 -13 14 -13c9 0 22 8 52 41zM365 361c0 35 -21 58 -56 58c-45 0 -89 -31 -131 -92c-42 -63 -77 -152 -77 -215c0 -55 24 -74 60 -74c50 0 97 55 127 98c47 68 77 154 77 225z" />
    <glyph glyph-name="b" unicode="b" 
d="M163 290h1c68 113 123 151 193 151c67 0 116 -43 116 -120c0 -158 -165 -332 -320 -332c-57 0 -130 23 -130 53v6l142 523c6 24 9 38 9 47c0 22 -5 23 -64 25v17c67 8 103 14 153 23l5 -5l-21 -82zM388 306c0 61 -26 86 -70 86c-48 0 -94 -42 -137 -115
c-44 -74 -72 -171 -72 -231c0 -23 15 -34 46 -34c43 0 86 21 123 59c60 62 110 161 110 235z" />
    <glyph glyph-name="c" unicode="c" horiz-adv-x="444" 
d="M350 107l16 -10c-61 -77 -114 -108 -189 -108c-93 0 -147 52 -147 154c0 93 52 180 123 237c49 39 106 61 167 61s105 -34 105 -81c0 -27 -22 -48 -48 -48c-28 0 -39 20 -39 40c0 18 15 29 15 48c0 12 -14 20 -37 20c-40 0 -80 -18 -109 -48c-56 -59 -91 -144 -91 -233
c0 -72 32 -114 89 -114c53 0 91 25 145 82z" />
    <glyph glyph-name="d" unicode="d" 
d="M521 683l6 -6l-39 -152l-60 -219c-31 -114 -65 -230 -65 -246c0 -12 5 -20 18 -20c17 0 28 9 82 71l12 -10c-49 -73 -97 -114 -147 -114c-26 0 -41 18 -41 45c0 23 2 39 13 89c-59 -99 -110 -132 -178 -132c-65 0 -107 41 -107 117c0 162 162 335 292 335
c42 0 59 -19 65 -58h1l45 163c15 53 14 57 14 71c0 21 -9 24 -64 26v17c64 6 100 12 153 23zM356 361c0 36 -24 57 -47 57c-28 0 -63 -17 -91 -46c-66 -70 -116 -179 -116 -262c0 -46 23 -73 58 -73c92 0 196 172 196 324z" />
    <glyph glyph-name="e" unicode="e" horiz-adv-x="444" 
d="M358 109l12 -12c-57 -70 -121 -108 -204 -108c-81 0 -135 54 -135 137c0 155 149 315 299 315c53 0 82 -26 82 -68c0 -86 -105 -164 -284 -187c-10 -20 -10 -46 -10 -61c0 -55 37 -91 93 -91c44 0 75 16 147 75zM152 252l-17 -44c86 21 124 39 161 74c31 30 50 66 50 97
c0 24 -7 39 -35 39c-57 0 -125 -77 -159 -166z" />
    <glyph glyph-name="f" unicode="f" horiz-adv-x="278" 
d="M41 428h93c22 71 39 126 72 173c30 43 71 77 132 77c49 0 86 -26 86 -62c0 -22 -19 -43 -42 -43c-18 0 -37 15 -37 39c0 17 10 22 10 31c0 8 -8 13 -22 13c-56 0 -93 -70 -122 -228h107l-6 -32h-108l-72 -320c-42 -185 -109 -283 -200 -283c-45 0 -79 26 -79 61
c0 23 17 42 38 42c23 0 38 -16 38 -37c0 -13 -9 -18 -9 -29c0 -9 8 -16 20 -16c42 0 74 54 97 162l88 420h-91z" />
    <glyph glyph-name="g" unicode="g" 
d="M471 366h-49c9 -18 9 -34 9 -51c0 -84 -92 -164 -185 -164c-11 0 -22 1 -31 3c-3 1 -5 1 -7 1c-17 0 -36 -20 -36 -41c0 -18 27 -31 71 -42c96 -23 142 -67 142 -127c0 -87 -77 -151 -210 -151c-102 0 -167 36 -167 108c0 51 19 78 117 137c-18 11 -27 26 -27 39
c0 29 23 59 77 84c-56 20 -79 56 -79 108c0 102 100 171 201 171c38 0 71 -9 98 -28c8 -6 13 -8 16 -8h60v-39zM352 348c0 53 -19 71 -56 71c-62 0 -122 -73 -122 -172c0 -47 22 -75 60 -75c34 0 61 18 85 59c20 34 33 75 33 117zM325 -90c0 46 -36 74 -143 107
c-13 4 -23 7 -34 11c-9 0 -51 -34 -65 -52c-15 -19 -20 -35 -20 -58c0 -70 47 -102 127 -102c81 0 135 43 135 94z" />
    <glyph glyph-name="h" unicode="h" 
d="M465 118l13 -13c-61 -87 -95 -114 -146 -114c-27 0 -44 16 -44 42c0 12 7 43 20 92l55 207c4 16 7 29 7 33c0 15 -5 25 -28 25c-36 0 -100 -61 -152 -140c-40 -61 -56 -96 -96 -250h-75l146 554c8 31 13 48 13 62c0 17 -23 25 -41 25h-27v15c60 7 99 14 157 27l7 -6
l-121 -447c90 146 168 211 230 211c46 0 65 -30 65 -67c0 -25 -18 -99 -48 -193c-17 -52 -33 -114 -33 -125c0 -10 7 -18 16 -18c16 0 28 12 82 80z" />
    <glyph glyph-name="i" unicode="i" horiz-adv-x="278" 
d="M264 599c0 -28 -23 -51 -49 -51c-29 0 -48 21 -48 53c0 31 20 53 47 53s50 -26 50 -55zM222 114l13 -11c-55 -84 -87 -114 -137 -114c-33 0 -49 18 -49 55c0 20 7 55 22 111l48 177c5 18 9 36 9 44c0 20 -10 23 -64 24v16c39 3 59 6 160 25l4 -3l-94 -343
c-5 -17 -10 -30 -10 -44c0 -10 6 -15 14 -15c17 0 41 21 84 78z" />
    <glyph glyph-name="j" unicode="j" horiz-adv-x="278" 
d="M279 598c0 -27 -24 -50 -50 -50c-30 0 -54 21 -54 52c0 30 25 52 53 52c27 0 51 -26 51 -54zM246 438l-104 -410c-41 -162 -100 -235 -187 -235c-46 0 -79 25 -79 61c0 24 18 44 41 44c27 0 39 -16 39 -37c0 -22 -12 -19 -12 -34c0 -7 6 -12 18 -12c40 0 63 44 97 182
l72 292c12 49 16 70 16 80c0 22 -12 31 -48 31h-26v16c32 2 85 10 169 25z" />
    <glyph glyph-name="k" unicode="k" horiz-adv-x="444" 
d="M461 428v-16c-47 -3 -78 -23 -225 -154l37 -88c39 -92 62 -129 81 -129c15 0 27 11 45 42c5 8 10 17 15 26l15 -11c-46 -84 -71 -109 -111 -109c-29 0 -49 19 -81 82c-18 35 -44 97 -60 141l-40 -32l-48 -180h-75l141 528c13 48 16 71 18 88c-2 18 -17 24 -51 24h-18v16
c59 7 98 14 157 27l6 -6l-120 -456l43 33c94 72 143 120 143 140c0 11 -12 18 -37 18h-14v16h179z" />
    <glyph glyph-name="l" unicode="l" horiz-adv-x="278" 
d="M279 678l-153 -585c-5 -18 -8 -35 -8 -43c0 -12 7 -18 17 -18c15 0 38 16 67 57l25 35l14 -10c-60 -95 -97 -125 -151 -125c-32 0 -49 19 -49 56c0 8 1 20 4 30l137 524c3 10 3 16 3 19c0 12 -17 22 -49 22h-18v16c59 7 96 14 155 27z" />
    <glyph glyph-name="m" unicode="m" horiz-adv-x="722" 
d="M704 105l-5 -7c-53 -74 -97 -107 -144 -107c-26 0 -40 16 -40 46c0 10 3 27 13 66l58 227c5 20 7 33 7 38c0 12 -9 21 -20 21c-30 0 -81 -47 -131 -117c-49 -69 -69 -118 -108 -272h-75l27 93c44 152 68 258 68 271c0 16 -9 25 -22 25c-34 0 -93 -58 -149 -143
c-34 -52 -48 -88 -96 -246h-75l43 144c40 133 55 216 55 228c0 15 -14 22 -41 22h-25v16l162 31l3 -2l-58 -209c89 145 159 211 220 211c40 0 60 -24 60 -60c0 -19 -13 -75 -40 -152c70 111 111 161 160 192c24 15 43 20 63 20c37 0 58 -27 58 -63c0 -7 -2 -23 -3 -28
l-68 -251c-6 -23 -10 -41 -10 -45c0 -11 4 -16 12 -16c17 0 35 16 65 53l21 26z" />
    <glyph glyph-name="n" unicode="n" 
d="M460 117l14 -13c-68 -93 -93 -113 -140 -113c-25 0 -47 16 -47 54c0 10 2 23 16 75l44 162c8 31 14 67 14 79c0 18 -9 29 -24 29c-40 0 -85 -49 -148 -142c-45 -67 -53 -90 -100 -248h-75l96 350c1 5 2 11 2 17c0 20 -14 26 -65 27v16c81 16 109 20 162 31l4 -2l-67 -218
c100 160 167 220 231 220c43 0 65 -25 65 -61c0 -18 -4 -39 -10 -60l-56 -203c-10 -36 -14 -53 -14 -61c0 -9 4 -18 16 -18c14 0 32 16 61 53c7 8 14 17 21 26z" />
    <glyph glyph-name="o" unicode="o" 
d="M468 301c0 -76 -40 -164 -106 -229c-58 -58 -122 -83 -188 -83c-94 0 -147 52 -147 139c0 112 75 227 180 283c39 21 79 30 120 30c81 0 141 -52 141 -140zM384 326c0 61 -28 94 -71 94c-44 0 -88 -31 -128 -91c-46 -70 -74 -149 -74 -228c0 -60 31 -91 78 -91
c44 0 82 29 121 83c46 63 74 157 74 233z" />
    <glyph glyph-name="p" unicode="p" horiz-adv-x="504" 
d="M215 428l-29 -100c54 81 111 113 171 113c74 0 115 -47 115 -125c0 -165 -151 -327 -297 -327c-23 0 -44 4 -69 17c-17 -70 -40 -152 -40 -166c0 -22 15 -29 62 -29v-16h-203v16c43 1 56 16 68 63l115 432c11 40 16 66 16 71c0 24 -28 27 -44 27h-22l-2 15l156 22
c3 0 5 -2 5 -4c0 0 -1 -5 -2 -9zM382 313c0 57 -17 85 -62 85c-53 0 -112 -54 -135 -114c-29 -75 -65 -204 -65 -238c0 -22 20 -38 48 -38c53 0 101 33 145 95c48 67 69 140 69 210z" />
    <glyph glyph-name="q" unicode="q" 
d="M484 428l-165 -579c-1 -4 -2 -8 -2 -11c0 -19 20 -31 57 -31h15v-16h-237v16c63 4 80 19 91 56l90 290c-80 -127 -131 -164 -208 -164c-63 0 -100 45 -100 116c0 158 156 336 293 336c41 0 67 -17 77 -62l16 49h73zM380 359c0 33 -26 60 -59 60c-29 0 -61 -19 -93 -49
c-68 -65 -117 -168 -117 -251c0 -47 16 -77 53 -77c25 0 56 13 82 36c68 59 134 198 134 281z" />
    <glyph glyph-name="r" unicode="r" horiz-adv-x="389" 
d="M176 223l16 35c19 42 53 95 94 138c26 27 56 45 79 45c28 0 47 -21 47 -51s-17 -54 -47 -54c-18 0 -26 11 -35 26c-6 10 -9 14 -16 14c-18 0 -46 -33 -82 -94c-43 -74 -61 -114 -111 -282h-76l81 292c14 52 16 61 16 82s-18 26 -38 26c-8 0 -16 -1 -31 -3v17l155 27l3 -2
z" />
    <glyph glyph-name="s" unicode="s" horiz-adv-x="389" 
d="M366 442l-20 -140h-16c-10 83 -40 116 -89 116c-35 0 -59 -20 -59 -57c0 -27 15 -56 54 -102c50 -58 68 -97 68 -136c0 -83 -61 -134 -144 -134c-17 0 -32 1 -55 10c-19 8 -33 9 -44 9s-22 -5 -29 -21h-16l20 159h16c14 -95 48 -136 100 -136c47 0 76 28 76 77
c0 32 -17 66 -56 115c-43 54 -63 99 -63 131c0 66 47 108 121 108c17 0 31 -3 56 -10c19 -6 28 -7 36 -7c15 0 22 4 30 18h14z" />
    <glyph glyph-name="t" unicode="t" horiz-adv-x="278" 
d="M296 428l-5 -32h-84l-87 -328c-1 -4 -2 -11 -2 -14c0 -13 6 -16 15 -16c16 0 32 16 81 79l13 -7c-60 -92 -91 -121 -143 -121c-27 0 -46 12 -46 37c0 11 8 42 16 74l78 296h-75c-1 3 -1 6 -1 6c0 11 9 20 33 25c32 7 97 56 133 110c4 6 10 9 14 9c6 0 9 -3 9 -8
c0 0 0 -5 -1 -7l-28 -103h80z" />
    <glyph glyph-name="u" unicode="u" 
d="M461 119l14 -9c-65 -99 -91 -119 -138 -119c-30 0 -48 17 -48 48c0 22 13 89 45 197c-118 -194 -168 -247 -239 -247c-35 0 -53 16 -53 53c0 19 9 55 27 128l35 139c8 33 14 59 14 67c0 7 -5 15 -11 18c-9 5 -12 6 -50 6v14c57 7 93 14 150 27l4 -3l-89 -355
c-1 -3 -3 -12 -3 -16c0 -15 5 -25 20 -25c34 0 80 53 142 147c47 71 61 109 110 243h74l-79 -299c-5 -19 -19 -66 -19 -78c0 -11 4 -17 11 -17c16 0 32 14 83 81z" />
    <glyph glyph-name="v" unicode="v" horiz-adv-x="444" 
d="M207 70l31 32c72 74 137 184 137 231c0 10 -5 17 -18 29c-18 16 -25 29 -25 45c0 21 17 34 38 34c33 0 56 -32 56 -59c0 -43 -28 -101 -63 -155c-45 -70 -101 -134 -119 -153c-55 -59 -82 -92 -99 -92c-6 0 -9 10 -9 27v24c0 69 -11 202 -24 278s-24 93 -61 93
c-10 0 -20 0 -31 -1v13c45 7 80 14 112 21c8 3 15 4 20 4c9 0 9 -6 30 -114c13 -67 19 -122 25 -257z" />
    <glyph glyph-name="w" unicode="w" horiz-adv-x="667" 
d="M403 426l32 -352c131 164 165 217 165 260c0 12 -6 20 -22 35s-21 27 -21 41c0 16 17 31 39 31c30 0 52 -24 52 -56c0 -64 -74 -181 -212 -349l-9 -11c-27 -33 -36 -43 -45 -43c-7 0 -9 9 -11 35l-29 310l-89 -152c-18 -30 -36 -63 -55 -99c-36 -69 -53 -94 -64 -94
c-9 0 -11 8 -13 47l-4 91c-4 87 -15 194 -27 242c-9 37 -18 42 -47 42h-28v13c31 5 65 9 95 17c13 3 22 7 29 7c11 0 12 -2 19 -34c14 -68 28 -193 32 -281l192 304c5 8 8 10 13 10c6 0 8 -3 8 -14z" />
    <glyph glyph-name="x" unicode="x" horiz-adv-x="444" 
d="M243 355l12 -57c70 107 107 143 151 143c24 0 41 -15 41 -37c0 -21 -14 -36 -34 -36c-19 0 -28 17 -52 17c-18 0 -54 -44 -98 -121c0 -7 2 -21 8 -45l32 -134c7 -28 16 -41 30 -41c13 0 24 10 47 40c9 12 13 18 21 28l15 -9c-58 -90 -84 -114 -122 -114
c-32 0 -47 18 -59 68l-29 119l-88 -119c-44 -59 -64 -68 -95 -68s-50 16 -50 42c0 20 14 36 34 36c9 0 19 -4 32 -11c10 -6 20 -9 26 -9c11 0 30 19 51 49l82 116l-28 124c-14 60 -21 68 -46 68c-8 0 -20 -2 -39 -7l-18 -5l-3 16l11 4c61 22 94 29 117 29
c25 0 37 -18 51 -86z" />
    <glyph glyph-name="y" unicode="y" horiz-adv-x="444" 
d="M243 186l21 -110c85 141 122 213 122 257c0 14 -7 20 -26 32c-20 13 -26 23 -26 39c0 22 17 37 40 37c30 0 52 -25 52 -55c0 -57 -48 -167 -131 -305c-104 -172 -211 -287 -268 -287c-30 0 -51 17 -51 43c0 22 17 40 39 40c35 0 35 -28 61 -28c13 0 25 8 48 33
c18 19 63 78 71 91c6 12 10 24 10 35c0 40 -55 264 -82 332c-19 49 -37 64 -77 64c-11 0 -20 -1 -31 -4v17c11 2 22 4 32 6c20 4 53 10 107 18h4c15 0 68 -166 85 -255z" />
    <glyph glyph-name="z" unicode="z" horiz-adv-x="389" 
d="M380 417l-289 -344c58 -13 80 -24 120 -83c26 -38 45 -50 70 -50c16 0 27 6 27 15c0 4 -2 9 -5 15c-6 12 -8 20 -8 28c1 17 17 34 33 34c21 0 35 -15 35 -37c0 -40 -37 -76 -93 -76c-29 0 -63 13 -113 44c-47 29 -79 42 -105 42c-16 0 -29 -5 -45 -18l-9 9l310 372h-136
c-52 0 -71 -9 -91 -60l-16 4l32 116h283v-11z" />
    <glyph glyph-name="braceleft" unicode="{" horiz-adv-x="400" 
d="M407 687l-3 -11c-62 -16 -88 -45 -109 -124l-45 -168c-22 -83 -49 -112 -114 -129c39 -17 56 -36 56 -63c0 -18 -18 -96 -44 -190c-16 -61 -22 -86 -22 -102c0 -37 15 -55 53 -66l-3 -11c-92 3 -125 23 -125 78c0 24 10 68 32 144c22 75 34 129 34 153
c0 29 -14 43 -53 57c64 17 86 41 106 114l48 178c29 106 76 140 189 140z" />
    <glyph glyph-name="bar" unicode="|" horiz-adv-x="275" 
d="M171 -18h-66v684h66v-684z" />
    <glyph glyph-name="braceright" unicode="}" horiz-adv-x="400" 
d="M221 676l3 11c92 -3 125 -23 125 -78c0 -23 -10 -69 -32 -144c-22 -76 -34 -129 -34 -153c0 -29 14 -43 53 -57c-64 -17 -86 -41 -106 -114l-48 -178c-29 -106 -77 -140 -189 -140l3 11c62 16 88 45 109 124l45 168c22 83 48 112 114 129c-39 17 -56 35 -56 63
c0 18 18 96 44 190c16 58 22 87 22 101c0 37 -15 56 -53 67z" />
    <glyph glyph-name="asciitilde" unicode="~" horiz-adv-x="541" 
d="M466 323l36 -50c-45 -66 -79 -86 -125 -86c-45 0 -70 14 -103 33c-17 10 -64 35 -113 35c-31 0 -67 -22 -85 -72l-36 50c31 60 75 86 122 86c45 0 77 -14 114 -31c18 -8 68 -37 97 -37c39 0 56 16 93 72z" />
    <glyph glyph-name="uni00A0" unicode="&#xa0;" horiz-adv-x="250" 
 />
    <glyph glyph-name="exclamdown" unicode="&#xa1;" horiz-adv-x="389" 
d="M321 419c0 -27 -25 -51 -52 -51c-29 0 -54 25 -54 54c0 28 25 52 55 52s51 -23 51 -55zM224 285l17 -4c-37 -166 -53 -251 -72 -370c-14 -83 -34 -116 -70 -116c-26 0 -40 17 -40 50c0 32 9 61 38 124c38 82 73 170 127 316z" />
    <glyph glyph-name="cent" unicode="&#xa2;" 
d="M414 560l-42 -120c35 -3 51 -8 70 -22c18 -14 30 -36 30 -58c0 -27 -20 -48 -48 -48c-24 0 -39 16 -39 40c0 10 2 16 9 29c4 9 6 14 6 18c0 13 -11 20 -35 21l-137 -391c8 -3 14 -4 24 -4c51 0 89 23 145 83l16 -10c-60 -76 -114 -109 -187 -109c-5 0 -6 0 -11 1
l-47 -133h-31l48 136c-28 6 -42 12 -58 25c-32 25 -50 60 -50 122c0 102 57 204 152 263c36 22 63 29 113 37l42 120h30zM202 41l132 376c-33 -7 -61 -24 -85 -48c-57 -58 -86 -150 -86 -227c0 -45 12 -78 39 -101z" />
    <glyph glyph-name="sterling" unicode="&#xa3;" 
d="M82 361h109c20 113 44 179 96 241c40 48 83 68 137 68c55 0 93 -31 93 -76c0 -27 -14 -41 -39 -41c-17 0 -31 9 -36 44c-4 31 -16 44 -40 44c-57 0 -76 -53 -122 -280h124l-7 -42h-127c-26 -110 -32 -126 -73 -215c71 -30 117 -38 160 -38c36 0 52 9 79 28l10 7l11 -9
c-26 -64 -75 -100 -142 -100c-49 0 -77 12 -144 65c-38 -50 -61 -63 -96 -63c-41 0 -65 25 -65 64c0 36 33 68 88 68c15 0 34 0 62 -11l25 204h-112zM146 73c-28 20 -40 25 -61 25c-31 0 -53 -18 -53 -45c0 -21 19 -37 43 -37c27 0 56 23 71 57z" />
    <glyph glyph-name="currency" unicode="&#xa4;" 
d="M522 40l-48 -50l-98 98c-40 -28 -78 -41 -125 -41s-85 12 -127 41l-96 -98l-50 50l98 96c-29 42 -41 78 -41 126s12 86 41 126l-98 98l50 48l96 -96c43 28 80 39 127 39c49 0 86 -12 125 -39l98 96l48 -48l-96 -98c28 -41 39 -77 39 -125c0 -47 -11 -84 -39 -127z
M397 263c0 82 -65 150 -144 150c-83 0 -150 -66 -150 -149c0 -85 66 -153 148 -153c81 0 146 67 146 152z" />
    <glyph glyph-name="yen" unicode="&#xa5;" 
d="M605 653v-16c-32 -14 -43 -21 -75 -61l-181 -224h149l-12 -40h-168l-6 -8l-24 -82h178l-12 -40h-178c-23 -70 -31 -96 -31 -118c0 -26 13 -42 54 -45l36 -3v-16h-283l4 16c70 7 93 20 111 82l25 84h-164l12 40h163l23 80l-3 10h-162l12 40h139l-63 216
c-15 51 -22 61 -88 69v16h237v-16c-64 -6 -73 -13 -73 -34c0 -16 10 -60 39 -156l29 -100c14 16 20 23 28 33c112 131 161 191 162 226c0 17 -13 25 -42 28l-25 3v16h189z" />
    <glyph glyph-name="brokenbar" unicode="&#xa6;" horiz-adv-x="275" 
d="M171 391h-66v275h66v-275zM171 -18h-66v275h66v-275z" />
    <glyph glyph-name="section" unicode="&#xa7;" 
d="M249 398l2 3c-50 62 -67 96 -67 140c0 73 61 125 147 125c76 0 130 -41 130 -99c0 -34 -20 -55 -52 -55c-27 0 -46 19 -46 45c0 14 6 25 21 38c9 8 13 13 13 19c0 17 -26 31 -60 31c-57 0 -92 -32 -92 -83c0 -26 9 -51 26 -72l123 -150c26 -32 41 -73 41 -114
c0 -76 -47 -126 -118 -126c-14 0 -21 1 -33 7l-2 -3c53 -67 63 -89 63 -129c0 -78 -67 -137 -156 -137c-76 0 -136 47 -136 108c0 35 21 56 56 56c30 0 47 -16 47 -43c0 -22 -7 -34 -27 -46c-11 -7 -15 -11 -15 -17c0 -20 34 -37 71 -37c60 0 102 37 102 90
c0 30 -12 53 -50 97l-76 87c-47 54 -71 106 -71 153c0 68 48 123 106 123c18 0 35 -4 53 -11zM377 192c0 34 -14 63 -57 120c-39 52 -74 76 -107 76c-37 0 -66 -29 -66 -66c0 -71 107 -201 165 -201c36 0 65 32 65 71z" />
    <glyph glyph-name="dieresis" unicode="&#xa8;" horiz-adv-x="333" 
d="M405 557c0 -27 -22 -49 -49 -49c-28 0 -49 22 -49 50c0 27 22 48 50 48c25 0 48 -24 48 -49zM205 557c0 -27 -22 -49 -49 -49c-28 0 -49 22 -49 50c0 27 22 48 50 48c25 0 48 -24 48 -49z" />
    <glyph glyph-name="copyright" unicode="&#xa9;" horiz-adv-x="760" 
d="M545 240l-15 -68c-2 -11 -5 -13 -21 -18c-50 -14 -74 -18 -111 -18c-126 0 -207 73 -207 187c0 119 89 200 218 200c32 0 58 -4 99 -18c13 -4 21 -12 21 -21v-69h-16c-10 59 -45 88 -107 88c-89 0 -138 -61 -138 -172c0 -112 51 -175 141 -175c57 0 92 25 120 84h16z
M719 318c0 -186 -151 -336 -337 -336c-191 0 -341 150 -341 341c0 190 151 343 339 343c192 0 339 -150 339 -348zM664 319c0 169 -126 305 -283 305c-155 0 -285 -137 -285 -301c0 -163 130 -299 285 -299c153 0 283 136 283 295z" />
    <glyph glyph-name="ordfeminine" unicode="&#xaa;" horiz-adv-x="276" 
d="M299 673l53 2c-31 -109 -51 -186 -54 -203l-3 -15c-1 -3 -1 -5 -1 -7c0 -4 2 -7 4 -7c4 0 19 12 31 24l14 15l7 -10c-49 -55 -64 -66 -90 -66c-19 0 -31 10 -31 25c0 17 3 27 17 62c-50 -68 -77 -87 -126 -87c-48 0 -78 26 -78 70c0 93 101 200 189 200
c34 0 53 -11 59 -35l7 30zM269 620c0 21 -8 37 -19 38c-53 0 -135 -104 -135 -178c0 -21 14 -40 29 -40c25 0 53 21 79 60c26 38 46 90 46 120z" />
    <glyph glyph-name="guillemotleft" unicode="&#xab;" 
d="M215 216v9c89 69 102 79 127 101c65 57 90 77 97 77c3 0 6 -3 6 -7c0 -17 -36 -62 -91 -112c-22 -20 -44 -43 -65 -67c6 -14 13 -27 20 -40c37 -69 62 -123 62 -133c0 -4 -3 -7 -7 -7c-13 0 -56 66 -82 95c-35 40 -54 65 -67 84zM53 216v9c89 69 102 79 127 101
c65 57 90 77 97 77c3 0 6 -3 6 -7c0 -17 -36 -62 -91 -112c-24 -22 -45 -45 -65 -67c6 -14 13 -27 20 -40c37 -69 62 -123 62 -133c0 -4 -3 -7 -7 -7c-16 0 -55 65 -82 95c-35 40 -54 65 -67 84z" />
    <glyph glyph-name="logicalnot" unicode="&#xac;" horiz-adv-x="675" 
d="M590 108h-66v212h-438v66h504v-278z" />
    <glyph glyph-name="uni00AD" unicode="&#xad;" horiz-adv-x="333" 
d="M282 255l-13 -63h-220l14 63h219z" />
    <glyph glyph-name="registered" unicode="&#xae;" horiz-adv-x="760" 
d="M563 146h-63c-17 0 -34 19 -69 79c-17 30 -27 46 -51 82h-47v-97c0 -43 0 -44 48 -49v-15h-160v15c48 5 48 6 48 49v237c0 43 0 44 -48 49v15h175c70 0 114 -35 114 -91c0 -47 -27 -82 -79 -103l57 -78c32 -43 54 -68 75 -84v-9zM333 325h42c44 0 68 32 68 89
c0 51 -24 78 -69 78h-41v-167zM719 318c0 -186 -151 -336 -337 -336c-191 0 -341 150 -341 341c0 190 151 343 339 343c192 0 339 -150 339 -348zM664 319c0 169 -126 305 -283 305c-155 0 -285 -137 -285 -301c0 -163 130 -299 285 -299c153 0 283 136 283 295z" />
    <glyph glyph-name="macron" unicode="&#xaf;" horiz-adv-x="333" 
d="M411 583l-11 -51h-301l11 51h301z" />
    <glyph glyph-name="degree" unicode="&#xb0;" horiz-adv-x="400" 
d="M387 533c0 -81 -63 -143 -145 -143c-78 0 -141 64 -141 143c0 80 63 143 143 143s143 -63 143 -143zM348 533c0 59 -47 109 -104 109s-104 -49 -104 -109c0 -59 47 -109 103 -109c58 0 105 49 105 109z" />
    <glyph glyph-name="plusminus" unicode="&#xb1;" horiz-adv-x="675" 
d="M590 282h-219v-160h-66v160h-219v66h219v220h66v-220h219v-66zM590 0h-504v66h504v-66z" />
    <glyph glyph-name="twosuperior" unicode="&#xb2;" horiz-adv-x="300" 
d="M91 572l-13 8c14 33 24 47 43 63c25 21 58 33 92 33c61 0 111 -45 111 -101c0 -35 -12 -52 -99 -136l-114 -110l2 -5h108c36 0 49 7 65 34l11 -8l-33 -79h-231v18l133 130c62 61 93 107 93 139c0 37 -35 67 -78 67c-36 0 -61 -15 -90 -53z" />
    <glyph glyph-name="threesuperior" unicode="&#xb3;" horiz-adv-x="300" 
d="M149 608l-10 7c21 38 60 61 105 61c54 0 95 -33 95 -76c0 -39 -24 -60 -101 -87l4 -2c28 -14 29 -15 38 -24c14 -16 21 -36 21 -62c0 -92 -77 -157 -185 -157c-48 0 -73 14 -73 39c0 16 13 28 30 28c8 0 21 -5 38 -17c19 -13 31 -19 43 -19c48 0 84 40 84 93
c0 61 -37 97 -100 97h-13v9c100 19 147 49 147 94c0 30 -22 52 -50 52c-26 0 -43 -8 -73 -36z" />
    <glyph glyph-name="acute" unicode="&#xb4;" horiz-adv-x="333" 
d="M180 494l162 160c7 7 15 10 25 10c20 0 36 -16 36 -36c0 -12 -5 -21 -17 -28l-171 -106h-35z" />
    <glyph glyph-name="mu" unicode="&#xb5;" 
d="M497 428l-78 -336c-4 -18 -6 -25 -6 -34c0 -18 9 -28 26 -28s31 6 56 26l-3 -9c-42 -43 -68 -57 -107 -57c-38 0 -57 20 -57 59c0 10 1 17 4 31c-53 -62 -101 -90 -154 -90s-84 23 -103 76c-2 -21 -2 -30 -2 -48c0 -11 0 -25 1 -42s1 -35 1 -43c0 -87 -28 -142 -71 -142
c-23 0 -34 14 -34 45c0 35 8 60 38 118c18 45 28 73 34 100l85 374h88l-67 -284c-2 -7 -3 -20 -3 -30c0 -42 27 -69 69 -69c43 0 87 25 122 70l73 313h88z" />
    <glyph glyph-name="paragraph" unicode="&#xb6;" horiz-adv-x="559" 
d="M621 653l-6 -21c-76 -5 -85 -13 -97 -58l-160 -600c-5 -19 -11 -38 -11 -50c0 -14 13 -21 49 -24l23 -2l-5 -21h-148l200 755h-58l-200 -755h-148l5 21c46 4 62 7 74 13c7 4 11 8 13 15c8 23 40 137 68 245l30 112c-55 2 -80 9 -108 28c-29 20 -45 53 -45 92
c0 63 23 131 59 174c45 54 106 76 208 76h257zM260 304l79 328c-44 -3 -73 -17 -101 -49c-37 -42 -64 -116 -64 -177c0 -33 12 -64 33 -83c12 -12 25 -16 53 -19z" />
    <glyph glyph-name="periodcentered" unicode="&#xb7;" horiz-adv-x="250" 
d="M181 253c0 -30 -26 -54 -57 -54c-29 0 -54 25 -54 54c0 32 25 57 55 57s56 -26 56 -57z" />
    <glyph glyph-name="cedilla" unicode="&#xb8;" horiz-adv-x="333" 
d="M119 0l-44 -66c10 2 16 3 25 3c50 0 82 -26 82 -68c0 -50 -49 -86 -119 -86c-28 0 -51 5 -93 21l17 29c30 -11 47 -15 68 -15c34 0 53 15 53 41s-19 44 -46 44c-10 0 -18 -2 -32 -7l-9 8l60 96h38z" />
    <glyph glyph-name="onesuperior" unicode="&#xb9;" horiz-adv-x="300" 
d="M270 676h9c3 0 5 -2 5 -5c0 -2 -1 -8 -4 -16l-86 -274c-13 -40 -19 -65 -19 -74c0 -15 11 -19 49 -20v-16h-181v16c47 5 60 10 65 25l90 285c4 12 5 16 5 21c0 10 -9 17 -21 17h-34v19c27 4 44 7 122 22z" />
    <glyph glyph-name="ordmasculine" unicode="&#xba;" horiz-adv-x="310" 
d="M362 592c0 -92 -100 -186 -198 -186c-59 0 -97 33 -97 83c0 96 97 187 198 187c57 0 97 -35 97 -84zM289 607c0 31 -10 47 -31 47c-54 1 -118 -93 -118 -178c0 -28 15 -46 38 -46c17 0 36 8 49 22c36 38 62 103 62 155z" />
    <glyph glyph-name="guillemotright" unicode="&#xbb;" 
d="M447 215l-36 -27c-56 -42 -66 -52 -91 -74c-67 -59 -90 -77 -97 -77c-3 0 -6 3 -6 7c0 17 36 62 91 112c25 22 46 44 65 67c-7 14 -13 27 -20 40c-37 68 -62 123 -62 133c0 4 3 7 7 7c15 0 55 -64 82 -95c34 -40 54 -65 67 -84v-9zM285 215l-36 -27
c-56 -42 -66 -52 -91 -74c-67 -59 -90 -77 -97 -77c-3 0 -6 3 -6 7c0 17 38 58 91 112l65 67c-7 14 -13 27 -20 40c-37 68 -62 123 -62 133c0 4 3 7 7 7c14 0 55 -65 82 -95c34 -40 54 -65 67 -84v-9z" />
    <glyph glyph-name="onequarter" unicode="&#xbc;" horiz-adv-x="750" 
d="M736 406l-79 -259h55l-9 -43h-58l-30 -104h-63l32 105h-168l13 42l271 259h36zM653 333l-189 -186h129zM649 676l-455 -686h-51l455 686h51zM138 635v19c22 3 36 6 70 12c31 6 55 10 60 10c3 0 5 -2 5 -5c0 -4 -1 -10 -3 -16l-86 -274c-13 -40 -19 -65 -19 -74
c0 -15 10 -19 49 -20v-16h-181v16c47 5 60 10 65 25l90 285c4 12 5 16 5 21c0 10 -10 17 -25 17h-30z" />
    <glyph glyph-name="onehalf" unicode="&#xbd;" horiz-adv-x="750" 
d="M516 301l-13 8c14 33 24 47 43 63c26 22 59 34 93 34c60 0 110 -46 110 -102c0 -35 -12 -52 -99 -136l-114 -110l2 -5h108c36 0 49 7 65 34l11 -8l-33 -79h-231v18l133 130c61 60 93 107 93 139c0 37 -35 67 -78 67c-36 0 -61 -15 -90 -53zM635 676l-455 -686h-51
l455 686h51zM139 635v19c23 3 36 6 70 12c31 6 55 10 60 10c3 0 5 -2 5 -5c0 -4 -1 -10 -3 -16l-86 -274c-13 -41 -19 -65 -19 -74c0 -15 10 -19 49 -20v-16h-181v16c47 5 60 10 65 25l90 285c5 15 5 17 5 22c0 12 -9 16 -24 16h-31z" />
    <glyph glyph-name="threequarters" unicode="&#xbe;" horiz-adv-x="750" 
d="M736 406l-79 -259h55l-9 -43h-58l-30 -104h-63l32 105h-168l13 42l271 259h36zM653 333l-189 -186h129zM650 676l-455 -686h-51l455 686h51zM129 608l-10 7c20 38 60 61 105 61c54 0 95 -33 95 -76c0 -39 -24 -60 -101 -87v-3c25 -6 33 -13 42 -23c14 -16 21 -36 21 -62
c0 -92 -77 -157 -185 -157c-48 0 -73 14 -73 39c0 16 13 28 30 28c8 0 21 -5 38 -17c19 -13 31 -19 43 -19c48 0 84 40 84 93c0 61 -37 97 -100 97h-13v9c100 19 147 49 147 94c0 30 -22 52 -50 52c-26 0 -43 -8 -73 -36z" />
    <glyph glyph-name="questiondown" unicode="&#xbf;" 
d="M367 421c0 -30 -23 -53 -52 -53c-31 0 -53 24 -53 53c0 28 24 52 52 52c30 0 53 -23 53 -52zM284 285l17 -2c-18 -100 -29 -120 -112 -216c-63 -73 -87 -113 -87 -166c0 -54 29 -84 80 -84c43 0 70 18 70 48c0 18 -15 27 -15 51c0 22 16 38 40 38s39 -20 39 -50
c0 -64 -58 -109 -141 -109c-89 0 -147 39 -147 121c0 61 20 96 134 189c71 57 101 95 115 151z" />
    <glyph glyph-name="Agrave" unicode="&#xc0;" horiz-adv-x="611" 
d="M564 0h-245v16c63 3 77 19 77 53c0 8 -1 17 -2 26l-20 131h-220l-59 -111c-14 -26 -22 -50 -22 -66c0 -19 15 -31 62 -33v-16h-186v16c46 9 59 26 134 156l285 496h26l92 -553c14 -84 25 -95 78 -99v-16zM369 262l-45 263l-149 -263h194zM500 742h-32l-140 106
c-13 10 -19 20 -19 32c0 22 16 34 36 34c15 0 27 -6 40 -23z" />
    <glyph glyph-name="Aacute" unicode="&#xc1;" horiz-adv-x="611" 
d="M564 0h-245v16c63 3 77 19 77 53c0 8 -1 17 -2 26l-20 131h-220l-59 -111c-14 -26 -22 -50 -22 -66c0 -19 15 -31 62 -33v-16h-186v16c46 9 59 26 134 156l285 496h26l92 -553c14 -84 25 -95 78 -99v-16zM369 262l-45 263l-149 -263h194zM292 744l162 160
c7 7 15 10 25 10c20 0 36 -16 36 -36c0 -12 -5 -21 -17 -28l-171 -106h-35z" />
    <glyph glyph-name="Acircumflex" unicode="&#xc2;" horiz-adv-x="611" 
d="M564 0h-245v16c63 3 77 19 77 53c0 8 -1 17 -2 26l-20 131h-220l-59 -111c-14 -26 -22 -50 -22 -66c0 -19 15 -31 62 -33v-16h-186v16c46 9 59 26 134 156l285 496h26l92 -553c14 -84 25 -95 78 -99v-16zM369 262l-45 263l-149 -263h194zM548 742h-36l-82 104l-137 -104
h-39l157 169h49z" />
    <glyph glyph-name="Atilde" unicode="&#xc3;" horiz-adv-x="611" 
d="M564 0h-245v16c63 3 77 19 77 53c0 8 -1 17 -2 26l-20 131h-220l-59 -111c-14 -26 -22 -50 -22 -66c0 -19 15 -31 62 -33v-16h-186v16c46 9 59 26 134 156l285 496h26l92 -553c14 -84 25 -95 78 -99v-16zM369 262l-45 263l-149 -263h194zM544 874h28
c-14 -67 -47 -104 -95 -104c-13 0 -31 5 -57 15c-54 22 -78 29 -95 29c-25 0 -41 -15 -51 -47h-29c20 77 48 106 100 106c23 0 48 -7 86 -24c30 -14 47 -19 62 -19c27 0 40 11 51 44z" />
    <glyph glyph-name="Adieresis" unicode="&#xc4;" horiz-adv-x="611" 
d="M564 0h-245v16c63 3 77 19 77 53c0 8 -1 17 -2 26l-20 131h-220l-59 -111c-14 -26 -22 -50 -22 -66c0 -19 15 -31 62 -33v-16h-186v16c46 9 59 26 134 156l285 496h26l92 -553c14 -84 25 -95 78 -99v-16zM369 262l-45 263l-149 -263h194zM554 807c0 -27 -22 -49 -49 -49
c-28 0 -49 22 -49 50c0 27 22 48 50 48c25 0 48 -24 48 -49zM354 807c0 -27 -22 -49 -49 -49c-28 0 -49 22 -49 50c0 27 22 48 50 48c25 0 48 -24 48 -49z" />
    <glyph glyph-name="Aring" unicode="&#xc5;" horiz-adv-x="611" 
d="M564 0h-245v16c63 3 77 19 77 53c0 8 -1 17 -2 26l-20 131h-220l-59 -111c-14 -26 -22 -50 -22 -66c0 -19 15 -31 62 -33v-16h-186v16c46 9 59 26 134 156l285 496h26l92 -553c14 -84 25 -95 78 -99v-16zM369 262l-45 263l-149 -263h194zM505 857c0 -54 -45 -99 -100 -99
c-57 0 -100 44 -100 100c0 54 45 99 99 99c56 0 101 -45 101 -100zM471 857c0 37 -30 66 -67 66c-35 0 -65 -30 -65 -65c0 -37 28 -66 65 -66c38 0 67 28 67 65z" />
    <glyph glyph-name="AE" unicode="&#xc6;" horiz-adv-x="889" 
d="M911 653l-33 -153l-17 2c1 13 1 30 1 36c0 70 -28 82 -192 82c-47 0 -55 -5 -64 -37l-61 -222c159 1 169 6 211 97l18 -4l-69 -232l-17 4c4 24 6 38 6 52c0 41 -21 50 -118 50h-40c-61 -217 -71 -253 -71 -266c0 -20 16 -29 51 -29h30c150 0 204 27 280 136l18 -5
l-64 -164h-498v16c61 6 71 16 80 48l49 170h-190c-8 -10 -16 -21 -25 -30c-61 -73 -100 -134 -100 -157c0 -20 11 -25 64 -31v-16h-187v16c25 6 36 16 84 76l369 465c30 38 32 41 32 53c0 17 -11 24 -38 26l-26 2v15h517zM517 613l-268 -342h173z" />
    <glyph glyph-name="Ccedilla" unicode="&#xc7;" horiz-adv-x="667" 
d="M689 664l-37 -200l-18 3c-8 113 -61 163 -153 163c-66 0 -139 -39 -195 -98c-69 -73 -108 -181 -108 -300c0 -139 62 -205 175 -205c82 0 140 29 230 118l17 -14c-90 -106 -170 -149 -273 -149c-16 0 -32 1 -50 4l-35 -52c10 2 16 3 25 3c50 0 82 -26 82 -68
c0 -50 -49 -86 -119 -86c-28 0 -51 5 -93 21l17 29c30 -11 47 -15 68 -15c34 0 53 15 53 41s-19 44 -46 44c-10 0 -18 -2 -32 -7l-9 8l56 90c-109 24 -178 124 -178 249c0 223 192 423 406 423c33 0 73 -6 117 -17c21 -5 32 -7 41 -7c20 0 30 6 38 22h21z" />
    <glyph glyph-name="Egrave" unicode="&#xc8;" horiz-adv-x="611" 
d="M634 653l-31 -154l-22 2c2 17 3 33 3 46c0 60 -35 73 -192 73c-57 0 -67 -4 -73 -26l-66 -233h78c90 0 101 12 139 97l18 -4l-68 -232l-20 5c5 22 7 34 7 52c0 17 -2 26 -7 31c-11 10 -38 15 -78 15h-78l-32 -112c-25 -88 -36 -134 -36 -146c0 -24 23 -34 79 -34
c98 0 152 12 203 39c32 17 56 45 94 98l16 -8l-62 -162h-507v16c56 10 65 16 81 74l123 442c6 20 11 52 11 64c0 27 -15 35 -77 41v16h497zM526 742h-32l-140 106c-13 10 -19 20 -19 32c0 22 16 34 36 34c15 0 27 -6 40 -23z" />
    <glyph glyph-name="Eacute" unicode="&#xc9;" horiz-adv-x="611" 
d="M634 653l-31 -154l-22 2c2 17 3 33 3 46c0 60 -35 73 -192 73c-57 0 -67 -4 -73 -26l-66 -233h78c90 0 101 12 139 97l18 -4l-68 -232l-20 5c5 22 7 34 7 52c0 17 -2 26 -7 31c-11 10 -38 15 -78 15h-78l-32 -112c-25 -88 -36 -134 -36 -146c0 -24 23 -34 79 -34
c98 0 152 12 203 39c32 17 56 45 94 98l16 -8l-62 -162h-507v16c56 10 65 16 81 74l123 442c6 20 11 52 11 64c0 27 -15 35 -77 41v16h497zM322 744l162 160c7 7 15 10 25 10c20 0 36 -16 36 -36c0 -12 -5 -21 -17 -28l-171 -106h-35z" />
    <glyph glyph-name="Ecircumflex" unicode="&#xca;" horiz-adv-x="611" 
d="M634 653l-31 -154l-22 2c2 17 3 33 3 46c0 60 -35 73 -192 73c-57 0 -67 -4 -73 -26l-66 -233h78c90 0 101 12 139 97l18 -4l-68 -232l-20 5c5 22 7 34 7 52c0 17 -2 26 -7 31c-11 10 -38 15 -78 15h-78l-32 -112c-25 -88 -36 -134 -36 -146c0 -24 23 -34 79 -34
c98 0 152 12 203 39c32 17 56 45 94 98l16 -8l-62 -162h-507v16c56 10 65 16 81 74l123 442c6 20 11 52 11 64c0 27 -15 35 -77 41v16h497zM577 742h-36l-82 104l-137 -104h-39l157 169h49z" />
    <glyph glyph-name="Edieresis" unicode="&#xcb;" horiz-adv-x="611" 
d="M634 653l-31 -154l-22 2c2 17 3 33 3 46c0 60 -35 73 -192 73c-57 0 -67 -4 -73 -26l-66 -233h78c90 0 101 12 139 97l18 -4l-68 -232l-20 5c5 22 7 34 7 52c0 17 -2 26 -7 31c-11 10 -38 15 -78 15h-78l-32 -112c-25 -88 -36 -134 -36 -146c0 -24 23 -34 79 -34
c98 0 152 12 203 39c32 17 56 45 94 98l16 -8l-62 -162h-507v16c56 10 65 16 81 74l123 442c6 20 11 52 11 64c0 27 -15 35 -77 41v16h497zM585 807c0 -27 -22 -49 -49 -49c-28 0 -49 22 -49 50c0 27 22 48 50 48c25 0 48 -24 48 -49zM385 807c0 -27 -22 -49 -49 -49
c-28 0 -49 22 -49 50c0 27 22 48 50 48c25 0 48 -24 48 -49z" />
    <glyph glyph-name="Igrave" unicode="&#xcc;" horiz-adv-x="333" 
d="M384 653v-16c-56 -7 -65 -16 -82 -77l-120 -429c-9 -32 -15 -56 -15 -76c0 -28 12 -32 69 -39v-16h-244v16c55 10 69 19 84 75l120 441c7 25 13 46 13 62c0 25 -16 40 -72 43v16h247zM398 742h-32l-140 106c-13 10 -19 20 -19 32c0 22 16 34 36 34c15 0 27 -6 40 -23z
" />
    <glyph glyph-name="Iacute" unicode="&#xcd;" horiz-adv-x="333" 
d="M384 653v-16c-56 -7 -65 -16 -82 -77l-120 -429c-9 -32 -15 -56 -15 -76c0 -28 12 -32 69 -39v-16h-244v16c55 10 69 19 84 75l120 441c7 25 13 46 13 62c0 25 -16 40 -72 43v16h247zM191 744l162 160c7 7 15 10 25 10c20 0 36 -16 36 -36c0 -12 -5 -21 -17 -28
l-171 -106h-35z" />
    <glyph glyph-name="Icircumflex" unicode="&#xce;" horiz-adv-x="333" 
d="M384 653v-16c-56 -7 -65 -16 -82 -77l-120 -429c-9 -32 -15 -56 -15 -76c0 -28 12 -32 69 -39v-16h-244v16c55 10 69 19 84 75l120 441c7 25 13 46 13 62c0 25 -16 40 -72 43v16h247zM450 742h-36l-82 104l-137 -104h-39l157 169h49z" />
    <glyph glyph-name="Idieresis" unicode="&#xcf;" horiz-adv-x="333" 
d="M384 653v-16c-56 -7 -65 -16 -82 -77l-120 -429c-9 -32 -15 -56 -15 -76c0 -28 12 -32 69 -39v-16h-244v16c55 10 69 19 84 75l120 441c7 25 13 46 13 62c0 25 -16 40 -72 43v16h247zM457 807c0 -27 -22 -49 -49 -49c-28 0 -49 22 -49 50c0 27 22 48 50 48
c25 0 48 -24 48 -49zM257 807c0 -27 -22 -49 -49 -49c-28 0 -49 22 -49 50c0 27 22 48 50 48c25 0 48 -24 48 -49z" />
    <glyph glyph-name="Eth" unicode="&#xd0;" horiz-adv-x="722" 
d="M130 653h276c183 0 294 -91 294 -269c0 -118 -63 -228 -160 -301c-74 -56 -175 -83 -303 -83h-245v16c56 10 65 15 81 74l65 236h-90l12 42h90l46 164c7 25 11 48 11 64c0 27 -14 35 -77 41v16zM238 326l-46 -164c-16 -58 -22 -82 -22 -95c0 -26 23 -37 69 -37
c97 0 181 30 240 90c68 68 110 175 110 284c0 144 -73 219 -214 219c-43 0 -56 -7 -62 -29l-63 -226h153l-12 -42h-153z" />
    <glyph glyph-name="Ntilde" unicode="&#xd1;" horiz-adv-x="667" 
d="M727 653v-16c-63 -14 -65 -16 -102 -145l-146 -507h-18l-230 550l-114 -422c-6 -21 -9 -41 -9 -54c0 -28 18 -39 70 -43v-16h-198v16c56 8 70 24 106 152l117 415c-15 35 -39 54 -86 54v16h160l207 -499l106 388c6 21 8 32 8 44c0 36 -12 46 -69 51v16h198zM609 874h28
c-14 -67 -47 -104 -95 -104c-13 0 -31 5 -57 15c-54 22 -78 29 -95 29c-25 0 -41 -15 -51 -47h-29c20 77 48 106 100 106c23 0 48 -7 86 -24c30 -14 47 -19 62 -19c27 0 40 11 51 44z" />
    <glyph glyph-name="Ograve" unicode="&#xd2;" horiz-adv-x="722" 
d="M699 418c0 -146 -88 -285 -207 -365c-65 -44 -140 -71 -214 -71c-130 0 -218 85 -218 234c0 122 73 262 177 353c69 60 152 97 237 97c144 1 225 -96 225 -248zM594 481c0 94 -49 152 -129 152c-74 0 -137 -51 -186 -117c-73 -99 -114 -232 -114 -332
c0 -109 46 -169 130 -169c67 0 124 39 170 95c84 104 129 269 129 371zM587 742h-32l-140 106c-13 10 -19 20 -19 32c0 22 16 34 36 34c15 0 27 -6 40 -23z" />
    <glyph glyph-name="Oacute" unicode="&#xd3;" horiz-adv-x="722" 
d="M699 418c0 -146 -88 -285 -207 -365c-65 -44 -140 -71 -214 -71c-130 0 -218 85 -218 234c0 122 73 262 177 353c69 60 152 97 237 97c144 1 225 -96 225 -248zM594 481c0 94 -49 152 -129 152c-74 0 -137 -51 -186 -117c-73 -99 -114 -232 -114 -332
c0 -109 46 -169 130 -169c67 0 124 39 170 95c84 104 129 269 129 371zM383 744l162 160c7 7 15 10 25 10c20 0 36 -16 36 -36c0 -12 -5 -21 -17 -28l-171 -106h-35z" />
    <glyph glyph-name="Ocircumflex" unicode="&#xd4;" horiz-adv-x="722" 
d="M699 418c0 -146 -88 -285 -207 -365c-65 -44 -140 -71 -214 -71c-130 0 -218 85 -218 234c0 122 73 262 177 353c69 60 152 97 237 97c144 1 225 -96 225 -248zM594 481c0 94 -49 152 -129 152c-74 0 -137 -51 -186 -117c-73 -99 -114 -232 -114 -332
c0 -109 46 -169 130 -169c67 0 124 39 170 95c84 104 129 269 129 371zM638 742h-36l-82 104l-137 -104h-39l157 169h49z" />
    <glyph glyph-name="Otilde" unicode="&#xd5;" horiz-adv-x="722" 
d="M699 418c0 -146 -88 -285 -207 -365c-65 -44 -140 -71 -214 -71c-130 0 -218 85 -218 234c0 122 73 262 177 353c69 60 152 97 237 97c144 1 225 -96 225 -248zM594 481c0 94 -49 152 -129 152c-74 0 -137 -51 -186 -117c-73 -99 -114 -232 -114 -332
c0 -109 46 -169 130 -169c67 0 124 39 170 95c84 104 129 269 129 371zM634 874h28c-14 -67 -47 -104 -95 -104c-13 0 -31 5 -57 15c-54 22 -78 29 -95 29c-25 0 -41 -15 -51 -47h-29c20 77 48 106 100 106c23 0 48 -7 86 -24c30 -14 47 -19 62 -19c27 0 40 11 51 44z" />
    <glyph glyph-name="Odieresis" unicode="&#xd6;" horiz-adv-x="722" 
d="M699 418c0 -146 -88 -285 -207 -365c-65 -44 -140 -71 -214 -71c-130 0 -218 85 -218 234c0 122 73 262 177 353c69 60 152 97 237 97c144 1 225 -96 225 -248zM594 481c0 94 -49 152 -129 152c-74 0 -137 -51 -186 -117c-73 -99 -114 -232 -114 -332
c0 -109 46 -169 130 -169c67 0 124 39 170 95c84 104 129 269 129 371zM643 807c0 -27 -22 -49 -49 -49c-28 0 -49 22 -49 50c0 27 22 48 50 48c25 0 48 -24 48 -49zM443 807c0 -27 -22 -49 -49 -49c-28 0 -49 22 -49 50c0 27 22 48 50 48c25 0 48 -24 48 -49z" />
    <glyph glyph-name="multiply" unicode="&#xd7;" horiz-adv-x="675" 
d="M582 56l-48 -48l-197 197l-196 -197l-48 48l196 197l-196 196l48 48l196 -197l197 197l48 -48l-197 -196z" />
    <glyph glyph-name="Oslash" unicode="&#xd8;" horiz-adv-x="722" 
d="M669 722l-64 -96c34 -27 47 -41 63 -69c20 -36 31 -82 31 -126c0 -226 -208 -449 -418 -449c-31 0 -56 6 -94 21l-74 -108h-44l86 127c-66 48 -95 109 -95 200c0 122 65 250 174 343c77 65 160 101 234 101c37 0 67 -6 105 -22l52 78h44zM190 74l356 533
c-25 19 -48 26 -82 26c-73 0 -137 -41 -193 -125c-61 -91 -106 -231 -106 -332c0 -38 7 -68 25 -102zM570 574l-355 -530c23 -21 46 -29 80 -29c73 0 136 40 192 123c61 92 107 236 107 337c0 39 -7 70 -24 99z" />
    <glyph glyph-name="Ugrave" unicode="&#xd9;" horiz-adv-x="722" 
d="M765 653v-16c-62 -14 -66 -19 -104 -149l-83 -285c-22 -75 -54 -133 -97 -169c-43 -37 -93 -52 -158 -52c-131 0 -221 69 -221 164c0 54 18 121 44 216l52 189c5 18 9 33 9 45c0 26 -18 39 -80 41v16h272v-16c-68 -7 -85 -22 -104 -91l-63 -226
c-27 -95 -40 -157 -40 -179c0 -71 60 -118 138 -118c113 0 175 68 220 232l64 233c16 59 23 94 23 103c0 30 -17 41 -70 46v16h198zM588 742h-32l-140 106c-13 10 -19 20 -19 32c0 22 16 34 36 34c15 0 27 -6 40 -23z" />
    <glyph glyph-name="Uacute" unicode="&#xda;" horiz-adv-x="722" 
d="M765 653v-16c-62 -14 -66 -19 -104 -149l-83 -285c-22 -75 -54 -133 -97 -169c-43 -37 -93 -52 -158 -52c-131 0 -221 69 -221 164c0 54 18 121 44 216l52 189c5 18 9 33 9 45c0 26 -18 39 -80 41v16h272v-16c-68 -7 -85 -22 -104 -91l-63 -226
c-27 -95 -40 -157 -40 -179c0 -71 60 -118 138 -118c113 0 175 68 220 232l64 233c16 59 23 94 23 103c0 30 -17 41 -70 46v16h198zM383 744l162 160c7 7 15 10 25 10c20 0 36 -16 36 -36c0 -12 -5 -21 -17 -28l-171 -106h-35z" />
    <glyph glyph-name="Ucircumflex" unicode="&#xdb;" horiz-adv-x="722" 
d="M765 653v-16c-62 -14 -66 -19 -104 -149l-83 -285c-22 -75 -54 -133 -97 -169c-43 -37 -93 -52 -158 -52c-131 0 -221 69 -221 164c0 54 18 121 44 216l52 189c5 18 9 33 9 45c0 26 -18 39 -80 41v16h272v-16c-68 -7 -85 -22 -104 -91l-63 -226
c-27 -95 -40 -157 -40 -179c0 -71 60 -118 138 -118c113 0 175 68 220 232l64 233c16 59 23 94 23 103c0 30 -17 41 -70 46v16h198zM635 742h-36l-82 104l-137 -104h-39l157 169h49z" />
    <glyph glyph-name="Udieresis" unicode="&#xdc;" horiz-adv-x="722" 
d="M765 653v-16c-62 -14 -66 -19 -104 -149l-83 -285c-22 -75 -54 -133 -97 -169c-43 -37 -93 -52 -158 -52c-131 0 -221 69 -221 164c0 54 18 121 44 216l52 189c5 18 9 33 9 45c0 26 -18 39 -80 41v16h272v-16c-68 -7 -85 -22 -104 -91l-63 -226
c-27 -95 -40 -157 -40 -179c0 -71 60 -118 138 -118c113 0 175 68 220 232l64 233c16 59 23 94 23 103c0 30 -17 41 -70 46v16h198zM645 807c0 -27 -22 -49 -49 -49c-28 0 -49 22 -49 50c0 27 22 48 50 48c25 0 48 -24 48 -49zM445 807c0 -27 -22 -49 -49 -49
c-28 0 -49 22 -49 50c0 27 22 48 50 48c25 0 48 -24 48 -49z" />
    <glyph glyph-name="Yacute" unicode="&#xdd;" horiz-adv-x="556" 
d="M633 653v-16c-29 -10 -37 -20 -70 -61l-219 -270l-36 -123c-23 -79 -30 -106 -30 -127c0 -25 14 -34 53 -37l36 -3v-16h-289v16c66 4 89 17 107 81l59 205l-76 267c-15 52 -21 60 -77 68v16h239v-16c-60 -6 -72 -14 -72 -36c0 -15 12 -59 36 -144l31 -110l39 46
c105 124 149 186 149 213c0 17 -11 25 -40 28l-29 3v16h189zM301 744l162 160c7 7 15 10 25 10c20 0 36 -16 36 -36c0 -12 -5 -21 -17 -28l-171 -106h-35z" />
    <glyph glyph-name="Thorn" unicode="&#xde;" horiz-adv-x="611" 
d="M302 518h56c136 0 211 -44 211 -144c0 -60 -30 -122 -82 -158c-42 -30 -110 -46 -192 -46c-42 0 -64 2 -89 10l-17 -60c-10 -35 -12 -45 -12 -57c0 -35 3 -38 66 -47v-16h-243v16c57 8 65 13 82 74l118 425c13 48 17 65 17 80c0 27 -10 35 -67 42v16h235v-16
c-40 -5 -54 -12 -63 -46zM286 459l-71 -248c30 -5 34 -5 52 -5c123 0 199 42 199 168c0 74 -40 114 -134 114c-28 0 -40 -8 -46 -29z" />
    <glyph glyph-name="germandbls" unicode="&#xdf;" 
d="M23 -4l72 319c58 256 134 364 259 364c83 0 139 -52 139 -131c0 -73 -44 -119 -155 -161l-8 -3v-3c32 -4 48 -9 67 -22c34 -24 57 -70 57 -115c0 -69 -33 -147 -84 -200c-34 -36 -83 -57 -129 -57c-48 0 -80 27 -80 66c0 29 17 47 44 47c23 0 38 -16 38 -40
c0 -9 -2 -17 -8 -27c-2 -4 -4 -9 -4 -11c0 -7 8 -13 18 -13c27 0 51 19 71 54c28 51 47 131 47 199c0 70 -26 105 -81 107c-20 1 -26 5 -26 15s4 13 17 13c80 0 136 74 136 180c0 51 -22 79 -62 79c-59 0 -107 -74 -145 -218l-111 -426c-36 -138 -105 -219 -185 -219
c-47 0 -78 25 -78 62c0 26 15 42 39 42c23 0 40 -15 40 -36c0 -7 -3 -17 -8 -26c-3 -4 -4 -7 -4 -10c0 -5 7 -8 17 -8c50 0 77 44 107 179z" />
    <glyph glyph-name="agrave" unicode="&#xe0;" horiz-adv-x="501" 
d="M463 111l13 -11c-75 -91 -99 -110 -139 -110c-28 0 -40 12 -40 41c0 25 2 33 23 115c-75 -113 -133 -157 -203 -157c-56 0 -100 40 -100 116c0 155 153 336 286 336c43 0 72 -21 80 -58l11 48l3 3l61 7l7 -3c-2 -9 -3 -11 -6 -21c-47 -171 -89 -343 -89 -363
c0 -7 6 -13 14 -13c9 0 22 8 52 41zM365 361c0 35 -21 58 -56 58c-45 0 -89 -31 -131 -92c-42 -63 -77 -152 -77 -215c0 -55 24 -74 60 -74c50 0 97 55 127 98c47 68 77 154 77 225zM446 492h-32l-140 106c-13 10 -19 20 -19 32c0 22 16 34 36 34c15 0 27 -6 40 -23z" />
    <glyph glyph-name="aacute" unicode="&#xe1;" horiz-adv-x="501" 
d="M463 111l13 -11c-75 -91 -99 -110 -139 -110c-28 0 -40 12 -40 41c0 25 2 33 23 115c-75 -113 -133 -157 -203 -157c-56 0 -100 40 -100 116c0 155 153 336 286 336c43 0 72 -21 80 -58l11 48l3 3l61 7l7 -3c-2 -9 -3 -11 -6 -21c-47 -171 -89 -343 -89 -363
c0 -7 6 -13 14 -13c9 0 22 8 52 41zM365 361c0 35 -21 58 -56 58c-45 0 -89 -31 -131 -92c-42 -63 -77 -152 -77 -215c0 -55 24 -74 60 -74c50 0 97 55 127 98c47 68 77 154 77 225zM243 494l162 160c7 7 15 10 25 10c20 0 36 -16 36 -36c0 -12 -5 -21 -17 -28l-171 -106
h-35z" />
    <glyph glyph-name="acircumflex" unicode="&#xe2;" horiz-adv-x="501" 
d="M463 111l13 -11c-75 -91 -99 -110 -139 -110c-28 0 -40 12 -40 41c0 25 2 33 23 115c-75 -113 -133 -157 -203 -157c-56 0 -100 40 -100 116c0 155 153 336 286 336c43 0 72 -21 80 -58l11 48l3 3l61 7l7 -3c-2 -9 -3 -11 -6 -21c-47 -171 -89 -343 -89 -363
c0 -7 6 -13 14 -13c9 0 22 8 52 41zM365 361c0 35 -21 58 -56 58c-45 0 -89 -31 -131 -92c-42 -63 -77 -152 -77 -215c0 -55 24 -74 60 -74c50 0 97 55 127 98c47 68 77 154 77 225zM497 492h-36l-82 104l-137 -104h-39l157 169h49z" />
    <glyph glyph-name="atilde" unicode="&#xe3;" horiz-adv-x="501" 
d="M463 111l13 -11c-75 -91 -99 -110 -139 -110c-28 0 -40 12 -40 41c0 25 2 33 23 115c-75 -113 -133 -157 -203 -157c-56 0 -100 40 -100 116c0 155 153 336 286 336c43 0 72 -21 80 -58l11 48l3 3l61 7l7 -3c-2 -9 -3 -11 -6 -21c-47 -171 -89 -343 -89 -363
c0 -7 6 -13 14 -13c9 0 22 8 52 41zM365 361c0 35 -21 58 -56 58c-45 0 -89 -31 -131 -92c-42 -63 -77 -152 -77 -215c0 -55 24 -74 60 -74c50 0 97 55 127 98c47 68 77 154 77 225zM493 624h28c-14 -67 -47 -104 -95 -104c-13 0 -31 5 -57 15c-54 22 -78 29 -95 29
c-25 0 -41 -15 -51 -47h-29c20 77 48 106 100 106c23 0 48 -7 86 -24c30 -14 47 -19 62 -19c27 0 40 11 51 44z" />
    <glyph glyph-name="adieresis" unicode="&#xe4;" horiz-adv-x="501" 
d="M463 111l13 -11c-75 -91 -99 -110 -139 -110c-28 0 -40 12 -40 41c0 25 2 33 23 115c-75 -113 -133 -157 -203 -157c-56 0 -100 40 -100 116c0 155 153 336 286 336c43 0 72 -21 80 -58l11 48l3 3l61 7l7 -3c-2 -9 -3 -11 -6 -21c-47 -171 -89 -343 -89 -363
c0 -7 6 -13 14 -13c9 0 22 8 52 41zM365 361c0 35 -21 58 -56 58c-45 0 -89 -31 -131 -92c-42 -63 -77 -152 -77 -215c0 -55 24 -74 60 -74c50 0 97 55 127 98c47 68 77 154 77 225zM503 557c0 -27 -22 -49 -49 -49c-28 0 -49 22 -49 50c0 27 22 48 50 48
c25 0 48 -24 48 -49zM303 557c0 -27 -22 -49 -49 -49c-28 0 -49 22 -49 50c0 27 22 48 50 48c25 0 48 -24 48 -49z" />
    <glyph glyph-name="aring" unicode="&#xe5;" horiz-adv-x="501" 
d="M463 111l13 -11c-75 -91 -99 -110 -139 -110c-28 0 -40 12 -40 41c0 25 2 33 23 115c-75 -113 -133 -157 -203 -157c-56 0 -100 40 -100 116c0 155 153 336 286 336c43 0 72 -21 80 -58l11 48l3 3l61 7l7 -3c-2 -9 -3 -11 -6 -21c-47 -171 -89 -343 -89 -363
c0 -7 6 -13 14 -13c9 0 22 8 52 41zM365 361c0 35 -21 58 -56 58c-45 0 -89 -31 -131 -92c-42 -63 -77 -152 -77 -215c0 -55 24 -74 60 -74c50 0 97 55 127 98c47 68 77 154 77 225zM453 609c0 -54 -45 -99 -100 -99c-57 0 -100 44 -100 100c0 54 45 99 99 99
c56 0 101 -45 101 -100zM419 609c0 37 -30 66 -67 66c-35 0 -65 -30 -65 -65c0 -37 28 -66 65 -66c38 0 67 28 67 65z" />
    <glyph glyph-name="ae" unicode="&#xe6;" horiz-adv-x="667" 
d="M459 439l-22 -62c46 50 81 64 122 64c50 0 81 -27 81 -70c0 -38 -23 -73 -66 -101c-38 -24 -84 -42 -190 -72c-7 -30 -8 -38 -8 -60c0 -74 22 -102 70 -102c43 0 82 21 142 77l10 -12c-56 -68 -135 -112 -198 -112s-104 47 -104 122c0 15 1 23 6 40
c-81 -126 -131 -162 -195 -162c-49 0 -84 33 -84 98c0 164 159 354 280 354c34 0 57 -12 66 -47l19 45h71zM574 380c0 23 -12 36 -35 36s-46 -14 -65 -35c-35 -38 -54 -69 -84 -158c93 27 134 54 166 97c14 19 18 39 18 60zM350 370c0 30 -18 51 -45 51
c-37 1 -75 -31 -113 -86c-49 -71 -83 -162 -83 -236c0 -38 10 -60 34 -60c26 0 57 16 80 41c72 78 127 204 127 290z" />
    <glyph glyph-name="ccedilla" unicode="&#xe7;" horiz-adv-x="444" 
d="M77 -96l56 90c-67 16 -103 66 -103 145c0 156 140 302 290 302c61 0 105 -34 105 -81c0 -27 -20 -46 -48 -46c-24 0 -39 14 -39 38c0 10 2 16 9 29c5 9 6 14 6 19c0 12 -14 20 -37 20c-40 0 -80 -18 -109 -48c-56 -58 -91 -148 -91 -233c0 -72 34 -114 91 -114
c49 0 88 22 143 81l16 -10c-61 -77 -114 -107 -190 -107h-8l-37 -55c10 2 16 3 25 3c50 0 82 -26 82 -68c0 -50 -49 -86 -119 -86c-28 0 -51 5 -93 21l17 29c30 -11 47 -15 68 -15c34 0 53 15 53 41s-19 44 -46 44c-10 0 -18 -2 -32 -7z" />
    <glyph glyph-name="egrave" unicode="&#xe8;" horiz-adv-x="444" 
d="M358 109l12 -12c-57 -70 -121 -108 -204 -108c-81 0 -135 54 -135 137c0 155 149 315 299 315c53 0 82 -26 82 -68c0 -86 -105 -164 -284 -187c-10 -20 -10 -46 -10 -61c0 -55 37 -91 93 -91c44 0 75 16 147 75zM152 252l-17 -44c86 21 124 39 161 74c31 30 50 66 50 97
c0 24 -7 39 -35 39c-57 0 -125 -77 -159 -166zM414 492h-32l-140 106c-13 10 -19 20 -19 32c0 22 16 34 36 34c15 0 27 -6 40 -23z" />
    <glyph glyph-name="eacute" unicode="&#xe9;" horiz-adv-x="444" 
d="M358 109l12 -12c-57 -70 -121 -108 -204 -108c-81 0 -135 54 -135 137c0 155 149 315 299 315c53 0 82 -26 82 -68c0 -86 -105 -164 -284 -187c-10 -20 -10 -46 -10 -61c0 -55 37 -91 93 -91c44 0 75 16 147 75zM152 252l-17 -44c86 21 124 39 161 74c31 30 50 66 50 97
c0 24 -7 39 -35 39c-57 0 -125 -77 -159 -166zM208 494l162 160c7 7 15 10 25 10c20 0 36 -16 36 -36c0 -12 -5 -21 -17 -28l-171 -106h-35z" />
    <glyph glyph-name="ecircumflex" unicode="&#xea;" horiz-adv-x="444" 
d="M358 109l12 -12c-57 -70 -121 -108 -204 -108c-81 0 -135 54 -135 137c0 155 149 315 299 315c53 0 82 -26 82 -68c0 -86 -105 -164 -284 -187c-10 -20 -10 -46 -10 -61c0 -55 37 -91 93 -91c44 0 75 16 147 75zM152 252l-17 -44c86 21 124 39 161 74c31 30 50 66 50 97
c0 24 -7 39 -35 39c-57 0 -125 -77 -159 -166zM466 492h-36l-82 104l-137 -104h-39l157 169h49z" />
    <glyph glyph-name="edieresis" unicode="&#xeb;" horiz-adv-x="444" 
d="M358 109l12 -12c-57 -70 -121 -108 -204 -108c-81 0 -135 54 -135 137c0 155 149 315 299 315c53 0 82 -26 82 -68c0 -86 -105 -164 -284 -187c-10 -20 -10 -46 -10 -61c0 -55 37 -91 93 -91c44 0 75 16 147 75zM152 252l-17 -44c86 21 124 39 161 74c31 30 50 66 50 97
c0 24 -7 39 -35 39c-57 0 -125 -77 -159 -166zM475 557c0 -27 -22 -49 -49 -49c-28 0 -49 22 -49 50c0 27 22 48 50 48c25 0 48 -24 48 -49zM275 557c0 -27 -22 -49 -49 -49c-28 0 -49 22 -49 50c0 27 22 48 50 48c25 0 48 -24 48 -49z" />
    <glyph glyph-name="igrave" unicode="&#xec;" horiz-adv-x="278" 
d="M221 115l14 -12c-53 -82 -87 -114 -138 -114c-30 0 -50 19 -50 57c0 20 8 50 24 110l48 175c5 19 9 37 9 45c0 20 -9 23 -63 24v16c39 3 58 6 159 25l5 -3l-96 -342c-5 -19 -9 -35 -9 -45c0 -8 8 -15 16 -15c17 0 38 22 81 79zM302 492h-32l-140 106
c-13 10 -19 20 -19 32c0 22 16 34 36 34c15 0 27 -6 40 -23z" />
    <glyph glyph-name="iacute" unicode="&#xed;" horiz-adv-x="278" 
d="M221 115l14 -12c-53 -82 -87 -114 -138 -114c-30 0 -50 19 -50 57c0 20 8 50 24 110l48 175c5 19 9 37 9 45c0 20 -9 23 -63 24v16c39 3 58 6 159 25l5 -3l-96 -342c-5 -19 -9 -35 -9 -45c0 -8 8 -15 16 -15c17 0 38 22 81 79zM95 494l162 160c7 7 15 10 25 10
c20 0 36 -16 36 -36c0 -12 -5 -21 -17 -28l-171 -106h-35z" />
    <glyph glyph-name="icircumflex" unicode="&#xee;" horiz-adv-x="278" 
d="M221 115l14 -12c-53 -82 -87 -114 -138 -114c-30 0 -50 19 -50 57c0 20 8 50 24 110l48 175c5 19 9 37 9 45c0 20 -9 23 -63 24v16c39 3 58 6 159 25l5 -3l-96 -342c-5 -19 -9 -35 -9 -45c0 -8 8 -15 16 -15c17 0 38 22 81 79zM351 492h-36l-82 104l-137 -104h-39
l157 169h49z" />
    <glyph glyph-name="idieresis" unicode="&#xef;" horiz-adv-x="278" 
d="M221 115l14 -12c-53 -82 -87 -114 -138 -114c-30 0 -50 19 -50 57c0 20 8 50 24 110l48 175c5 19 9 37 9 45c0 20 -9 23 -63 24v16c39 3 58 6 159 25l5 -3l-96 -342c-5 -19 -9 -35 -9 -45c0 -8 8 -15 16 -15c17 0 38 22 81 79zM361 557c0 -27 -22 -49 -49 -49
c-28 0 -49 22 -49 50c0 27 22 48 50 48c25 0 48 -24 48 -49zM161 557c0 -27 -22 -49 -49 -49c-28 0 -49 22 -49 50c0 27 22 48 50 48c25 0 48 -24 48 -49z" />
    <glyph glyph-name="eth" unicode="&#xf0;" 
d="M482 637l-101 -45c62 -71 86 -140 86 -233c0 -195 -127 -370 -293 -370c-91 0 -147 46 -147 140c0 152 136 312 280 312c44 0 69 -17 87 -49l2 1c-10 69 -32 122 -72 174l-117 -51l-33 29l123 54c-35 33 -61 50 -103 67l35 17c45 -10 82 -28 122 -61l99 43zM384 326
c0 57 -28 94 -71 94c-44 0 -90 -30 -132 -89c-49 -68 -70 -143 -70 -224c0 -55 31 -97 78 -97c44 0 87 26 124 82c44 65 71 163 71 234z" />
    <glyph glyph-name="ntilde" unicode="&#xf1;" 
d="M460 117l14 -13c-68 -93 -93 -113 -140 -113c-25 0 -47 16 -47 54c0 10 2 23 16 75l44 162c8 31 14 67 14 79c0 18 -9 29 -24 29c-40 0 -85 -49 -148 -142c-45 -67 -53 -90 -100 -248h-75l96 350c1 5 2 11 2 17c0 20 -14 26 -65 27v16c81 16 109 20 162 31l4 -2l-67 -218
c100 160 167 220 231 220c43 0 65 -25 65 -61c0 -18 -4 -39 -10 -60l-56 -203c-10 -36 -14 -53 -14 -61c0 -9 4 -18 16 -18c14 0 32 16 61 53c7 8 14 17 21 26zM460 624h28c-14 -67 -47 -104 -95 -104c-13 0 -31 5 -57 15c-54 22 -78 29 -95 29c-25 0 -41 -15 -51 -47h-29
c20 77 48 106 100 106c23 0 48 -7 86 -24c30 -14 47 -19 62 -19c27 0 40 11 51 44z" />
    <glyph glyph-name="ograve" unicode="&#xf2;" 
d="M468 301c0 -76 -40 -164 -106 -229c-58 -58 -122 -83 -188 -83c-94 0 -147 52 -147 139c0 112 75 227 180 283c39 21 79 30 120 30c81 0 141 -52 141 -140zM384 326c0 61 -28 94 -71 94c-44 0 -88 -31 -128 -91c-46 -70 -74 -149 -74 -228c0 -60 31 -91 78 -91
c44 0 82 29 121 83c46 63 74 157 74 233zM418 492h-32l-140 106c-13 10 -19 20 -19 32c0 22 16 34 36 34c15 0 27 -6 40 -23z" />
    <glyph glyph-name="oacute" unicode="&#xf3;" 
d="M468 301c0 -76 -40 -164 -106 -229c-58 -58 -122 -83 -188 -83c-94 0 -147 52 -147 139c0 112 75 227 180 283c39 21 79 30 120 30c81 0 141 -52 141 -140zM384 326c0 61 -28 94 -71 94c-44 0 -88 -31 -128 -91c-46 -70 -74 -149 -74 -228c0 -60 31 -91 78 -91
c44 0 82 29 121 83c46 63 74 157 74 233zM215 494l162 160c7 7 15 10 25 10c20 0 36 -16 36 -36c0 -12 -5 -21 -17 -28l-171 -106h-35z" />
    <glyph glyph-name="ocircumflex" unicode="&#xf4;" 
d="M468 301c0 -76 -40 -164 -106 -229c-58 -58 -122 -83 -188 -83c-94 0 -147 52 -147 139c0 112 75 227 180 283c39 21 79 30 120 30c81 0 141 -52 141 -140zM384 326c0 61 -28 94 -71 94c-44 0 -88 -31 -128 -91c-46 -70 -74 -149 -74 -228c0 -60 31 -91 78 -91
c44 0 82 29 121 83c46 63 74 157 74 233zM468 492h-36l-82 104l-137 -104h-39l157 169h49z" />
    <glyph glyph-name="otilde" unicode="&#xf5;" 
d="M468 301c0 -76 -40 -164 -106 -229c-58 -58 -122 -83 -188 -83c-94 0 -147 52 -147 139c0 112 75 227 180 283c39 21 79 30 120 30c81 0 141 -52 141 -140zM384 326c0 61 -28 94 -71 94c-44 0 -88 -31 -128 -91c-46 -70 -74 -149 -74 -228c0 -60 31 -91 78 -91
c44 0 82 29 121 83c46 63 74 157 74 233zM466 624h28c-14 -67 -47 -104 -95 -104c-13 0 -31 5 -57 15c-54 22 -78 29 -95 29c-25 0 -41 -15 -51 -47h-29c20 77 48 106 100 106c23 0 48 -7 86 -24c30 -14 47 -19 62 -19c27 0 40 11 51 44z" />
    <glyph glyph-name="odieresis" unicode="&#xf6;" 
d="M468 301c0 -76 -40 -164 -106 -229c-58 -58 -122 -83 -188 -83c-94 0 -147 52 -147 139c0 112 75 227 180 283c39 21 79 30 120 30c81 0 141 -52 141 -140zM384 326c0 61 -28 94 -71 94c-44 0 -88 -31 -128 -91c-46 -70 -74 -149 -74 -228c0 -60 31 -91 78 -91
c44 0 82 29 121 83c46 63 74 157 74 233zM474 557c0 -27 -22 -49 -49 -49c-28 0 -49 22 -49 50c0 27 22 48 50 48c25 0 48 -24 48 -49zM274 557c0 -27 -22 -49 -49 -49c-28 0 -49 22 -49 50c0 27 22 48 50 48c25 0 48 -24 48 -49z" />
    <glyph glyph-name="divide" unicode="&#xf7;" horiz-adv-x="675" 
d="M394 460c0 -30 -26 -54 -57 -54c-29 0 -54 25 -54 54c0 32 25 57 55 57s56 -26 56 -57zM590 220h-504v66h504v-66zM394 43c0 -30 -26 -54 -58 -54c-28 0 -53 25 -53 54c0 32 25 57 55 57s56 -26 56 -57z" />
    <glyph glyph-name="oslash" unicode="&#xf8;" 
d="M428 554l-58 -119c42 -12 62 -27 79 -59c12 -21 20 -52 20 -78c0 -80 -49 -174 -124 -238c-55 -47 -111 -71 -169 -71c-8 0 -14 1 -20 2l-61 -126h-35l64 131c-31 10 -44 18 -59 34c-24 25 -37 61 -37 100c0 153 150 311 294 311c7 0 11 0 17 -1l55 114h34zM357 406
l-190 -392c8 -3 13 -4 22 -4c46 0 84 26 122 82c43 65 74 161 74 233c0 35 -9 60 -28 81zM140 29l188 389c-5 1 -7 2 -10 2c-33 0 -68 -17 -95 -46c-65 -70 -111 -182 -111 -277c0 -28 9 -49 28 -68z" />
    <glyph glyph-name="ugrave" unicode="&#xf9;" 
d="M461 119l14 -9c-65 -99 -91 -119 -138 -119c-30 0 -48 17 -48 48c0 22 13 89 45 197c-118 -194 -168 -247 -239 -247c-35 0 -53 16 -53 53c0 19 9 55 27 128l35 139c8 33 14 59 14 67c0 7 -5 15 -11 18c-9 5 -12 6 -50 6v14c57 7 93 14 150 27l4 -3l-89 -355
c-1 -3 -3 -12 -3 -16c0 -15 5 -25 20 -25c34 0 80 53 142 147c47 71 61 109 110 243h74l-79 -299c-5 -19 -19 -66 -19 -78c0 -11 4 -17 11 -17c16 0 32 14 83 81zM415 492h-32l-140 106c-13 10 -19 20 -19 32c0 22 16 34 36 34c15 0 27 -6 40 -23z" />
    <glyph glyph-name="uacute" unicode="&#xfa;" 
d="M461 119l14 -9c-65 -99 -91 -119 -138 -119c-30 0 -48 17 -48 48c0 22 13 89 45 197c-118 -194 -168 -247 -239 -247c-35 0 -53 16 -53 53c0 19 9 55 27 128l35 139c8 33 14 59 14 67c0 7 -5 15 -11 18c-9 5 -12 6 -50 6v14c57 7 93 14 150 27l4 -3l-89 -355
c-1 -3 -3 -12 -3 -16c0 -15 5 -25 20 -25c34 0 80 53 142 147c47 71 61 109 110 243h74l-79 -299c-5 -19 -19 -66 -19 -78c0 -11 4 -17 11 -17c16 0 32 14 83 81zM210 494l162 160c7 7 15 10 25 10c20 0 36 -16 36 -36c0 -12 -5 -21 -17 -28l-171 -106h-35z" />
    <glyph glyph-name="ucircumflex" unicode="&#xfb;" 
d="M461 119l14 -9c-65 -99 -91 -119 -138 -119c-30 0 -48 17 -48 48c0 22 13 89 45 197c-118 -194 -168 -247 -239 -247c-35 0 -53 16 -53 53c0 19 9 55 27 128l35 139c8 33 14 59 14 67c0 7 -5 15 -11 18c-9 5 -12 6 -50 6v14c57 7 93 14 150 27l4 -3l-89 -355
c-1 -3 -3 -12 -3 -16c0 -15 5 -25 20 -25c34 0 80 53 142 147c47 71 61 109 110 243h74l-79 -299c-5 -19 -19 -66 -19 -78c0 -11 4 -17 11 -17c16 0 32 14 83 81zM465 492h-36l-82 104l-137 -104h-39l157 169h49z" />
    <glyph glyph-name="udieresis" unicode="&#xfc;" 
d="M461 119l14 -9c-65 -99 -91 -119 -138 -119c-30 0 -48 17 -48 48c0 22 13 89 45 197c-118 -194 -168 -247 -239 -247c-35 0 -53 16 -53 53c0 19 9 55 27 128l35 139c8 33 14 59 14 67c0 7 -5 15 -11 18c-9 5 -12 6 -50 6v14c57 7 93 14 150 27l4 -3l-89 -355
c-1 -3 -3 -12 -3 -16c0 -15 5 -25 20 -25c34 0 80 53 142 147c47 71 61 109 110 243h74l-79 -299c-5 -19 -19 -66 -19 -78c0 -11 4 -17 11 -17c16 0 32 14 83 81zM469 557c0 -27 -22 -49 -49 -49c-28 0 -49 22 -49 50c0 27 22 48 50 48c25 0 48 -24 48 -49zM269 557
c0 -27 -22 -49 -49 -49c-28 0 -49 22 -49 50c0 27 22 48 50 48c25 0 48 -24 48 -49z" />
    <glyph glyph-name="yacute" unicode="&#xfd;" horiz-adv-x="444" 
d="M243 186l21 -110c85 141 122 213 122 257c0 14 -7 20 -26 32c-20 13 -26 23 -26 39c0 22 17 37 40 37c30 0 52 -25 52 -55c0 -57 -48 -167 -131 -305c-104 -172 -211 -287 -268 -287c-30 0 -51 17 -51 43c0 22 17 40 39 40c35 0 35 -28 61 -28c13 0 25 8 48 33
c18 19 63 78 71 91c6 12 10 24 10 35c0 40 -55 264 -82 332c-19 49 -37 64 -77 64c-11 0 -20 -1 -31 -4v17c11 2 22 4 32 6c20 4 53 10 107 18h4c15 0 68 -166 85 -255zM178 494l162 160c7 7 15 10 25 10c20 0 36 -16 36 -36c0 -12 -5 -21 -17 -28l-171 -106h-35z" />
    <glyph glyph-name="thorn" unicode="&#xfe;" 
d="M189 335l2 -2c46 73 99 108 162 108c73 0 116 -47 116 -126c0 -159 -154 -326 -300 -326c-23 0 -41 4 -66 17c-21 -81 -37 -151 -37 -165c0 -23 17 -31 64 -31v-15h-205v16c43 1 55 14 67 59l114 434l68 250l5 19c6 23 9 34 9 43c0 22 -6 25 -65 27v17
c67 8 103 14 152 23l5 -5c-61 -236 -79 -302 -91 -343zM379 313c0 57 -20 85 -62 85c-54 0 -108 -46 -135 -114c-30 -75 -65 -205 -65 -239c0 -22 20 -37 48 -37c53 0 103 32 145 95c42 61 69 144 69 210z" />
    <glyph glyph-name="ydieresis" unicode="&#xff;" horiz-adv-x="444" 
d="M243 186l21 -110c85 141 122 213 122 257c0 14 -7 20 -26 32c-20 13 -26 23 -26 39c0 22 17 37 40 37c30 0 52 -25 52 -55c0 -57 -48 -167 -131 -305c-104 -172 -211 -287 -268 -287c-30 0 -51 17 -51 43c0 22 17 40 39 40c35 0 35 -28 61 -28c13 0 25 8 48 33
c18 19 63 78 71 91c6 12 10 24 10 35c0 40 -55 264 -82 332c-19 49 -37 64 -77 64c-11 0 -20 -1 -31 -4v17c11 2 22 4 32 6c20 4 53 10 107 18h4c15 0 68 -166 85 -255zM442 557c0 -27 -22 -49 -49 -49c-28 0 -49 22 -49 50c0 27 22 48 50 48c25 0 48 -24 48 -49zM242 557
c0 -27 -22 -49 -49 -49c-28 0 -49 22 -49 50c0 27 22 48 50 48c25 0 48 -24 48 -49z" />
    <glyph glyph-name="uni0100" unicode="&#x100;" horiz-adv-x="611" 
d="M536 757l-11 -51h-301l11 51h301zM564 0h-245v16c63 3 77 19 77 53c0 8 -1 17 -2 26l-20 131h-220l-59 -111c-14 -26 -22 -50 -22 -66c0 -19 15 -31 62 -33v-16h-186v16c46 9 59 26 134 156l285 496h26l92 -553c14 -84 25 -95 78 -99v-16zM369 262l-45 263l-149 -263h194
z" />
    <glyph glyph-name="uni0101" unicode="&#x101;" horiz-adv-x="501" 
d="M481 543l-11 -51h-301l11 51h301zM463 111l13 -11c-75 -91 -99 -110 -139 -110c-28 0 -40 12 -40 41c0 25 2 33 23 115c-75 -113 -133 -157 -203 -157c-56 0 -100 40 -100 116c0 155 153 336 286 336c43 0 72 -21 80 -58l11 48l3 3l61 7l7 -3c-2 -9 -3 -11 -6 -21
c-47 -171 -89 -343 -89 -363c0 -7 6 -13 14 -13c9 0 22 8 52 41zM365 361c0 35 -21 58 -56 58c-45 0 -89 -31 -131 -92c-42 -63 -77 -152 -77 -215c0 -55 24 -74 60 -74c50 0 97 55 127 98c47 68 77 154 77 225z" />
    <glyph glyph-name="uni0102" unicode="&#x102;" horiz-adv-x="611" 
d="M502 862h29c-14 -88 -86 -158 -173 -158c-91 0 -128 55 -128 158h29c5 -63 39 -99 107 -99c61 0 114 37 136 99zM564 0h-245v16c63 3 77 19 77 53c0 8 -1 17 -2 26l-20 131h-220l-59 -111c-14 -26 -22 -50 -22 -66c0 -19 15 -31 62 -33v-16h-186v16c46 9 59 26 134 156
l285 496h26l92 -553c14 -84 25 -95 78 -99v-16zM369 262l-45 263l-149 -263h194z" />
    <glyph glyph-name="uni0103" unicode="&#x103;" horiz-adv-x="501" 
d="M452 650h29c-14 -88 -86 -158 -173 -158c-91 0 -128 55 -128 158h29c5 -63 39 -99 107 -99c61 0 114 37 136 99zM463 111l13 -11c-75 -91 -99 -110 -139 -110c-28 0 -40 12 -40 41c0 25 2 33 23 115c-75 -113 -133 -157 -203 -157c-56 0 -100 40 -100 116
c0 155 153 336 286 336c43 0 72 -21 80 -58l11 48l3 3l61 7l7 -3c-2 -9 -3 -11 -6 -21c-47 -171 -89 -343 -89 -363c0 -7 6 -13 14 -13c9 0 22 8 52 41zM365 361c0 35 -21 58 -56 58c-45 0 -89 -31 -131 -92c-42 -63 -77 -152 -77 -215c0 -55 24 -74 60 -74
c50 0 97 55 127 98c47 68 77 154 77 225z" />
    <glyph glyph-name="uni0104" unicode="&#x104;" horiz-adv-x="611" 
d="M433 0h-114v16c63 3 77 19 77 53c0 8 -1 17 -2 26l-20 131h-220l-59 -111c-14 -26 -22 -50 -22 -66c0 -19 15 -31 62 -33v-16h-186v16c46 9 59 26 134 156l285 496h26l92 -553c14 -84 25 -95 78 -99v-16h-87c-7 -18 -10 -36 -10 -53c0 -30 24 -53 59 -53
c32 0 58 10 83 32l17 -18c-35 -52 -76 -77 -125 -77c-52 0 -95 38 -95 95c0 28 8 51 27 74zM369 262l-45 263l-149 -263h194z" />
    <glyph glyph-name="uni0105" unicode="&#x105;" horiz-adv-x="501" 
d="M512 -74l17 -18c-35 -52 -76 -77 -125 -77c-52 0 -95 38 -95 95c0 24 6 45 20 64c-22 3 -32 15 -32 41c0 25 2 33 23 115c-75 -113 -133 -157 -203 -157c-56 0 -100 40 -100 116c0 155 153 336 286 336c43 0 72 -21 80 -58l11 48l3 3l61 7l7 -3c-2 -9 -3 -11 -6 -21
c-47 -171 -89 -343 -89 -363c0 -7 6 -13 14 -13c9 0 22 8 52 41l27 29l13 -11c-45 -55 -72 -84 -95 -98c-8 -19 -11 -37 -11 -55c0 -30 24 -53 59 -53c32 0 58 10 83 32zM365 361c0 35 -21 58 -56 58c-45 0 -89 -31 -131 -92c-42 -63 -77 -152 -77 -215c0 -55 24 -74 60 -74
c50 0 97 55 127 98c47 68 77 154 77 225z" />
    <glyph glyph-name="uni0106" unicode="&#x106;" horiz-adv-x="667" 
d="M389 706l162 160c7 7 15 10 25 10c20 0 36 -16 36 -36c0 -12 -5 -21 -17 -28l-171 -106h-35zM689 664l-37 -200l-18 3c-12 107 -61 163 -149 163c-74 0 -144 -38 -199 -97c-72 -77 -108 -191 -108 -301c0 -140 64 -205 175 -205c82 0 142 29 229 119l18 -15
c-90 -106 -170 -149 -273 -149c-153 0 -261 96 -261 261c0 141 77 272 187 350c64 46 140 73 219 73c33 0 75 -2 117 -17c20 -7 32 -7 41 -7c20 0 30 6 38 22h21z" />
    <glyph glyph-name="uni0107" unicode="&#x107;" horiz-adv-x="444" 
d="M208 494l162 160c7 7 15 10 25 10c20 0 36 -16 36 -36c0 -12 -5 -21 -17 -28l-171 -106h-35zM350 107l16 -10c-61 -77 -114 -108 -189 -108c-93 0 -147 52 -147 154c0 93 52 180 123 237c49 39 106 61 167 61s105 -34 105 -81c0 -27 -22 -48 -48 -48c-28 0 -39 20 -39 40
c0 18 15 29 15 48c0 12 -14 20 -37 20c-40 0 -80 -18 -109 -48c-56 -59 -91 -144 -91 -233c0 -72 32 -114 89 -114c53 0 91 25 145 82z" />
    <glyph glyph-name="uni0108" unicode="&#x108;" horiz-adv-x="667" 
d="M647 706h-36l-82 104l-137 -104h-39l157 169h49zM689 664l-37 -200l-18 3c-12 107 -61 163 -149 163c-74 0 -144 -38 -199 -97c-72 -77 -108 -191 -108 -301c0 -140 64 -205 175 -205c82 0 142 29 229 119l18 -15c-90 -106 -170 -149 -273 -149c-153 0 -261 96 -261 261
c0 141 77 272 187 350c64 46 140 73 219 73c33 0 75 -2 117 -17c20 -7 32 -7 41 -7c20 0 30 6 38 22h21z" />
    <glyph glyph-name="uni0109" unicode="&#x109;" horiz-adv-x="444" 
d="M427 492h-36l-82 104l-137 -104h-39l157 169h49zM350 107l16 -10c-61 -77 -114 -108 -189 -108c-93 0 -147 52 -147 154c0 93 52 180 123 237c49 39 106 61 167 61s105 -34 105 -81c0 -27 -22 -48 -48 -48c-28 0 -39 20 -39 40c0 18 15 29 15 48c0 12 -14 20 -37 20
c-40 0 -80 -18 -109 -48c-56 -59 -91 -144 -91 -233c0 -72 32 -114 89 -114c53 0 91 25 145 82z" />
    <glyph glyph-name="uni010A" unicode="&#x10a;" horiz-adv-x="667" 
d="M549 769c0 -27 -22 -49 -49 -49c-28 0 -49 22 -49 50c0 27 22 48 50 48c25 0 48 -24 48 -49zM689 664l-37 -200l-18 3c-12 107 -61 163 -149 163c-74 0 -144 -38 -199 -97c-72 -77 -108 -191 -108 -301c0 -140 64 -205 175 -205c82 0 142 29 229 119l18 -15
c-90 -106 -170 -149 -273 -149c-153 0 -261 96 -261 261c0 141 77 272 187 350c64 46 140 73 219 73c33 0 75 -2 117 -17c20 -7 32 -7 41 -7c20 0 30 6 38 22h21z" />
    <glyph glyph-name="uni010B" unicode="&#x10b;" horiz-adv-x="444" 
d="M369 557c0 -27 -22 -49 -49 -49c-28 0 -49 22 -49 50c0 27 22 48 50 48c25 0 48 -24 48 -49zM350 107l16 -10c-61 -77 -114 -108 -189 -108c-93 0 -147 52 -147 154c0 93 52 180 123 237c49 39 106 61 167 61s105 -34 105 -81c0 -27 -22 -48 -48 -48c-28 0 -39 20 -39 40
c0 18 15 29 15 48c0 12 -14 20 -37 20c-40 0 -80 -18 -109 -48c-56 -59 -91 -144 -91 -233c0 -72 32 -114 89 -114c53 0 91 25 145 82z" />
    <glyph glyph-name="uni010C" unicode="&#x10c;" horiz-adv-x="667" 
d="M647 875l-162 -169h-48l-95 169h38l89 -105l141 105h37zM689 664l-37 -200l-18 3c-12 107 -61 163 -149 163c-74 0 -144 -38 -199 -97c-72 -77 -108 -191 -108 -301c0 -140 64 -205 175 -205c82 0 142 29 229 119l18 -15c-90 -106 -170 -149 -273 -149
c-153 0 -261 96 -261 261c0 141 77 272 187 350c64 46 140 73 219 73c33 0 75 -2 117 -17c20 -7 32 -7 41 -7c20 0 30 6 38 22h21z" />
    <glyph glyph-name="uni010D" unicode="&#x10d;" horiz-adv-x="444" 
d="M473 661l-162 -169h-48l-95 169h38l89 -105l141 105h37zM350 107l16 -10c-61 -77 -114 -108 -189 -108c-93 0 -147 52 -147 154c0 93 52 180 123 237c49 39 106 61 167 61s105 -34 105 -81c0 -27 -22 -48 -48 -48c-28 0 -39 20 -39 40c0 18 15 29 15 48
c0 12 -14 20 -37 20c-40 0 -80 -18 -109 -48c-56 -59 -91 -144 -91 -233c0 -72 32 -114 89 -114c53 0 91 25 145 82z" />
    <glyph glyph-name="uni010E" unicode="&#x10e;" horiz-adv-x="722" 
d="M603 875l-162 -169h-48l-95 169h38l89 -105l141 105h37zM131 653h277c175 0 292 -94 292 -269c0 -124 -62 -225 -160 -301c-73 -57 -174 -83 -291 -83h-257v16c56 10 66 17 82 76l122 445c7 25 11 44 11 59c0 27 -15 39 -76 41v16zM310 584l-118 -422
c-17 -62 -22 -82 -22 -95c0 -26 22 -37 68 -37c101 0 179 30 241 90c71 69 110 187 110 288c0 80 -29 143 -78 180c-31 23 -73 35 -131 35c-38 0 -60 -4 -70 -39z" />
    <glyph glyph-name="uni010F" unicode="&#x10f;" horiz-adv-x="609" 
d="M567 461l-9 17c52 35 75 62 75 88c0 11 -5 19 -20 33c-19 17 -25 27 -25 46c0 26 22 46 51 46c33 0 58 -31 58 -71c0 -57 -46 -112 -130 -159zM521 683l6 -6l-39 -152l-60 -219c-31 -114 -65 -230 -65 -246c0 -12 5 -20 18 -20c17 0 28 9 82 71l12 -10
c-49 -73 -97 -114 -147 -114c-26 0 -41 18 -41 45c0 23 2 39 13 89c-59 -99 -110 -132 -178 -132c-65 0 -107 41 -107 117c0 162 162 335 292 335c42 0 59 -19 65 -58h1l45 163c15 53 14 57 14 71c0 21 -9 24 -64 26v17c64 6 100 12 153 23zM356 361c0 36 -24 57 -47 57
c-28 0 -63 -17 -91 -46c-66 -70 -116 -179 -116 -262c0 -46 23 -73 58 -73c92 0 196 172 196 324z" />
    <glyph glyph-name="uni0110" unicode="&#x110;" horiz-adv-x="722" 
d="M130 653h276c183 0 294 -91 294 -269c0 -118 -63 -228 -160 -301c-74 -56 -175 -83 -303 -83h-245v16c56 10 65 15 81 74l65 236h-90l12 42h90l46 164c7 25 11 48 11 64c0 27 -14 35 -77 41v16zM238 326l-46 -164c-16 -58 -22 -82 -22 -95c0 -26 23 -37 69 -37
c97 0 181 30 240 90c68 68 110 175 110 284c0 144 -73 219 -214 219c-43 0 -56 -7 -62 -29l-63 -226h153l-12 -42h-153z" />
    <glyph glyph-name="uni0111" unicode="&#x111;" 
d="M580 560l-10 -39h-84l-58 -215c-31 -114 -65 -230 -65 -246c0 -12 5 -20 18 -20c17 0 28 9 82 71l12 -10c-49 -73 -97 -114 -147 -114c-26 0 -41 18 -41 45c0 23 2 39 13 89c-59 -99 -110 -132 -178 -132c-65 0 -107 41 -107 117c0 162 162 335 292 335
c42 0 59 -19 65 -58h1l37 138h-182l7 39h187c10 40 10 44 10 57c0 21 -9 24 -64 26v17c64 6 100 12 153 23l6 -6l-30 -117h83zM356 361c0 36 -24 57 -47 57c-28 0 -63 -17 -91 -46c-66 -70 -116 -179 -116 -262c0 -46 23 -73 58 -73c92 0 196 172 196 324z" />
    <glyph glyph-name="uni0112" unicode="&#x112;" horiz-adv-x="611" 
d="M596 757l-11 -51h-301l11 51h301zM634 653l-31 -154l-22 2c2 17 3 33 3 46c0 60 -35 73 -192 73c-57 0 -67 -4 -73 -26l-66 -233h78c90 0 101 12 139 97l18 -4l-68 -232l-20 5c5 22 7 34 7 52c0 17 -2 26 -7 31c-11 10 -38 15 -78 15h-78l-32 -112
c-25 -88 -36 -134 -36 -146c0 -24 23 -34 79 -34c98 0 152 12 203 39c32 17 56 45 94 98l16 -8l-62 -162h-507v16c56 10 65 16 81 74l123 442c6 20 11 52 11 64c0 27 -15 35 -77 41v16h497z" />
    <glyph glyph-name="uni0113" unicode="&#x113;" horiz-adv-x="444" 
d="M466 542l-11 -51h-301l11 51h301zM358 109l12 -12c-57 -70 -121 -108 -204 -108c-81 0 -135 54 -135 137c0 155 149 315 299 315c53 0 82 -26 82 -68c0 -86 -105 -164 -284 -187c-10 -20 -10 -46 -10 -61c0 -55 37 -91 93 -91c44 0 75 16 147 75zM152 252l-17 -44
c86 21 124 39 161 74c31 30 50 66 50 97c0 24 -7 39 -35 39c-57 0 -125 -77 -159 -166z" />
    <glyph glyph-name="uni0114" unicode="&#x114;" horiz-adv-x="611" 
d="M572 866h29c-14 -88 -86 -158 -173 -158c-91 0 -128 55 -128 158h29c5 -63 39 -99 107 -99c61 0 114 37 136 99zM634 653l-31 -154l-22 2c2 17 3 33 3 46c0 60 -35 73 -192 73c-57 0 -67 -4 -73 -26l-66 -233h78c90 0 101 12 139 97l18 -4l-68 -232l-20 5c5 22 7 34 7 52
c0 17 -2 26 -7 31c-11 10 -38 15 -78 15h-78l-32 -112c-25 -88 -36 -134 -36 -146c0 -24 23 -34 79 -34c98 0 152 12 203 39c32 17 56 45 94 98l16 -8l-62 -162h-507v16c56 10 65 16 81 74l123 442c6 20 11 52 11 64c0 27 -15 35 -77 41v16h497z" />
    <glyph glyph-name="uni0115" unicode="&#x115;" horiz-adv-x="444" 
d="M442 650h29c-14 -88 -86 -158 -173 -158c-91 0 -128 55 -128 158h29c5 -63 39 -99 107 -99c61 0 114 37 136 99zM358 109l12 -12c-57 -70 -121 -108 -204 -108c-81 0 -135 54 -135 137c0 155 149 315 299 315c53 0 82 -26 82 -68c0 -86 -105 -164 -284 -187
c-10 -20 -10 -46 -10 -61c0 -55 37 -91 93 -91c44 0 75 16 147 75zM152 252l-17 -44c86 21 124 39 161 74c31 30 50 66 50 97c0 24 -7 39 -35 39c-57 0 -125 -77 -159 -166z" />
    <glyph glyph-name="uni0116" unicode="&#x116;" horiz-adv-x="611" 
d="M499 769c0 -27 -22 -49 -49 -49c-28 0 -49 22 -49 50c0 27 22 48 50 48c25 0 48 -24 48 -49zM634 653l-31 -154l-22 2c2 17 3 33 3 46c0 60 -35 73 -192 73c-57 0 -67 -4 -73 -26l-66 -233h78c90 0 101 12 139 97l18 -4l-68 -232l-20 5c5 22 7 34 7 52c0 17 -2 26 -7 31
c-11 10 -38 15 -78 15h-78l-32 -112c-25 -88 -36 -134 -36 -146c0 -24 23 -34 79 -34c98 0 152 12 203 39c32 17 56 45 94 98l16 -8l-62 -162h-507v16c56 10 65 16 81 74l123 442c6 20 11 52 11 64c0 27 -15 35 -77 41v16h497z" />
    <glyph glyph-name="uni0117" unicode="&#x117;" horiz-adv-x="444" 
d="M359 557c0 -27 -22 -49 -49 -49c-28 0 -49 22 -49 50c0 27 22 48 50 48c25 0 48 -24 48 -49zM358 109l12 -12c-57 -70 -121 -108 -204 -108c-81 0 -135 54 -135 137c0 155 149 315 299 315c53 0 82 -26 82 -68c0 -86 -105 -164 -284 -187c-10 -20 -10 -46 -10 -61
c0 -55 37 -91 93 -91c44 0 75 16 147 75zM152 252l-17 -44c86 21 124 39 161 74c31 30 50 66 50 97c0 24 -7 39 -35 39c-57 0 -125 -77 -159 -166z" />
    <glyph glyph-name="uni0118" unicode="&#x118;" horiz-adv-x="611" 
d="M299 0h-300v16c56 10 65 16 81 74l123 442c6 20 11 52 11 64c0 27 -15 35 -77 41v16h497l-31 -154l-22 2c2 17 3 33 3 46c0 60 -35 73 -192 73c-57 0 -67 -4 -73 -26l-66 -233h78c90 0 101 12 139 97l18 -4l-68 -232l-20 5c5 22 7 34 7 52c0 17 -2 26 -7 31
c-11 10 -38 15 -78 15h-78l-32 -112c-25 -88 -36 -134 -36 -146c0 -24 23 -34 79 -34c98 0 152 12 203 39c32 17 56 45 94 98l16 -8l-62 -162h-165c-9 -20 -13 -40 -13 -59c0 -30 24 -53 59 -53c32 0 58 10 83 32l17 -18c-35 -52 -76 -77 -125 -77c-52 0 -95 38 -95 95
c0 30 10 55 32 80z" />
    <glyph glyph-name="uni0119" unicode="&#x119;" horiz-adv-x="444" 
d="M343 -80l17 -18c-35 -52 -76 -77 -125 -77c-52 0 -95 38 -95 95c0 26 7 48 23 69c-79 1 -132 55 -132 137c0 155 149 315 299 315c53 0 82 -26 82 -68c0 -86 -105 -164 -284 -187c-10 -20 -10 -46 -10 -61c0 -55 37 -91 93 -91c44 0 75 16 147 75l12 -12
c-46 -57 -97 -93 -159 -104c-7 -18 -10 -35 -10 -52c0 -30 24 -53 59 -53c32 0 58 10 83 32zM152 252l-17 -44c86 21 124 39 161 74c31 30 50 66 50 97c0 24 -7 39 -35 39c-57 0 -125 -77 -159 -166z" />
    <glyph glyph-name="uni011A" unicode="&#x11a;" horiz-adv-x="611" 
d="M603 875l-162 -169h-48l-95 169h38l89 -105l141 105h37zM634 653l-31 -154l-22 2c2 17 3 33 3 46c0 60 -35 73 -192 73c-57 0 -67 -4 -73 -26l-66 -233h78c90 0 101 12 139 97l18 -4l-68 -232l-20 5c5 22 7 34 7 52c0 17 -2 26 -7 31c-11 10 -38 15 -78 15h-78l-32 -112
c-25 -88 -36 -134 -36 -146c0 -24 23 -34 79 -34c98 0 152 12 203 39c32 17 56 45 94 98l16 -8l-62 -162h-507v16c56 10 65 16 81 74l123 442c6 20 11 52 11 64c0 27 -15 35 -77 41v16h497z" />
    <glyph glyph-name="uni011B" unicode="&#x11b;" horiz-adv-x="444" 
d="M502 661l-162 -169h-48l-95 169h38l89 -105l141 105h37zM358 109l12 -12c-57 -70 -121 -108 -204 -108c-81 0 -135 54 -135 137c0 155 149 315 299 315c53 0 82 -26 82 -68c0 -86 -105 -164 -284 -187c-10 -20 -10 -46 -10 -61c0 -55 37 -91 93 -91c44 0 75 16 147 75z
M152 252l-17 -44c86 21 124 39 161 74c31 30 50 66 50 97c0 24 -7 39 -35 39c-57 0 -125 -77 -159 -166z" />
    <glyph glyph-name="uni011C" unicode="&#x11c;" horiz-adv-x="722" 
d="M653 708h-36l-82 104l-137 -104h-39l157 169h49zM722 319v-16c-65 -4 -82 -15 -97 -72l-49 -187c-77 -43 -149 -62 -237 -62c-87 0 -162 25 -213 76c-47 48 -74 125 -74 193c0 141 75 268 183 343c65 45 141 72 220 72c41 0 90 -7 134 -24c23 -9 33 -10 44 -10
c26 0 43 10 60 34l15 -5l-49 -197l-18 3c-2 43 -15 79 -37 106c-31 38 -79 59 -141 59c-79 0 -147 -38 -195 -99c-65 -83 -106 -194 -106 -305c0 -131 73 -209 202 -209c45 0 83 12 105 34c12 12 17 24 39 101c20 67 26 91 26 113c0 18 -14 30 -47 33l-32 3v16h267z" />
    <glyph glyph-name="uni011D" unicode="&#x11d;" 
d="M447 492h-36l-82 104l-137 -104h-39l157 169h49zM471 366h-49c9 -18 9 -34 9 -51c0 -84 -92 -164 -185 -164c-11 0 -22 1 -31 3c-3 1 -5 1 -7 1c-17 0 -36 -20 -36 -41c0 -18 27 -31 71 -42c96 -23 142 -67 142 -127c0 -87 -77 -151 -210 -151c-102 0 -167 36 -167 108
c0 51 19 78 117 137c-18 11 -27 26 -27 39c0 29 23 59 77 84c-56 20 -79 56 -79 108c0 102 100 171 201 171c38 0 71 -9 98 -28c8 -6 13 -8 16 -8h60v-39zM352 348c0 53 -19 71 -56 71c-62 0 -122 -73 -122 -172c0 -47 22 -75 60 -75c34 0 61 18 85 59c20 34 33 75 33 117z
M325 -90c0 46 -36 74 -143 107c-13 4 -23 7 -34 11c-9 0 -51 -34 -65 -52c-15 -19 -20 -35 -20 -58c0 -70 47 -102 127 -102c81 0 135 43 135 94z" />
    <glyph glyph-name="uni011E" unicode="&#x11e;" horiz-adv-x="722" 
d="M632 866h29c-14 -88 -86 -158 -173 -158c-91 0 -128 55 -128 158h29c5 -63 39 -99 107 -99c61 0 114 37 136 99zM722 319v-16c-65 -4 -82 -15 -97 -72l-49 -187c-77 -43 -149 -62 -237 -62c-87 0 -162 25 -213 76c-47 48 -74 125 -74 193c0 141 75 268 183 343
c65 45 141 72 220 72c41 0 90 -7 134 -24c23 -9 33 -10 44 -10c26 0 43 10 60 34l15 -5l-49 -197l-18 3c-2 43 -15 79 -37 106c-31 38 -79 59 -141 59c-79 0 -147 -38 -195 -99c-65 -83 -106 -194 -106 -305c0 -131 73 -209 202 -209c45 0 83 12 105 34c12 12 17 24 39 101
c20 67 26 91 26 113c0 18 -14 30 -47 33l-32 3v16h267z" />
    <glyph glyph-name="uni011F" unicode="&#x11f;" 
d="M447 650h29c-14 -88 -86 -158 -173 -158c-91 0 -128 55 -128 158h29c5 -63 39 -99 107 -99c61 0 114 37 136 99zM471 366h-49c9 -18 9 -34 9 -51c0 -84 -92 -164 -185 -164c-11 0 -22 1 -31 3c-3 1 -5 1 -7 1c-17 0 -36 -20 -36 -41c0 -18 27 -31 71 -42
c96 -23 142 -67 142 -127c0 -87 -77 -151 -210 -151c-102 0 -167 36 -167 108c0 51 19 78 117 137c-18 11 -27 26 -27 39c0 29 23 59 77 84c-56 20 -79 56 -79 108c0 102 100 171 201 171c38 0 71 -9 98 -28c8 -6 13 -8 16 -8h60v-39zM352 348c0 53 -19 71 -56 71
c-62 0 -122 -73 -122 -172c0 -47 22 -75 60 -75c34 0 61 18 85 59c20 34 33 75 33 117zM325 -90c0 46 -36 74 -143 107c-13 4 -23 7 -34 11c-9 0 -51 -34 -65 -52c-15 -19 -20 -35 -20 -58c0 -70 47 -102 127 -102c81 0 135 43 135 94z" />
    <glyph glyph-name="uni0120" unicode="&#x120;" horiz-adv-x="722" 
d="M539 769c0 -27 -22 -49 -49 -49c-28 0 -49 22 -49 50c0 27 22 48 50 48c25 0 48 -24 48 -49zM722 319v-16c-65 -4 -82 -15 -97 -72l-49 -187c-77 -43 -149 -62 -237 -62c-87 0 -162 25 -213 76c-47 48 -74 125 -74 193c0 141 75 268 183 343c65 45 141 72 220 72
c41 0 90 -7 134 -24c23 -9 33 -10 44 -10c26 0 43 10 60 34l15 -5l-49 -197l-18 3c-2 43 -15 79 -37 106c-31 38 -79 59 -141 59c-79 0 -147 -38 -195 -99c-65 -83 -106 -194 -106 -305c0 -131 73 -209 202 -209c45 0 83 12 105 34c12 12 17 24 39 101c20 67 26 91 26 113
c0 18 -14 30 -47 33l-32 3v16h267z" />
    <glyph glyph-name="uni0121" unicode="&#x121;" 
d="M350 557c0 -27 -22 -49 -49 -49c-28 0 -49 22 -49 50c0 27 22 48 50 48c25 0 48 -24 48 -49zM471 366h-49c9 -18 9 -34 9 -51c0 -84 -92 -164 -185 -164c-11 0 -22 1 -31 3c-3 1 -5 1 -7 1c-17 0 -36 -20 -36 -41c0 -18 27 -31 71 -42c96 -23 142 -67 142 -127
c0 -87 -77 -151 -210 -151c-102 0 -167 36 -167 108c0 51 19 78 117 137c-18 11 -27 26 -27 39c0 29 23 59 77 84c-56 20 -79 56 -79 108c0 102 100 171 201 171c38 0 71 -9 98 -28c8 -6 13 -8 16 -8h60v-39zM352 348c0 53 -19 71 -56 71c-62 0 -122 -73 -122 -172
c0 -47 22 -75 60 -75c34 0 61 18 85 59c20 34 33 75 33 117zM325 -90c0 46 -36 74 -143 107c-13 4 -23 7 -34 11c-9 0 -51 -34 -65 -52c-15 -19 -20 -35 -20 -58c0 -70 47 -102 127 -102c81 0 135 43 135 94z" />
    <glyph glyph-name="uni0122" unicode="&#x122;" horiz-adv-x="722" 
d="M722 319v-16c-65 -4 -82 -15 -97 -72l-49 -187c-77 -43 -149 -62 -237 -62c-87 0 -162 25 -213 76c-47 48 -74 125 -74 193c0 141 75 268 183 343c65 45 141 72 220 72c41 0 90 -7 134 -24c23 -9 33 -10 44 -10c26 0 43 10 60 34l15 -5l-49 -197l-18 3
c-2 43 -15 79 -37 106c-31 38 -79 59 -141 59c-79 0 -147 -38 -195 -99c-65 -83 -106 -194 -106 -305c0 -131 73 -209 202 -209c45 0 83 12 105 34c12 12 17 24 39 101c20 67 26 91 26 113c0 18 -14 30 -47 33l-32 3v16h267zM259 -267l-9 18c53 35 75 61 75 88
c0 10 -6 17 -21 31c-19 17 -24 28 -24 47c0 26 22 46 51 46c33 0 58 -31 58 -71c0 -56 -45 -112 -130 -159z" />
    <glyph glyph-name="uni0123" unicode="&#x123;" 
d="M386 724l9 -17c-53 -35 -75 -62 -75 -89c0 -10 5 -18 20 -32c19 -17 25 -28 25 -45c0 -27 -22 -47 -51 -47c-33 0 -58 30 -58 71c0 57 45 112 130 159zM471 366h-49c9 -18 9 -34 9 -51c0 -84 -92 -164 -185 -164c-11 0 -22 1 -31 3c-3 1 -5 1 -7 1c-17 0 -36 -20 -36 -41
c0 -18 27 -31 71 -42c96 -23 142 -67 142 -127c0 -87 -77 -151 -210 -151c-102 0 -167 36 -167 108c0 51 19 78 117 137c-18 11 -27 26 -27 39c0 29 23 59 77 84c-56 20 -79 56 -79 108c0 102 100 171 201 171c38 0 71 -9 98 -28c8 -6 13 -8 16 -8h60v-39zM352 348
c0 53 -19 71 -56 71c-62 0 -122 -73 -122 -172c0 -47 22 -75 60 -75c34 0 61 18 85 59c20 34 33 75 33 117zM325 -90c0 46 -36 74 -143 107c-13 4 -23 7 -34 11c-9 0 -51 -34 -65 -52c-15 -19 -20 -35 -20 -58c0 -70 47 -102 127 -102c81 0 135 43 135 94z" />
    <glyph glyph-name="uni0124" unicode="&#x124;" horiz-adv-x="722" 
d="M627 706h-36l-82 104l-137 -104h-39l157 169h49zM769 653v-16c-57 -10 -68 -16 -84 -74l-132 -481c-2 -8 -3 -16 -3 -24c0 -28 14 -35 79 -42v-16h-274v16c71 5 89 28 102 77l64 233h-285l-66 -244c-2 -7 -3 -15 -3 -22c0 -29 10 -36 70 -44v-16h-245v16
c56 6 68 21 86 86l118 430c7 27 12 49 12 64c0 29 -14 35 -77 41v16h271v-16c-60 -4 -87 -23 -100 -71l-54 -198h285l46 164c7 26 14 47 14 63c0 24 -16 38 -72 42v16h248z" />
    <glyph glyph-name="uni0125" unicode="&#x125;" 
d="M447 706h-36l-82 104l-137 -104h-39l157 169h49zM465 118l13 -13c-61 -87 -95 -114 -146 -114c-27 0 -44 16 -44 42c0 12 7 43 20 92l55 207c4 16 7 29 7 33c0 15 -5 25 -28 25c-36 0 -100 -61 -152 -140c-40 -61 -56 -96 -96 -250h-75l146 554c8 31 13 48 13 62
c0 17 -23 25 -41 25h-27v15c60 7 99 14 157 27l7 -6l-121 -447c90 146 168 211 230 211c46 0 65 -30 65 -67c0 -25 -18 -99 -48 -193c-17 -52 -33 -114 -33 -125c0 -10 7 -18 16 -18c16 0 28 12 82 80z" />
    <glyph glyph-name="uni0126" unicode="&#x126;" horiz-adv-x="722" 
d="M769 653v-16c-57 -10 -68 -16 -84 -74l-12 -43h88l-12 -44h-88l-108 -394c-2 -8 -3 -16 -3 -24c0 -28 14 -35 79 -42v-16h-274v16c71 5 89 28 102 77l64 233h-285l-66 -244c-2 -7 -3 -15 -3 -22c0 -29 10 -36 70 -44v-16h-245v16c56 6 68 21 86 86l102 374h-103l12 44
h103c11 39 16 61 16 76c0 29 -14 35 -77 41v16h271v-16c-60 -4 -86 -23 -100 -71l-13 -46h286c11 38 18 59 18 75c0 24 -16 38 -72 42v16h248zM563 476h-286l-29 -108h285z" />
    <glyph glyph-name="uni0127" unicode="&#x127;" 
d="M465 118l13 -13c-61 -87 -95 -114 -146 -114c-27 0 -44 16 -44 42c0 12 7 43 20 92l55 207c4 16 7 29 7 33c0 15 -5 25 -28 25c-36 0 -100 -61 -152 -140c-40 -61 -56 -96 -96 -250h-75l132 500h-63l15 54h62c8 31 13 48 13 62c0 17 -23 25 -41 25h-27v15
c60 7 99 14 157 27l7 -6l-33 -123h159l-15 -54h-159l-73 -270c90 146 168 211 230 211c46 0 65 -30 65 -67c0 -25 -18 -99 -48 -193c-17 -52 -33 -114 -33 -125c0 -10 7 -18 16 -18c16 0 28 12 82 80z" />
    <glyph glyph-name="uni0128" unicode="&#x128;" horiz-adv-x="333" 
d="M416 836h28c-14 -67 -47 -104 -95 -104c-13 0 -31 5 -57 15c-54 22 -78 29 -95 29c-25 0 -41 -15 -51 -47h-29c20 77 48 106 100 106c23 0 48 -7 86 -24c30 -14 47 -19 62 -19c27 0 40 11 51 44zM384 653v-16c-56 -7 -65 -16 -82 -77l-120 -429c-9 -32 -15 -56 -15 -76
c0 -28 12 -32 69 -39v-16h-244v16c55 10 69 19 84 75l120 441c7 25 13 46 13 62c0 25 -16 40 -72 43v16h247z" />
    <glyph glyph-name="uni0129" unicode="&#x129;" horiz-adv-x="278" 
d="M329 624h28c-14 -67 -47 -104 -95 -104c-13 0 -31 5 -57 15c-54 22 -78 29 -95 29c-25 0 -41 -15 -51 -47h-29c20 77 48 106 100 106c23 0 48 -7 86 -24c30 -14 47 -19 62 -19c27 0 40 11 51 44zM221 115l14 -12c-53 -82 -87 -114 -138 -114c-30 0 -50 19 -50 57
c0 20 8 50 24 110l48 175c5 19 9 37 9 45c0 20 -9 23 -63 24v16c39 3 58 6 159 25l5 -3l-96 -342c-5 -19 -9 -35 -9 -45c0 -8 6 -15 16 -15c17 0 38 22 81 79z" />
    <glyph glyph-name="uni012A" unicode="&#x12a;" horiz-adv-x="333" 
d="M439 757l-11 -51h-301l11 51h301zM384 653v-16c-56 -7 -65 -16 -82 -77l-120 -429c-9 -32 -15 -56 -15 -76c0 -28 12 -32 69 -39v-16h-244v16c55 10 69 19 84 75l120 441c7 25 13 46 13 62c0 25 -16 40 -72 43v16h247z" />
    <glyph glyph-name="uni012B" unicode="&#x12b;" horiz-adv-x="278" 
d="M341 543l-11 -51h-301l11 51h301zM221 115l14 -12c-53 -82 -87 -114 -138 -114c-30 0 -50 19 -50 57c0 20 8 50 24 110l48 175c5 19 9 37 9 45c0 20 -9 23 -63 24v16c39 3 58 6 159 25l5 -3l-96 -342c-5 -19 -9 -35 -9 -45c0 -8 6 -15 16 -15c17 0 38 22 81 79z" />
    <glyph glyph-name="uni012C" unicode="&#x12c;" horiz-adv-x="333" 
d="M419 866h29c-14 -88 -86 -158 -173 -158c-91 0 -128 55 -128 158h29c5 -63 39 -99 107 -99c61 0 114 37 136 99zM384 653v-16c-56 -7 -65 -16 -82 -77l-120 -429c-9 -32 -15 -56 -15 -76c0 -28 12 -32 69 -39v-16h-244v16c55 10 69 19 84 75l120 441c7 25 13 46 13 62
c0 25 -16 40 -72 43v16h247z" />
    <glyph glyph-name="uni012D" unicode="&#x12d;" horiz-adv-x="278" 
d="M318 650h29c-14 -88 -86 -158 -173 -158c-91 0 -128 55 -128 158h29c5 -63 39 -99 107 -99c61 0 114 37 136 99zM221 115l14 -12c-53 -82 -87 -114 -138 -114c-30 0 -50 19 -50 57c0 20 8 50 24 110l48 175c5 19 9 37 9 45c0 20 -9 23 -63 24v16c39 3 58 6 159 25l5 -3
l-96 -342c-5 -19 -9 -35 -9 -45c0 -8 6 -15 16 -15c17 0 38 22 81 79z" />
    <glyph glyph-name="uni012E" unicode="&#x12e;" horiz-adv-x="333" 
d="M94 0h-102v16c55 10 69 19 84 75l120 441c7 25 13 46 13 62c0 25 -16 40 -72 43v16h247v-16c-56 -7 -65 -16 -82 -77l-120 -429c-9 -32 -15 -56 -15 -76c0 -28 12 -32 69 -39v-16h-98c-7 -18 -10 -36 -10 -53c0 -30 24 -53 59 -53c32 0 58 10 83 32l17 -18
c-35 -52 -76 -77 -125 -77c-52 0 -95 38 -95 95c0 28 8 51 27 74z" />
    <glyph glyph-name="uni012F" unicode="&#x12f;" horiz-adv-x="278" 
d="M102 -11h-4c-33 0 -49 18 -49 55c0 20 7 55 22 111l48 177c5 18 9 36 9 44c0 20 -10 23 -64 24v16c39 3 59 6 160 25l4 -3l-94 -343c-5 -17 -10 -30 -10 -44c0 -10 6 -15 14 -15c17 0 41 21 84 78l13 -11c-30 -46 -53 -76 -76 -93c-11 -22 -15 -42 -15 -63
c0 -30 24 -53 59 -53c32 0 58 10 83 32l17 -18c-35 -52 -76 -77 -125 -77c-52 0 -95 38 -95 95c0 24 6 44 19 63zM264 599c0 -28 -23 -51 -49 -51c-29 0 -48 21 -48 53c0 31 20 53 47 53s50 -26 50 -55z" />
    <glyph glyph-name="uni0130" unicode="&#x130;" horiz-adv-x="333" 
d="M344 769c0 -27 -22 -49 -49 -49c-28 0 -49 22 -49 50c0 27 22 48 50 48c25 0 48 -24 48 -49zM384 653v-16c-56 -7 -65 -16 -82 -77l-120 -429c-9 -32 -15 -56 -15 -76c0 -28 12 -32 69 -39v-16h-244v16c55 10 69 19 84 75l120 441c7 25 13 46 13 62c0 25 -16 40 -72 43
v16h247z" />
    <glyph glyph-name="dotlessi" unicode="&#x131;" horiz-adv-x="278" 
d="M221 115l14 -12c-53 -82 -87 -114 -138 -114c-30 0 -50 19 -50 57c0 20 8 50 24 110l48 175c5 19 9 37 9 45c0 20 -9 23 -63 24v16c39 3 58 6 159 25l5 -3l-96 -342c-5 -19 -9 -35 -9 -45c0 -8 6 -15 16 -15c17 0 38 22 81 79z" />
    <glyph glyph-name="uni0134" unicode="&#x134;" horiz-adv-x="444" 
d="M536 708h-36l-82 104l-137 -104h-39l157 169h49zM491 653v-16c-57 -8 -65 -14 -82 -74l-103 -367c-21 -76 -45 -125 -71 -159c-29 -38 -73 -55 -124 -55c-70 0 -117 35 -117 88c0 32 18 56 45 56s51 -21 51 -46c0 -12 -3 -18 -3 -27c0 -28 11 -39 35 -39s42 24 53 64
l127 454c8 29 12 49 12 64c0 27 -14 35 -77 41v16h254z" />
    <glyph glyph-name="uni0135" unicode="&#x135;" horiz-adv-x="278" 
d="M353 492h-36l-82 104l-137 -104h-39l157 169h49zM246 438l-104 -410c-41 -162 -100 -235 -187 -235c-46 0 -79 25 -79 61c0 24 18 44 41 44c27 0 39 -16 39 -37c0 -22 -12 -19 -12 -34c0 -7 6 -12 18 -12c40 0 63 44 97 182l72 292c12 49 16 70 16 80c0 22 -12 31 -48 31
h-26v16c32 2 85 10 169 25z" />
    <glyph glyph-name="uni0136" unicode="&#x136;" horiz-adv-x="667" 
d="M722 653v-16c-25 0 -48 -15 -77 -37l-298 -225l168 -293c31 -54 41 -60 104 -66v-16h-275v16l29 3c31 3 46 15 46 32c0 21 -19 50 -37 82l-123 215l-65 -237c-8 -28 -11 -40 -11 -51c0 -31 16 -39 71 -44v-16h-247v16c60 7 66 18 81 71l124 445c7 25 14 46 14 62
c0 27 -17 40 -79 43v16h270v-16c-52 -4 -84 -18 -99 -74l-53 -194l153 109c89 63 143 113 143 137c0 11 -12 16 -36 19l-24 3v16h221zM211 -267l-9 18c53 35 75 61 75 88c0 10 -6 17 -21 31c-19 17 -24 28 -24 47c0 26 22 46 51 46c33 0 58 -31 58 -71
c0 -56 -45 -112 -130 -159z" />
    <glyph glyph-name="uni0137" unicode="&#x137;" horiz-adv-x="444" 
d="M461 428v-16c-47 -3 -78 -23 -225 -154l37 -88c39 -92 62 -129 81 -129c15 0 27 11 45 42c5 8 10 17 15 26l15 -11c-46 -84 -71 -109 -111 -109c-29 0 -49 19 -81 82c-18 35 -44 97 -60 141l-40 -32l-48 -180h-75l141 528c13 48 16 71 18 88c-2 18 -17 24 -51 24h-18v16
c59 7 98 14 157 27l6 -6l-120 -456l43 33c94 72 143 120 143 140c0 11 -12 18 -37 18h-14v16h179zM85 -267l-9 18c53 35 75 61 75 88c0 10 -6 17 -21 31c-19 17 -24 28 -24 47c0 26 22 46 51 46c33 0 58 -31 58 -71c0 -56 -45 -112 -130 -159z" />
    <glyph glyph-name="uni0138" unicode="&#x138;" horiz-adv-x="542" 
d="M243 276l42 4c24 2 50 14 69 28c27 19 51 49 75 88c31 50 45 63 100 63c30 0 72 -17 72 -52c0 -26 -26 -41 -49 -41c-44 0 -43 39 -63 39c-17 0 -26 -10 -37 -30c-28 -49 -60 -85 -98 -109c10 -4 15 -6 26 -22c17 -26 37 -118 49 -146c19 -46 67 -73 107 -83l-4 -15h-130
c-23 15 -40 30 -57 72c-15 38 -20 72 -33 116c-8 26 -16 49 -24 54c-20 -1 -38 -2 -54 -2l-43 -162c-3 -10 -4 -20 -4 -27c0 -30 29 -34 64 -35l-5 -16h-241l5 16c31 0 51 3 63 11c12 7 23 24 30 50l80 305c3 11 4 20 4 28c0 33 -24 30 -65 33l4 16h241l-4 -16
c-30 -1 -52 -5 -62 -11c-14 -8 -23 -25 -30 -51z" />
    <glyph glyph-name="uni0139" unicode="&#x139;" horiz-adv-x="556" 
d="M260 706l162 160c7 7 15 10 25 10c20 0 36 -16 36 -36c0 -12 -5 -21 -17 -28l-171 -106h-35zM559 180l-58 -180h-509v16c56 6 64 15 82 78l122 438c8 27 11 47 11 62c0 29 -15 39 -77 43v16h273v-16c-60 -4 -85 -20 -101 -77l-120 -429c-6 -23 -10 -40 -10 -54
c0 -31 23 -41 105 -41c100 0 131 5 180 38c32 21 54 54 82 112z" />
    <glyph glyph-name="uni013A" unicode="&#x13a;" horiz-adv-x="278" 
d="M125 706l162 160c7 7 15 10 25 10c20 0 36 -16 36 -36c0 -12 -5 -21 -17 -28l-171 -106h-35zM279 678l-153 -585c-5 -18 -8 -35 -8 -43c0 -12 7 -18 17 -18c15 0 38 16 67 57l25 35l14 -10c-60 -95 -97 -125 -151 -125c-32 0 -49 19 -49 56c0 8 1 20 4 30l137 524
c3 10 3 16 3 19c0 12 -17 22 -49 22h-18v16c59 7 96 14 155 27z" />
    <glyph glyph-name="uni013B" unicode="&#x13b;" horiz-adv-x="556" 
d="M559 180l-58 -180h-509v16c56 6 64 15 82 78l122 438c8 27 11 47 11 62c0 29 -15 39 -77 43v16h273v-16c-60 -4 -85 -20 -101 -77l-120 -429c-6 -23 -10 -40 -10 -54c0 -31 23 -41 105 -41c100 0 131 5 180 38c32 21 54 54 82 112zM160 -267l-9 18c53 35 75 61 75 88
c0 10 -6 17 -21 31c-19 17 -24 28 -24 47c0 26 22 46 51 46c33 0 58 -31 58 -71c0 -56 -45 -112 -130 -159z" />
    <glyph glyph-name="uni013C" unicode="&#x13c;" horiz-adv-x="278" 
d="M279 678l-153 -585c-5 -18 -8 -35 -8 -43c0 -12 7 -18 17 -18c15 0 38 16 67 57l25 35l14 -10c-60 -95 -97 -125 -151 -125c-32 0 -49 19 -49 56c0 8 1 20 4 30l137 524c3 10 3 16 3 19c0 12 -17 22 -49 22h-18v16c59 7 96 14 155 27zM16 -267l-9 18c53 35 75 61 75 88
c0 10 -6 17 -21 31c-19 17 -24 28 -24 47c0 26 22 46 51 46c33 0 58 -31 58 -71c0 -56 -45 -112 -130 -159z" />
    <glyph glyph-name="uni013D" unicode="&#x13d;" horiz-adv-x="556" 
d="M465 436l-9 17c52 35 75 62 75 88c0 11 -5 19 -20 33c-19 17 -25 27 -25 46c0 26 22 46 51 46c33 0 58 -31 58 -71c0 -57 -46 -112 -130 -159zM559 180l-58 -180h-509v16c56 6 64 15 82 78l122 438c8 27 11 47 11 62c0 29 -15 39 -77 43v16h273v-16
c-60 -4 -85 -20 -101 -77l-120 -429c-6 -23 -10 -40 -10 -54c0 -31 23 -41 105 -41c100 0 131 5 180 38c32 21 54 54 82 112z" />
    <glyph glyph-name="uni013E" unicode="&#x13e;" horiz-adv-x="278" 
d="M318 463l-9 17c52 35 75 62 75 88c0 11 -5 19 -20 33c-19 17 -25 27 -25 46c0 26 22 46 51 46c33 0 58 -31 58 -71c0 -57 -46 -112 -130 -159zM279 678l-153 -585c-5 -18 -8 -35 -8 -43c0 -12 7 -18 17 -18c15 0 38 16 67 57l25 35l14 -10c-60 -95 -97 -125 -151 -125
c-32 0 -49 19 -49 56c0 8 1 20 4 30l137 524c3 10 3 16 3 19c0 12 -17 22 -49 22h-18v16c59 7 96 14 155 27z" />
    <glyph glyph-name="uni013F" unicode="&#x13f;" horiz-adv-x="556" 
d="M459 337c0 -30 -26 -54 -57 -54c-29 0 -54 25 -54 54c0 32 25 57 55 57s56 -26 56 -57zM559 180l-58 -180h-509v16c56 6 64 15 82 78l122 438c8 27 11 47 11 62c0 29 -15 39 -77 43v16h273v-16c-60 -4 -85 -20 -101 -77l-120 -429c-6 -23 -10 -40 -10 -54
c0 -31 23 -41 105 -41c100 0 131 5 180 38c32 21 54 54 82 112z" />
    <glyph glyph-name="uni0140" unicode="&#x140;" horiz-adv-x="323" 
d="M386 337c0 -30 -26 -54 -57 -54c-29 0 -54 25 -54 54c0 32 25 57 55 57s56 -26 56 -57zM279 678l-153 -585c-5 -18 -8 -35 -8 -43c0 -12 7 -18 17 -18c15 0 38 16 67 57l25 35l14 -10c-60 -95 -97 -125 -151 -125c-32 0 -49 19 -49 56c0 8 1 20 4 30l137 524
c3 10 3 16 3 19c0 12 -17 22 -49 22h-18v16c59 7 96 14 155 27z" />
    <glyph glyph-name="Lslash" unicode="&#x141;" horiz-adv-x="556" 
d="M559 180l-59 -180h-508v16c56 7 67 20 83 77l52 191l-99 -59l13 48l99 59l56 200c8 27 11 47 11 62c0 29 -15 37 -78 43v16h273v-16c-61 0 -85 -23 -98 -68l-51 -181l143 85l-14 -49l-142 -83l-54 -195c-12 -42 -17 -67 -17 -74c0 -26 29 -36 98 -36c103 0 140 5 188 36
c33 21 55 54 84 114z" />
    <glyph glyph-name="lslash" unicode="&#x142;" horiz-adv-x="278" 
d="M307 460l-12 -46l-98 -50l-72 -275c-4 -14 -7 -30 -7 -38c0 -13 5 -19 15 -19c18 0 38 16 69 57l26 34l13 -9c-65 -97 -99 -125 -151 -125c-33 0 -49 19 -49 56c0 12 7 42 16 75l52 194l-72 -36l12 46l72 36c48 179 65 247 65 256c0 15 -18 24 -49 24h-20v16
c59 7 97 14 156 27l6 -6l-70 -267z" />
    <glyph glyph-name="uni0143" unicode="&#x143;" horiz-adv-x="667" 
d="M361 706l162 160c7 7 15 10 25 10c20 0 36 -16 36 -36c0 -12 -5 -21 -17 -28l-171 -106h-35zM727 653v-16c-63 -14 -65 -16 -102 -145l-146 -507h-18l-230 550l-114 -422c-6 -21 -9 -41 -9 -54c0 -28 18 -39 70 -43v-16h-198v16c56 8 70 24 106 152l117 415
c-15 35 -39 54 -86 54v16h160l207 -499l106 388c6 21 8 32 8 44c0 36 -12 46 -69 51v16h198z" />
    <glyph glyph-name="uni0144" unicode="&#x144;" 
d="M180 494l162 160c7 7 15 10 25 10c20 0 36 -16 36 -36c0 -12 -5 -21 -17 -28l-171 -106h-35zM460 117l14 -13c-68 -93 -93 -113 -140 -113c-25 0 -47 16 -47 54c0 10 2 23 16 75l44 162c8 31 14 67 14 79c0 18 -9 29 -24 29c-40 0 -85 -49 -148 -142
c-45 -67 -53 -90 -100 -248h-75l96 350c1 5 2 11 2 17c0 20 -14 26 -65 27v16c81 16 109 20 162 31l4 -2l-67 -218c100 160 167 220 231 220c43 0 65 -25 65 -61c0 -18 -4 -39 -10 -60l-56 -203c-10 -36 -14 -53 -14 -61c0 -9 4 -18 16 -18c14 0 32 16 61 53
c7 8 14 17 21 26z" />
    <glyph glyph-name="uni0145" unicode="&#x145;" horiz-adv-x="667" 
d="M727 653v-16c-63 -14 -65 -16 -102 -145l-146 -507h-18l-230 550l-114 -422c-6 -21 -9 -41 -9 -54c0 -28 18 -39 70 -43v-16h-198v16c56 8 70 24 106 152l117 415c-15 35 -39 54 -86 54v16h160l207 -499l106 388c6 21 8 32 8 44c0 36 -12 46 -69 51v16h198zM182 -267
l-9 18c53 35 75 61 75 88c0 10 -6 17 -21 31c-19 17 -24 28 -24 47c0 26 22 46 51 46c33 0 58 -31 58 -71c0 -56 -45 -112 -130 -159z" />
    <glyph glyph-name="uni0146" unicode="&#x146;" 
d="M460 117l14 -13c-68 -93 -93 -113 -140 -113c-25 0 -47 16 -47 54c0 10 2 23 16 75l44 162c8 31 14 67 14 79c0 18 -9 29 -24 29c-40 0 -85 -49 -148 -142c-45 -67 -53 -90 -100 -248h-75l96 350c1 5 2 11 2 17c0 20 -14 26 -65 27v16c81 16 109 20 162 31l4 -2l-67 -218
c100 160 167 220 231 220c43 0 65 -25 65 -61c0 -18 -4 -39 -10 -60l-56 -203c-10 -36 -14 -53 -14 -61c0 -9 4 -18 16 -18c14 0 32 16 61 53c7 8 14 17 21 26zM107 -267l-9 18c53 35 75 61 75 88c0 10 -6 17 -21 31c-19 17 -24 28 -24 47c0 26 22 46 51 46
c33 0 58 -31 58 -71c0 -56 -45 -112 -130 -159z" />
    <glyph glyph-name="uni0147" unicode="&#x147;" horiz-adv-x="667" 
d="M635 875l-162 -169h-48l-95 169h38l89 -105l141 105h37zM727 653v-16c-63 -14 -65 -16 -102 -145l-146 -507h-18l-230 550l-114 -422c-6 -21 -9 -41 -9 -54c0 -28 18 -39 70 -43v-16h-198v16c56 8 70 24 106 152l117 415c-15 35 -39 54 -86 54v16h160l207 -499l106 388
c6 21 8 32 8 44c0 36 -12 46 -69 51v16h198z" />
    <glyph glyph-name="uni0148" unicode="&#x148;" 
d="M475 661l-162 -169h-48l-95 169h38l89 -105l141 105h37zM460 117l14 -13c-68 -93 -93 -113 -140 -113c-25 0 -47 16 -47 54c0 10 2 23 16 75l44 162c8 31 14 67 14 79c0 18 -9 29 -24 29c-40 0 -85 -49 -148 -142c-45 -67 -53 -90 -100 -248h-75l96 350c1 5 2 11 2 17
c0 20 -14 26 -65 27v16c81 16 109 20 162 31l4 -2l-67 -218c100 160 167 220 231 220c43 0 65 -25 65 -61c0 -18 -4 -39 -10 -60l-56 -203c-10 -36 -14 -53 -14 -61c0 -9 4 -18 16 -18c14 0 32 16 61 53c7 8 14 17 21 26z" />
    <glyph glyph-name="uni0149" unicode="&#x149;" horiz-adv-x="577" 
d="M67 461l-9 17c52 35 75 62 75 88c0 11 -5 19 -20 33c-19 17 -25 27 -25 46c0 26 22 46 51 46c33 0 58 -31 58 -71c0 -57 -46 -112 -130 -159zM526 117l14 -13c-68 -93 -93 -113 -140 -113c-25 0 -47 16 -47 54c0 10 2 23 16 75l44 162c8 31 14 67 14 79
c0 18 -9 29 -24 29c-40 0 -85 -49 -148 -142c-45 -67 -53 -90 -100 -248h-75l96 350c1 5 2 11 2 17c0 20 -14 26 -65 27v16c81 16 109 20 162 31l4 -2l-67 -218c100 160 167 220 231 220c43 0 65 -25 65 -61c0 -18 -4 -39 -10 -60l-56 -203c-10 -36 -14 -53 -14 -61
c0 -9 4 -18 16 -18c14 0 32 16 61 53c7 8 14 17 21 26z" />
    <glyph glyph-name="uni014A" unicode="&#x14a;" horiz-adv-x="722" 
d="M329 653l-34 -120c83 104 156 133 232 133c116 0 173 -97 173 -219c0 -179 -91 -465 -349 -465c-54 0 -87 32 -87 74c0 48 34 85 79 85c31 0 53 -31 53 -57c0 -16 -14 -37 -14 -47c0 -12 4 -18 12 -18c38 0 195 51 195 388c0 148 -36 213 -102 213
c-62 0 -131 -48 -219 -187l-90 -322c-6 -20 -11 -42 -11 -54c0 -23 12 -41 55 -41h14v-16h-244v16c56 10 66 17 82 76l123 446c8 30 10 51 10 59c0 25 -14 40 -70 40h-6v16h198z" />
    <glyph glyph-name="uni014B" unicode="&#x14b;" 
d="M213 439l-67 -218c100 160 167 220 231 220c43 0 65 -25 65 -61c0 -18 -4 -39 -10 -60l-77 -292c-43 -163 -100 -236 -187 -236c-46 0 -79 26 -79 62c0 24 18 44 41 44c27 0 39 -16 39 -37c0 -22 -12 -19 -12 -34c0 -7 6 -13 18 -13c40 0 63 46 97 183l72 293
c4 16 17 57 17 71c0 22 -9 29 -24 29c-40 0 -85 -49 -148 -142c-45 -67 -54 -91 -100 -248h-75l96 350c2 5 2 11 2 17c0 20 -14 26 -65 27v16c81 16 109 20 162 31z" />
    <glyph glyph-name="uni014C" unicode="&#x14c;" horiz-adv-x="722" 
d="M666 757l-11 -51h-301l11 51h301zM699 418c0 -146 -88 -285 -207 -365c-65 -44 -140 -71 -214 -71c-130 0 -218 85 -218 234c0 122 73 262 177 353c69 60 152 97 237 97c144 1 225 -96 225 -248zM594 481c0 94 -49 152 -129 152c-74 0 -137 -51 -186 -117
c-73 -99 -114 -232 -114 -332c0 -109 46 -169 130 -169c67 0 124 39 170 95c84 104 129 269 129 371z" />
    <glyph glyph-name="uni014D" unicode="&#x14d;" 
d="M511 543l-11 -51h-301l11 51h301zM468 301c0 -76 -40 -164 -106 -229c-58 -58 -122 -83 -188 -83c-94 0 -147 52 -147 139c0 112 75 227 180 283c39 21 79 30 120 30c81 0 141 -52 141 -140zM384 326c0 61 -28 94 -71 94c-44 0 -88 -31 -128 -91
c-46 -70 -74 -149 -74 -228c0 -60 31 -91 78 -91c44 0 82 29 121 83c46 63 74 157 74 233z" />
    <glyph glyph-name="uni014E" unicode="&#x14e;" horiz-adv-x="722" 
d="M680 866h29c-14 -88 -86 -158 -173 -158c-91 0 -128 55 -128 158h29c5 -63 39 -99 107 -99c61 0 114 37 136 99zM699 418c0 -146 -88 -285 -207 -365c-65 -44 -140 -71 -214 -71c-130 0 -218 85 -218 234c0 122 73 262 177 353c69 60 152 97 237 97
c144 1 225 -96 225 -248zM594 481c0 94 -49 152 -129 152c-74 0 -137 -51 -186 -117c-73 -99 -114 -232 -114 -332c0 -109 46 -169 130 -169c67 0 124 39 170 95c84 104 129 269 129 371z" />
    <glyph glyph-name="uni014F" unicode="&#x14f;" 
d="M504 650h29c-14 -88 -86 -158 -173 -158c-91 0 -128 55 -128 158h29c5 -63 39 -99 107 -99c61 0 114 37 136 99zM468 301c0 -76 -40 -164 -106 -229c-58 -58 -122 -83 -188 -83c-94 0 -147 52 -147 139c0 112 75 227 180 283c39 21 79 30 120 30c81 0 141 -52 141 -140z
M384 326c0 61 -28 94 -71 94c-44 0 -88 -31 -128 -91c-46 -70 -74 -149 -74 -228c0 -60 31 -91 78 -91c44 0 82 29 121 83c46 63 74 157 74 233z" />
    <glyph glyph-name="uni0150" unicode="&#x150;" horiz-adv-x="722" 
d="M497 706l160 160c7 7 17 10 27 10c20 0 36 -16 36 -36c0 -12 -5 -23 -17 -30l-171 -104h-35zM327 706l160 160c7 7 17 10 27 10c20 0 36 -16 36 -36c0 -12 -5 -23 -17 -30l-169 -104h-37zM699 418c0 -146 -88 -285 -207 -365c-65 -44 -140 -71 -214 -71
c-130 0 -218 85 -218 234c0 122 73 262 177 353c69 60 152 97 237 97c144 1 225 -96 225 -248zM594 481c0 94 -49 152 -129 152c-74 0 -137 -51 -186 -117c-73 -99 -114 -232 -114 -332c0 -109 46 -169 130 -169c67 0 124 39 170 95c84 104 129 269 129 371z" />
    <glyph glyph-name="uni0151" unicode="&#x151;" 
d="M318 494l160 160c7 7 17 10 27 10c20 0 36 -16 36 -36c0 -12 -5 -23 -17 -30l-171 -104h-35zM148 494l160 160c7 7 17 10 27 10c20 0 36 -16 36 -36c0 -12 -5 -23 -17 -30l-169 -104h-37zM468 301c0 -76 -40 -164 -106 -229c-58 -58 -122 -83 -188 -83
c-94 0 -147 52 -147 139c0 112 75 227 180 283c39 21 79 30 120 30c81 0 141 -52 141 -140zM384 326c0 61 -28 94 -71 94c-44 0 -88 -31 -128 -91c-46 -70 -74 -149 -74 -228c0 -60 31 -91 78 -91c44 0 82 29 121 83c46 63 74 157 74 233z" />
    <glyph glyph-name="OE" unicode="&#x152;" horiz-adv-x="944" 
d="M964 653l-31 -150h-16c0 52 -2 68 -12 85c-12 21 -47 32 -108 32h-96c-21 0 -30 -8 -37 -32l-64 -227c153 0 170 5 210 95l18 -4l-66 -230l-20 2c3 21 4 25 6 42c-1 47 -21 55 -95 59l-62 3l-56 -204c-8 -31 -11 -46 -11 -55c0 -27 18 -36 75 -36c145 0 204 29 284 139
l16 -6l-65 -166h-346c-37 0 -41 -5 -131 -5c-34 0 -61 -3 -81 -3c-130 0 -227 99 -227 233c0 233 186 441 394 441c22 0 67 -4 98 -8c22 -3 40 -5 54 -5h369zM458 199l73 268c20 73 21 73 21 88c0 45 -44 79 -104 79c-49 0 -95 -18 -136 -54c-90 -78 -155 -236 -155 -378
c0 -118 48 -178 144 -178c42 0 79 14 99 39c24 29 37 60 58 136z" />
    <glyph glyph-name="oe" unicode="&#x153;" horiz-adv-x="667" 
d="M593 105l11 -11c-75 -74 -134 -106 -197 -106c-45 0 -80 22 -104 68c-51 -50 -86 -67 -138 -67c-84 0 -145 61 -145 146c0 144 145 306 274 306c53 0 95 -30 112 -80c69 62 104 80 159 80c51 0 81 -25 81 -68c0 -38 -26 -79 -70 -109c-40 -28 -114 -57 -157 -61
c-25 -2 -32 -6 -36 -19c-5 -17 -10 -49 -10 -70c0 -50 31 -84 75 -84c38 0 67 15 145 75zM580 378c0 23 -13 38 -34 38c-22 0 -47 -14 -70 -39c-39 -42 -58 -78 -84 -162c87 27 104 35 135 62c33 30 53 67 53 101zM343 352c0 40 -23 66 -59 66c-26 0 -51 -12 -73 -35
c-64 -69 -108 -185 -108 -283c0 -57 26 -91 67 -91c34 0 62 19 89 60c39 58 84 210 84 283z" />
    <glyph glyph-name="uni0154" unicode="&#x154;" horiz-adv-x="611" 
d="M289 706l162 160c7 7 15 10 25 10c20 0 36 -16 36 -36c0 -12 -5 -21 -17 -28l-171 -106h-35zM132 653h252c132 0 204 -56 204 -141c0 -48 -25 -97 -66 -128c-31 -24 -64 -36 -131 -51l89 -235c22 -59 42 -82 87 -82v-16h-147l-123 324l-66 5l-55 -203
c-11 -39 -13 -53 -13 -63c0 -30 10 -41 67 -47v-16h-243v16c55 7 69 26 85 85l119 431c7 27 12 46 12 63c0 11 -7 23 -14 28c-11 7 -15 8 -57 14v16zM306 593l-63 -227c25 -4 33 -5 51 -5c119 0 189 57 189 150c0 69 -42 112 -120 112c-31 0 -52 -11 -57 -30z" />
    <glyph glyph-name="uni0155" unicode="&#x155;" horiz-adv-x="389" 
d="M180 494l162 160c7 7 15 10 25 10c20 0 36 -16 36 -36c0 -12 -5 -21 -17 -28l-171 -106h-35zM176 223l16 35c19 42 53 95 94 138c26 27 56 45 79 45c28 0 47 -21 47 -51s-17 -54 -47 -54c-18 0 -26 11 -35 26c-6 10 -9 14 -16 14c-18 0 -46 -33 -82 -94
c-43 -74 -61 -114 -111 -282h-76l81 292c14 52 16 61 16 82s-18 26 -38 26c-8 0 -16 -1 -31 -3v17l155 27l3 -2z" />
    <glyph glyph-name="uni0156" unicode="&#x156;" horiz-adv-x="611" 
d="M132 653h252c132 0 204 -56 204 -141c0 -48 -25 -97 -66 -128c-31 -24 -64 -36 -131 -51l89 -235c22 -59 42 -82 87 -82v-16h-147l-123 324l-66 5l-55 -203c-11 -39 -13 -53 -13 -63c0 -30 10 -41 67 -47v-16h-243v16c55 7 69 26 85 85l119 431c7 27 12 46 12 63
c0 11 -7 23 -14 28c-11 7 -15 8 -57 14v16zM306 593l-63 -227c25 -4 33 -5 51 -5c119 0 189 57 189 150c0 69 -42 112 -120 112c-31 0 -52 -11 -57 -30zM177 -267l-9 18c53 35 75 61 75 88c0 10 -6 17 -21 31c-19 17 -24 28 -24 47c0 26 22 46 51 46c33 0 58 -31 58 -71
c0 -56 -45 -112 -130 -159z" />
    <glyph glyph-name="uni0157" unicode="&#x157;" horiz-adv-x="389" 
d="M176 223l16 35c19 42 53 95 94 138c26 27 56 45 79 45c28 0 47 -21 47 -51s-17 -54 -47 -54c-18 0 -26 11 -35 26c-6 10 -9 14 -16 14c-18 0 -46 -33 -82 -94c-43 -74 -61 -114 -111 -282h-76l81 292c14 52 16 61 16 82s-18 26 -38 26c-8 0 -16 -1 -31 -3v17l155 27l3 -2
zM7 -267l-9 18c53 35 75 61 75 88c0 10 -6 17 -21 31c-19 17 -24 28 -24 47c0 26 22 46 51 46c33 0 58 -31 58 -71c0 -56 -45 -112 -130 -159z" />
    <glyph glyph-name="uni0158" unicode="&#x158;" horiz-adv-x="611" 
d="M574 875l-162 -169h-48l-95 169h38l89 -105l141 105h37zM132 653h252c132 0 204 -56 204 -141c0 -48 -25 -97 -66 -128c-31 -24 -64 -36 -131 -51l89 -235c22 -59 42 -82 87 -82v-16h-147l-123 324l-66 5l-55 -203c-11 -39 -13 -53 -13 -63c0 -30 10 -41 67 -47v-16h-243
v16c55 7 69 26 85 85l119 431c7 27 12 46 12 63c0 11 -7 23 -14 28c-11 7 -15 8 -57 14v16zM306 593l-63 -227c25 -4 33 -5 51 -5c119 0 189 57 189 150c0 69 -42 112 -120 112c-31 0 -52 -11 -57 -30z" />
    <glyph glyph-name="uni0159" unicode="&#x159;" horiz-adv-x="389" 
d="M426 663l-162 -169h-48l-95 169h38l89 -105l141 105h37zM176 223l16 35c19 42 53 95 94 138c26 27 56 45 79 45c28 0 47 -21 47 -51s-17 -54 -47 -54c-18 0 -26 11 -35 26c-6 10 -9 14 -16 14c-18 0 -46 -33 -82 -94c-43 -74 -61 -114 -111 -282h-76l81 292
c14 52 16 61 16 82s-18 26 -38 26c-8 0 -16 -1 -31 -3v17l155 27l3 -2z" />
    <glyph glyph-name="uni015A" unicode="&#x15a;" 
d="M236 706l162 160c7 7 15 10 25 10c20 0 36 -16 36 -36c0 -12 -5 -21 -17 -28l-171 -106h-35zM508 667l-40 -200l-18 3c0 102 -22 163 -119 163c-69 0 -112 -37 -112 -100c0 -49 8 -65 99 -156c91 -92 113 -135 113 -200c0 -114 -87 -195 -202 -195c-31 0 -58 7 -104 23
c-27 10 -36 12 -47 12c-20 0 -36 -9 -43 -32h-18l34 224l20 -2c-2 -9 -2 -16 -2 -23c0 -98 60 -167 144 -167c77 0 131 52 131 128c0 43 -14 73 -60 123l-39 42c-14 15 -26 29 -39 42c-60 64 -75 96 -75 150c0 105 82 164 178 164c31 0 64 -5 85 -14c21 -8 33 -11 46 -11
c22 0 31 5 45 26h23z" />
    <glyph glyph-name="uni015B" unicode="&#x15b;" horiz-adv-x="389" 
d="M180 494l162 160c7 7 15 10 25 10c20 0 36 -16 36 -36c0 -12 -5 -21 -17 -28l-171 -106h-35zM366 442l-20 -140h-16c-10 83 -40 116 -89 116c-35 0 -59 -20 -59 -57c0 -27 15 -56 54 -102c50 -58 68 -97 68 -136c0 -83 -61 -134 -144 -134c-17 0 -32 1 -55 10
c-19 8 -33 9 -44 9s-22 -5 -29 -21h-16l20 159h16c14 -95 48 -136 100 -136c47 0 76 28 76 77c0 32 -17 66 -56 115c-43 54 -63 99 -63 131c0 66 47 108 121 108c17 0 31 -3 56 -10c19 -6 28 -7 36 -7c15 0 22 4 30 18h14z" />
    <glyph glyph-name="uni015C" unicode="&#x15c;" 
d="M484 708h-36l-82 104l-137 -104h-39l157 169h49zM508 667l-40 -200l-18 3c0 102 -22 163 -119 163c-69 0 -112 -37 -112 -100c0 -49 8 -65 99 -156c91 -92 113 -135 113 -200c0 -114 -87 -195 -202 -195c-31 0 -58 7 -104 23c-27 10 -36 12 -47 12c-20 0 -36 -9 -43 -32
h-18l34 224l20 -2c-2 -9 -2 -16 -2 -23c0 -98 60 -167 144 -167c77 0 131 52 131 128c0 43 -14 73 -60 123l-39 42c-14 15 -26 29 -39 42c-60 64 -75 96 -75 150c0 105 82 164 178 164c31 0 64 -5 85 -14c21 -8 33 -11 46 -11c22 0 31 5 45 26h23z" />
    <glyph glyph-name="uni015D" unicode="&#x15d;" horiz-adv-x="389" 
d="M385 492h-36l-82 104l-137 -104h-39l157 169h49zM366 442l-20 -140h-16c-10 83 -40 116 -89 116c-35 0 -59 -20 -59 -57c0 -27 15 -56 54 -102c50 -58 68 -97 68 -136c0 -83 -61 -134 -144 -134c-17 0 -32 1 -55 10c-19 8 -33 9 -44 9s-22 -5 -29 -21h-16l20 159h16
c14 -95 48 -136 100 -136c47 0 76 28 76 77c0 32 -17 66 -56 115c-43 54 -63 99 -63 131c0 66 47 108 121 108c17 0 31 -3 56 -10c19 -6 28 -7 36 -7c15 0 22 4 30 18h14z" />
    <glyph glyph-name="uni015E" unicode="&#x15e;" 
d="M157 -96l50 79c-23 3 -47 10 -82 22c-27 10 -36 12 -47 12c-20 0 -36 -9 -43 -32h-18l34 224l20 -2c-2 -9 -2 -16 -2 -23c0 -98 60 -167 144 -167c77 0 131 52 131 128c0 43 -14 73 -60 123l-39 42c-14 15 -26 29 -39 42c-60 64 -75 96 -75 150c0 105 82 164 178 164
c31 0 64 -5 85 -14c21 -8 33 -11 46 -11c22 0 31 5 45 26h23l-40 -200l-18 3c0 102 -22 163 -119 163c-69 0 -112 -37 -112 -100c0 -49 8 -65 99 -156c91 -92 113 -135 113 -200c0 -109 -80 -188 -188 -194l-32 -49c10 2 16 3 25 3c50 0 82 -26 82 -68
c0 -50 -49 -86 -119 -86c-28 0 -51 5 -93 21l17 29c30 -11 47 -15 68 -15c34 0 53 15 53 41s-19 44 -46 44c-10 0 -18 -2 -32 -7z" />
    <glyph glyph-name="uni015F" unicode="&#x15f;" horiz-adv-x="389" 
d="M80 -96l54 87c-8 1 -18 4 -29 8c-19 8 -33 9 -44 9s-22 -5 -29 -21h-16l20 159h16c14 -95 48 -136 100 -136c47 0 76 28 76 77c0 32 -17 66 -56 115c-43 54 -63 99 -63 131c0 66 47 108 121 108c17 0 31 -3 56 -10c19 -6 28 -7 36 -7c15 0 22 4 30 18h14l-20 -140h-16
c-10 83 -40 116 -89 116c-35 0 -59 -20 -59 -57c0 -27 15 -56 54 -102c50 -58 68 -97 68 -136c0 -79 -56 -129 -133 -134l-37 -55c10 2 16 3 25 3c50 0 82 -26 82 -68c0 -50 -49 -86 -119 -86c-28 0 -51 5 -93 21l17 29c30 -11 47 -15 68 -15c34 0 53 15 53 41
s-19 44 -46 44c-10 0 -18 -2 -32 -7z" />
    <glyph glyph-name="Scaron" unicode="&#x160;" 
d="M532 875l-162 -169h-48l-95 169h38l89 -105l141 105h37zM508 667l-40 -200l-18 3c0 102 -22 163 -119 163c-69 0 -112 -37 -112 -100c0 -49 8 -65 99 -156c91 -92 113 -135 113 -200c0 -114 -87 -195 -202 -195c-31 0 -58 7 -104 23c-27 10 -36 12 -47 12
c-20 0 -36 -9 -43 -32h-18l34 224l20 -2c-2 -9 -2 -16 -2 -23c0 -98 60 -167 144 -167c77 0 131 52 131 128c0 43 -14 73 -60 123l-39 42c-14 15 -26 29 -39 42c-60 64 -75 96 -75 150c0 105 82 164 178 164c31 0 64 -5 85 -14c21 -8 33 -11 46 -11c22 0 31 5 45 26h23z" />
    <glyph glyph-name="scaron" unicode="&#x161;" horiz-adv-x="389" 
d="M426 663l-162 -169h-48l-95 169h38l89 -105l141 105h37zM366 442l-20 -140h-16c-10 83 -40 116 -89 116c-35 0 -59 -20 -59 -57c0 -27 15 -56 54 -102c50 -58 68 -97 68 -136c0 -83 -61 -134 -144 -134c-17 0 -32 1 -55 10c-19 8 -33 9 -44 9s-22 -5 -29 -21h-16l20 159
h16c14 -95 48 -136 100 -136c47 0 76 28 76 77c0 32 -17 66 -56 115c-43 54 -63 99 -63 131c0 66 47 108 121 108c17 0 31 -3 56 -10c19 -6 28 -7 36 -7c15 0 22 4 30 18h14z" />
    <glyph glyph-name="uni0162" unicode="&#x162;" horiz-adv-x="556" 
d="M179 0h-114v16c69 6 92 21 107 75l143 527c-158 0 -190 -16 -238 -124l-18 4l42 155h532l-44 -164l-17 2c2 17 3 33 3 46c0 53 -36 81 -101 81h-58l-137 -490c-6 -21 -14 -44 -14 -66c0 -31 12 -39 53 -43l35 -3v-16h-136l-44 -66c10 2 16 3 25 3c50 0 82 -26 82 -68
c0 -50 -49 -86 -119 -86c-28 0 -51 5 -93 21l17 29c30 -11 47 -15 68 -15c34 0 53 15 53 41s-19 44 -46 44c-10 0 -18 -2 -32 -7l-9 8z" />
    <glyph glyph-name="uni0163" unicode="&#x163;" horiz-adv-x="278" 
d="M296 428l-5 -32h-84l-87 -328c-1 -4 -2 -11 -2 -14c0 -13 6 -16 15 -16c16 0 32 16 81 79l13 -7c-60 -92 -91 -121 -143 -121c-27 0 -46 12 -46 37c0 11 8 42 16 74l78 296h-75c-1 3 -1 6 -1 6c0 11 9 20 33 25c32 7 97 56 133 110c4 6 10 9 14 9c6 0 9 -3 9 -8
c0 0 0 -5 -1 -7l-28 -103h80zM111 0l-44 -66c10 2 16 3 25 3c50 0 82 -26 82 -68c0 -50 -49 -86 -119 -86c-28 0 -51 5 -93 21l17 29c30 -11 47 -15 68 -15c34 0 53 15 53 41s-19 44 -46 44c-10 0 -18 -2 -32 -7l-9 8l60 96h38z" />
    <glyph glyph-name="uni0164" unicode="&#x164;" horiz-adv-x="556" 
d="M565 875l-162 -169h-48l-95 169h38l89 -105l141 105h37zM633 653l-44 -164l-17 2c2 17 3 33 3 46c0 53 -36 81 -101 81h-58l-137 -490c-6 -21 -14 -44 -14 -66c0 -31 12 -39 53 -43l35 -3v-16h-288v16c69 6 92 21 107 75l143 527c-158 0 -190 -16 -238 -124l-18 4l42 155
h532z" />
    <glyph glyph-name="uni0165" unicode="&#x165;" horiz-adv-x="278" 
d="M323 463l-9 17c52 35 75 62 75 88c0 11 -5 19 -20 33c-19 17 -25 27 -25 46c0 26 22 46 51 46c33 0 58 -31 58 -71c0 -57 -46 -112 -130 -159zM296 428l-5 -32h-84l-87 -328c-1 -4 -2 -11 -2 -14c0 -13 6 -16 15 -16c16 0 32 16 81 79l13 -7c-60 -92 -91 -121 -143 -121
c-27 0 -46 12 -46 37c0 11 8 42 16 74l78 296h-75c-1 3 -1 6 -1 6c0 11 9 20 33 25c32 7 97 56 133 110c4 6 10 9 14 9c6 0 9 -3 9 -8c0 0 0 -5 -1 -7l-28 -103h80z" />
    <glyph glyph-name="uni0166" unicode="&#x166;" horiz-adv-x="556" 
d="M633 653l-44 -164l-17 2c2 17 3 33 3 46c0 53 -36 81 -101 81h-58l-76 -271h130l-12 -44h-130l-49 -175c-6 -21 -14 -44 -14 -66c0 -31 12 -39 53 -43l35 -3v-16h-288v16c69 6 92 21 107 75l57 212h-115l12 44h115l74 271c-158 0 -190 -16 -238 -124l-18 4l42 155h532z
" />
    <glyph glyph-name="uni0167" unicode="&#x167;" horiz-adv-x="278" 
d="M296 428l-5 -32h-84l-36 -134h98l-12 -44h-97l-40 -150c-1 -4 -2 -11 -2 -14c0 -13 6 -16 15 -16c16 0 32 16 81 79l13 -7c-60 -92 -91 -121 -143 -121c-27 0 -46 12 -46 37c0 11 8 42 16 74l31 118h-57l12 44h56l36 134h-75c-1 3 -1 6 -1 6c0 11 9 20 33 25
c32 7 97 56 133 110c4 6 10 9 14 9c6 0 9 -3 9 -8c0 0 0 -5 -1 -7l-28 -103h80z" />
    <glyph glyph-name="uni0168" unicode="&#x168;" horiz-adv-x="722" 
d="M625 836h28c-14 -67 -47 -104 -95 -104c-13 0 -31 5 -57 15c-54 22 -78 29 -95 29c-25 0 -41 -15 -51 -47h-29c20 77 48 106 100 106c23 0 48 -7 86 -24c30 -14 47 -19 62 -19c27 0 40 11 51 44zM765 653v-16c-62 -14 -66 -19 -104 -149l-83 -285
c-22 -75 -54 -133 -97 -169c-43 -37 -93 -52 -158 -52c-131 0 -221 69 -221 164c0 54 18 121 44 216l52 189c5 18 9 33 9 45c0 26 -18 39 -80 41v16h272v-16c-68 -7 -85 -22 -104 -91l-63 -226c-27 -95 -40 -157 -40 -179c0 -71 60 -118 138 -118c113 0 175 68 220 232
l64 233c16 59 23 94 23 103c0 30 -17 41 -70 46v16h198z" />
    <glyph glyph-name="uni0169" unicode="&#x169;" 
d="M444 624h28c-14 -67 -47 -104 -95 -104c-13 0 -31 5 -57 15c-54 22 -78 29 -95 29c-25 0 -41 -15 -51 -47h-29c20 77 48 106 100 106c23 0 48 -7 86 -24c30 -14 47 -19 62 -19c27 0 40 11 51 44zM461 119l14 -9c-65 -99 -91 -119 -138 -119c-30 0 -48 17 -48 48
c0 22 13 89 45 197c-118 -194 -168 -247 -239 -247c-35 0 -53 16 -53 53c0 19 9 55 27 128l35 139c8 33 14 59 14 67c0 7 -5 15 -11 18c-9 5 -12 6 -50 6v14c57 7 93 14 150 27l4 -3l-89 -355c-1 -3 -3 -12 -3 -16c0 -15 5 -25 20 -25c34 0 80 53 142 147
c47 71 61 109 110 243h74l-79 -299c-5 -19 -19 -66 -19 -78c0 -11 4 -17 11 -17c16 0 32 14 83 81z" />
    <glyph glyph-name="uni016A" unicode="&#x16a;" horiz-adv-x="722" 
d="M651 757l-11 -51h-301l11 51h301zM765 653v-16c-62 -14 -66 -19 -104 -149l-83 -285c-22 -75 -54 -133 -97 -169c-43 -37 -93 -52 -158 -52c-131 0 -221 69 -221 164c0 54 18 121 44 216l52 189c5 18 9 33 9 45c0 26 -18 39 -80 41v16h272v-16c-68 -7 -85 -22 -104 -91
l-63 -226c-27 -95 -40 -157 -40 -179c0 -71 60 -118 138 -118c113 0 175 68 220 232l64 233c16 59 23 94 23 103c0 30 -17 41 -70 46v16h198z" />
    <glyph glyph-name="uni016B" unicode="&#x16b;" 
d="M456 543l-11 -51h-301l11 51h301zM461 119l14 -9c-65 -99 -91 -119 -138 -119c-30 0 -48 17 -48 48c0 22 13 89 45 197c-118 -194 -168 -247 -239 -247c-35 0 -53 16 -53 53c0 19 9 55 27 128l35 139c8 33 14 59 14 67c0 7 -5 15 -11 18c-9 5 -12 6 -50 6v14
c57 7 93 14 150 27l4 -3l-89 -355c-1 -3 -3 -12 -3 -16c0 -15 5 -25 20 -25c34 0 80 53 142 147c47 71 61 109 110 243h74l-79 -299c-5 -19 -19 -66 -19 -78c0 -11 4 -17 11 -17c16 0 32 14 83 81z" />
    <glyph glyph-name="uni016C" unicode="&#x16c;" horiz-adv-x="722" 
d="M641 866h29c-14 -88 -86 -158 -173 -158c-91 0 -128 55 -128 158h29c5 -63 39 -99 107 -99c61 0 114 37 136 99zM765 653v-16c-62 -14 -66 -19 -104 -149l-83 -285c-22 -75 -54 -133 -97 -169c-43 -37 -93 -52 -158 -52c-131 0 -221 69 -221 164c0 54 18 121 44 216
l52 189c5 18 9 33 9 45c0 26 -18 39 -80 41v16h272v-16c-68 -7 -85 -22 -104 -91l-63 -226c-27 -95 -40 -157 -40 -179c0 -71 60 -118 138 -118c113 0 175 68 220 232l64 233c16 59 23 94 23 103c0 30 -17 41 -70 46v16h198z" />
    <glyph glyph-name="uni016D" unicode="&#x16d;" 
d="M451 650h29c-14 -88 -86 -158 -173 -158c-91 0 -128 55 -128 158h29c5 -63 39 -99 107 -99c61 0 114 37 136 99zM461 119l14 -9c-65 -99 -91 -119 -138 -119c-30 0 -48 17 -48 48c0 22 13 89 45 197c-118 -194 -168 -247 -239 -247c-35 0 -53 16 -53 53c0 19 9 55 27 128
l35 139c8 33 14 59 14 67c0 7 -5 15 -11 18c-9 5 -12 6 -50 6v14c57 7 93 14 150 27l4 -3l-89 -355c-1 -3 -3 -12 -3 -16c0 -15 5 -25 20 -25c34 0 80 53 142 147c47 71 61 109 110 243h74l-79 -299c-5 -19 -19 -66 -19 -78c0 -11 4 -17 11 -17c16 0 32 14 83 81z" />
    <glyph glyph-name="uni016E" unicode="&#x16e;" horiz-adv-x="722" 
d="M590 807c0 -54 -45 -99 -100 -99c-57 0 -100 44 -100 100c0 54 45 99 99 99c56 0 101 -45 101 -100zM556 807c0 37 -30 66 -67 66c-35 0 -65 -30 -65 -65c0 -37 28 -66 65 -66c38 0 67 28 67 65zM765 653v-16c-62 -14 -66 -19 -104 -149l-83 -285
c-22 -75 -54 -133 -97 -169c-43 -37 -93 -52 -158 -52c-131 0 -221 69 -221 164c0 54 18 121 44 216l52 189c5 18 9 33 9 45c0 26 -18 39 -80 41v16h272v-16c-68 -7 -85 -22 -104 -91l-63 -226c-27 -95 -40 -157 -40 -179c0 -71 60 -118 138 -118c113 0 175 68 220 232
l64 233c16 59 23 94 23 103c0 30 -17 41 -70 46v16h198z" />
    <glyph glyph-name="uni016F" unicode="&#x16f;" 
d="M410 591c0 -54 -45 -99 -100 -99c-57 0 -100 44 -100 100c0 54 45 99 99 99c56 0 101 -45 101 -100zM376 591c0 37 -30 66 -67 66c-35 0 -65 -30 -65 -65c0 -37 28 -66 65 -66c38 0 67 28 67 65zM461 119l14 -9c-65 -99 -91 -119 -138 -119c-30 0 -48 17 -48 48
c0 22 13 89 45 197c-118 -194 -168 -247 -239 -247c-35 0 -53 16 -53 53c0 19 9 55 27 128l35 139c8 33 14 59 14 67c0 7 -5 15 -11 18c-9 5 -12 6 -50 6v14c57 7 93 14 150 27l4 -3l-89 -355c-1 -3 -3 -12 -3 -16c0 -15 5 -25 20 -25c34 0 80 53 142 147
c47 71 61 109 110 243h74l-79 -299c-5 -19 -19 -66 -19 -78c0 -11 4 -17 11 -17c16 0 32 14 83 81z" />
    <glyph glyph-name="uni0170" unicode="&#x170;" horiz-adv-x="722" 
d="M461 706l160 160c7 7 17 10 27 10c20 0 36 -16 36 -36c0 -12 -5 -23 -17 -30l-171 -104h-35zM291 706l160 160c7 7 17 10 27 10c20 0 36 -16 36 -36c0 -12 -5 -23 -17 -30l-169 -104h-37zM765 653v-16c-62 -14 -66 -19 -104 -149l-83 -285c-22 -75 -54 -133 -97 -169
c-43 -37 -93 -52 -158 -52c-131 0 -221 69 -221 164c0 54 18 121 44 216l52 189c5 18 9 33 9 45c0 26 -18 39 -80 41v16h272v-16c-68 -7 -85 -22 -104 -91l-63 -226c-27 -95 -40 -157 -40 -179c0 -71 60 -118 138 -118c113 0 175 68 220 232l64 233c16 59 23 94 23 103
c0 30 -17 41 -70 46v16h198z" />
    <glyph glyph-name="uni0171" unicode="&#x171;" 
d="M288 494l160 160c7 7 17 10 27 10c20 0 36 -16 36 -36c0 -12 -5 -23 -17 -30l-171 -104h-35zM118 494l160 160c7 7 17 10 27 10c20 0 36 -16 36 -36c0 -12 -5 -23 -17 -30l-169 -104h-37zM461 119l14 -9c-65 -99 -91 -119 -138 -119c-30 0 -48 17 -48 48
c0 22 13 89 45 197c-118 -194 -168 -247 -239 -247c-35 0 -53 16 -53 53c0 19 9 55 27 128l35 139c8 33 14 59 14 67c0 7 -5 15 -11 18c-9 5 -12 6 -50 6v14c57 7 93 14 150 27l4 -3l-89 -355c-1 -3 -3 -12 -3 -16c0 -15 5 -25 20 -25c34 0 80 53 142 147
c47 71 61 109 110 243h74l-79 -299c-5 -19 -19 -66 -19 -78c0 -11 4 -17 11 -17c16 0 32 14 83 81z" />
    <glyph glyph-name="uni0172" unicode="&#x172;" horiz-adv-x="722" 
d="M548 -74l17 -18c-35 -52 -76 -77 -125 -77c-52 0 -95 38 -95 95c0 21 5 40 15 58c-12 -1 -24 -2 -37 -2c-131 0 -221 69 -221 164c0 54 18 121 44 216l52 189c5 18 9 33 9 45c0 26 -18 39 -80 41v16h272v-16c-68 -7 -85 -22 -104 -91l-63 -226c-27 -95 -40 -157 -40 -179
c0 -71 60 -118 138 -118c113 0 175 68 220 232l64 233c16 59 23 94 23 103c0 30 -17 41 -70 46v16h198v-16c-62 -14 -66 -19 -104 -149l-83 -285c-22 -75 -54 -133 -97 -169c-20 -17 -42 -30 -66 -38c-6 -17 -9 -33 -9 -49c0 -30 24 -53 59 -53c32 0 58 10 83 32z" />
    <glyph glyph-name="uni0173" unicode="&#x173;" 
d="M338 -9h-1c-30 0 -48 17 -48 48c0 22 13 89 45 197c-118 -194 -168 -247 -239 -247c-35 0 -53 16 -53 53c0 19 9 55 27 128l35 139c8 33 14 59 14 67c0 7 -5 15 -11 18c-9 5 -12 6 -50 6v14c57 7 93 14 150 27l4 -3l-89 -355c-1 -3 -3 -12 -3 -16c0 -15 5 -25 20 -25
c34 0 80 53 142 147c47 71 61 109 110 243h74l-79 -299c-5 -19 -19 -66 -19 -78c0 -11 4 -17 11 -17c16 0 32 14 83 81l14 -9c-36 -55 -60 -85 -82 -102c-10 -21 -14 -41 -14 -61c0 -30 24 -53 59 -53c32 0 58 10 83 32l17 -18c-35 -52 -76 -77 -125 -77
c-52 0 -95 38 -95 95c0 24 6 45 20 65z" />
    <glyph glyph-name="uni0174" unicode="&#x174;" horiz-adv-x="833" 
d="M643 708h-36l-82 104l-137 -104h-39l157 169h49zM906 653v-16c-38 -12 -48 -20 -77 -75l-301 -580h-20l-50 453h-5l-222 -453h-19l-61 514c-11 94 -15 111 -29 126c-9 9 -19 11 -51 15v16h235v-16c-51 -5 -72 -13 -72 -51c0 -5 0 -13 1 -20l44 -404l172 348l-8 65
c-6 51 -17 60 -75 62v16h236v-16c-51 -5 -68 -16 -68 -48c0 -6 2 -12 2 -15l40 -412l188 365c13 25 23 49 23 68c0 25 -17 41 -67 42v16h184z" />
    <glyph glyph-name="uni0175" unicode="&#x175;" horiz-adv-x="667" 
d="M537 492h-36l-82 104l-137 -104h-39l157 169h49zM403 426l32 -352c131 164 165 217 165 260c0 12 -6 20 -22 35s-21 27 -21 41c0 16 17 31 39 31c30 0 52 -24 52 -56c0 -64 -74 -181 -212 -349l-9 -11c-27 -33 -36 -43 -45 -43c-7 0 -9 9 -11 35l-29 310l-89 -152
c-18 -30 -36 -63 -55 -99c-36 -69 -53 -94 -64 -94c-9 0 -11 8 -13 47l-4 91c-4 87 -15 194 -27 242c-9 37 -18 42 -47 42h-28v13c31 5 65 9 95 17c13 3 22 7 29 7c11 0 12 -2 19 -34c14 -68 28 -193 32 -281l192 304c5 8 8 10 13 10c6 0 8 -3 8 -14z" />
    <glyph glyph-name="uni0176" unicode="&#x176;" horiz-adv-x="556" 
d="M537 708h-36l-82 104l-137 -104h-39l157 169h49zM633 653v-16c-29 -10 -37 -20 -70 -61l-219 -270l-36 -123c-23 -79 -30 -106 -30 -127c0 -25 14 -34 53 -37l36 -3v-16h-289v16c66 4 89 17 107 81l59 205l-76 267c-15 52 -21 60 -77 68v16h239v-16
c-60 -6 -72 -14 -72 -36c0 -15 12 -59 36 -144l31 -110l39 46c105 124 149 186 149 213c0 17 -11 25 -40 28l-29 3v16h189z" />
    <glyph glyph-name="uni0177" unicode="&#x177;" horiz-adv-x="444" 
d="M398 492h-36l-82 104l-137 -104h-39l157 169h49zM243 186l21 -110c85 141 122 213 122 257c0 14 -7 20 -26 32c-20 13 -26 23 -26 39c0 22 17 37 40 37c30 0 52 -25 52 -55c0 -57 -48 -167 -131 -305c-104 -172 -211 -287 -268 -287c-30 0 -51 17 -51 43
c0 22 17 40 39 40c35 0 35 -28 61 -28c13 0 25 8 48 33c18 19 63 78 71 91c6 12 10 24 10 35c0 40 -55 264 -82 332c-19 49 -37 64 -77 64c-11 0 -20 -1 -31 -4v17c11 2 22 4 32 6c20 4 53 10 107 18h4c15 0 68 -166 85 -255z" />
    <glyph glyph-name="Ydieresis" unicode="&#x178;" horiz-adv-x="556" 
d="M539 769c0 -27 -22 -49 -49 -49c-28 0 -49 22 -49 50c0 27 22 48 50 48c25 0 48 -24 48 -49zM339 769c0 -27 -22 -49 -49 -49c-28 0 -49 22 -49 50c0 27 22 48 50 48c25 0 48 -24 48 -49zM633 653v-16c-29 -10 -37 -20 -70 -61l-219 -270l-36 -123
c-23 -79 -30 -106 -30 -127c0 -25 14 -34 53 -37l36 -3v-16h-289v16c66 4 89 17 107 81l59 205l-76 267c-15 52 -21 60 -77 68v16h239v-16c-60 -6 -72 -14 -72 -36c0 -15 12 -59 36 -144l31 -110l39 46c105 124 149 186 149 213c0 17 -11 25 -40 28l-29 3v16h189z" />
    <glyph glyph-name="uni0179" unicode="&#x179;" horiz-adv-x="556" 
d="M297 706l162 160c7 7 15 10 25 10c20 0 36 -16 36 -36c0 -12 -5 -21 -17 -28l-171 -106h-35zM606 639l-483 -603h161c87 0 135 4 173 32c27 20 53 55 77 104l19 -3l-54 -169h-505v14l479 603h-171c-64 0 -112 -7 -142 -27c-31 -21 -39 -37 -66 -89l-19 5l45 147h486v-14z
" />
    <glyph glyph-name="uni017A" unicode="&#x17a;" horiz-adv-x="389" 
d="M167 494l162 160c7 7 15 10 25 10c20 0 36 -16 36 -36c0 -12 -5 -21 -17 -28l-171 -106h-35zM380 417l-289 -344c58 -13 80 -24 120 -83c26 -38 45 -50 70 -50c16 0 27 6 27 15c0 4 -2 9 -5 15c-6 12 -8 20 -8 28c1 17 17 34 33 34c21 0 35 -15 35 -37
c0 -40 -37 -76 -93 -76c-29 0 -63 13 -113 44c-47 29 -79 42 -105 42c-16 0 -29 -5 -45 -18l-9 9l310 372h-136c-52 0 -71 -9 -91 -60l-16 4l32 116h283v-11z" />
    <glyph glyph-name="uni017B" unicode="&#x17b;" horiz-adv-x="556" 
d="M399 769c0 -27 -22 -49 -49 -49c-28 0 -49 22 -49 50c0 27 22 48 50 48c25 0 48 -24 48 -49zM606 639l-483 -603h161c87 0 135 4 173 32c27 20 53 55 77 104l19 -3l-54 -169h-505v14l479 603h-171c-64 0 -112 -7 -142 -27c-31 -21 -39 -37 -66 -89l-19 5l45 147h486v-14z
" />
    <glyph glyph-name="uni017C" unicode="&#x17c;" horiz-adv-x="389" 
d="M289 557c0 -27 -22 -49 -49 -49c-28 0 -49 22 -49 50c0 27 22 48 50 48c25 0 48 -24 48 -49zM380 417l-289 -344c58 -13 80 -24 120 -83c26 -38 45 -50 70 -50c16 0 27 6 27 15c0 4 -2 9 -5 15c-6 12 -8 20 -8 28c1 17 17 34 33 34c21 0 35 -15 35 -37
c0 -40 -37 -76 -93 -76c-29 0 -63 13 -113 44c-47 29 -79 42 -105 42c-16 0 -29 -5 -45 -18l-9 9l310 372h-136c-52 0 -71 -9 -91 -60l-16 4l32 116h283v-11z" />
    <glyph glyph-name="Zcaron" unicode="&#x17d;" horiz-adv-x="556" 
d="M513 875l-162 -169h-48l-95 169h38l89 -105l141 105h37zM606 639l-483 -603h161c87 0 135 4 173 32c27 20 53 55 77 104l19 -3l-54 -169h-505v14l479 603h-171c-64 0 -112 -7 -142 -27c-31 -21 -39 -37 -66 -89l-19 5l45 147h486v-14z" />
    <glyph glyph-name="zcaron" unicode="&#x17e;" horiz-adv-x="389" 
d="M426 663l-162 -169h-48l-95 169h38l89 -105l141 105h37zM380 417l-289 -344c58 -13 80 -24 120 -83c26 -38 45 -50 70 -50c16 0 27 6 27 15c0 4 -2 9 -5 15c-6 12 -8 20 -8 28c1 17 17 34 33 34c21 0 35 -15 35 -37c0 -40 -37 -76 -93 -76c-29 0 -63 13 -113 44
c-47 29 -79 42 -105 42c-16 0 -29 -5 -45 -18l-9 9l310 372h-136c-52 0 -71 -9 -91 -60l-16 4l32 116h283v-11z" />
    <glyph glyph-name="uni017F" unicode="&#x17f;" horiz-adv-x="383" 
d="M164 450h27c7 34 17 69 28 94c39 86 98 139 190 139c44 0 104 -16 104 -63c0 -19 -18 -40 -40 -40c-21 0 -35 14 -45 33c-14 25 -31 42 -53 42c-42 0 -64 -33 -76 -91l-100 -476c-2 -11 -3 -21 -3 -29c0 -14 3 -23 9 -29c10 -10 35 -14 71 -15l-3 -15h-260l3 15
c35 2 56 7 69 16c14 10 24 30 30 59l69 328h-27z" />
    <glyph glyph-name="uni0180" unicode="&#x180;" 
d="M223 509l-60 -219c69 113 124 151 194 151c67 0 116 -43 116 -120c0 -158 -165 -332 -320 -332c-57 0 -130 23 -130 53v6l125 461h-123l13 31h118l9 31c7 24 9 38 9 47c0 22 -5 23 -64 25v17c67 8 103 14 153 23l5 -5c-8 -30 -14 -59 -21 -82l-16 -56h162l-8 -31h-162z
M388 306c0 61 -26 86 -70 86c-48 0 -94 -42 -137 -115c-44 -74 -72 -171 -72 -231c0 -23 15 -34 46 -34c43 0 86 21 123 59c60 62 110 161 110 235z" />
    <glyph glyph-name="uni0188" unicode="&#x188;" 
d="M350 107l16 -10c-61 -77 -114 -108 -189 -108c-93 0 -147 52 -147 154c0 93 52 180 123 237c49 39 106 61 167 61c18 0 35 -3 49 -9c20 68 69 116 138 116c33 0 70 -22 70 -58c0 -16 -8 -28 -25 -28c-42 0 -24 61 -67 61c-35 0 -52 -45 -61 -83l-10 -43
c7 -10 11 -24 11 -37c0 -27 -22 -48 -48 -48c-28 0 -39 20 -39 40c0 18 15 29 15 48c0 12 -14 20 -37 20c-40 0 -80 -18 -109 -48c-56 -59 -91 -144 -91 -233c0 -72 32 -114 89 -114c53 0 91 25 145 82z" />
    <glyph glyph-name="uni0190" unicode="&#x190;" horiz-adv-x="667" 
d="M563 168l34 -9c-32 -115 -181 -165 -298 -165c-106 0 -233 33 -233 139c0 98 88 202 187 219c-55 29 -95 54 -95 109c0 153 182 223 310 223c40 0 77 -7 106 -16c46 -14 97 -58 97 -105c0 -28 -17 -60 -47 -60c-28 0 -50 22 -64 81c-10 40 -70 56 -92 56
c-106 0 -206 -70 -206 -193c0 -47 19 -70 95 -70c19 0 81 11 103 11c17 0 47 -8 47 -29c0 -26 -52 -42 -74 -42c-15 0 -67 5 -80 5c-96 0 -183 -71 -183 -175c0 -62 56 -93 165 -93c110 0 165 14 228 114z" />
    <glyph glyph-name="florin" unicode="&#x192;" horiz-adv-x="472" 
d="M100 437h107c46 180 116 269 210 269c43 0 77 -26 77 -59c0 -28 -23 -54 -50 -54c-19 0 -35 14 -35 30c0 22 17 29 17 42c0 7 -7 12 -19 12c-17 0 -33 -6 -44 -18c-20 -22 -45 -85 -58 -146c-5 -24 -9 -49 -15 -76h126l-6 -31h-128c-29 -161 -105 -411 -138 -468
c-38 -67 -79 -97 -132 -97c-42 0 -74 24 -74 59c0 32 23 55 53 55c19 0 32 -18 32 -36c0 -31 -19 -35 -19 -42c0 -8 6 -12 18 -12c46 0 79 57 101 174l27 158c12 63 26 127 47 209h-103z" />
    <glyph glyph-name="uni0195" unicode="&#x195;" horiz-adv-x="672" 
d="M444 343l-69 -247c-5 -17 -9 -34 -9 -38c0 -11 6 -20 17 -20c130 0 230 152 230 270c0 12 -2 21 -5 29c-8 20 -49 32 -49 70c0 22 19 34 36 34c29 0 51 -20 57 -50c2 -9 2 -20 2 -30c0 -167 -113 -371 -295 -371c-31 0 -71 0 -71 43c0 12 7 43 20 92l55 207
c4 16 7 29 7 33c0 15 -5 25 -28 25c-36 0 -100 -61 -152 -140c-40 -61 -56 -96 -96 -250h-75l146 554c8 31 13 48 13 62c0 17 -23 25 -41 25h-27v15c60 7 99 14 157 27l7 -6l-121 -447c90 146 168 211 230 211c46 0 65 -30 65 -67c0 -7 -2 -23 -4 -31z" />
    <glyph glyph-name="uni0199" unicode="&#x199;" 
d="M14 0l124 465c31 116 130 218 259 218c47 0 93 -19 93 -56c0 -23 -21 -38 -40 -38c-43 0 -53 60 -89 60c-48 0 -115 -52 -135 -128l-79 -300l43 33c94 72 143 120 143 140c0 11 -12 18 -37 18h-14v16h179v-16c-47 -3 -78 -23 -225 -154l37 -88c39 -92 62 -129 81 -129
c15 0 27 11 45 42c5 8 10 17 15 26l15 -11c-46 -84 -71 -109 -111 -109c-29 0 -49 19 -81 82c-18 35 -44 97 -60 141l-40 -32l-48 -180h-75z" />
    <glyph glyph-name="uni019A" unicode="&#x19a;" horiz-adv-x="278" 
d="M279 678l-79 -300h78l-8 -31h-78l-66 -254c-5 -18 -8 -35 -8 -43c0 -12 7 -18 17 -18c15 0 38 16 67 57l25 35l14 -10c-60 -95 -97 -125 -151 -125c-32 0 -49 19 -49 56c0 8 1 20 4 30l71 272h-74l8 31h74l58 221c3 10 3 16 3 19c0 12 -17 22 -49 22h-18v16
c59 7 96 14 155 27z" />
    <glyph glyph-name="uni019B" unicode="&#x19b;" horiz-adv-x="490" 
d="M478 575l-102 -75l58 -500h-44l-34 333l-232 -333h-94l245 341c27 37 54 77 61 91c0 11 0 28 -1 39l-172 -127v54l165 119c-4 16 -20 67 -45 67c-22 0 -40 -20 -73 -20c-24 0 -48 14 -48 46c0 33 27 58 70 58c64 0 115 -39 136 -124l110 85v-54z" />
    <glyph glyph-name="uni019E" unicode="&#x19e;" 
d="M213 439l-67 -218c100 160 167 220 231 220c43 0 65 -25 65 -61c0 -18 -4 -39 -10 -60l-153 -553h-81l149 515c9 32 17 67 17 79c0 18 -12 28 -27 28c-40 0 -85 -48 -148 -141c-45 -67 -53 -90 -100 -248h-75l96 350c1 5 2 11 2 17c0 20 -14 26 -65 27v16
c81 16 109 20 162 31z" />
    <glyph glyph-name="uni01A0" unicode="&#x1a0;" horiz-adv-x="722" 
d="M783 635c0 -37 -25 -60 -66 -68c-8 -1 -22 -3 -33 -3c-7 0 -11 0 -20 2c23 -40 35 -90 35 -148c0 -146 -88 -285 -207 -365c-65 -44 -140 -71 -214 -71c-130 0 -218 85 -218 234c0 122 73 262 177 353c69 60 154 97 239 97c71 0 126 -24 164 -67c15 -13 32 -18 47 -18
c23 0 36 10 36 21c0 5 -35 16 -35 49c0 19 19 40 46 40s49 -21 49 -56zM594 481c0 94 -49 152 -129 152c-74 0 -137 -51 -186 -117c-73 -99 -114 -232 -114 -332c0 -109 46 -169 130 -169c67 0 124 39 170 95c84 104 129 269 129 371z" />
    <glyph glyph-name="uni01A1" unicode="&#x1a1;" horiz-adv-x="534" 
d="M583 411c0 -37 -25 -60 -66 -68c-8 -1 -22 -3 -34 -3c-7 0 -10 0 -20 2c3 -13 5 -27 5 -41c0 -76 -40 -164 -106 -229c-58 -58 -122 -83 -188 -83c-94 0 -147 52 -147 139c0 112 75 227 180 283c39 21 79 30 120 30c59 0 107 -28 128 -77c11 -5 22 -7 32 -7
c23 0 36 9 36 22c0 3 -35 16 -35 48c0 19 19 40 46 40s49 -21 49 -56zM384 326c0 61 -28 94 -71 94c-44 0 -88 -31 -128 -91c-46 -70 -74 -149 -74 -228c0 -60 31 -91 78 -91c44 0 82 29 121 83c46 63 74 157 74 233z" />
    <glyph glyph-name="uni01A5" unicode="&#x1a5;" horiz-adv-x="504" 
d="M237 535l-51 -207c54 81 111 113 171 113c74 0 115 -47 115 -125c0 -165 -151 -327 -297 -327c-23 0 -44 4 -69 17l-36 -135c-4 -16 -4 -27 -4 -31c0 -22 15 -29 62 -29v-16h-203v16c43 1 56 16 68 63l148 558c31 118 77 237 206 237c47 0 93 -19 93 -56
c0 -23 -21 -38 -40 -38c-42 0 -54 60 -88 60c-29 0 -55 -20 -75 -100zM382 313c0 57 -17 85 -62 85c-53 0 -112 -54 -135 -114c-29 -75 -65 -204 -65 -238c0 -22 20 -38 48 -38c53 0 101 33 145 95c48 67 69 140 69 210z" />
    <glyph glyph-name="uni01AA" unicode="&#x1aa;" horiz-adv-x="340" 
d="M65 45l158 442c-22 -15 -49 -24 -75 -24c-51 0 -85 36 -85 84c0 71 73 137 141 137c80 1 115 -61 115 -131c0 -19 -1 -40 -8 -59l-184 -531c-13 -38 -28 -81 -28 -121c0 -23 8 -41 36 -41c39 0 48 60 91 60c21 0 40 -17 40 -38c0 -44 -59 -56 -92 -56
c-91 0 -143 51 -143 126c0 49 17 105 34 152zM247 597c0 29 -10 53 -46 53c-50 0 -104 -38 -104 -96c0 -33 25 -57 60 -57c32 0 65 21 83 48c3 17 7 35 7 52z" />
    <glyph glyph-name="uni01AB" unicode="&#x1ab;" horiz-adv-x="278" 
d="M296 428l-5 -32h-84l-87 -328c-1 -4 -2 -11 -2 -14c0 -13 6 -16 15 -16c16 0 32 16 81 79l13 -7c-17 -43 -38 -100 -47 -133l-29 -102c-16 -55 -49 -93 -112 -93c-47 0 -93 19 -93 56c0 23 21 38 40 38c43 0 53 -60 89 -60c16 0 37 25 46 56l30 99c4 14 9 46 10 52
c-25 -25 -48 -34 -77 -34c-27 0 -46 12 -46 37c0 11 8 42 16 74l78 296h-75c-1 3 -1 6 -1 6c0 11 9 20 33 25c32 7 97 56 133 110c4 6 10 9 14 9c6 0 9 -3 9 -8c0 0 0 -5 -1 -7l-28 -103h80z" />
    <glyph glyph-name="uni01AD" unicode="&#x1ad;" horiz-adv-x="310" 
d="M132 396h-75c-1 3 -1 6 -1 6c0 11 9 20 33 25c14 3 37 16 58 32c33 131 88 224 212 224c34 0 93 -12 93 -56c0 -21 -19 -38 -39 -38c-42 0 -54 60 -89 60c-46 0 -63 -57 -75 -100l-33 -121h80l-5 -32h-84l-87 -328c-1 -4 -2 -11 -2 -14c0 -13 6 -16 15 -16
c16 0 32 16 81 79l13 -7c-60 -92 -91 -121 -143 -121c-27 0 -46 12 -46 37c0 11 8 42 16 74z" />
    <glyph glyph-name="uni01AF" unicode="&#x1af;" horiz-adv-x="754" 
d="M567 653h199c45 0 54 16 54 23c0 6 -34 14 -34 49c0 19 18 40 45 40s50 -20 50 -55c0 -37 -26 -62 -67 -70c-13 -2 -32 -3 -60 -6c-47 -5 -58 -24 -93 -146l-83 -285c-22 -75 -54 -133 -97 -169c-43 -37 -93 -52 -158 -52c-131 0 -221 69 -221 164c0 54 18 121 44 216
l52 189c5 18 9 33 9 45c0 26 -18 39 -80 41v16h272v-16c-68 -7 -85 -22 -104 -91l-63 -226c-27 -95 -40 -157 -40 -179c0 -71 60 -118 138 -118c113 0 175 68 220 232l64 233c16 59 23 94 23 103c0 30 -17 41 -70 46v16z" />
    <glyph glyph-name="uni01B0" unicode="&#x1b0;" horiz-adv-x="573" 
d="M391 432h74c25 0 82 0 82 21c0 6 -35 15 -35 50c0 19 18 40 45 40c26 0 50 -22 50 -57c0 -37 -27 -61 -66 -68c-11 -2 -50 -6 -74 -6h-7l-74 -279c-5 -19 -19 -66 -19 -78c0 -11 4 -17 11 -17c16 0 32 14 83 81l14 -9c-65 -99 -91 -119 -138 -119c-30 0 -48 17 -48 48
c0 22 13 89 45 197c-118 -194 -168 -247 -239 -247c-35 0 -53 16 -53 53c0 19 9 55 27 128l35 139c8 33 14 59 14 67c0 7 -5 15 -11 18c-9 5 -12 6 -50 6v14c57 7 93 14 150 27l4 -3l-89 -355c-1 -3 -3 -12 -3 -16c0 -15 5 -25 20 -25c34 0 80 53 142 147
c47 71 61 109 110 243z" />
    <glyph glyph-name="uni01BA" unicode="&#x1ba;" 
d="M462 429l-237 -186s41 17 70 17c63 0 98 -36 98 -88c0 -61 -32 -110 -92 -141l-197 -101c-31 -16 -54 -46 -54 -83c0 -32 20 -54 65 -54c36 0 69 21 76 55c9 44 28 64 52 64c30 0 48 -21 48 -44c0 -18 -13 -57 -55 -77c-43 -20 -88 -25 -113 -25c-62 0 -115 37 -115 97
c0 66 48 116 99 142l150 76c29 15 56 38 56 73c0 30 -25 50 -75 50c-52 0 -77 -11 -124 -48c0 0 -11 11 -16 18l264 212h-162c-67 0 -80 -32 -101 -86h-18l61 150h320v-21z" />
    <glyph glyph-name="uni01BB" unicode="&#x1bb;" 
d="M500 360l-9 -46h-148c-74 -80 -152 -156 -228 -233v-5h181c57 0 79 14 103 65l17 -7l-50 -134h-354v17l210 224c22 24 45 48 66 73h-248l9 46h274c24 36 43 77 43 122c0 74 -44 121 -119 121c-68 0 -115 -37 -146 -96l-21 7c35 96 104 162 210 162c97 0 162 -75 162 -169
c0 -60 -32 -103 -69 -147h117z" />
    <glyph glyph-name="uni01BE" unicode="&#x1be;" 
d="M297 447l-12 -62c7 1 16 1 23 1c94 0 145 -69 145 -153c0 -152 -113 -245 -253 -245c-56 0 -153 35 -153 103c0 25 21 44 46 44c69 0 35 -128 122 -128c75 0 135 132 135 190c0 65 -55 101 -121 101h-20l37 149h-77l8 31h77l15 61h47l-12 -61h78l-8 -31h-77z" />
    <glyph glyph-name="uni01C0" unicode="&#x1c0;" horiz-adv-x="170" 
d="M258 736l-192 -736h-51l192 736h51z" />
    <glyph glyph-name="uni01C1" unicode="&#x1c1;" horiz-adv-x="290" 
d="M379 736l-193 -736h-51l193 736h51zM259 736l-193 -736h-51l193 736h51z" />
    <glyph glyph-name="uni01C2" unicode="&#x1c2;" horiz-adv-x="340" 
d="M429 464l-13 -51h-157l-22 -90h157l-13 -51h-157l-74 -272h-51l73 272h-157l13 51h158l22 90h-158l13 51h159l71 272h51l-72 -272h157z" />
    <glyph glyph-name="uni01C3" unicode="&#x1c3;" horiz-adv-x="333" 
d="M137 177l-17 5c41 190 49 227 71 369c13 85 31 116 69 116c28 0 44 -17 44 -51c0 -30 -8 -57 -39 -123c-46 -98 -68 -152 -128 -316zM145 41c0 -28 -26 -52 -56 -52s-50 23 -50 54c0 28 26 52 54 52c31 0 52 -25 52 -54z" />
    <glyph glyph-name="uni01F0" unicode="&#x1f0;" horiz-adv-x="278" 
d="M397 661l-162 -169h-48l-95 169h38l89 -105l141 105h37zM246 438l-104 -410c-41 -162 -100 -235 -187 -235c-46 0 -79 25 -79 61c0 24 18 44 41 44c27 0 39 -16 39 -37c0 -22 -12 -19 -12 -34c0 -7 6 -12 18 -12c40 0 63 44 97 182l72 292c12 49 16 70 16 80
c0 22 -12 31 -48 31h-26v16c32 2 85 10 169 25z" />
    <glyph glyph-name="uni01FA" unicode="&#x1fa;" horiz-adv-x="611" 
d="M396 656l90 -541c14 -84 25 -95 78 -99v-16h-245v16c63 3 77 19 77 53c0 8 -1 17 -2 26l-20 131h-220l-59 -111c-14 -26 -22 -50 -22 -66c0 -19 15 -31 62 -33v-16h-186v16c46 9 59 26 134 156l279 486c-32 10 -55 41 -55 77c0 44 36 79 81 79c43 0 78 -36 78 -80
c0 -39 -30 -73 -70 -78zM369 262l-45 263l-149 -263h194zM433 736c0 25 -21 45 -48 45c-23 0 -45 -21 -45 -45c0 -27 21 -48 45 -48c28 0 48 21 48 48zM284 810l141 121c17 15 22 19 40 19s25 -10 25 -26c0 -15 -13 -24 -32 -35l-141 -79h-33z" />
    <glyph glyph-name="uni01FB" unicode="&#x1fb;" horiz-adv-x="501" 
d="M209 690l162 160c7 7 15 10 25 10c20 0 36 -16 36 -36c0 -12 -5 -21 -17 -28l-171 -106h-35zM420 591c0 -54 -45 -99 -100 -99c-57 0 -100 44 -100 100c0 54 45 99 99 99c56 0 101 -45 101 -100zM386 591c0 37 -30 66 -67 66c-35 0 -65 -30 -65 -65c0 -37 28 -66 65 -66
c38 0 67 28 67 65zM463 111l13 -11c-75 -91 -99 -110 -139 -110c-28 0 -40 12 -40 41c0 25 2 33 23 115c-75 -113 -133 -157 -203 -157c-56 0 -100 40 -100 116c0 155 153 336 286 336c43 0 72 -21 80 -58l11 48l3 3l61 7l7 -3c-2 -9 -3 -11 -6 -21
c-47 -171 -89 -343 -89 -363c0 -7 6 -13 14 -13c9 0 22 8 52 41zM365 361c0 35 -21 58 -56 58c-45 0 -89 -31 -131 -92c-42 -63 -77 -152 -77 -215c0 -55 24 -74 60 -74c50 0 97 55 127 98c47 68 77 154 77 225z" />
    <glyph glyph-name="uni01FC" unicode="&#x1fc;" horiz-adv-x="889" 
d="M559 706l162 160c7 7 15 10 25 10c20 0 36 -16 36 -36c0 -12 -5 -21 -17 -28l-171 -106h-35zM911 653l-33 -153l-17 2c1 13 1 30 1 36c0 70 -28 82 -192 82c-47 0 -55 -5 -64 -37l-61 -222c159 1 169 6 211 97l18 -4l-69 -232l-17 4c4 24 6 38 6 52c0 41 -21 50 -118 50
h-40l-62 -217c-9 -32 -9 -43 -9 -49c0 -20 16 -29 51 -29h30c150 0 204 27 280 136l18 -5l-64 -164h-498v16c61 6 71 16 80 48l49 170h-190l-101 -131c-18 -24 -24 -45 -24 -56c0 -20 11 -25 64 -31v-16h-187v16c25 6 36 16 84 76l369 465c30 38 32 41 32 53
c0 17 -11 25 -38 26l-26 1v16h517zM517 613l-268 -342h173z" />
    <glyph glyph-name="uni01FD" unicode="&#x1fd;" horiz-adv-x="667" 
d="M307 494l162 160c7 7 15 10 25 10c20 0 36 -16 36 -36c0 -12 -5 -21 -17 -28l-171 -106h-35zM459 439l-22 -62c46 50 81 64 122 64c50 0 81 -27 81 -70c0 -38 -23 -73 -66 -101c-38 -24 -84 -42 -190 -72c-7 -30 -8 -38 -8 -60c0 -74 22 -102 70 -102c43 0 82 21 142 77
l10 -12c-56 -68 -135 -112 -198 -112s-104 47 -104 122c0 15 1 23 6 40c-81 -126 -131 -162 -195 -162c-49 0 -84 33 -84 98c0 164 159 354 280 354c34 0 57 -12 66 -47l19 45h71zM574 380c0 23 -12 36 -35 36s-46 -14 -65 -35c-35 -38 -54 -69 -84 -158
c93 27 134 54 166 97c14 19 18 39 18 60zM350 370c0 30 -18 51 -45 51c-37 1 -75 -31 -113 -86c-49 -71 -83 -162 -83 -236c0 -38 10 -60 34 -60c26 0 57 16 80 41c72 78 127 204 127 290z" />
    <glyph glyph-name="uni01FE" unicode="&#x1fe;" horiz-adv-x="722" 
d="M355 706l162 160c7 7 15 10 25 10c20 0 36 -16 36 -36c0 -12 -5 -21 -17 -28l-171 -106h-35zM669 722l-61 -94c60 -47 91 -108 91 -214c0 -226 -220 -432 -414 -432c-31 0 -66 3 -104 18l-68 -105h-44l80 124c-68 46 -89 127 -89 196c0 197 191 451 412 451
c37 0 66 -5 104 -20l49 76h44zM188 74l357 533c-25 19 -50 26 -84 26c-165 0 -296 -278 -296 -443c0 -38 5 -82 23 -116zM571 575l-358 -531c23 -21 48 -29 82 -29c191 0 299 310 299 460c0 39 -6 71 -23 100z" />
    <glyph glyph-name="uni01FF" unicode="&#x1ff;" 
d="M180 494l162 160c7 7 15 10 25 10c20 0 36 -16 36 -36c0 -12 -5 -21 -17 -28l-171 -106h-35zM428 554l-58 -119c67 -15 99 -73 99 -137c0 -80 -49 -174 -124 -238c-55 -47 -111 -71 -169 -71c-8 0 -14 1 -20 2l-61 -126h-35l64 131c-31 10 -44 18 -59 34
c-24 25 -37 61 -37 100c0 153 150 311 294 311c7 0 11 0 17 -1l55 114h34zM357 406l-190 -392c8 -3 13 -4 22 -4c46 0 84 26 122 82c43 65 74 161 74 233c0 35 -9 60 -28 81zM140 29l188 389c-5 1 -7 2 -10 2c-33 0 -68 -17 -95 -46c-65 -70 -111 -182 -111 -277
c0 -28 9 -49 28 -68z" />
    <glyph glyph-name="uni0237" unicode="&#x237;" horiz-adv-x="278" 
d="M246 438l-104 -410c-41 -162 -100 -235 -187 -235c-46 0 -79 25 -79 61c0 24 18 44 41 44c27 0 39 -16 39 -37c0 -22 -12 -19 -12 -34c0 -7 6 -12 18 -12c40 0 63 44 97 182l72 292c12 49 16 70 16 80c0 22 -12 31 -48 31h-26v16c32 2 85 10 169 25z" />
    <glyph glyph-name="uni0250" unicode="&#x250;" horiz-adv-x="444" 
d="M173 387h1c68 60 121 73 164 73c52 0 83 -26 83 -73c0 -66 -50 -117 -103 -148c-35 -20 -77 -39 -201 -81c-16 -66 -18 -77 -18 -87c0 -39 24 -57 60 -57c40 0 88 19 88 49c0 18 -6 21 -6 42c0 19 20 41 46 41c21 0 43 -19 43 -46c0 -26 -22 -58 -65 -81
c-33 -18 -71 -29 -124 -29c-72 0 -120 28 -120 88c0 16 4 37 12 68l48 191c3 14 5 27 5 36c0 21 -8 29 -20 29c-16 0 -27 -4 -47 -18l7 28c39 38 68 48 102 48c30 0 47 -14 47 -48c0 -7 0 -16 -2 -25zM159 323l-36 -141c68 22 114 43 145 66c35 26 57 63 57 104
c0 35 -22 50 -54 50c-51 0 -101 -34 -112 -79z" />
    <glyph glyph-name="uni0251" unicode="&#x251;" horiz-adv-x="511" 
d="M487 460l-87 -346c-3 -13 -6 -24 -6 -33c0 -16 9 -24 41 -24c5 0 11 0 18 1l-4 -16l-159 -52l-4 3l15 61c-26 -27 -72 -64 -146 -64c-33 0 -138 14 -138 143c0 156 138 327 280 327c43 0 69 -14 95 -43l74 43h21zM313 102l58 230c2 7 2 14 2 20c0 54 -38 80 -80 80
c-81 0 -190 -118 -190 -264c0 -90 53 -126 106 -126c42 0 95 24 104 60z" />
    <glyph glyph-name="uni0252" unicode="&#x252;" horiz-adv-x="511" 
d="M218 457l-15 -61c26 27 72 64 146 64c33 0 138 -14 138 -143c0 -156 -138 -327 -280 -327c-43 0 -69 14 -95 43l-74 -43h-21l87 346c3 13 6 24 6 33c0 16 -9 24 -41 24c-5 0 -11 0 -18 -1l4 16l159 52zM191 348l-58 -230c-2 -7 -2 -14 -2 -20c0 -54 38 -80 80 -80
c81 0 190 118 190 264c0 90 -53 126 -106 126c-42 0 -95 -24 -104 -60z" />
    <glyph glyph-name="uni0253" unicode="&#x253;" 
d="M23 48l114 421c31 116 120 214 261 214c43 0 90 -19 90 -56c0 -23 -21 -38 -40 -38c-42 0 -54 60 -88 60c-48 0 -114 -54 -135 -131l-62 -228h1c68 113 123 151 193 151c67 0 116 -43 116 -120c0 -158 -165 -332 -320 -332c-57 0 -130 23 -130 53v6zM388 306
c0 61 -26 86 -70 86c-48 0 -94 -42 -137 -115c-44 -74 -72 -171 -72 -231c0 -23 15 -34 46 -34c43 0 86 21 123 59c60 62 110 161 110 235z" />
    <glyph glyph-name="uni0254" unicode="&#x254;" horiz-adv-x="444" 
d="M105 323l-16 10c61 77 114 108 189 108c93 0 147 -52 147 -154c0 -93 -52 -180 -123 -237c-49 -39 -106 -61 -167 -61s-105 34 -105 81c0 27 22 48 48 48c28 0 39 -20 39 -40c0 -18 -15 -29 -15 -48c0 -12 14 -20 37 -20c40 0 80 18 109 48c56 59 91 144 91 233
c0 72 -32 114 -89 114c-53 0 -91 -25 -145 -82z" />
    <glyph glyph-name="uni0255" unicode="&#x255;" horiz-adv-x="444" 
d="M-3 -160l119 158c-55 20 -86 67 -86 145c0 93 52 180 123 237c49 39 106 61 167 61s105 -34 105 -81c0 -27 -22 -48 -48 -48c-28 0 -39 20 -39 40c0 18 15 29 15 48c0 12 -14 20 -37 20c-40 0 -80 -18 -109 -48c-56 -59 -91 -144 -91 -233c0 -26 5 -73 34 -95
c55 64 90 105 149 105c44 0 84 -27 84 -64c0 -65 -50 -101 -139 -101h-22c-25 0 -50 2 -71 7l-118 -151h-36zM350 80c0 21 -26 36 -53 36c-48 0 -70 -34 -119 -87c20 -7 56 -12 78 -12c79 0 94 38 94 63z" />
    <glyph glyph-name="uni0256" unicode="&#x256;" 
d="M521 683l6 -6l-39 -152l-166 -606c-8 -31 -10 -54 -10 -64c1 -28 13 -54 44 -54c35 0 48 60 88 60c24 0 41 -18 41 -38c0 -45 -60 -56 -94 -56c-90 0 -139 46 -139 124c0 24 4 55 13 91l35 139c-59 -99 -110 -132 -178 -132c-65 0 -107 41 -107 117
c0 162 162 335 292 335c42 0 59 -19 65 -58h1l45 163c15 53 14 57 14 71c0 21 -9 24 -64 26v17c64 6 100 12 153 23zM356 361c0 36 -24 57 -47 57c-28 0 -63 -17 -91 -46c-66 -70 -116 -179 -116 -262c0 -46 23 -73 58 -73c92 0 196 172 196 324z" />
    <glyph glyph-name="uni0257" unicode="&#x257;" 
d="M372 383l29 101c32 110 122 199 257 199c43 0 90 -19 90 -56c0 -23 -21 -38 -40 -38c-42 0 -54 60 -88 60c-47 0 -113 -52 -133 -127c-90 -330 -124 -446 -124 -462c0 -12 5 -20 18 -20c17 0 28 9 82 71l12 -10c-49 -73 -97 -114 -147 -114c-26 0 -41 18 -41 45
c0 23 2 39 13 89c-59 -99 -110 -132 -178 -132c-65 0 -107 41 -107 117c0 162 162 335 292 335c42 0 59 -19 65 -58zM356 361c0 36 -24 57 -47 57c-28 0 -63 -17 -91 -46c-66 -70 -116 -179 -116 -262c0 -46 23 -73 58 -73c92 0 196 172 196 324z" />
    <glyph glyph-name="uni0258" unicode="&#x258;" horiz-adv-x="444" 
d="M31 97l18 12c42 -59 65 -75 109 -75c78 0 150 72 159 153c-134 18 -202 71 -202 136c0 68 57 118 128 118c108 0 173 -82 173 -186c0 -130 -104 -266 -235 -266c-83 0 -127 38 -150 108zM329 285c0 74 -29 133 -79 133c-44 0 -69 -43 -69 -85c0 -17 7 -35 16 -51
c20 -35 49 -53 125 -74c6 55 7 65 7 77z" />
    <glyph glyph-name="uni0259" unicode="&#x259;" horiz-adv-x="444" 
d="M85 321l-12 12c57 70 121 108 204 108c81 0 135 -54 135 -137c0 -155 -149 -315 -299 -315c-53 0 -82 26 -82 68c0 86 105 164 284 187c10 20 10 46 10 61c0 55 -37 91 -93 91c-44 0 -75 -16 -147 -75zM291 178l17 44c-86 -21 -124 -39 -161 -74c-31 -30 -50 -66 -50 -97
c0 -24 7 -39 35 -39c57 0 125 77 159 166z" />
    <glyph glyph-name="uni025A" unicode="&#x25a;" horiz-adv-x="639" 
d="M612 293l27 -12c-20 -36 -61 -71 -101 -71c-49 0 -65 24 -65 58c0 17 5 35 10 56l16 61l-91 -47c3 -11 4 -22 4 -34c0 -155 -149 -315 -299 -315c-53 0 -82 26 -82 68c0 101 92 160 157 195l117 64c-12 56 -37 80 -73 80c-44 0 -75 -16 -147 -75l-12 12
c57 70 121 108 204 108c60 0 105 -30 125 -79l134 68l5 -4l-32 -119c-1 -4 -6 -22 -6 -26c0 -35 18 -41 43 -41c29 0 52 28 66 53zM306 289l-98 -57c-40 -23 -111 -82 -111 -180c0 -26 7 -40 35 -40c57 0 122 73 159 166c13 33 15 74 15 111z" />
    <glyph glyph-name="uni025B" unicode="&#x25b;" horiz-adv-x="444" 
d="M209 249v2c-62 14 -93 42 -93 83c0 86 93 141 196 141c38 0 80 -12 105 -26c31 -17 50 -50 50 -74c0 -23 -18 -44 -48 -44c-26 0 -42 26 -49 52c-13 47 -21 59 -48 59c-60 0 -118 -51 -118 -112c0 -45 35 -67 84 -67h6v-30h-11c-82 0 -158 -56 -158 -133
c0 -47 31 -78 84 -78c50 0 112 22 172 62l9 -12c-60 -56 -128 -86 -200 -86c-46 0 -94 13 -123 34c-23 16 -36 43 -36 73c0 54 36 107 89 132c25 12 48 18 89 24z" />
    <glyph glyph-name="uni025C" unicode="&#x25c;" horiz-adv-x="480" 
d="M223 233v30c38 1 57 5 80 21c34 23 56 55 56 91c0 40 -29 67 -73 67c-25 0 -34 -18 -46 -62c-6 -22 -22 -49 -48 -49c-30 0 -48 21 -48 44c0 17 13 53 48 73c29 17 75 27 108 27c87 0 147 -38 147 -95c0 -70 -55 -110 -142 -129v-2c63 -8 113 -37 113 -102
c0 -50 -43 -102 -90 -127c-39 -21 -93 -34 -139 -34c-72 0 -126 30 -158 86l15 12c40 -40 90 -62 140 -62c71 0 138 61 138 135c0 46 -30 76 -90 76h-11z" />
    <glyph glyph-name="uni025D" unicode="&#x25d;" horiz-adv-x="666" 
d="M639 293l27 -12c-22 -37 -61 -71 -101 -71c-49 0 -65 23 -65 59c0 18 6 38 11 59l15 57l-85 -44c-16 -46 -66 -75 -136 -90v-2c67 -8 113 -41 113 -102c0 -50 -43 -102 -90 -127c-39 -21 -93 -34 -139 -34c-72 0 -126 30 -158 86l15 12c40 -40 90 -62 140 -62
c71 0 138 61 138 135c0 46 -30 76 -90 76h-11v30c38 1 57 5 80 21c34 23 56 55 56 91c0 40 -30 67 -72 67c-27 0 -35 -19 -46 -58c-7 -26 -21 -53 -51 -53c-25 0 -46 20 -46 42c0 24 16 57 50 76c30 17 72 26 107 26c85 0 146 -38 146 -95v-9l116 59l5 -4l-36 -133
c-1 -4 -2 -9 -2 -13c0 -35 18 -40 43 -40c29 0 51 28 66 53z" />
    <glyph glyph-name="uni025E" unicode="&#x25e;" horiz-adv-x="490" 
d="M316 251v-2c71 -9 113 -43 113 -103c0 -50 -45 -99 -81 -121c-45 -27 -106 -39 -145 -39c-119 0 -173 62 -173 159c0 166 110 330 283 330c66 0 145 -26 145 -97c0 -79 -77 -113 -142 -127zM234 233v30c18 0 43 2 63 11c37 17 73 57 73 100c0 41 -30 68 -71 68
c-126 0 -200 -183 -200 -281c0 -68 25 -139 93 -139c33 0 66 10 92 32c28 23 51 61 51 101s-20 63 -51 73c-14 4 -31 5 -50 5z" />
    <glyph glyph-name="uni025F" unicode="&#x25f;" horiz-adv-x="357" 
d="M340 441v-16c-65 -3 -78 -19 -93 -77l-28 -112h65l-7 -31h-66l-45 -177c-41 -162 -100 -235 -187 -235c-46 0 -79 25 -79 61c0 24 18 44 41 44c27 0 39 -16 39 -37c0 -22 -12 -19 -12 -34c0 -7 6 -12 18 -12c40 0 63 44 97 182l51 208h-138l7 31h139l30 123
c2 9 4 19 4 26c0 31 -21 40 -67 40v16h231z" />
    <glyph glyph-name="uni0260" unicode="&#x260;" horiz-adv-x="714" 
d="M484 434l8 31c30 117 87 218 216 218c47 0 91 -20 91 -57c0 -22 -21 -37 -40 -37c-42 0 -54 60 -88 60c-50 0 -65 -57 -85 -139l-134 -537c-32 -128 -160 -185 -273 -185c-43 0 -171 17 -171 79c0 21 15 37 37 37c49 0 56 -88 152 -88c85 0 150 65 170 144l23 93
c-45 -37 -105 -67 -158 -67c-98 0 -148 84 -148 175c0 152 150 314 303 314c44 0 72 -16 97 -41zM399 88l56 225c3 11 4 22 4 33c0 52 -32 97 -90 97c-115 0 -193 -153 -193 -248c0 -79 37 -151 116 -151c36 0 75 18 107 44z" />
    <glyph glyph-name="uni0261" unicode="&#x261;" horiz-adv-x="595" 
d="M579 482l-127 -509c-32 -127 -160 -185 -273 -185c-43 0 -171 17 -171 79c0 20 15 37 37 37c49 0 56 -88 152 -88c85 0 150 65 170 144l23 93c-45 -37 -105 -67 -158 -67c-98 0 -148 84 -148 175c0 152 150 314 303 314c49 0 78 -20 107 -51c27 19 35 32 56 58h29z
M399 88l56 225c3 11 4 22 4 33c0 52 -32 97 -90 97c-116 0 -193 -155 -193 -249c0 -75 34 -150 116 -150c36 0 75 18 107 44z" />
    <glyph glyph-name="uni0262" unicode="&#x262;" horiz-adv-x="562" 
d="M562 231v-11c-41 -3 -55 -12 -65 -54l-32 -130c-5 -20 -160 -47 -195 -47c-122 0 -218 48 -218 166c0 96 52 179 131 231c54 35 120 55 189 55c24 0 47 -3 92 -13c14 -3 32 -8 37 -8c17 0 30 9 37 21h16l-29 -139h-16c-10 39 -17 57 -34 76c-22 25 -57 37 -99 37
c-47 0 -92 -10 -132 -41c-60 -45 -108 -137 -108 -223c0 -84 55 -136 150 -136c38 0 105 12 111 38l26 104c3 14 5 26 5 35c0 21 -14 27 -55 28v11h189z" />
    <glyph glyph-name="uni0263" unicode="&#x263;" horiz-adv-x="444" 
d="M243 186l21 -110c85 141 122 213 122 257c0 14 -7 20 -26 32c-20 13 -26 23 -26 39c0 22 17 37 40 37c30 0 52 -25 52 -55c0 -39 -23 -99 -44 -144c-31 -67 -66 -128 -109 -197l13 -73c3 -16 8 -61 8 -78c0 -82 -45 -128 -117 -128c-49 0 -70 26 -70 61
c0 30 33 71 101 169c-7 73 -62 284 -85 344c-19 49 -37 64 -77 64c-11 0 -20 -1 -31 -4v17c44 8 57 15 123 22c4 1 11 2 20 2c15 0 68 -166 85 -255zM225 -84l-9 45c-61 -80 -75 -112 -75 -125c0 -22 6 -37 30 -37c35 0 58 30 58 69c0 8 0 27 -4 48z" />
    <glyph glyph-name="uni0264" unicode="&#x264;" horiz-adv-x="480" 
d="M232 263l63 70c28 32 54 66 85 95c12 11 26 22 43 22c33 0 52 -28 52 -59c0 -23 -5 -47 -11 -69c-8 29 -34 55 -66 55c-34 0 -59 -35 -79 -58l-73 -82c15 -43 35 -84 35 -131c0 -65 -72 -116 -132 -116c-41 0 -78 16 -78 62c0 39 21 65 47 92l57 60l-59 136
c-9 21 -32 35 -54 35c-32 0 -50 -25 -58 -53c0 51 40 128 98 128c52 0 69 -40 86 -81zM185 175l-46 -50c-15 -17 -33 -39 -33 -63c0 -23 22 -33 42 -33c32 0 62 32 62 64c0 28 -15 57 -25 82z" />
    <glyph glyph-name="uni0265" unicode="&#x265;" 
d="M478 441l-146 -554c-8 -31 -13 -48 -13 -62c0 -17 23 -25 41 -25h27v-15c-60 -7 -99 -14 -157 -27l-7 6l121 447c-90 -146 -168 -211 -230 -211c-46 0 -65 30 -65 67c0 25 18 99 48 193c17 52 34 114 34 125c0 10 -8 18 -17 18c-16 0 -28 -12 -82 -80l-13 13
c61 87 95 114 146 114c27 0 44 -16 44 -42c0 -12 -7 -43 -20 -92l-55 -207c-4 -16 -7 -29 -7 -33c0 -15 5 -25 28 -25c36 0 100 61 152 140c40 61 56 96 96 250h75z" />
    <glyph glyph-name="uni0266" unicode="&#x266;" 
d="M19 0l124 470c31 116 120 213 261 213c43 0 90 -19 90 -56c0 -23 -21 -38 -40 -38c-42 0 -54 60 -88 60c-47 0 -114 -52 -134 -127l-79 -292c90 146 168 211 230 211c46 0 65 -30 65 -67c0 -25 -18 -99 -48 -193c-17 -52 -34 -114 -34 -125c0 -10 8 -18 17 -18
c16 0 28 12 82 80l13 -13c-61 -87 -95 -114 -146 -114c-27 0 -44 16 -44 42c0 12 7 43 20 92l55 207c4 16 7 29 7 33c0 15 -5 25 -28 25c-36 0 -100 -61 -152 -140c-40 -61 -56 -96 -96 -250h-75z" />
    <glyph glyph-name="uni0267" unicode="&#x267;" 
d="M19 0l124 470c31 116 120 213 261 213c43 0 90 -19 90 -56c0 -23 -21 -38 -40 -38c-42 0 -54 60 -88 60c-47 0 -114 -52 -134 -127l-79 -292c90 146 168 211 230 211c46 0 65 -30 65 -67c0 -17 -3 -26 -9 -48l-94 -346c-31 -116 -120 -213 -261 -213c-43 0 -90 19 -90 56
c0 23 21 38 40 38c42 0 54 -60 88 -60c47 0 114 52 134 127l107 404c4 16 7 29 7 33c0 15 -5 25 -28 25c-36 0 -100 -61 -152 -140c-40 -61 -56 -96 -96 -250h-75z" />
    <glyph glyph-name="uni0268" unicode="&#x268;" horiz-adv-x="278" 
d="M264 599c0 -28 -23 -51 -49 -51c-29 0 -48 21 -48 53c0 31 20 53 47 53s50 -26 50 -55zM253 261l-8 -31h-74l-37 -135c-5 -17 -10 -30 -10 -44c0 -10 6 -15 14 -15c17 0 41 21 84 78l13 -11c-55 -84 -87 -114 -137 -114c-33 0 -49 18 -49 55c0 20 7 55 22 111l20 75h-75
l9 31h75l19 71c5 18 9 36 9 44c0 20 -10 23 -64 24v16c39 3 59 6 160 25l4 -3l-49 -177h74z" />
    <glyph glyph-name="uni0269" unicode="&#x269;" horiz-adv-x="333" 
d="M253 80l13 -12c-34 -34 -93 -78 -143 -78c-52 0 -72 23 -72 65c0 20 5 42 12 69l56 209c4 13 8 28 8 37c0 22 -14 24 -32 24c-7 0 -17 0 -31 -4v19l117 36c21 6 32 9 42 9c4 0 5 -5 5 -11c0 -3 -4 -19 -6 -26l-84 -308c-2 -8 -4 -19 -4 -25c0 -30 22 -40 44 -40
c21 0 45 11 75 36z" />
    <glyph glyph-name="uni026A" unicode="&#x26a;" horiz-adv-x="247" 
d="M298 441v-17c-63 -3 -69 -21 -82 -72l-65 -259c-4 -16 -6 -28 -6 -40c0 -23 12 -35 52 -36v-17h-205v17c64 2 70 24 82 71l66 269c4 16 8 28 8 38c0 19 -14 26 -54 29v17h204z" />
    <glyph glyph-name="uni026B" unicode="&#x26b;" horiz-adv-x="278" 
d="M303 423h28c-14 -67 -47 -104 -95 -104c-12 0 -27 4 -48 11l-62 -237c-5 -18 -8 -35 -8 -43c0 -12 7 -18 17 -18c15 0 38 16 67 57l25 35l14 -10c-60 -95 -97 -125 -151 -125c-32 0 -49 19 -49 56c0 8 1 20 4 30l73 281c-15 4 -26 6 -34 6c-25 0 -41 -14 -51 -46h-29
c20 77 48 106 100 106c9 0 20 -2 31 -4l47 181c3 10 3 16 3 19c0 12 -17 22 -49 22h-18v16c59 7 96 14 155 27l6 -5l-75 -287c21 -9 35 -12 48 -12c27 0 40 11 51 44z" />
    <glyph glyph-name="uni026C" unicode="&#x26c;" horiz-adv-x="375" 
d="M358 360l8 -13s-58 -58 -153 -90l-9 -3l-42 -161c-5 -18 -8 -35 -8 -43c0 -12 7 -18 17 -18c15 0 38 16 67 57l25 35l14 -10c-60 -95 -97 -125 -151 -125c-32 0 -49 19 -49 56c0 8 1 20 4 30l43 164c-8 -1 -20 -2 -29 -2c-49 0 -83 34 -83 80c0 70 70 133 136 133
c16 0 26 -4 30 -5l40 154c3 10 3 16 3 19c0 12 -17 22 -49 22h-18v16c59 7 96 14 155 27l6 -5l-102 -390l8 2c49 12 113 51 137 70zM133 275l37 142c-5 2 -11 3 -16 3c-39 0 -88 -46 -88 -87c0 -30 19 -59 50 -59c3 0 13 0 17 1z" />
    <glyph glyph-name="uni026D" unicode="&#x26d;" horiz-adv-x="252" 
d="M279 678l-193 -738c-9 -36 -15 -66 -15 -89c0 -32 11 -50 39 -50c36 0 46 60 89 60c19 0 40 -15 40 -38c0 -34 -42 -56 -89 -56c-121 0 -142 55 -142 129c0 25 4 52 11 80l163 623c3 10 3 16 3 19c0 12 -17 22 -49 22h-18v16c59 7 96 14 155 27z" />
    <glyph glyph-name="uni026E" unicode="&#x26e;" horiz-adv-x="575" 
d="M537 400l-206 -204c11 3 13 3 24 3c69 0 123 -46 123 -133c0 -185 -144 -299 -290 -299c-36 0 -78 14 -104 31c-27 18 -43 48 -43 70c0 23 17 44 49 44c28 0 43 -31 49 -58c12 -53 26 -58 74 -58c66 0 182 78 182 233c0 86 -68 106 -112 106c-11 0 -28 -17 -37 -27
l-88 -90c-21 -21 -46 -29 -65 -29c-33 0 -46 28 -46 53c0 9 1 23 7 46l121 462c14 53 16 61 16 66c0 13 -11 24 -55 24h-12v16c56 7 95 14 155 27l6 -6l-60 -227h312v-50zM486 386h-202c-67 0 -84 -31 -98 -86l-49 -187c-3 -12 -13 -49 -13 -57c0 -9 1 -16 14 -16
c6 0 15 7 21 13z" />
    <glyph glyph-name="uni026F" unicode="&#x26f;" horiz-adv-x="722" 
d="M704 432l-88 -318c-6 -23 -10 -49 -10 -54c0 -15 14 -22 41 -22h25v-16l-162 -31l-3 2l58 209c-89 -145 -159 -211 -220 -211c-40 0 -60 24 -60 60c0 19 13 75 40 152c-70 -111 -111 -161 -160 -192c-24 -15 -43 -20 -63 -20c-37 0 -58 27 -58 63c0 7 2 23 3 28l68 251
c6 22 10 41 10 45c0 11 -4 16 -12 16c-17 0 -35 -16 -65 -53l-21 -26l-15 12l5 7c53 74 97 107 144 107c26 0 42 -16 42 -46c0 -10 -3 -27 -13 -66l-60 -227c-5 -20 -8 -33 -8 -38c0 -12 10 -21 21 -21c30 0 81 47 131 117c49 69 69 118 108 272h75l-86 -318
c-7 -26 -8 -41 -8 -46c0 -16 8 -25 21 -25c34 0 93 58 149 143c34 52 48 88 96 246h75z" />
    <glyph glyph-name="uni0270" unicode="&#x270;" horiz-adv-x="722" 
d="M704 432l-176 -665h-84l121 435c-89 -145 -159 -211 -220 -211c-40 0 -60 24 -60 60c0 19 13 75 40 152c-70 -111 -111 -161 -160 -192c-24 -15 -43 -20 -63 -20c-37 0 -58 27 -58 63c0 7 2 23 3 28l68 251c6 23 10 41 10 45c0 11 -4 16 -12 16c-17 0 -35 -16 -65 -53
l-21 -26l-15 12l5 7c53 74 97 107 144 107c26 0 42 -16 42 -46c0 -10 -3 -27 -13 -66l-61 -227c-5 -20 -7 -33 -7 -38c0 -12 10 -21 21 -21c30 0 81 47 131 117c49 69 69 118 108 272h75l-27 -93c-44 -152 -67 -258 -67 -271c0 -16 8 -25 21 -25c34 0 93 58 149 143
c34 52 48 88 96 246h75z" />
    <glyph glyph-name="uni0271" unicode="&#x271;" horiz-adv-x="690" 
d="M209 439l-58 -209c89 145 159 211 220 211c40 0 60 -24 60 -60c0 -19 -13 -75 -40 -152c70 111 111 161 160 192c24 15 43 20 63 20c37 0 58 -27 58 -63c0 -7 -2 -23 -3 -28l-114 -423c-26 -97 -108 -160 -217 -160c-45 0 -92 19 -92 56c0 23 21 38 40 38
c44 0 51 -60 91 -60c48 0 84 53 104 130l106 399c5 20 7 33 7 38c0 12 -9 21 -20 21c-30 0 -82 -47 -132 -117c-49 -69 -69 -118 -108 -272h-75l27 93c44 152 67 258 67 271c0 16 -8 25 -21 25c-34 0 -93 -58 -149 -143c-34 -52 -48 -88 -96 -246h-75l90 325c7 26 8 42 8 47
c0 15 -14 22 -41 22h-25v16l162 31z" />
    <glyph glyph-name="uni0272" unicode="&#x272;" horiz-adv-x="606" 
d="M566 117l14 -13c-68 -93 -93 -113 -140 -113c-25 0 -50 16 -50 54c0 10 1 22 16 75l47 162c9 32 17 67 17 79c0 18 -12 28 -27 28c-43 0 -93 -59 -155 -151c-19 -28 -46 -70 -86 -215l-24 -88c-28 -104 -85 -168 -197 -168c-47 0 -91 21 -91 56c0 23 21 38 40 38
c42 0 54 -60 88 -60c49 0 63 56 85 136l113 413c1 5 2 11 2 17c0 20 -14 26 -65 27v16c81 16 109 20 162 31l4 -2l-67 -218c100 160 167 220 231 220c43 0 65 -25 65 -61c0 -18 -4 -39 -10 -60l-56 -203c-10 -36 -14 -53 -14 -61c0 -9 4 -18 16 -18c14 0 32 16 61 53
c7 8 14 17 21 26z" />
    <glyph glyph-name="uni0273" unicode="&#x273;" horiz-adv-x="498" 
d="M432 320l-105 -379c-8 -30 -13 -58 -13 -80c0 -37 13 -60 44 -60c36 0 46 60 89 60c19 0 40 -15 40 -38c0 -37 -47 -56 -92 -56c-95 0 -141 57 -141 134c0 26 1 62 10 92l83 289c9 32 17 65 17 77c0 18 -10 30 -25 30c-42 0 -87 -48 -150 -141c-45 -67 -53 -90 -100 -248
h-75l96 350c1 5 2 11 2 17c0 20 -14 26 -65 27v16c81 16 109 20 162 31l4 -2l-67 -218c100 160 167 220 231 220c43 0 65 -25 65 -61c0 -18 -4 -39 -10 -60z" />
    <glyph glyph-name="uni0274" unicode="&#x274;" horiz-adv-x="539" 
d="M599 441v-17c-31 -3 -40 -5 -53 -12c-16 -12 -28 -25 -41 -79l-84 -341h-14l-234 362l-63 -251c-5 -21 -8 -37 -8 -48c0 -27 15 -34 55 -38v-17h-177v17c67 5 80 16 97 86l71 285c-19 27 -27 36 -66 36v17h134l204 -319l54 218c5 19 7 34 7 45c0 9 -2 15 -5 21
c-7 12 -19 15 -54 18v17h177z" />
    <glyph glyph-name="uni0275" unicode="&#x275;" 
d="M468 301c0 -76 -40 -164 -106 -229c-58 -58 -122 -83 -188 -83c-94 0 -147 52 -147 139c0 112 75 227 180 283c39 21 79 30 120 30c81 0 141 -52 141 -140zM138 240h235c7 29 11 59 11 86c0 61 -28 94 -71 94c-44 0 -88 -31 -128 -91c-19 -29 -35 -58 -47 -89zM365 207
h-238c-11 -35 -16 -71 -16 -106c0 -60 31 -91 78 -91c44 0 82 29 121 83c23 32 42 72 55 114z" />
    <glyph glyph-name="uni0276" unicode="&#x276;" horiz-adv-x="718" 
d="M738 437l-24 -94h-18c1 6 1 12 1 18c0 43 -22 51 -109 51h-41c-41 0 -55 -7 -59 -23l-36 -148h76c81 0 103 11 124 65h16l-39 -155h-16v18c0 37 -17 47 -67 47h-101l-39 -157c-2 -5 -2 -10 -2 -14c0 -15 9 -22 38 -22h89c51 0 91 22 142 85h18l-60 -110h-265
c-47 0 -107 -4 -143 -4c-107 0 -174 56 -174 155c0 109 66 208 154 256c45 24 100 36 154 36c9 0 11 0 47 -2c14 -1 73 -2 89 -2h245zM336 86l64 260c3 11 4 20 4 28c0 28 -18 42 -58 42c-116 0 -214 -130 -214 -277c0 -70 31 -120 111 -120c53 0 81 20 93 67z" />
    <glyph glyph-name="uni0277" unicode="&#x277;" horiz-adv-x="668" 
d="M638 262c0 -130 -103 -266 -239 -266c-55 0 -86 34 -94 84c-34 -50 -81 -84 -136 -84c-90 0 -139 62 -139 143c0 198 211 336 374 336c127 0 234 -81 234 -213zM549 299c0 107 -63 156 -150 156c-131 0 -273 -138 -273 -329c0 -46 13 -88 61 -88c41 0 86 32 95 76
c5 26 5 55 5 83c0 54 3 129 73 129c31 0 51 -20 51 -44c0 -60 -53 -119 -67 -168c-2 -7 -2 -13 -2 -19c0 -34 24 -57 59 -57c107 0 148 187 148 261z" />
    <glyph glyph-name="uni0278" unicode="&#x278;" horiz-adv-x="660" 
d="M472 599l-43 -164c107 -10 201 -60 201 -163c0 -157 -168 -266 -318 -275l-39 -146c-4 -14 -6 -25 -6 -34c0 -27 19 -33 63 -35v-15h-236v15c60 4 81 17 96 72l38 143c-113 7 -198 71 -198 171c0 165 172 258 315 267l43 161c3 13 5 24 5 33c0 28 -18 36 -62 39v15h236
v-15c-59 -3 -80 -11 -95 -69zM421 407l-102 -382c130 19 208 145 211 263c2 67 -32 114 -109 119zM235 25l102 382c-118 -6 -207 -127 -207 -247c0 -68 32 -124 105 -135z" />
    <glyph glyph-name="uni0279" unicode="&#x279;" horiz-adv-x="402" 
d="M322 441l-81 -292c-14 -52 -16 -61 -16 -82s18 -26 38 -26c8 0 16 1 31 3v-17l-155 -27l-3 2l55 216l-16 -35c-19 -42 -53 -95 -94 -138c-26 -27 -56 -45 -79 -45c-28 0 -47 21 -47 51s17 54 47 54c18 0 26 -11 35 -26c6 -10 9 -14 16 -14c18 0 46 33 82 94
c43 74 61 114 111 282h76z" />
    <glyph glyph-name="uni027A" unicode="&#x27a;" horiz-adv-x="383" 
d="M384 678l-159 -608c-1 -5 -2 -15 -2 -18c0 -18 14 -29 35 -33c8 -2 21 -3 36 -4v-15h-158l55 218l-16 -35c-19 -42 -53 -95 -94 -138c-26 -27 -56 -45 -79 -45c-28 0 -47 21 -47 51s17 54 47 54c18 0 26 -11 35 -26c6 -10 9 -14 16 -14c18 0 46 32 82 94
c18 30 47 83 65 137c21 62 42 130 47 149l30 116c7 26 13 47 13 54c0 19 -23 25 -49 25h-18v16c67 8 109 17 155 27z" />
    <glyph glyph-name="uni027B" unicode="&#x27b;" horiz-adv-x="353" 
d="M322 441l-123 -443c-21 -74 -30 -110 -30 -140c0 -39 19 -57 44 -57c36 0 47 60 88 60c21 0 41 -15 41 -39c0 -38 -49 -55 -94 -55c-81 0 -139 39 -139 123c0 42 26 125 34 155l48 173l-16 -35c-19 -42 -53 -95 -94 -138c-26 -27 -56 -45 -79 -45c-28 0 -47 21 -47 51
s17 54 47 54c18 0 26 -11 35 -26c6 -10 9 -14 16 -14c18 0 46 33 82 94c43 74 61 114 111 282h76z" />
    <glyph glyph-name="uni027C" unicode="&#x27c;" horiz-adv-x="333" 
d="M176 223l16 35c19 42 53 95 94 138c26 27 56 45 79 45c28 0 47 -21 47 -51s-17 -54 -47 -54c-18 0 -26 11 -35 26c-6 10 -9 14 -17 14c-36 0 -115 -150 -132 -194c-16 -42 -33 -91 -47 -138l-81 -277h-73l146 525c14 52 16 61 16 82s-18 26 -38 26c-8 0 -16 -1 -31 -3v17
l155 27l3 -2z" />
    <glyph glyph-name="uni027D" unicode="&#x27d;" horiz-adv-x="390" 
d="M176 223l16 35c19 42 53 95 94 138c26 27 56 45 79 45c28 0 47 -21 47 -51s-17 -54 -47 -54c-18 0 -26 11 -35 26c-6 10 -9 14 -16 14c-20 0 -48 -37 -82 -94c-33 -55 -46 -86 -66 -140c-33 -89 -82 -221 -82 -284c0 -38 19 -57 44 -57c36 0 47 60 88 60
c21 0 41 -15 41 -39c0 -38 -49 -55 -94 -55c-80 0 -139 38 -139 123c0 16 6 57 21 110l81 292c14 52 16 61 16 82s-18 26 -38 26c-8 0 -16 -1 -31 -3v17l155 27l3 -2z" />
    <glyph glyph-name="uni027E" unicode="&#x27e;" horiz-adv-x="401" 
d="M45 0l69 249c35 125 88 221 217 221c47 0 93 -19 93 -56c0 -23 -21 -38 -40 -38c-42 0 -54 60 -88 60c-50 0 -71 -56 -94 -139l-81 -297h-76z" />
    <glyph glyph-name="uni027F" unicode="&#x27f;" horiz-adv-x="338" 
d="M134 0l83 297c11 38 13 70 13 94c0 28 -8 45 -35 45c-36 0 -46 -60 -89 -60c-19 0 -40 15 -40 38c0 37 46 56 93 56c95 0 134 -54 134 -132c0 -28 -5 -59 -14 -91l-69 -247h-76z" />
    <glyph glyph-name="uni0280" unicode="&#x280;" horiz-adv-x="475" 
d="M132 464h227c88 0 142 -38 142 -96c0 -75 -61 -119 -154 -146l72 -170c11 -26 22 -34 45 -34h10v-18h-124l-92 209h-37l-26 -106c-4 -17 -7 -32 -7 -43c0 -30 16 -41 53 -42v-18h-216v18c57 5 72 22 87 80l65 257c6 22 8 36 8 46c0 29 -20 42 -53 45v18zM229 242h17
c77 0 162 45 162 125c0 40 -29 65 -83 65c-18 0 -29 -2 -50 -7z" />
    <glyph glyph-name="uni0281" unicode="&#x281;" horiz-adv-x="475" 
d="M581 446h-10c-23 0 -38 -8 -62 -34l-157 -170c62 -19 94 -52 94 -95c0 -88 -96 -147 -203 -147h-218v18c28 3 44 10 59 24c16 15 21 27 31 67l64 257c5 19 7 31 7 40c0 28 -20 39 -54 40v18h216v-18c-52 -2 -74 -22 -89 -85l-26 -106h37l196 209h115v-18zM224 222
l-45 -183c18 -5 28 -7 46 -7c70 0 128 46 128 112c0 59 -56 78 -112 78h-17z" />
    <glyph glyph-name="uni0282" unicode="&#x282;" horiz-adv-x="389" 
d="M376 442l-20 -140h-16c-10 83 -40 116 -89 116c-35 0 -59 -20 -59 -57c0 -27 15 -56 54 -102c50 -58 68 -97 68 -136c0 -83 -61 -134 -144 -134c-17 0 -32 1 -55 10c-19 8 -33 9 -44 9c-4 0 -7 -1 -11 -2l-19 -138c-1 -8 -1 -14 -1 -20c0 -19 6 -32 26 -32
c36 0 46 60 89 60c19 0 40 -15 40 -38c0 -37 -46 -56 -93 -56c-72 0 -93 27 -93 65c0 5 1 15 2 20l35 279h16c14 -95 48 -136 100 -136c47 0 76 28 76 77c0 32 -17 66 -56 115c-43 54 -63 99 -63 131c0 66 47 108 121 108c17 0 31 -3 56 -10c19 -6 28 -7 36 -7
c15 0 22 4 30 18h14z" />
    <glyph glyph-name="uni0283" unicode="&#x283;" horiz-adv-x="415" 
d="M112 -72l140 537c30 116 111 218 236 218c47 0 89 -21 89 -56c0 -23 -21 -38 -40 -38c-42 0 -54 60 -88 60c-53 0 -84 -85 -98 -140l-136 -524c-30 -116 -110 -218 -235 -218c-45 0 -90 21 -90 55c0 24 21 39 40 39c42 0 54 -60 88 -60c48 0 78 67 94 127z" />
    <glyph glyph-name="uni0284" unicode="&#x284;" horiz-adv-x="453" 
d="M137 31l116 465c26 105 126 187 252 187c43 0 90 -19 90 -56c0 -23 -21 -38 -40 -38c-42 0 -54 60 -88 60c-44 0 -104 -24 -127 -116l-127 -502h80l-5 -31h-84c-41 -147 -123 -233 -223 -233c-43 0 -91 20 -91 55c0 24 21 39 39 39c44 0 55 -60 89 -60
c35 0 81 75 112 199h-80l7 31h80z" />
    <glyph glyph-name="uni0285" unicode="&#x285;" horiz-adv-x="339" 
d="M297 252l-78 -312c-10 -40 -23 -83 -23 -108c0 -20 8 -31 30 -31c36 0 46 60 89 60c19 0 40 -15 40 -38c0 -37 -46 -56 -93 -56c-94 0 -129 54 -129 129c0 27 5 58 13 89l78 312c10 40 18 75 18 99c0 25 -9 40 -34 40c-36 0 -46 -60 -89 -60c-19 0 -40 15 -40 38
c0 37 46 56 93 56c98 0 133 -55 133 -134c0 -25 -1 -58 -8 -84z" />
    <glyph glyph-name="uni0286" unicode="&#x286;" horiz-adv-x="439" 
d="M159 14l116 442c15 59 44 129 101 177c38 32 86 50 137 50c34 0 89 -14 89 -57c0 -21 -20 -37 -39 -37c-44 0 -54 60 -89 60c-61 0 -87 -99 -106 -171l-131 -505c29 -29 44 -71 44 -117c0 -34 -5 -68 -23 -99h-26c16 45 20 59 20 93s-8 65 -26 90
c-47 -109 -93 -172 -197 -172c-51 0 -91 39 -91 87c0 96 98 163 178 163c15 0 30 -1 43 -4zM153 -13c-15 4 -31 6 -47 6c-60 0 -143 -61 -143 -134c0 -38 32 -66 74 -66c38 0 67 29 79 65c15 43 26 87 37 129z" />
    <glyph glyph-name="uni0287" unicode="&#x287;" horiz-adv-x="330" 
d="M120 332l-13 7c60 92 91 121 143 121c27 0 46 -12 46 -37c0 -11 -8 -42 -16 -74l-78 -296h75c1 -3 1 -6 1 -6c0 -11 -9 -20 -33 -25c-32 -7 -97 -56 -133 -110c-4 -6 -10 -9 -14 -9c-6 0 -9 3 -9 8c0 0 0 5 1 7l28 103h-80l5 32h84l87 328c1 4 2 11 2 14
c0 13 -6 16 -15 16c-16 0 -32 -16 -81 -79z" />
    <glyph glyph-name="uni0288" unicode="&#x288;" horiz-adv-x="278" 
d="M308 428l-5 -32h-84l-138 -520c-4 -15 -7 -29 -7 -42c0 -27 14 -33 22 -33c38 0 47 60 90 60c20 0 40 -15 40 -39c0 -37 -45 -55 -97 -55c-78 0 -123 40 -123 83c0 14 7 48 12 67l126 479h-75c-1 3 -1 6 -1 6c0 11 9 20 33 25c32 7 97 56 133 110c4 6 10 9 14 9
c6 0 9 -3 9 -8c0 0 0 -5 -1 -7l-28 -103h80z" />
    <glyph glyph-name="uni0289" unicode="&#x289;" 
d="M479 261l-5 -31h-63l-25 -97c-5 -19 -19 -66 -19 -78c0 -11 4 -17 11 -17c16 0 32 14 83 81l14 -9c-65 -99 -91 -119 -138 -119c-30 0 -48 17 -48 48c0 21 12 86 43 191c-117 -189 -167 -241 -237 -241c-35 0 -53 16 -53 53c0 19 9 55 27 128l15 60h-75l7 31h76l12 48
c8 33 14 59 14 67c0 7 -5 15 -11 18c-9 5 -12 6 -50 6v14c57 7 93 14 150 27l4 -3l-45 -177h157c20 40 37 86 68 171h74l-46 -171h60zM307 230h-148l-36 -147c-1 -3 -3 -12 -3 -16c0 -15 4 -25 19 -25c34 0 80 53 142 147z" />
    <glyph glyph-name="uni028A" unicode="&#x28a;" horiz-adv-x="537" 
d="M552 430h-38c-29 0 -52 -26 -52 -51c0 -26 39 -50 39 -125c0 -141 -151 -264 -280 -264c-105 0 -172 74 -172 168c0 16 2 34 6 51c21 83 83 135 105 154c10 9 18 27 18 37c0 18 -15 30 -32 30h-38v20h145c-63 -104 -93 -174 -111 -246c-4 -16 -13 -60 -13 -90
c0 -58 34 -104 96 -104c103 0 159 107 181 195c11 45 17 90 17 143c0 31 -2 65 -6 102h135v-20z" />
    <glyph glyph-name="uni028B" unicode="&#x28b;" 
d="M211 438l-75 -311c-2 -8 -6 -24 -6 -32c0 -39 35 -64 76 -64c130 0 228 165 228 277c0 12 -2 21 -5 29c-8 20 -49 32 -49 70c0 22 19 34 36 34c29 0 51 -20 57 -50c2 -9 2 -20 2 -30c0 -164 -111 -371 -296 -371c-78 0 -127 24 -127 90c0 14 2 30 7 50l53 212
c5 20 6 31 6 34c0 7 -5 15 -11 18c-9 5 -12 6 -50 6v14c57 7 93 14 150 27z" />
    <glyph glyph-name="uni028C" unicode="&#x28c;" horiz-adv-x="444" 
d="M426 20v-13c-45 -7 -80 -14 -112 -21c-8 -3 -15 -4 -20 -4c-9 0 -9 6 -30 114c-13 67 -19 122 -25 257l-31 -32c-72 -74 -137 -184 -137 -231c0 -10 5 -17 18 -29c18 -16 25 -29 25 -45c0 -21 -17 -34 -38 -34c-33 0 -56 32 -56 59c0 43 28 101 63 155
c45 70 101 134 119 153c55 59 82 92 99 92c6 0 9 -10 9 -27v-24c0 -69 11 -202 24 -278s24 -93 61 -93c10 0 20 0 31 1z" />
    <glyph glyph-name="uni028D" unicode="&#x28d;" horiz-adv-x="667" 
d="M648 19v-13c-31 -5 -65 -9 -95 -17c-13 -3 -22 -7 -29 -7c-11 0 -12 2 -19 34c-14 68 -28 193 -32 281l-192 -305c-5 -8 -8 -10 -13 -10c-6 0 -8 3 -8 14l-32 353c-131 -164 -165 -217 -165 -260c0 -12 6 -20 22 -35s21 -27 21 -41c0 -16 -17 -31 -39 -31
c-30 0 -52 24 -52 56c0 64 74 181 212 349l9 11c27 33 36 43 45 43c7 0 9 -9 11 -35l29 -310l89 152c18 30 36 63 55 99c36 69 53 94 64 94c9 0 11 -8 13 -47l4 -91c4 -87 15 -194 27 -242c9 -37 18 -42 47 -42h28z" />
    <glyph glyph-name="uni028E" unicode="&#x28e;" horiz-adv-x="444" 
d="M193 255l-21 110c-85 -141 -122 -213 -122 -257c0 -14 7 -20 26 -32c20 -13 26 -23 26 -39c0 -22 -17 -37 -40 -37c-30 0 -52 25 -52 55c0 57 48 167 131 305c104 172 211 287 268 287c30 0 51 -17 51 -43c0 -22 -17 -40 -39 -40c-35 0 -35 28 -61 28
c-13 0 -25 -8 -48 -33c-18 -19 -63 -78 -71 -91c-6 -12 -10 -24 -10 -35c0 -40 55 -264 82 -332c19 -49 37 -64 77 -64c11 0 20 1 31 4v-17c-11 -2 -22 -4 -32 -6c-20 -4 -53 -10 -107 -18h-4c-15 0 -68 166 -85 255z" />
    <glyph glyph-name="uni028F" unicode="&#x28f;" horiz-adv-x="633" 
d="M603 464v-18c-51 -4 -65 -19 -127 -79l-158 -155l-27 -106c-4 -16 -7 -31 -7 -45c0 -25 11 -43 53 -43v-18h-216v18c66 0 79 44 87 78l27 110l-70 133c-49 93 -63 105 -103 107v18h210v-18c-48 -2 -54 -9 -54 -22c0 -9 4 -15 11 -29l78 -151l153 151c12 12 22 27 22 40
c0 7 -7 10 -37 11v18h158z" />
    <glyph glyph-name="uni0290" unicode="&#x290;" horiz-adv-x="405" 
d="M348 96l-62 -206c-5 -16 -9 -38 -9 -44c0 -20 3 -30 23 -30c36 0 46 60 89 60c19 0 40 -15 40 -38c0 -37 -46 -56 -93 -56c-64 0 -86 32 -86 65c0 15 11 52 16 69l25 84h-274v18l291 350h-136c-52 0 -71 -9 -91 -60l-16 4l32 116h283v-11l-300 -357h209c20 0 36 24 43 40
z" />
    <glyph glyph-name="uni0291" unicode="&#x291;" horiz-adv-x="393" 
d="M380 417l-300 -357h116c23 39 62 84 105 84c41 0 69 -22 69 -60c0 -69 -60 -84 -119 -84h-66c-9 -16 -18 -32 -25 -47h-24c7 13 17 34 25 47h-144v18l291 350h-136c-52 0 -71 -9 -91 -60l-16 4l32 116h283v-11zM221 60h74c31 0 47 13 47 27c0 20 -21 36 -41 36
c-21 0 -44 -11 -80 -63z" />
    <glyph glyph-name="uni0292" unicode="&#x292;" horiz-adv-x="413" 
d="M517 400l-215 -204c11 2 22 3 33 3c69 0 123 -46 123 -133c0 -185 -144 -299 -290 -299c-36 0 -78 14 -104 31c-27 18 -43 48 -43 70c0 23 17 44 49 44c28 0 43 -31 49 -58c12 -53 26 -58 74 -58c66 0 182 78 182 233c0 75 -50 106 -119 106c-14 0 -45 -14 -57 -19
l-11 11l278 259h-199c-73 0 -85 -32 -105 -86h-18l61 150h312v-50z" />
    <glyph glyph-name="uni0293" unicode="&#x293;" horiz-adv-x="457" 
d="M544 450l-4 -15l-244 -268c5 0 7 1 14 1c57 0 138 -33 138 -133c0 -132 -105 -219 -199 -251l25 -89h-37l-24 78c-31 -6 -44 -6 -78 -6c-77 0 -128 29 -128 77c0 56 47 92 111 92c60 0 86 -36 119 -123c59 33 117 107 117 203c0 85 -53 119 -120 119
c-20 0 -47 -14 -60 -19l-11 11l264 293h-138c-73 0 -86 -34 -106 -88h-18l33 118h346zM205 -201c-34 83 -50 103 -81 103c-26 0 -47 -25 -47 -53c0 -37 49 -53 81 -53c15 0 39 1 47 3z" />
    <glyph glyph-name="uni0294" unicode="&#x294;" 
d="M152 102l68 254c108 1 194 114 194 220c0 47 -15 90 -59 90c-27 0 -56 -29 -63 -60c-9 -38 -22 -68 -55 -68c-25 0 -46 21 -46 42c0 16 10 54 49 76c32 18 70 27 110 27c123 0 159 -63 159 -125c0 -128 -122 -216 -211 -222l-62 -234c-6 -21 -9 -38 -9 -50
c0 -32 21 -35 65 -37v-15h-237v15c30 2 49 6 62 15c17 12 25 34 35 72z" />
    <glyph glyph-name="uni0295" unicode="&#x295;" 
d="M155 102l62 234c-58 11 -120 45 -120 125c0 96 67 222 243 222c40 0 93 -15 119 -36c24 -19 36 -47 36 -65c0 -23 -18 -44 -48 -44c-25 0 -45 24 -51 60c-4 25 -27 68 -66 68c-71 0 -138 -122 -138 -192c0 -65 49 -118 114 -118l-67 -254c-6 -21 -8 -37 -8 -49
c0 -26 15 -35 61 -38v-15h-237v15c62 3 80 10 100 87z" />
    <glyph glyph-name="uni0296" unicode="&#x296;" horiz-adv-x="393" 
d="M413 662v-15c-62 -3 -80 -10 -100 -87l-60 -227c58 -11 120 -45 120 -125c0 -96 -67 -222 -243 -222c-40 0 -93 15 -119 36c-24 19 -36 47 -36 65c0 23 18 44 48 44c25 0 45 -24 51 -60c4 -25 27 -68 66 -68c71 0 138 122 138 192c0 65 -49 118 -114 118l65 247
c5 21 8 37 8 49c0 26 -15 35 -61 38v15h237z" />
    <glyph glyph-name="uni0297" unicode="&#x297;" horiz-adv-x="450" 
d="M28 -84l92 367c25 98 123 158 213 158c70 0 126 -49 126 -117c0 -25 -13 -61 -40 -61c-15 0 -29 13 -29 28c0 18 14 33 14 49c0 40 -32 66 -65 66c-49 0 -115 -43 -128 -95l-97 -387c-2 -9 -3 -19 -3 -28c0 -49 33 -88 85 -88c76 0 126 55 142 121c2 8 3 16 4 24h25
l-9 -38c-20 -83 -96 -153 -203 -153c-72 0 -131 52 -131 122c0 10 1 21 4 32z" />
    <glyph glyph-name="uni0298" unicode="&#x298;" horiz-adv-x="723" 
d="M421 332c0 -35 -25 -64 -63 -64c-31 0 -63 26 -63 63c0 35 28 63 63 63s63 -28 63 -62zM704 432c0 -232 -191 -449 -426 -449c-151 0 -256 95 -256 249c0 241 204 447 431 447c162 0 251 -102 251 -247zM611 445c0 121 -56 206 -171 206c-164 0 -325 -210 -325 -436
c0 -117 52 -199 170 -199c165 0 326 226 326 429z" />
    <glyph glyph-name="uni0299" unicode="&#x299;" horiz-adv-x="460" 
d="M126 464h208c119 0 171 -34 171 -92c0 -80 -62 -117 -135 -127c61 -12 109 -39 109 -93c0 -97 -102 -152 -224 -152h-236v18c61 0 82 22 94 71l70 281c3 11 4 21 4 29c0 27 -15 42 -61 47v18zM237 260h53c85 0 136 34 136 108c0 42 -34 64 -112 64h-16
c-14 0 -20 -6 -24 -22zM228 226l-40 -162c-1 -4 -2 -9 -2 -12c0 -16 13 -20 43 -20c80 0 160 32 160 124c0 63 -65 70 -140 70h-21z" />
    <glyph glyph-name="uni029A" unicode="&#x29a;" horiz-adv-x="479" 
d="M198 249v2c-48 11 -93 33 -93 83c0 55 38 96 87 118c36 16 73 23 105 23c115 0 173 -69 173 -167c0 -172 -128 -322 -292 -322c-58 0 -158 22 -158 105c0 62 39 110 91 135c27 13 62 20 87 23zM283 233h-13c-72 0 -156 -51 -156 -132c0 -50 33 -79 85 -79
c122 0 205 192 205 285c0 67 -23 135 -94 135c-58 0 -117 -50 -117 -113c0 -42 34 -66 83 -66h7v-30z" />
    <glyph glyph-name="uni029B" unicode="&#x29b;" horiz-adv-x="570" 
d="M473 167l-32 -131c-5 -22 -169 -47 -192 -47c-129 0 -220 50 -220 166c0 170 164 286 317 286c49 0 90 -12 134 -21c17 54 57 95 113 95c27 0 57 -17 57 -48c0 -13 -6 -22 -20 -22c-35 0 -22 49 -55 49c-30 0 -44 -44 -49 -67l-26 -124h-16c-13 74 -53 112 -135 112
c-136 0 -236 -132 -236 -263c0 -84 53 -137 149 -137c21 0 103 7 111 39l26 106c3 13 5 22 5 29c0 25 -18 26 -55 29v13h189v-13c-39 -3 -55 -9 -65 -51z" />
    <glyph glyph-name="uni029C" unicode="&#x29c;" horiz-adv-x="572" 
d="M671 464v-18c-59 -4 -72 -13 -85 -67l-72 -289c-3 -13 -5 -25 -5 -34c0 -26 14 -37 55 -38v-18h-216v18c63 3 71 16 86 76l32 126h-242l-32 -126c-4 -15 -6 -28 -6 -38c0 -24 13 -36 54 -38v-18h-215v18c64 4 72 18 87 79l70 282c4 15 6 27 6 36c0 23 -15 28 -56 31v18
h215v-18c-57 -4 -70 -12 -84 -67l-31 -126h242l31 126c4 16 6 28 6 37c0 23 -15 26 -56 30v18h216z" />
    <glyph glyph-name="uni029D" unicode="&#x29d;" horiz-adv-x="403" 
d="M394 598c0 -27 -24 -50 -50 -50c-30 0 -54 21 -54 52c0 30 25 52 53 52c27 0 51 -26 51 -54zM361 438l-104 -410c-7 -29 -19 -68 -28 -88c37 -46 76 -118 100 -173h-40c-19 50 -40 86 -75 137c-48 -95 -109 -137 -190 -137c-57 0 -104 38 -104 94c0 81 88 139 158 139
c37 0 76 -14 91 -23l77 312c12 49 16 70 16 80c0 22 -12 31 -48 31h-26v16c32 2 85 10 169 25zM161 -55c-23 11 -71 20 -88 20c-50 0 -118 -45 -118 -102c0 -44 44 -61 89 -61c73 0 93 64 117 143z" />
    <glyph glyph-name="uni029E" unicode="&#x29e;" horiz-adv-x="463" 
d="M473 428l-141 -528c-13 -48 -18 -71 -18 -88c0 -18 17 -24 51 -24h18v-16c-59 -7 -98 -14 -157 -27l-6 6l120 456l-43 -33c-94 -72 -143 -120 -143 -140c0 -11 12 -18 37 -18h14v-16h-179v16c47 3 78 23 225 154l-37 88c-39 92 -62 129 -81 129c-15 0 -27 -11 -45 -42
c-5 -8 -10 -17 -15 -26l-15 11c46 84 71 109 111 109c29 0 49 -19 81 -82c18 -35 44 -97 60 -141l40 32l48 180h75z" />
    <glyph glyph-name="uni029F" unicode="&#x29f;" horiz-adv-x="470" 
d="M473 127l-67 -127h-381v18c53 2 65 18 77 65l73 294c4 16 7 29 7 39c0 20 -12 27 -50 30v18h193v-18c-60 -3 -66 -24 -77 -70l-76 -307c-2 -6 -3 -15 -3 -18c0 -16 14 -19 58 -19h50c59 0 102 13 134 43c12 12 24 27 43 52h19z" />
    <glyph glyph-name="uni02A0" unicode="&#x2a0;" horiz-adv-x="480" 
d="M395 379l27 84c24 74 71 119 125 119c23 0 55 -1 85 -18c14 -8 34 -24 34 -53c0 -14 -9 -33 -33 -33c-19 0 -36 9 -47 30c-10 19 -23 31 -38 31c-25 0 -36 -12 -57 -87l-172 -603c-1 -4 -2 -8 -2 -11c0 -19 20 -31 57 -31h15v-16h-237v16c63 4 80 19 91 56l90 290
c-80 -127 -131 -164 -208 -164c-63 0 -100 45 -100 116c0 158 156 336 293 336c41 0 67 -17 77 -62zM380 359c0 33 -26 60 -59 60c-29 0 -61 -19 -93 -49c-68 -65 -117 -168 -117 -251c0 -47 16 -77 53 -77c25 0 56 13 82 36c68 59 134 198 134 281z" />
    <glyph glyph-name="uni02A1" unicode="&#x2a1;" 
d="M176 193l44 163c108 1 194 114 194 220c0 47 -15 90 -59 90c-27 0 -56 -29 -63 -60c-9 -38 -22 -68 -55 -68c-25 0 -46 21 -46 42c0 16 10 54 49 76c32 18 70 27 110 27c123 0 159 -63 159 -125c0 -128 -122 -216 -211 -222l-39 -143h77l-8 -31h-77l-16 -60
c-6 -21 -8 -38 -8 -50c0 -32 20 -35 64 -37v-15h-236v15c30 2 48 6 61 15c17 12 26 34 36 72l16 60h-78l8 31h78z" />
    <glyph glyph-name="uni02A2" unicode="&#x2a2;" 
d="M179 193l38 143c-58 11 -120 45 -120 125c0 96 67 222 243 222c40 0 93 -15 119 -36c24 -19 36 -47 36 -65c0 -23 -18 -44 -48 -44c-25 0 -45 24 -51 60c-4 25 -27 68 -66 68c-71 0 -138 -122 -138 -192c0 -65 49 -118 114 -118l-43 -163h75l-8 -31h-75l-16 -60
c-6 -21 -8 -37 -8 -49c0 -26 15 -35 61 -38v-15h-237v15c62 3 80 10 100 87l16 60h-79l8 31h79z" />
    <glyph glyph-name="uni02A3" unicode="&#x2a3;" horiz-adv-x="743" 
d="M741 417l-300 -357h209c20 0 36 24 43 40l16 -4l-29 -96h-302c-15 -8 -31 -13 -50 -13c-26 0 -41 18 -41 45c0 23 2 39 13 89c-59 -99 -110 -132 -178 -132c-65 0 -107 41 -107 117c0 162 162 335 292 335c42 0 57 -17 66 -58l45 163c15 53 14 57 14 71
c0 21 -9 24 -64 26v17c64 6 100 12 153 23l6 -6l-39 -151l-27 -98h280v-11zM669 368h-136c-52 0 -71 -9 -91 -60l-12 3l-60 -216c-4 -15 -7 -28 -7 -35c0 -12 5 -20 18 -20c8 0 20 6 25 12zM356 361c0 36 -24 57 -47 57c-28 0 -63 -17 -91 -46c-66 -70 -116 -179 -116 -262
c0 -46 23 -73 58 -73c92 0 196 172 196 324z" />
    <glyph glyph-name="uni02A4" unicode="&#x2a4;" horiz-adv-x="743" 
d="M780 400l-206 -204c11 3 13 3 24 3c69 0 123 -46 123 -133c0 -185 -144 -299 -290 -299c-36 0 -78 14 -104 31c-27 18 -43 48 -43 70c0 23 17 44 49 44c28 0 43 -31 49 -58c12 -53 26 -58 74 -58c66 0 182 78 182 233c0 84 -64 106 -112 106c-11 0 -28 -17 -37 -27
l-88 -90c-21 -22 -54 -31 -73 -31c-26 0 -41 18 -41 45c0 23 2 39 13 89c-59 -99 -110 -132 -178 -132c-65 0 -107 41 -107 117c0 162 162 335 292 335c42 0 59 -19 65 -58h1l45 163c15 53 14 57 14 71c0 21 -9 24 -64 26v17c64 6 100 12 153 23l6 -6l-59 -227h312v-50z
M729 386h-202c-67 0 -86 -33 -101 -88l-54 -195c-4 -16 -9 -39 -9 -43c0 -12 5 -20 18 -20c6 0 15 7 21 13zM356 361c0 36 -24 57 -47 57c-28 0 -63 -17 -91 -46c-66 -70 -116 -179 -116 -262c0 -46 23 -73 58 -73c92 0 196 172 196 324z" />
    <glyph glyph-name="uni02A5" unicode="&#x2a5;" horiz-adv-x="754" 
d="M741 417l-300 -357h116c23 39 62 84 105 84c41 0 69 -22 69 -60c0 -69 -60 -84 -119 -84h-66c-9 -16 -18 -32 -25 -47h-24c7 13 17 34 25 47h-144c-16 -7 -32 -13 -50 -13c-26 0 -41 18 -41 45c0 23 2 39 13 89c-59 -99 -110 -132 -178 -132c-65 0 -107 41 -107 117
c0 162 162 335 292 335c42 0 59 -19 66 -58l45 163c15 53 14 57 14 71c0 21 -9 24 -64 26v17c64 6 100 12 153 23l6 -6l-39 -152l-27 -97h280v-11zM582 60h74c31 0 47 13 47 27c0 20 -21 36 -41 36c-21 0 -44 -11 -80 -63zM669 368h-136c-52 0 -71 -9 -91 -60l-12 3
l-60 -215c-4 -14 -7 -32 -7 -36c0 -12 5 -20 18 -20c11 0 19 6 27 15zM356 361c0 36 -24 57 -47 57c-28 0 -63 -17 -91 -46c-66 -70 -116 -179 -116 -262c0 -46 23 -73 58 -73c92 0 196 172 196 324z" />
    <glyph glyph-name="uni02A6" unicode="&#x2a6;" 
d="M523 442l-20 -140h-16c-10 83 -40 116 -89 116c-35 0 -59 -20 -59 -57c0 -27 15 -56 54 -102c50 -58 68 -97 68 -136c0 -83 -61 -134 -144 -134c-17 0 -32 1 -55 10c-25 10 -55 32 -70 53c-27 -41 -74 -63 -108 -63c-27 0 -46 12 -46 37c0 11 8 42 16 74l78 296h-75
c-1 3 -1 6 -1 6c0 11 9 20 33 25c32 7 97 56 133 110c4 6 10 9 14 9c6 0 9 -3 9 -8c0 0 0 -5 -1 -7l-28 -103h107c18 8 39 13 64 13c17 0 31 -3 56 -10c19 -6 28 -7 36 -7c15 0 22 4 30 18h14zM214 117l13 -7c-3 -5 -6 -10 -9 -14c18 -59 48 -86 91 -86c47 0 76 28 76 77
c0 32 -17 66 -56 115c-43 54 -63 99 -63 131c0 24 7 46 19 63h-78l-87 -328c-1 -4 -2 -11 -2 -14c0 -13 6 -16 15 -16c16 0 32 16 81 79z" />
    <glyph glyph-name="uni02A7" unicode="&#x2a7;" horiz-adv-x="517" 
d="M320 428l10 37c31 116 111 218 236 218c47 0 89 -21 89 -56c0 -23 -21 -38 -40 -38c-42 0 -54 60 -88 60c-53 0 -84 -85 -98 -140l-136 -524c-30 -116 -110 -218 -235 -218c-45 0 -90 21 -90 55c0 24 21 39 40 39c42 0 54 -60 88 -60c48 0 78 67 94 127l38 146
c-62 -57 -100 -85 -144 -85c-27 0 -46 12 -46 37c0 11 8 42 16 74l78 296h-75c-1 3 -1 6 -1 6c0 11 9 20 33 25c32 7 97 56 133 110c4 6 10 9 14 9c6 0 9 -3 9 -8c0 0 0 -5 -1 -7l-28 -103h104zM312 396h-105l-87 -328c-1 -4 -2 -11 -2 -14c0 -13 6 -16 15 -16
c16 0 46 23 106 79z" />
    <glyph glyph-name="uni02A8" unicode="&#x2a8;" horiz-adv-x="632" 
d="M207 396l-87 -328c-1 -4 -2 -14 -2 -17c0 -14 17 -14 30 -14c21 0 63 15 84 25c-10 22 -15 52 -15 81c0 93 52 180 123 237c49 39 106 61 167 61s105 -34 105 -81c0 -27 -22 -48 -48 -48c-28 0 -39 20 -39 40c0 18 15 29 15 48c0 12 -14 20 -37 20
c-40 0 -80 -18 -109 -48c-56 -59 -91 -144 -91 -233c0 -8 2 -33 4 -40c68 33 123 50 178 50c44 0 85 -26 85 -65c0 -55 -38 -100 -141 -100c-42 0 -93 2 -128 15c-21 8 -46 25 -55 39c-61 -31 -118 -49 -163 -49c-17 0 -45 7 -45 37c0 11 8 42 16 74l78 296h-75
c-1 3 -1 6 -1 6c0 11 9 20 33 25c32 7 97 56 133 110c4 6 10 9 14 9c6 0 9 -3 9 -8c0 0 0 -5 -1 -7l-28 -103h80l-5 -32h-84zM537 79c0 23 -25 37 -57 37s-78 -2 -165 -45c21 -51 110 -54 128 -54c66 0 94 29 94 62z" />
    <glyph glyph-name="uni02B0" unicode="&#x2b0;" horiz-adv-x="378" 
d="M380 420l11 -9c-51 -65 -80 -85 -123 -85c-21 0 -36 12 -36 31c0 9 6 32 17 68l46 154c3 11 6 21 6 24c0 11 -5 19 -25 19c-29 0 -83 -46 -126 -104c-34 -45 -47 -71 -80 -185h-63l120 404c6 19 13 41 13 52c0 12 -20 18 -35 18h-22v11c50 6 83 11 132 20l6 -4l-102 -331
c75 108 141 156 192 156c38 0 55 -22 55 -49c0 -5 -2 -17 -4 -23l-60 -188c-3 -11 -5 -22 -5 -25c0 -7 6 -13 14 -13c13 0 24 9 69 59z" />
    <glyph glyph-name="uni02B1" unicode="&#x2b1;" horiz-adv-x="378" 
d="M7 333l112 377c22 73 91 128 167 128c70 0 128 -23 128 -55c0 -15 -12 -27 -28 -27c-20 0 -28 14 -43 32c-14 17 -34 31 -54 31c-46 0 -87 -47 -101 -91l-69 -225c75 108 141 156 192 156c39 0 55 -22 55 -49c0 -5 -2 -17 -4 -23l-60 -188c-4 -12 -5 -22 -5 -25
c0 -7 7 -13 14 -13c14 0 24 9 69 59l11 -9c-51 -65 -80 -85 -122 -85c-23 0 -37 12 -37 31c0 9 6 32 17 68l46 154c3 11 6 21 6 24c0 11 -5 19 -24 19c-30 0 -84 -46 -127 -104c-34 -45 -47 -71 -80 -185h-63z" />
    <glyph glyph-name="uni02B2" unicode="&#x2b2;" horiz-adv-x="300" 
d="M350 810c0 -21 -17 -38 -38 -38c-23 0 -41 16 -41 40c0 22 18 39 40 39s39 -20 39 -41zM325 688l-79 -311c-31 -123 -76 -178 -142 -178c-35 0 -60 19 -60 46c0 18 14 34 31 34c21 0 30 -12 30 -28c0 -17 -9 -15 -9 -26c0 -6 4 -8 13 -8c31 0 48 32 74 137l55 221
c9 37 12 53 12 61c0 17 -9 23 -37 23h-19v13c24 1 64 7 128 18z" />
    </font>
</defs>
</svg>
