<?xml version="1.0" standalone="no"?>
<!DOCTYPE svg PUBLIC "-//W3C//DTD SVG 1.1//EN" "http://www.w3.org/Graphics/SVG/1.1/DTD/svg11.dtd" >
<svg xmlns="http://www.w3.org/2000/svg" xmlns:xlink="http://www.w3.org/1999/xlink" version="1.1">
<metadata>
Created by FontForge 20201107 at Mon Aug 15 13:07:25 2011
 By Jimmy Wärting
Copyright (c) 2001-2011 by the STI Pub Companies, consisting of the American Chemical Society, the American Institute of Physics, the American Mathematical Society, the American Physical Society, Elsevier, Inc., and The Institute of Electrical and Electronic Engineers, Inc.  Portions copyright (c) 1998-2003 by MicroPress, Inc.  Portions copyright (c) 1990 by Elsevier, Inc.  All rights reserved.
</metadata>
<defs>
<font id="STIXGeneral-Regular" horiz-adv-x="685" >
  <font-face 
    font-family="STIXGeneral"
    font-weight="400"
    font-stretch="normal"
    units-per-em="1000"
    panose-1="0 0 0 0 0 0 0 0 0 0"
    ascent="750"
    descent="-250"
    x-height="450"
    cap-height="662"
    bbox="-970 -443 2000 1023"
    underline-thickness="50"
    underline-position="-100"
    stemh="66"
    stemv="66"
    unicode-range="U+0020-1D7FF"
  />
<missing-glyph horiz-adv-x="250" 
 />
    <glyph glyph-name="uni0132" unicode="IJ" horiz-adv-x="747" 
d="M728 662v-19c-81 -6 -92 -17 -92 -94v-364c0 -137 -61 -199 -167 -199c-60 0 -101 25 -101 72c0 26 22 52 49 52c23 0 38 -14 49 -42c10 -25 11 -44 31 -44c31 0 37 20 37 70v456c0 81 -12 86 -93 93v19h287zM315 0h-297v19c84 3 97 15 97 93v439c0 79 -12 87 -97 92v19
h297v-19c-84 -4 -98 -16 -98 -92v-439c0 -75 16 -90 98 -93v-19z" />
    <glyph glyph-name="uni0133" unicode="ij" horiz-adv-x="538" 
d="M454 632c0 -29 -22 -51 -52 -51c-28 0 -50 22 -50 51c0 28 23 51 51 51s51 -23 51 -51zM180 632c0 -29 -22 -51 -52 -51c-28 0 -50 22 -50 51c0 28 23 51 51 51c29 0 51 -23 51 -51zM453 457v-457c0 -142 -59 -218 -170 -218c-54 0 -93 23 -93 55c0 22 18 39 41 39
c16 0 30 -9 48 -32c17 -21 27 -28 42 -28c14 0 28 8 34 18c11 20 14 45 14 121v379c0 43 -9 60 -32 60c-10 0 -24 0 -40 -3l-5 -1v16c59 18 97 31 156 54zM253 0h-237v15c69 4 79 13 79 89v227c0 47 -8 63 -33 63c-9 0 -24 0 -42 -5v16l155 55l4 -4v-351c0 -74 8 -85 74 -90
v-15z" />
    <glyph glyph-name="ff" unicode="ff" horiz-adv-x="605" 
d="M187 450h189c1 80 8 116 34 161s78 72 141 72c60 0 104 -26 104 -62c0 -23 -18 -41 -42 -41c-17 0 -29 9 -45 36c-18 29 -31 39 -53 39c-38 0 -56 -30 -56 -89v-116h115v-32h-115v-315c0 -75 11 -85 93 -88v-15h-245v15c57 4 68 16 68 89v314h-188v-314
c0 -75 6 -84 68 -89v-15h-235v15c72 4 83 16 83 89v314h-82v32h82c1 80 9 116 35 161s78 72 141 72c60 0 97 -26 97 -62c0 -23 -18 -41 -42 -41c-17 0 -22 9 -38 36c-18 29 -31 39 -53 39c-38 0 -56 -30 -56 -89v-116z" />
    <glyph glyph-name="fi" unicode="fi" horiz-adv-x="558" 
d="M523 0h-220v15c62 5 68 16 68 84v261c0 49 -8 57 -103 57h-84v-327c0 -55 12 -71 68 -75v-15h-220v15c56 2 68 17 68 81v321h-67v33h68c11 94 17 137 72 186c36 31 87 47 147 47c79 0 125 -25 125 -68c0 -26 -10 -41 -35 -41c-42 0 -60 84 -121 84c-28 0 -56 -12 -75 -32
c-30 -30 -30 -67 -30 -131v-45h154c43 0 71 4 114 11l5 -4c-2 -53 -2 -77 -2 -99v-259c0 -64 17 -79 68 -84v-15z" />
    <glyph glyph-name="fl" unicode="fl" horiz-adv-x="556" 
d="M522 0h-215v15c50 5 66 16 66 71v332h-188v-337c0 -51 16 -61 70 -66v-15h-224v15c59 5 70 14 70 92v311h-70v32h72c0 99 9 144 65 194c27 24 61 39 100 39c40 0 79 -25 111 -25c13 0 51 25 73 25l5 -2v-598c0 -56 15 -63 65 -68v-15zM373 450v142c-5 -6 -10 -8 -18 -8
c-26 0 -34 11 -50 37c-17 28 -31 35 -53 35c-44 0 -67 -45 -67 -156v-50h188z" />
    <glyph glyph-name="ffi" unicode="ffi" horiz-adv-x="832" 
d="M797 0h-220v15c62 5 68 16 68 84v261c0 49 -8 58 -103 58h-84v-328c0 -55 12 -71 68 -75v-15h-220v15c63 5 68 17 68 81v322h-187v-315c0 -75 9 -82 68 -88v-15h-235v15c72 4 83 15 83 88v315h-82v32h82c1 80 9 115 35 160s78 72 141 72c60 0 98 -26 98 -62
c0 -23 -18 -41 -42 -41c-17 0 -23 9 -39 36c-18 29 -27 40 -49 40c-38 0 -60 -31 -60 -90v-115h188c11 94 17 137 72 186c36 31 87 47 147 47c79 0 125 -25 125 -68c0 -26 -10 -41 -35 -41c-42 0 -60 81 -121 81c-28 0 -56 -9 -75 -29c-30 -30 -30 -67 -30 -131v-45h154
c43 0 71 4 114 11l5 -4c-2 -53 -2 -77 -2 -99v-259c0 -64 17 -79 68 -84v-15z" />
    <glyph glyph-name="ffl" unicode="ffl" horiz-adv-x="830" 
d="M796 0h-215v15c50 5 66 16 66 71v332h-188v-337c0 -51 16 -61 70 -66v-15h-224v15c59 5 70 14 70 92v311h-188v-314c0 -75 11 -86 93 -89v-15h-260v15c72 4 83 16 83 89v314h-82v32h82c1 80 9 116 35 161s78 72 141 72c60 0 104 -26 104 -62c0 -23 -18 -41 -42 -41
c-17 0 -29 9 -45 36c-18 29 -31 39 -53 39c-38 0 -56 -30 -56 -89v-116h190c0 99 9 144 65 194c27 24 61 39 100 39c40 0 79 -25 111 -25c13 0 51 25 73 25l5 -2v-598c0 -56 15 -63 65 -68v-15zM647 450v142c-5 -6 -10 -8 -18 -8c-26 0 -34 11 -50 37c-17 28 -31 34 -53 34
c-44 0 -67 -44 -67 -155v-50h188z" />
    <glyph glyph-name="uniE0B3" unicode="fj" horiz-adv-x="541" 
d="M452 461l5 -4c-1 -33 -2 -66 -2 -99v-358c0 -114 -39 -218 -170 -218c-33 0 -93 12 -93 55c0 23 19 39 41 39c42 0 51 -60 90 -60c14 0 26 7 34 18c16 24 14 94 14 121v405c0 12 0 28 -6 38c-12 17 -51 19 -78 19h-19h-84v-327c0 -55 12 -71 68 -75v-15h-220v15
c61 2 68 24 68 81v321h-67v33h68c9 75 12 133 72 186c40 35 95 47 147 47c43 0 125 -9 125 -68c0 -24 -9 -41 -35 -41c-42 0 -60 84 -121 84c-28 0 -56 -12 -75 -32c-27 -28 -30 -67 -30 -105v-26v-45h154c39 0 76 5 114 11z" />
    <glyph glyph-name=".notdef" horiz-adv-x="250" 
 />
    <glyph glyph-name="space" unicode=" " horiz-adv-x="250" 
 />
    <glyph glyph-name="exclam" unicode="!" horiz-adv-x="333" 
d="M175 176l-42 381c-2 20 -3 32 -3 43c0 43 15 76 53 76c34 0 53 -32 53 -81c0 -12 -1 -27 -2 -38l-45 -381h-14zM236 42c0 -29 -23 -51 -54 -51c-30 0 -52 22 -52 52s23 54 53 54c29 0 53 -25 53 -55z" />
    <glyph glyph-name="quotedbl" unicode="&#x22;" horiz-adv-x="408" 
d="M299 431h-21c-18 98 -32 185 -32 202c0 25 18 43 43 43c24 0 42 -18 42 -41c0 -30 -17 -106 -32 -204zM130 431h-21c-18 98 -32 185 -32 202c0 26 18 43 43 43c24 0 42 -17 42 -41c0 -30 -12 -108 -32 -204z" />
    <glyph glyph-name="numbersign" unicode="#" horiz-adv-x="500" 
d="M495 405h-104l-20 -134h99v-55h-108l-31 -216h-58l31 216h-134l-33 -216h-58l33 216h-106v55h115l21 134h-109v55h117l31 202h58l-31 -202h133l30 202h58l-30 -202h96v-55zM333 405h-133l-21 -134h134z" />
    <glyph glyph-name="dollar" unicode="$" horiz-adv-x="500" 
d="M264 637v-246c121 -65 146 -90 173 -131c14 -21 21 -53 21 -90c0 -116 -79 -154 -194 -170v-87h-34v87c-87 0 -131 14 -186 51v130h15c21 -100 83 -153 171 -153v282c-138 78 -178 119 -178 203c0 100 85 145 178 151v63h34v-63c81 -5 130 -22 161 -53v-111h-15
c-20 83 -66 127 -146 137zM230 407v230c-71 -14 -104 -54 -104 -105c0 -44 20 -68 104 -125zM264 293v-265c81 17 114 48 114 119c0 61 -23 92 -114 146z" />
    <glyph glyph-name="percent" unicode="%" horiz-adv-x="747" 
d="M686 213c0 -121 -78 -232 -164 -232c-68 0 -121 60 -121 138c0 107 93 211 189 211c61 0 96 -43 96 -117zM663 215c0 52 -25 87 -63 87c-16 0 -37 -9 -49 -23c-44 -47 -78 -135 -78 -203c0 -39 24 -68 56 -68c69 0 134 101 134 207zM621 706l-430 -724h-47l394 658
c-37 -43 -68 -57 -121 -57c-26 0 -44 3 -76 14c3 -17 4 -28 4 -44c0 -70 -32 -145 -80 -190c-27 -26 -53 -37 -86 -37c-67 0 -118 59 -118 137c0 113 91 213 193 213c21 0 33 -6 60 -28c35 -29 59 -39 96 -39c62 0 75 8 167 97h44zM321 569c0 29 -4 36 -25 46
c-14 7 -27 16 -44 34c-41 -20 -52 -30 -72 -63c-31 -49 -48 -108 -48 -163c0 -42 23 -70 57 -70c71 0 132 101 132 216z" />
    <glyph glyph-name="ampersand" unicode="&#x26;" horiz-adv-x="778" 
d="M735 111l15 -11c-29 -73 -84 -113 -151 -113c-58 0 -107 26 -170 91c-75 -66 -135 -91 -216 -91c-107 0 -171 50 -171 150c0 81 55 159 157 218l38 22c-28 68 -35 104 -35 149c0 90 67 150 152 150c79 0 137 -45 137 -124c0 -72 -38 -118 -155 -168
c41 -88 76 -143 132 -206c65 86 92 134 92 180c0 30 -15 42 -65 47v21h216v-21c-50 0 -69 -19 -94 -59c-46 -73 -71 -122 -126 -196c47 -61 91 -92 152 -92c39 0 60 13 92 53zM438 556c0 49 -32 88 -78 88c-47 0 -79 -33 -79 -83c0 -51 7 -84 40 -145c86 39 117 81 117 140z
M404 104c-58 68 -98 126 -152 239c-87 -56 -118 -100 -118 -169c0 -85 53 -134 124 -134c43 0 86 17 146 64z" />
    <glyph glyph-name="quotesingle" unicode="'" horiz-adv-x="180" 
d="M101 431h-21c-18 98 -32 175 -32 203c0 25 19 42 43 42c27 0 42 -17 42 -40c0 -30 -12 -105 -32 -205z" />
    <glyph glyph-name="parenleft" unicode="(" horiz-adv-x="333" 
d="M304 -161l-12 -16c-158 90 -244 259 -244 429c0 185 87 329 247 424l9 -16c-139 -119 -170 -212 -170 -405c0 -186 30 -299 170 -416z" />
    <glyph glyph-name="parenright" unicode=")" horiz-adv-x="333" 
d="M29 660l12 16c153 -92 244 -259 244 -429c0 -185 -88 -327 -247 -424l-9 16c142 117 170 211 170 405c0 187 -25 302 -170 416z" />
    <glyph glyph-name="asterisk" unicode="*" horiz-adv-x="500" 
d="M268 471l9 -6c27 -18 59 -28 96 -34c44 -7 60 -17 60 -43c0 -22 -15 -39 -36 -39c-19 0 -35 13 -60 44c-27 33 -49 45 -69 58l-8 5v-9c0 -39 7 -75 20 -110c5 -14 9 -26 9 -33c0 -20 -20 -39 -40 -39c-19 0 -36 17 -36 36c0 12 5 28 12 47c12 32 16 56 16 99v9
c-35 -22 -42 -27 -52 -36c-10 -10 -12 -12 -41 -45c-17 -19 -27 -25 -43 -25c-23 0 -37 15 -37 36c0 26 18 37 63 45c46 9 62 15 103 40c-38 23 -63 30 -97 37c-49 10 -67 21 -67 46c0 21 13 37 33 37c16 0 27 -8 49 -32c32 -36 51 -52 89 -73v13c0 27 -5 58 -15 91
c-7 21 -11 39 -11 52c0 19 16 34 36 34s37 -16 37 -36c0 -12 -4 -27 -11 -47c-12 -32 -17 -59 -17 -83v-24c28 16 39 24 58 42c24 24 55 65 77 65s37 -15 37 -38c0 -26 -13 -37 -52 -43c-44 -7 -63 -13 -112 -41z" />
    <glyph glyph-name="plus" unicode="+" 
d="M636 220h-261v-261h-66v261h-261v66h261v261h66v-261h261v-66z" />
    <glyph glyph-name="comma" unicode="," horiz-adv-x="250" 
d="M83 -141l-10 19c55 37 83 74 83 107c0 7 -6 13 -14 13s-18 -4 -29 -4c-37 0 -58 17 -58 51s24 57 60 57c45 0 80 -35 80 -87c0 -60 -43 -123 -112 -156z" />
    <glyph glyph-name="hyphen" unicode="-" horiz-adv-x="333" 
d="M285 194h-246v63h246v-63z" />
    <glyph glyph-name="period" unicode="." horiz-adv-x="250" 
d="M181 43c0 -29 -26 -54 -56 -54c-31 0 -55 24 -55 55s25 56 56 56c29 0 55 -27 55 -57z" />
    <glyph glyph-name="slash" unicode="/" horiz-adv-x="278" 
d="M287 676l-228 -690h-68l229 690h67z" />
    <glyph glyph-name="zero" unicode="0" horiz-adv-x="500" 
d="M476 330c0 -172 -63 -344 -226 -344c-171 0 -226 186 -226 350c0 177 69 340 230 340c131 0 222 -141 222 -346zM380 325c0 208 -44 325 -132 325c-83 0 -128 -118 -128 -321s44 -317 130 -317c85 0 130 115 130 313z" />
    <glyph glyph-name="one" unicode="1" horiz-adv-x="500" 
d="M394 0h-276v15c74 4 95 25 95 80v449c0 34 -9 49 -30 49c-10 0 -27 -5 -45 -12l-27 -10v14l179 91l9 -3v-597c0 -43 20 -61 95 -61v-15z" />
    <glyph glyph-name="two" unicode="2" horiz-adv-x="500" 
d="M474 137l-54 -137h-391v12l178 189c94 99 130 175 130 260c0 91 -54 141 -139 141c-72 0 -107 -32 -147 -130l-21 5c21 117 85 199 208 199c113 0 185 -77 185 -176c0 -79 -39 -154 -128 -248l-165 -176h234c42 0 63 11 96 67z" />
    <glyph glyph-name="three" unicode="3" horiz-adv-x="500" 
d="M61 510l-16 4c29 95 92 162 196 162c93 0 156 -55 156 -137c0 -48 -26 -98 -93 -138c44 -19 62 -31 83 -53c28 -31 44 -77 44 -129c0 -53 -17 -102 -46 -140c-48 -64 -143 -93 -232 -93c-73 0 -112 21 -112 57c0 21 18 36 41 36c17 0 33 -6 61 -26c37 -26 58 -31 86 -31
c74 0 130 68 130 153c0 76 -35 125 -104 145c-22 7 -45 10 -102 10v14c38 13 64 24 84 36c49 28 81 73 81 134c0 68 -42 102 -108 102c-62 0 -108 -32 -149 -106z" />
    <glyph glyph-name="four" unicode="4" horiz-adv-x="500" 
d="M473 167h-103v-167h-78v167h-280v64l314 445h44v-445h103v-64zM292 231v343l-240 -343h240z" />
    <glyph glyph-name="five" unicode="5" horiz-adv-x="500" 
d="M438 681l-36 -85c-3 -7 -11 -13 -27 -13h-194l-40 -85c143 -27 193 -49 250 -128c26 -36 35 -74 35 -127c0 -96 -30 -158 -98 -208c-47 -34 -102 -49 -170 -49c-75 0 -127 24 -127 62c0 25 17 38 45 38c23 0 42 -5 74 -31c28 -23 51 -32 71 -32c70 0 135 83 135 169
c0 64 -22 114 -67 150c-47 38 -117 70 -213 70c-9 0 -12 2 -12 8c0 2 1 5 1 5l109 237h207c23 0 32 5 48 26z" />
    <glyph glyph-name="six" unicode="6" horiz-adv-x="500" 
d="M446 684l2 -16c-157 -26 -269 -134 -296 -285c49 38 83 45 127 45c117 0 189 -80 189 -209c0 -64 -18 -120 -51 -160c-37 -46 -93 -73 -159 -73c-79 0 -142 37 -177 101c-28 51 -47 122 -47 192c0 108 38 203 109 276c86 90 165 114 303 129zM378 188
c0 128 -42 194 -135 194c-57 0 -116 -24 -116 -116c0 -152 48 -252 142 -252c72 0 109 72 109 174z" />
    <glyph glyph-name="seven" unicode="7" horiz-adv-x="500" 
d="M449 646l-212 -654h-65l198 596h-215c-58 0 -75 -14 -117 -82l-18 9l60 147h369v-16z" />
    <glyph glyph-name="eight" unicode="8" horiz-adv-x="500" 
d="M445 155c0 -103 -77 -169 -197 -169c-113 0 -192 69 -192 163c0 69 23 108 130 183c-103 85 -124 123 -124 188c0 96 83 156 194 156c99 0 168 -65 168 -143c0 -75 -35 -109 -134 -162c123 -82 155 -136 155 -216zM355 533c0 69 -41 115 -109 115
c-67 0 -110 -37 -110 -99s37 -108 125 -160c68 40 94 82 94 144zM271 272l-59 40c-59 -48 -80 -89 -80 -154c0 -92 51 -144 127 -144c65 0 110 45 110 110c0 62 -30 102 -98 148z" />
    <glyph glyph-name="nine" unicode="9" horiz-adv-x="500" 
d="M59 -22l-3 20c152 27 264 132 304 296c-43 -42 -91 -57 -150 -57c-108 0 -180 81 -180 203c0 135 89 236 208 236c64 0 118 -28 157 -76c40 -50 64 -122 64 -206c0 -115 -40 -224 -120 -297c-85 -77 -150 -101 -280 -119zM362 355v39c0 168 -45 254 -132 254
c-30 0 -56 -12 -73 -34c-20 -27 -35 -86 -35 -140c0 -119 48 -194 123 -194c44 0 117 22 117 75z" />
    <glyph glyph-name="colon" unicode=":" horiz-adv-x="278" 
d="M192 403c0 -30 -25 -55 -55 -55s-56 25 -56 55c0 32 24 56 56 56c30 0 55 -26 55 -56zM192 44c0 -30 -25 -55 -55 -55s-56 25 -56 55c0 32 24 56 56 56c30 0 55 -26 55 -56z" />
    <glyph glyph-name="semicolon" unicode=";" horiz-adv-x="278" 
d="M191 403c0 -30 -25 -55 -55 -55s-56 25 -56 55c0 32 24 56 56 56c30 0 55 -26 55 -56zM107 -141l-10 19c55 36 83 73 83 106c0 7 -6 14 -14 14c-6 0 -19 -4 -28 -4c-37 0 -58 19 -58 52s26 56 59 56c45 0 80 -35 80 -89c0 -63 -42 -121 -112 -154z" />
    <glyph glyph-name="less" unicode="&#x3c;" 
d="M621 -24l-565 273v10l565 275v-65l-432 -215l432 -215v-63z" />
    <glyph glyph-name="equal" unicode="=" 
d="M637 320h-589v66h589v-66zM637 120h-589v66h589v-66z" />
    <glyph glyph-name="greater" unicode="&#x3e;" 
d="M621 249l-565 -273v63l432 215l-432 215v65l565 -275v-10z" />
    <glyph glyph-name="question" unicode="?" horiz-adv-x="444" 
d="M244 164h-17c1 40 9 90 44 177c26 64 51 127 51 187c0 69 -48 118 -109 118c-48 0 -94 -30 -94 -62c0 -37 38 -41 38 -74c0 -25 -16 -43 -41 -43c-28 0 -48 25 -48 66c0 83 68 143 164 143c97 0 182 -61 182 -158c0 -61 -19 -95 -105 -197c-36 -43 -54 -89 -65 -157z
M290 45c0 -29 -22 -53 -52 -53c-34 0 -54 25 -54 53c0 30 23 53 54 53c28 0 52 -25 52 -53z" />
    <glyph glyph-name="at" unicode="@" horiz-adv-x="921" 
d="M688 73l12 -30c-93 -44 -148 -57 -218 -57c-208 0 -366 144 -366 341c0 114 57 217 141 280c62 46 138 69 224 69c185 0 328 -128 328 -293c0 -129 -85 -240 -184 -240c-44 0 -84 29 -89 73h-2c-31 -45 -78 -72 -125 -72c-49 0 -88 43 -88 112c0 65 27 131 66 182
c35 46 76 70 128 70c36 0 60 -17 73 -52h2l9 38h69l-65 -254c-1 -5 -2 -10 -2 -17c0 -33 13 -47 42 -47c66 0 126 96 126 197c0 149 -130 272 -287 272c-95 0 -169 -42 -220 -115c-39 -56 -62 -134 -62 -208c0 -174 116 -297 287 -297c67 0 129 13 201 48zM572 404
c0 39 -17 60 -46 60s-67 -24 -98 -70c-22 -33 -36 -76 -36 -120c0 -54 23 -87 60 -87c27 0 56 22 76 58c26 49 44 114 44 159z" />
    <glyph glyph-name="A" unicode="A" horiz-adv-x="722" 
d="M707 0h-255v19c36 0 43 2 55 9c8 4 14 15 14 24c0 15 -7 42 -19 70l-41 94h-262l-46 -114c-5 -13 -9 -30 -9 -42c0 -31 22 -41 70 -41v-19h-199v19c58 6 67 27 126 167l206 488h20l246 -563c28 -65 42 -86 94 -92v-19zM447 257l-116 275l-115 -275h231z" />
    <glyph glyph-name="B" unicode="B" horiz-adv-x="667" 
d="M422 349v-1c66 -11 93 -29 122 -55c32 -29 49 -71 49 -115c0 -111 -94 -178 -239 -178h-337v19c79 2 96 18 96 94v437c0 79 -15 88 -96 93v19h280c173 0 262 -61 262 -167c0 -41 -16 -82 -41 -104c-24 -21 -44 -29 -96 -42zM215 366h92c101 0 150 41 150 124
c0 84 -58 135 -177 135h-41c-17 0 -24 -9 -24 -32v-227zM215 326v-244c0 -34 16 -45 62 -45c84 0 119 4 163 43c25 22 38 56 38 99c0 48 -14 85 -47 107c-60 40 -98 36 -216 40z" />
    <glyph glyph-name="C" unicode="C" horiz-adv-x="667" 
d="M614 131l19 -18c-58 -83 -155 -127 -273 -127c-91 0 -178 32 -236 89c-61 60 -96 151 -96 250c0 100 33 183 90 247c64 71 150 104 243 104c39 0 79 -4 119 -15c21 -6 52 -18 69 -18c19 0 36 12 42 33h20l9 -227h-23c-12 55 -27 84 -52 111c-44 47 -96 76 -161 76
c-151 0 -240 -122 -240 -295c0 -110 25 -188 72 -239c44 -47 109 -72 178 -72c90 0 145 30 220 101z" />
    <glyph glyph-name="D" unicode="D" horiz-adv-x="722" 
d="M16 662h270c129 0 232 -32 300 -91c65 -56 99 -134 99 -237c0 -119 -47 -213 -136 -270c-62 -40 -151 -64 -252 -64h-281v19c78 5 88 18 88 96v435c0 79 -12 88 -88 93v19zM206 583v-499c0 -35 9 -47 48 -47c103 0 158 12 218 52c70 47 104 126 104 239
c0 104 -32 173 -95 228c-59 52 -122 69 -222 69c-38 0 -53 -9 -53 -42z" />
    <glyph glyph-name="E" unicode="E" horiz-adv-x="611" 
d="M597 169l-46 -169h-539v19c77 5 87 18 87 95v436c0 74 -12 89 -87 93v19h530l4 -143h-25c-15 90 -38 105 -154 105h-131c-28 0 -35 -4 -35 -36v-220h151c86 0 101 17 113 96h23v-234h-23c-12 84 -27 97 -113 97h-151v-243c0 -42 27 -47 101 -47h36c143 0 186 26 231 132
h28z" />
    <glyph glyph-name="F" unicode="F" horiz-adv-x="556" 
d="M546 519h-25c-15 89 -33 105 -154 105h-132c-29 0 -34 -8 -34 -39v-217h142c84 0 104 17 113 95h23v-233h-23c-8 82 -27 97 -113 97h-142v-215c0 -76 14 -89 91 -93v-19h-281v19c76 5 88 17 88 104v428c0 73 -10 86 -87 92v19h529z" />
    <glyph glyph-name="G" unicode="G" horiz-adv-x="722" 
d="M709 354v-18c-58 -5 -70 -15 -70 -80v-200c-55 -45 -151 -70 -254 -70c-102 0 -204 38 -270 107c-56 59 -83 136 -83 234c0 110 40 202 107 263c60 55 142 86 239 86c54 0 88 -8 133 -23c19 -7 34 -10 44 -10c21 0 39 14 45 33h22l8 -211h-23c-25 61 -41 87 -71 116
c-38 36 -90 55 -146 55c-69 0 -124 -25 -167 -69c-53 -53 -77 -144 -77 -243c0 -186 106 -298 263 -298c77 0 133 28 133 61v157c0 78 -10 86 -89 92v18h256z" />
    <glyph glyph-name="H" unicode="H" horiz-adv-x="722" 
d="M703 0h-279v19c78 5 88 21 88 105v191h-303v-202c0 -73 13 -90 87 -94l1 -19h-279v19c78 5 89 17 89 103v426c0 78 -12 89 -89 95v19h280v-19c-73 -6 -89 -17 -89 -95v-189h303v189c0 79 -13 89 -89 95v19h280v-19c-74 -6 -89 -18 -89 -95v-437c0 -71 14 -86 89 -92v-19z
" />
    <glyph glyph-name="I" unicode="I" horiz-adv-x="333" 
d="M315 0h-297v19c84 3 97 15 97 93v439c0 79 -12 87 -97 92v19h297v-19c-84 -4 -98 -16 -98 -92v-439c0 -75 16 -90 98 -93v-19z" />
    <glyph glyph-name="J" unicode="J" horiz-adv-x="373" 
d="M354 662v-19c-81 -6 -92 -17 -92 -94v-364c0 -137 -61 -199 -167 -199c-60 0 -101 25 -101 72c0 26 22 52 49 52c23 0 38 -14 49 -42c10 -25 11 -44 31 -44c31 0 37 20 37 70v456c0 81 -12 86 -93 93v19h287z" />
    <glyph glyph-name="K" unicode="K" horiz-adv-x="722" 
d="M723 0h-303v19l27 1c29 1 42 10 42 24c0 27 -58 88 -137 170l-100 103l-26 -21v-185c0 -77 16 -86 89 -92v-19h-282v19c79 4 91 19 91 106v424c0 74 -11 89 -90 94v19h282v-19c-83 -6 -90 -18 -90 -95v-200l178 164c48 45 78 74 78 99c0 20 -8 30 -41 31l-25 1v19h259
v-19c-68 -5 -87 -15 -156 -81l-186 -178l234 -256c83 -91 110 -109 156 -109v-19z" />
    <glyph glyph-name="L" unicode="L" horiz-adv-x="611" 
d="M598 174l-48 -174h-538v19c74 4 87 20 87 96v431c0 77 -9 91 -87 97v19h283v-19c-82 -5 -94 -18 -94 -95v-464c0 -38 17 -45 90 -45h70c81 0 135 18 169 61c13 17 26 39 42 74h26z" />
    <glyph glyph-name="M" unicode="M" horiz-adv-x="889" 
d="M864 0h-280v19c79 5 90 21 90 104v449l-255 -572h-14l-252 549v-398c0 -110 16 -128 93 -132v-19h-234v19c83 6 97 20 97 132v398c0 76 -13 89 -95 94v19h198l231 -502l221 502h199v-19c-72 -1 -87 -18 -87 -93v-438c0 -71 15 -88 88 -93v-19z" />
    <glyph glyph-name="N" unicode="N" horiz-adv-x="722" 
d="M707 662v-19c-38 -4 -53 -7 -66 -18c-19 -17 -29 -39 -29 -118v-518h-18l-441 549v-388c0 -103 16 -120 93 -131v-19h-234v19c82 9 97 24 97 131v440c-33 41 -48 53 -97 53v19h170l386 -483v340c0 51 -4 81 -19 98c-17 19 -35 21 -79 26v19h237z" />
    <glyph glyph-name="O" unicode="O" horiz-adv-x="722" 
d="M688 331c0 -206 -135 -345 -327 -345c-194 0 -327 140 -327 348c0 203 132 342 327 342c196 0 327 -147 327 -345zM574 337c0 114 -34 208 -91 256c-36 30 -76 47 -123 47c-54 0 -104 -22 -143 -67c-43 -49 -69 -146 -69 -241c0 -119 29 -209 90 -265
c34 -31 78 -45 124 -45c50 0 94 15 129 48c55 53 83 147 83 267z" />
    <glyph glyph-name="P" unicode="P" horiz-adv-x="557" 
d="M16 662h259c100 0 172 -25 217 -63c33 -28 50 -69 50 -119c0 -53 -20 -98 -57 -131c-58 -52 -107 -61 -214 -61c-26 0 -42 1 -69 3v-179c0 -76 13 -89 94 -93v-19h-280v19c78 6 84 17 84 103v429c0 74 -10 86 -84 92v19zM202 589v-258c23 -2 41 -3 61 -3
c110 0 170 57 170 147c0 110 -60 150 -196 150c-29 0 -35 -9 -35 -36z" />
    <glyph glyph-name="Q" unicode="Q" horiz-adv-x="722" 
d="M701 -177h-48c-156 0 -279 38 -347 124l-41 52c-78 27 -117 50 -155 101c-48 64 -76 142 -76 232c0 212 140 344 327 344c191 0 327 -136 327 -343c0 -119 -35 -199 -108 -269c-44 -43 -86 -58 -154 -71c73 -104 161 -145 275 -152v-18zM574 338c0 115 -34 209 -91 257
c-36 30 -78 45 -125 45c-54 0 -107 -26 -144 -71c-40 -47 -66 -139 -66 -234c0 -96 20 -182 58 -235c33 -48 98 -78 155 -78c62 0 112 29 149 72c40 46 64 144 64 244z" />
    <glyph glyph-name="R" unicode="R" horiz-adv-x="667" 
d="M660 0h-162l-238 308l-56 -2v-194c0 -76 12 -88 89 -93v-19h-276v19c75 6 85 17 85 105v427c0 74 -8 86 -85 92v19h272c95 0 166 -24 209 -59c33 -27 49 -76 49 -120c0 -87 -56 -145 -181 -164l200 -253c29 -37 50 -43 94 -47v-19zM204 583v-240c96 2 131 9 177 34
c36 20 57 64 57 114c0 90 -59 134 -183 134c-34 0 -51 -7 -51 -42z" />
    <glyph glyph-name="S" unicode="S" horiz-adv-x="556" 
d="M469 463h-25c-12 44 -23 70 -41 94c-35 45 -85 78 -145 78c-62 0 -101 -40 -101 -95c0 -68 74 -110 179 -171c106 -62 155 -120 155 -196c0 -112 -88 -187 -204 -187c-42 0 -81 7 -118 23c-19 8 -36 11 -47 11c-15 0 -28 -12 -28 -33h-22l-29 212h22
c46 -121 111 -177 206 -177c70 0 119 46 119 112c0 35 -10 58 -29 79c-35 38 -104 82 -168 116c-90 48 -122 110 -122 172c0 109 75 175 174 175c41 0 67 -6 105 -22c18 -8 34 -12 44 -12c17 0 28 12 32 34h21z" />
    <glyph glyph-name="T" unicode="T" horiz-adv-x="611" 
d="M593 492h-24c-22 110 -48 128 -154 128h-59v-509c0 -76 14 -88 96 -92v-19h-292v19c83 5 94 16 94 104v497h-60c-106 0 -133 -18 -153 -128h-24l7 170h562z" />
    <glyph glyph-name="U" unicode="U" horiz-adv-x="722" 
d="M705 662v-19c-84 -8 -94 -32 -94 -127v-255c0 -97 -9 -151 -54 -202c-42 -48 -110 -73 -202 -73c-73 0 -129 15 -170 46c-55 41 -81 111 -81 217v310c0 67 -11 78 -90 84v19h283v-19c-80 -7 -91 -19 -91 -94v-312c0 -78 4 -123 44 -162c29 -28 71 -45 128 -45
c64 0 120 22 152 59c33 40 37 80 37 161v263c0 103 -13 125 -94 130v19h232z" />
    <glyph glyph-name="V" unicode="V" horiz-adv-x="722" 
d="M697 662v-19c-40 -1 -63 -17 -92 -91l-222 -563h-15l-244 544c-43 97 -58 109 -108 110v19h265v-19l-28 -2c-32 -2 -45 -11 -45 -31c0 -16 9 -40 39 -107l152 -342l147 369c12 30 19 55 19 72c0 39 -32 37 -72 41v19h204z" />
    <glyph glyph-name="W" unicode="W" horiz-adv-x="944" 
d="M932 662v-19c-53 -10 -64 -18 -83 -70c-109 -294 -119 -323 -204 -584h-15c-51 142 -108 290 -160 423l-154 -423h-15c-61 180 -133 366 -192 534c-33 95 -53 119 -104 120v19h244v-19c-51 -1 -64 -10 -64 -31c0 -12 4 -28 11 -47l144 -376l104 283l-28 75
c-33 88 -45 95 -102 96v19h265v-19c-50 -1 -77 -14 -77 -35c0 -11 8 -34 17 -58l143 -364l126 339c11 31 17 56 17 77c0 27 -19 40 -70 41v19h197z" />
    <glyph glyph-name="X" unicode="X" horiz-adv-x="722" 
d="M704 0h-296v19l26 2c32 2 50 11 50 29c0 16 -17 47 -51 98l-95 141l-119 -149c-37 -46 -53 -74 -53 -89c0 -19 18 -28 76 -32v-19h-232v19c52 5 68 17 145 114l156 195l-106 155c-96 141 -117 153 -183 160v19h301v-19l-29 -1c-28 -1 -46 -6 -46 -29
c0 -29 30 -67 83 -145l44 -64l112 140c30 37 40 52 40 67c0 23 -14 30 -68 32v19h237v-19c-64 -4 -89 -21 -152 -99l-143 -177l192 -274c39 -56 58 -68 111 -74v-19z" />
    <glyph glyph-name="Y" unicode="Y" horiz-adv-x="722" 
d="M703 662v-19c-59 -5 -82 -26 -138 -112l-148 -228v-192c0 -78 19 -88 103 -92v-19h-306v19c89 6 101 15 101 104v171l-131 192c-92 135 -114 155 -162 157v19h279v-19l-24 -1c-32 -1 -47 -10 -47 -26c0 -13 7 -31 18 -47l146 -221l145 222c10 15 14 31 14 42
c-1 22 -16 30 -68 31v19h218z" />
    <glyph glyph-name="Z" unicode="Z" horiz-adv-x="612" 
d="M598 176l-25 -176h-563v15l437 609h-214c-71 0 -110 -11 -134 -35c-25 -26 -31 -43 -41 -98h-26l21 171h525v-15l-432 -609h252c56 0 92 10 117 28c33 23 42 51 60 110h23z" />
    <glyph glyph-name="bracketleft" unicode="[" horiz-adv-x="333" 
d="M299 -156h-211v818h211v-25h-83c-34 0 -52 -12 -52 -48v-666c0 -40 19 -54 52 -54h83v-25z" />
    <glyph glyph-name="backslash" unicode="\" horiz-adv-x="278" 
d="M287 -14h-68l-228 690h67z" />
    <glyph glyph-name="bracketright" unicode="]" horiz-adv-x="333" 
d="M245 -156h-211v25h88c35 0 47 15 47 46v668c0 35 -13 54 -51 54h-84v25h211v-818z" />
    <glyph glyph-name="asciicircum" unicode="^" horiz-adv-x="469" 
d="M446 297h-68l-143 289l-143 -289h-68l181 365h60z" />
    <glyph glyph-name="underscore" unicode="_" horiz-adv-x="500" 
d="M500 -125h-500v50h500v-50z" />
    <glyph glyph-name="grave" unicode="`" horiz-adv-x="333" 
d="M242 507h-40l-154 96c-19 12 -30 27 -30 43c0 21 14 32 36 32c15 0 26 -5 43 -23z" />
    <glyph glyph-name="a" unicode="a" horiz-adv-x="444" 
d="M442 66v-28c-30 -38 -56 -48 -90 -48c-37 0 -59 20 -64 73h-1c-53 -60 -102 -73 -145 -73c-62 0 -105 38 -105 104c0 52 31 91 70 117c30 20 67 39 180 81v54c0 62 -33 90 -78 90c-40 0 -70 -22 -70 -49c0 -18 6 -21 6 -42c0 -19 -20 -41 -46 -41c-21 0 -43 19 -43 46
c0 26 16 58 51 80c28 18 70 30 115 30c56 0 94 -16 118 -45s28 -50 28 -111v-191c0 -46 13 -66 31 -66c16 0 26 5 43 19zM287 127v141c-62 -22 -103 -43 -128 -66c-24 -22 -34 -46 -34 -77c0 -53 30 -77 69 -77c20 0 41 5 58 16c29 20 35 34 35 63z" />
    <glyph glyph-name="b" unicode="b" horiz-adv-x="500" 
d="M153 681v-305c21 51 74 84 135 84c107 0 180 -96 180 -220c0 -148 -102 -250 -234 -250c-81 0 -165 32 -165 66v510c0 50 -8 58 -49 58c-7 0 -12 -1 -17 -2v17l30 9c47 14 73 20 115 35zM153 318v-244c0 -32 45 -52 97 -52c39 0 71 15 93 43c24 30 37 74 37 132
c0 60 -14 118 -39 153c-21 30 -53 47 -89 47c-53 0 -99 -37 -99 -79z" />
    <glyph glyph-name="c" unicode="c" horiz-adv-x="444" 
d="M398 156l14 -9c-32 -62 -52 -91 -82 -115c-34 -28 -72 -42 -115 -42c-111 0 -190 93 -190 222c0 83 30 152 84 197c40 33 88 51 135 51c84 0 154 -47 154 -103c0 -23 -21 -42 -47 -42c-22 0 -40 17 -48 46l-6 22c-10 37 -23 48 -59 48c-81 0 -136 -70 -136 -174
c0 -115 63 -195 155 -195c57 0 93 24 141 94z" />
    <glyph glyph-name="d" unicode="d" horiz-adv-x="500" 
d="M491 42l-147 -52l-4 3v64c-34 -47 -72 -67 -128 -67c-111 0 -185 87 -185 215c0 142 93 255 208 255c40 0 67 -11 105 -43v156c0 41 -9 51 -46 51c-8 0 -14 0 -22 -1v16c64 17 99 27 147 44l5 -2v-567c0 -46 8 -57 44 -57c5 0 6 0 23 1v-16zM340 102v230
c0 53 -48 100 -102 100c-76 0 -125 -74 -125 -187c0 -123 54 -203 138 -203c31 0 56 11 74 32c9 10 15 21 15 28z" />
    <glyph glyph-name="e" unicode="e" horiz-adv-x="444" 
d="M408 164l16 -7c-39 -109 -109 -167 -209 -167c-118 0 -190 89 -190 227c0 141 81 243 207 243c62 0 107 -24 139 -69c20 -28 30 -60 34 -114h-308c5 -76 10 -115 46 -163c28 -37 65 -55 111 -55c67 0 105 31 154 105zM99 309h204c-11 81 -32 115 -98 115
c-56 0 -95 -40 -106 -115z" />
    <glyph glyph-name="f" unicode="f" horiz-adv-x="333" 
d="M21 450h82c1 80 9 116 35 161s78 72 141 72c60 0 104 -26 104 -62c0 -23 -18 -41 -42 -41c-17 0 -29 9 -45 36c-18 29 -31 39 -53 39c-38 0 -56 -30 -56 -89v-116h122v-32h-122v-314c0 -75 11 -86 93 -89v-15h-260v15c72 4 83 16 83 89v314h-82v32z" />
    <glyph glyph-name="g" unicode="g" horiz-adv-x="500" 
d="M470 388h-83c14 -32 19 -55 19 -84c0 -52 -16 -89 -52 -116c-32 -24 -69 -39 -104 -39c-6 0 -20 1 -38 3l-19 2c-27 -8 -60 -43 -60 -63c0 -16 24 -24 78 -27l129 -6c74 -3 121 -45 121 -107c0 -40 -19 -73 -60 -105c-52 -40 -128 -64 -200 -64c-96 0 -173 44 -173 97
c0 37 26 70 98 122c-42 20 -53 31 -53 53c0 20 13 40 46 69c15 13 29 26 43 40c-67 33 -93 71 -93 134c0 91 74 163 167 163c26 0 53 -5 80 -15l22 -8c20 -7 35 -10 55 -10h77v-39zM152 338v-3c0 -96 41 -161 103 -161c45 0 74 35 74 90c0 41 -11 86 -30 121
c-16 30 -42 47 -73 47c-46 0 -74 -35 -74 -94zM433 -64c0 37 -33 49 -124 49c-49 0 -128 6 -162 13c-40 -48 -49 -63 -49 -86c0 -44 57 -73 145 -73c114 0 190 39 190 97z" />
    <glyph glyph-name="h" unicode="h" horiz-adv-x="500" 
d="M487 0h-212v15c58 6 68 18 68 87v198c0 70 -25 106 -74 106c-40 0 -70 -17 -112 -63v-241c0 -69 10 -81 68 -87v-15h-216v15c58 8 64 17 64 87v471c0 43 -8 51 -51 51c-4 0 -9 0 -12 -1v16l27 8c57 17 80 24 115 36l5 -3v-304c46 60 88 84 147 84c82 0 123 -54 123 -159
v-199c0 -69 6 -77 60 -87v-15z" />
    <glyph glyph-name="i" unicode="i" horiz-adv-x="278" 
d="M180 632c0 -29 -22 -51 -52 -51c-28 0 -50 22 -50 51c0 28 23 51 51 51c29 0 51 -23 51 -51zM253 0h-237v15c69 4 79 13 79 89v227c0 47 -8 63 -33 63c-9 0 -24 0 -42 -5v16l155 55l4 -4v-351c0 -74 8 -85 74 -90v-15z" />
    <glyph glyph-name="j" unicode="j" horiz-adv-x="278" 
d="M194 632c0 -29 -22 -51 -52 -51c-28 0 -50 22 -50 51c0 28 23 51 51 51s51 -23 51 -51zM193 457v-457c0 -142 -59 -218 -170 -218c-54 0 -93 23 -93 55c0 22 18 39 41 39c16 0 30 -9 48 -32c17 -21 27 -28 42 -28c14 0 28 8 34 18c11 20 14 45 14 121v379
c0 43 -9 60 -32 60c-10 0 -24 0 -40 -3l-5 -1v16c59 18 97 31 156 54z" />
    <glyph glyph-name="k" unicode="k" horiz-adv-x="500" 
d="M505 0h-218v15h19c12 0 21 6 21 15c0 5 -3 13 -11 23l-150 198v-184c0 -35 15 -49 55 -51l20 -1v-15h-234v15c72 12 75 15 75 67v482c0 48 -9 61 -43 61c-10 0 -19 -1 -32 -2v16l30 8c60 16 86 24 125 36l4 -2v-420l137 122c14 13 23 26 23 35c0 13 -11 17 -50 18v14h204
v-15c-64 0 -93 -12 -216 -126l-29 -27l153 -194c41 -52 73 -70 117 -73v-15z" />
    <glyph glyph-name="l" unicode="l" horiz-adv-x="278" 
d="M257 0h-236v15c63 5 77 22 77 77v469c0 48 -10 64 -42 64c-8 0 -21 0 -37 -2v16c69 17 106 27 158 44l5 -4v-592c0 -55 11 -68 75 -72v-15z" />
    <glyph glyph-name="m" unicode="m" horiz-adv-x="778" 
d="M775 0h-218v15c56 6 65 17 65 75v206c0 79 -20 112 -77 112c-47 0 -77 -18 -107 -61v-252c0 -65 15 -79 72 -80v-15h-224v15c57 4 68 10 68 71v211c0 69 -22 111 -65 111c-37 0 -86 -19 -106 -43c-7 -8 -13 -15 -13 -17v-278c0 -43 15 -53 68 -55v-15h-222v15
c56 1 70 15 70 73v248c0 49 -9 66 -35 66c-11 0 -19 -1 -32 -4v17c55 15 88 26 139 45l8 -3v-74h2c66 68 108 77 153 77c54 0 88 -27 106 -84c54 58 105 84 163 84c81 0 116 -62 116 -180v-203c0 -45 13 -58 43 -60l26 -2v-15z" />
    <glyph glyph-name="n" unicode="n" horiz-adv-x="500" 
d="M485 0h-208l1 15c50 4 62 24 62 90v199c0 71 -24 101 -73 101c-33 0 -57 -12 -103 -57v-276c0 -39 14 -53 65 -57v-15h-211v15c51 4 62 20 62 79v243c0 49 -7 65 -35 65c-11 0 -22 -1 -29 -4v17c55 16 88 27 137 45l8 -3v-78h1c52 59 98 81 144 81c76 0 118 -55 118 -154
v-221c0 -54 12 -65 61 -70v-15z" />
    <glyph glyph-name="o" unicode="o" horiz-adv-x="500" 
d="M470 231c0 -139 -90 -241 -225 -241c-121 0 -216 99 -216 238s90 232 225 232c122 0 216 -91 216 -229zM380 204c0 68 -18 137 -50 178c-24 30 -52 50 -95 50c-69 0 -116 -59 -116 -159c0 -79 16 -151 53 -205c22 -32 54 -50 90 -50c74 0 118 70 118 186z" />
    <glyph glyph-name="p" unicode="p" horiz-adv-x="500" 
d="M159 458v-77c44 55 88 79 144 79c97 0 167 -89 167 -213c0 -145 -91 -257 -210 -257c-42 0 -65 10 -101 43v-157c0 -63 13 -74 88 -75v-18h-242v17c59 6 70 17 70 69v468c0 47 -7 57 -41 57c-9 0 -16 0 -25 -1v16c55 17 91 30 144 51zM159 334v-246c0 -30 57 -66 104 -66
c72 0 121 75 121 185c0 117 -49 193 -123 193c-46 0 -102 -36 -102 -66z" />
    <glyph glyph-name="q" unicode="q" horiz-adv-x="500" 
d="M488 -217h-236v17c71 5 89 20 89 76v188c-44 -48 -99 -74 -157 -74c-94 0 -160 89 -160 215c0 144 96 255 220 255c40 0 70 -8 116 -35l54 32h11v-598c0 -42 10 -53 63 -59v-17zM341 127v206c0 66 -31 98 -93 98c-85 0 -138 -72 -138 -190c0 -69 22 -134 56 -163
c20 -18 46 -27 75 -27c32 0 66 12 88 32c8 7 12 21 12 44z" />
    <glyph glyph-name="r" unicode="r" horiz-adv-x="333" 
d="M160 458v-92c50 72 78 94 120 94c34 0 55 -20 55 -53c0 -28 -15 -45 -39 -45c-13 0 -24 5 -40 20c-11 10 -20 15 -26 15c-28 0 -70 -50 -70 -82v-225c0 -57 17 -72 85 -75v-15h-240v15c64 12 71 19 71 69v250c0 44 -9 60 -34 60c-12 0 -21 -1 -35 -4v16
c59 19 95 33 148 54z" />
    <glyph glyph-name="s" unicode="s" horiz-adv-x="389" 
d="M156 301l104 -63c64 -39 88 -66 88 -123c0 -67 -64 -125 -140 -125c-21 0 -50 1 -73 9c-24 8 -35 9 -46 9c-12 0 -18 -2 -24 -12h-13v157h16c21 -97 58 -141 127 -141c51 0 83 33 83 74c0 31 -20 57 -53 75l-54 30c-83 46 -120 94 -120 145c0 79 56 123 138 123
c24 0 46 -1 67 -11c11 -5 21 -8 28 -8c4 0 8 1 16 10h11l5 -136h-15c-23 90 -53 123 -113 123c-43 0 -75 -21 -75 -68c0 -22 15 -51 43 -68z" />
    <glyph glyph-name="t" unicode="t" horiz-adv-x="278" 
d="M266 77l13 -11c-33 -52 -71 -76 -121 -76c-58 0 -88 43 -88 127v301h-53c-3 2 -4 4 -4 7c0 6 6 12 17 19c26 15 59 52 97 107c6 9 14 18 20 28c5 0 7 -3 7 -13v-116h101v-32h-101v-286c0 -64 15 -90 52 -90c22 0 38 9 60 35z" />
    <glyph glyph-name="u" unicode="u" horiz-adv-x="500" 
d="M480 50v-14c-51 -14 -87 -25 -137 -45l-5 3v82h-2c-49 -67 -106 -86 -143 -86c-77 0 -122 51 -122 128v251c0 50 -14 64 -62 67v14h146v-323c0 -46 32 -79 71 -79c29 0 59 9 84 31c16 14 23 23 23 58v231c0 53 -14 61 -74 65v17h158v-343c0 -46 11 -57 57 -57h6z" />
    <glyph glyph-name="v" unicode="v" horiz-adv-x="500" 
d="M477 450v-15c-30 -3 -38 -11 -65 -78l-128 -321c-15 -37 -22 -50 -28 -50s-11 8 -18 26c-3 5 -4 12 -8 21l-120 287c-43 103 -53 113 -91 115v15h196v-15c-34 -3 -46 -10 -46 -27c0 -10 3 -23 9 -38l102 -256l99 259c4 10 6 20 6 30c0 19 -15 29 -47 32v15h139z" />
    <glyph glyph-name="w" unicode="w" horiz-adv-x="722" 
d="M694 450v-15c-20 -7 -25 -14 -41 -54l-138 -346c-16 -40 -21 -49 -28 -49s-9 5 -24 43l-91 236l-112 -240c-12 -26 -20 -39 -25 -39c-6 0 -14 13 -26 44l-135 342c-21 54 -30 61 -53 63v15h180v-15c-35 -4 -46 -12 -46 -33c0 -10 2 -20 6 -30l99 -261l91 199l-20 56
c-19 54 -32 65 -69 69v15h203v-15c-47 -7 -58 -14 -58 -35c0 -17 5 -29 17 -60l84 -224l90 222c11 27 17 51 17 67s-10 23 -44 30v15h123z" />
    <glyph glyph-name="x" unicode="x" horiz-adv-x="500" 
d="M479 0h-201v15c33 2 40 6 40 24c0 7 -2 12 -6 18l-91 140l-79 -123c-14 -22 -20 -34 -20 -41c0 -13 11 -18 40 -18v-15h-145v15c33 3 45 10 73 51l114 165l-94 144c-31 47 -47 60 -77 60h-9v15h207v-15c-30 -1 -43 -7 -43 -22c0 -13 17 -46 46 -89c5 -7 10 -13 14 -20
c10 13 20 29 30 44c22 35 37 53 37 65c0 14 -10 20 -40 22v15h158v-15c-32 -1 -62 -17 -81 -44l-83 -120l128 -196c28 -43 51 -60 82 -60v-15z" />
    <glyph glyph-name="y" unicode="y" horiz-adv-x="500" 
d="M475 450v-15c-24 -3 -36 -14 -50 -51l-150 -409c-52 -142 -99 -193 -175 -193c-43 0 -70 25 -70 58c0 25 19 46 43 46c18 0 34 -3 52 -13c11 -6 20 -7 26 -7c14 0 34 20 50 44c20 29 40 92 40 108c0 15 -23 61 -42 101l-132 282c-10 22 -27 31 -53 35v14h205v-15
c-43 -2 -57 -9 -57 -27c0 -11 7 -27 13 -41l112 -250l97 276c3 7 4 14 4 18c0 16 -15 24 -46 24v15h133z" />
    <glyph glyph-name="z" unicode="z" horiz-adv-x="444" 
d="M418 136l-15 -136h-376v15l266 405h-135c-63 0 -78 -15 -87 -88h-18l4 118h346v-15l-269 -405h133c58 0 92 10 106 27s17 33 27 83z" />
    <glyph glyph-name="braceleft" unicode="{" horiz-adv-x="480" 
d="M350 -170v-11c-67 1 -93 7 -121 25s-44 59 -44 115v177c0 69 -18 93 -85 114c67 20 85 43 85 113v178c0 57 15 96 44 114s55 24 121 25v-11c-69 -18 -91 -48 -91 -123v-168c0 -83 -19 -109 -94 -129c75 -19 94 -45 94 -128v-168c0 -75 22 -105 91 -123z" />
    <glyph glyph-name="bar" unicode="|" horiz-adv-x="200" 
d="M133 -14h-66v690h66v-690z" />
    <glyph glyph-name="braceright" unicode="}" horiz-adv-x="480" 
d="M295 540v-177c0 -70 18 -93 85 -113c-67 -21 -85 -44 -85 -114v-178c0 -57 -15 -96 -44 -114s-55 -24 -121 -25v11c69 18 91 48 91 123v168c0 83 19 109 94 129c-75 19 -94 44 -94 128v168c0 75 -22 105 -91 123v11c67 -1 93 -7 121 -25s44 -59 44 -115z" />
    <glyph glyph-name="asciitilde" unicode="~" horiz-adv-x="541" 
d="M466 325l36 -51c-43 -64 -79 -86 -125 -86c-45 0 -63 13 -120 43c-18 9 -55 25 -97 25c-35 0 -67 -27 -84 -73l-36 50c34 67 79 87 125 87c33 0 50 -5 117 -34c18 -8 64 -34 96 -34c45 0 66 33 88 73z" />
    <glyph glyph-name="uni00A0" unicode="&#xa0;" horiz-adv-x="250" 
 />
    <glyph glyph-name="exclamdown" unicode="&#xa1;" horiz-adv-x="330" 
d="M202 417c0 -31 -24 -55 -54 -55s-52 24 -52 55c0 30 22 51 53 51c30 0 53 -22 53 -51zM156 282l44 -381c2 -18 2 -25 2 -39c0 -46 -21 -80 -53 -80c-34 0 -53 28 -53 79c0 13 1 26 2 38l45 383h13z" />
    <glyph glyph-name="cent" unicode="&#xa2;" horiz-adv-x="500" 
d="M435 164l13 -8c-34 -70 -53 -97 -88 -127c-28 -24 -65 -38 -102 -38c-18 0 -33 2 -57 9l-49 -138h-34l51 150c-39 22 -55 36 -74 64c-27 39 -42 91 -42 143c0 135 96 241 220 241c14 0 27 -1 51 -5l44 124h35l-47 -135c48 -19 75 -49 75 -84c0 -27 -18 -45 -43 -45
s-40 13 -58 52l-101 -291c23 -9 39 -12 59 -12c59 0 95 25 147 100zM198 98l115 323c-18 7 -30 9 -47 9c-82 0 -136 -68 -136 -170c0 -72 19 -117 68 -162z" />
    <glyph glyph-name="sterling" unicode="&#xa3;" horiz-adv-x="500" 
d="M344 328h-121c1 -20 1 -41 1 -61c0 -29 -1 -36 -25 -156c65 -27 100 -35 149 -35c46 0 82 15 113 49c10 11 17 16 23 16c4 0 6 -1 6 -5c0 -18 -24 -65 -45 -88c-33 -35 -76 -55 -122 -55c-44 0 -77 14 -145 61c-40 -48 -63 -62 -98 -62c-42 0 -68 24 -68 62
c0 46 36 76 91 76c15 0 27 -1 46 -5c2 8 3 14 3 21c0 19 -5 79 -16 149l-5 33h-108v45h107c-5 26 -7 45 -7 69c0 143 76 234 195 234c75 0 130 -40 130 -93c0 -31 -21 -53 -50 -53c-30 0 -38 14 -39 67c-1 35 -19 52 -56 52c-60 0 -95 -51 -95 -137c0 -39 3 -70 11 -139h125
v-45zM142 76c0 9 -29 18 -54 18c-32 0 -50 -13 -50 -37c0 -22 17 -37 42 -37c19 0 33 7 47 25c10 12 15 23 15 31z" />
    <glyph glyph-name="currency" unicode="&#xa4;" horiz-adv-x="500" 
d="M522 40l-48 -50l-98 98c-40 -28 -78 -41 -125 -41s-85 12 -127 41l-96 -98l-50 50l98 96c-29 42 -41 78 -41 126s12 86 41 126l-98 98l50 48l96 -96c44 28 79 39 127 39c49 0 86 -12 125 -39l98 96l48 -48l-96 -98c29 -43 39 -76 39 -125c0 -48 -10 -82 -39 -127z
M397 264c0 83 -65 149 -148 149c-80 0 -146 -68 -146 -150c0 -84 66 -152 148 -152s146 67 146 153z" />
    <glyph glyph-name="yen" unicode="&#xa5;" horiz-adv-x="500" 
d="M512 662v-19c-51 -11 -83 -37 -118 -107l-92 -184h146v-40h-166l-7 -14v-76h173v-40h-173v-73c0 -70 16 -88 80 -90v-19h-244v19c67 3 79 18 79 101v62h-174v40h174v76l-7 14h-167v40h144l-95 173c-55 99 -72 115 -118 118v19h243v-19c-47 -1 -65 -8 -65 -28
c0 -14 5 -30 13 -46l118 -221l112 220c9 17 14 34 14 45c0 17 -21 30 -51 30h-14v19h195z" />
    <glyph glyph-name="brokenbar" unicode="&#xa6;" horiz-adv-x="200" 
d="M133 400h-66v276h66v-276zM133 -14h-66v276h66v-276z" />
    <glyph glyph-name="section" unicode="&#xa7;" horiz-adv-x="500" 
d="M200 513l137 -113c58 -48 89 -102 89 -155c0 -73 -48 -120 -122 -120h-12c75 -65 94 -94 94 -146c0 -76 -57 -127 -144 -127c-78 0 -138 44 -138 100c0 31 23 54 54 54c27 0 48 -18 48 -42c0 -14 -7 -28 -23 -41c-7 -6 -11 -11 -11 -15c0 -18 34 -35 71 -35
c53 0 87 30 87 77c0 39 -24 71 -89 115c-122 84 -171 147 -171 221c0 68 49 119 114 119c7 0 16 0 26 -1c-80 66 -100 96 -100 150c0 73 56 122 139 122c73 0 128 -42 128 -98c0 -33 -19 -53 -51 -53c-28 0 -47 18 -47 43c0 16 10 33 26 44c6 5 8 8 8 11c0 18 -27 32 -62 32
c-51 0 -85 -29 -85 -71c0 -26 14 -54 34 -71zM374 211c0 27 -18 59 -53 94c-48 47 -99 78 -131 78c-38 0 -67 -28 -67 -66c0 -32 12 -54 46 -88c61 -60 98 -83 136 -83c36 0 69 31 69 65z" />
    <glyph glyph-name="dieresis" unicode="&#xa8;" horiz-adv-x="333" 
d="M316 572c0 -27 -23 -49 -51 -49c-27 0 -48 22 -48 50c0 27 22 49 49 49s50 -23 50 -50zM117 572c0 -27 -23 -49 -51 -49c-27 0 -48 22 -48 50c0 27 22 49 49 49s50 -23 50 -50z" />
    <glyph glyph-name="copyright" unicode="&#xa9;" horiz-adv-x="760" 
d="M547 248l-17 -76c-3 -13 -88 -31 -148 -31c-118 0 -192 75 -192 188c0 123 89 203 221 203c33 0 76 -9 107 -22c8 -4 13 -10 13 -17v-71h-17c-8 60 -49 90 -104 90c-89 0 -143 -73 -143 -175c0 -111 60 -176 148 -176c55 0 89 25 116 87h16zM722 330
c0 -193 -150 -344 -341 -344c-192 0 -343 152 -343 344c0 195 152 346 348 346c185 0 336 -155 336 -346zM667 334c0 165 -131 300 -290 300c-153 0 -284 -140 -284 -303c0 -166 131 -303 288 -303s286 138 286 306z" />
    <glyph glyph-name="ordfeminine" unicode="&#xaa;" horiz-adv-x="276" 
d="M270 442v-18c-24 -23 -36 -30 -59 -30c-27 0 -39 12 -45 44c-33 -31 -61 -44 -91 -44c-41 0 -71 28 -71 68c0 20 8 39 22 51c27 23 40 29 131 63v30c0 27 -13 42 -36 42c-22 0 -45 -11 -45 -23c0 -4 1 -8 2 -14c1 -3 1 -6 1 -8c0 -13 -14 -25 -31 -25
c-18 0 -32 13 -32 31c0 39 45 67 108 67c70 0 105 -32 105 -96v-115c0 -28 2 -35 13 -35c10 0 18 3 28 12zM158 474v77c-70 -25 -91 -40 -91 -66c0 -24 17 -44 38 -44c13 0 25 3 42 11c8 7 11 14 11 22z" />
    <glyph glyph-name="guillemotleft" unicode="&#xab;" horiz-adv-x="500" 
d="M234 227l81 73c42 38 121 116 130 116s11 -6 11 -11c0 -9 -19 -31 -50 -72l-84 -106c32 -37 62 -78 84 -107c31 -40 50 -67 50 -76c0 -6 -6 -11 -12 -11c-9 0 -88 84 -129 121zM42 227l81 73c42 38 121 116 130 116s11 -6 11 -11c0 -9 -19 -31 -50 -72l-84 -106
c32 -37 62 -78 84 -107c31 -40 50 -67 50 -76c0 -6 -6 -11 -12 -11c-9 0 -88 84 -129 121z" />
    <glyph glyph-name="logicalnot" unicode="&#xac;" horiz-adv-x="600" 
d="M552 115h-66v212h-438v66h504v-278z" />
    <glyph glyph-name="uni00AD" unicode="&#xad;" horiz-adv-x="333" 
d="M285 194h-246v63h246v-63z" />
    <glyph glyph-name="registered" unicode="&#xae;" horiz-adv-x="760" 
d="M567 152h-64c-17 0 -43 27 -71 79c-12 22 -14 26 -52 83h-48v-92c0 -45 2 -52 47 -55v-15h-160l1 15c49 4 48 9 48 55v230c0 42 -2 49 -47 53v15h172c75 0 118 -38 118 -98c0 -40 -25 -81 -79 -98l57 -79c26 -35 54 -65 78 -85v-8zM332 333h43c44 0 69 37 69 85
c0 46 -20 83 -74 83h-38v-168zM722 329c0 -192 -150 -343 -341 -343c-193 0 -343 152 -343 346c0 193 153 344 347 344c186 0 337 -155 337 -347zM667 330c0 169 -129 304 -289 304c-154 0 -285 -140 -285 -303c0 -166 131 -303 288 -303c156 0 286 138 286 302z" />
    <glyph glyph-name="macron" unicode="&#xaf;" horiz-adv-x="333" 
d="M322 547h-311v54h311v-54z" />
    <glyph glyph-name="degree" unicode="&#xb0;" horiz-adv-x="400" 
d="M343 533c0 -80 -63 -143 -143 -143c-81 0 -143 63 -143 144c0 80 63 142 145 142c78 0 141 -64 141 -143zM304 534c0 59 -48 108 -106 108c-55 0 -102 -50 -102 -109c0 -60 47 -109 104 -109s104 50 104 110z" />
    <glyph glyph-name="plusminus" unicode="&#xb1;" 
d="M637 242h-262v-209h-66v209h-261v66h261v194h66v-194h262v-66zM637 -87h-589v66h589v-66z" />
    <glyph glyph-name="twosuperior" unicode="&#xb2;" horiz-adv-x="300" 
d="M296 355l-39 -85h-251v24l101 108c51 55 78 108 78 138c0 42 -31 76 -71 76c-37 0 -66 -26 -88 -74l-25 15c28 82 65 119 150 119c78 0 126 -46 126 -109c0 -49 -21 -88 -86 -151l-84 -81h113c27 0 43 5 58 27z" />
    <glyph glyph-name="threesuperior" unicode="&#xb3;" horiz-adv-x="300" 
d="M204 511v-2c60 -15 87 -62 87 -110c0 -79 -76 -137 -187 -137c-53 0 -91 24 -91 56c0 21 17 31 37 31c11 0 22 -5 41 -19c22 -16 33 -20 51 -20c41 0 68 30 68 71c0 52 -34 82 -89 82c-2 0 -4 0 -28 -3v29c70 24 95 48 95 84c0 30 -21 47 -56 47c-36 0 -59 -14 -86 -58
l-25 19c36 67 74 95 135 95s108 -36 108 -83c0 -28 -12 -58 -60 -82z" />
    <glyph glyph-name="acute" unicode="&#xb4;" horiz-adv-x="333" 
d="M93 507l147 148c18 18 27 23 42 23c22 0 35 -12 35 -32c0 -16 -9 -29 -30 -42l-154 -97h-40z" />
    <glyph glyph-name="mu" unicode="&#xb5;" horiz-adv-x="500" 
d="M430 450v-354c0 -46 8 -69 31 -69c15 0 27 7 51 29v-9c-33 -43 -51 -57 -89 -57c-37 0 -74 31 -76 90h-2c-33 -61 -76 -90 -131 -90c-58 0 -92 23 -123 74c2 -51 37 -152 37 -205c0 -51 -17 -77 -48 -77c-29 0 -44 33 -44 77c0 51 24 169 24 195v396h88v-295
c0 -69 32 -103 84 -103c51 0 90 22 110 63v335h88z" />
    <glyph glyph-name="paragraph" unicode="&#xb6;" horiz-adv-x="592" 
d="M532 -154h-154v794h-58v-794h-155v22c78 5 89 19 89 103v302c-126 10 -194 58 -194 198c0 130 62 191 209 191h263v-19c-77 -7 -88 -27 -88 -101v-583c0 -71 12 -85 88 -91v-22zM254 295v345c-95 -9 -118 -55 -118 -167c0 -115 32 -169 118 -178z" />
    <glyph glyph-name="periodcentered" unicode="&#xb7;" horiz-adv-x="250" 
d="M181 253c0 -29 -26 -54 -56 -54c-31 0 -55 24 -55 55s25 56 56 56c29 0 55 -27 55 -57z" />
    <glyph glyph-name="cedilla" unicode="&#xb8;" horiz-adv-x="333" 
d="M174 0l-25 -65c10 2 16 3 26 3c54 0 86 -25 86 -69c0 -52 -48 -84 -125 -84c-31 0 -55 4 -84 16l14 31c27 -9 44 -12 65 -12c34 0 55 17 55 44c0 26 -15 36 -53 36c-12 0 -20 -1 -28 -4l-7 5l41 99h35z" />
    <glyph glyph-name="onesuperior" unicode="&#xb9;" horiz-adv-x="300" 
d="M248 270h-191v24c43 3 53 10 53 33v254c0 23 -3 30 -9 30c-7 0 -16 -2 -42 -14v24l118 55l14 -4v-339c0 -26 14 -39 57 -39v-24z" />
    <glyph glyph-name="ordmasculine" unicode="&#xba;" horiz-adv-x="310" 
d="M304 542c0 -84 -65 -148 -153 -148c-84 0 -145 58 -145 139c0 86 61 143 153 143c85 0 145 -55 145 -134zM231 516c0 75 -34 127 -83 127c-41 0 -69 -30 -69 -74c0 -39 9 -79 25 -108c12 -22 31 -34 56 -34c46 0 71 31 71 89z" />
    <glyph glyph-name="guillemotright" unicode="&#xbb;" horiz-adv-x="500" 
d="M458 222l-81 -73c-42 -38 -121 -116 -130 -116s-11 6 -11 11c0 9 19 31 50 72l84 106c-32 37 -62 78 -84 107c-31 40 -50 67 -50 76c0 6 6 11 12 11c9 0 88 -84 129 -121zM265 222l-81 -73c-42 -38 -121 -116 -130 -116s-11 6 -11 11c0 9 19 31 50 72l84 106
c-32 37 -62 78 -84 107c-31 40 -50 67 -50 76c0 6 6 11 12 11c9 0 88 -84 129 -121z" />
    <glyph glyph-name="onequarter" unicode="&#xbc;" horiz-adv-x="750" 
d="M713 90h-55v-90h-70v90h-180v49l203 266h47v-258h55v-57zM588 147v179l-135 -179h135zM632 676l-450 -690h-49l453 690h46zM223 270h-181v24c43 3 53 10 53 33v254c0 23 -3 30 -9 30c-7 0 -16 -2 -42 -14v24l108 55l14 -4v-339c0 -26 14 -39 57 -39v-24z" />
    <glyph glyph-name="onehalf" unicode="&#xbd;" horiz-adv-x="750" 
d="M741 85l-39 -85h-251v24l101 108c51 55 78 108 78 138c0 42 -31 76 -71 76c-37 0 -66 -26 -88 -74l-25 15c28 82 65 119 150 119c78 0 126 -46 126 -109c0 -49 -21 -88 -86 -151l-84 -81h113c27 0 43 5 58 27zM595 676l-450 -690h-49l453 690h46zM217 270h-181v24
c43 3 53 10 53 33v254c0 23 -3 30 -9 30c-7 0 -16 -2 -42 -14v24l108 55l14 -4v-339c0 -26 14 -39 57 -39v-24z" />
    <glyph glyph-name="threequarters" unicode="&#xbe;" horiz-adv-x="750" 
d="M718 90h-55v-90h-70v90h-180v49l203 266h47v-258h55v-57zM593 147v179l-135 -179h135zM637 676l-450 -690h-49l453 690h46zM204 511v-2c60 -15 87 -62 87 -110c0 -79 -76 -137 -187 -137c-53 0 -91 24 -91 56c0 21 17 31 37 31c11 0 22 -5 41 -19c22 -16 33 -20 51 -20
c41 0 68 30 68 71c0 52 -34 82 -89 82c-2 0 -4 0 -28 -3v29c70 24 95 48 95 84c0 30 -21 47 -56 47c-36 0 -59 -14 -86 -58l-25 19c36 67 74 95 135 95s108 -36 108 -83c0 -28 -12 -58 -60 -82z" />
    <glyph glyph-name="questiondown" unicode="&#xbf;" horiz-adv-x="444" 
d="M260 416c0 -31 -24 -55 -54 -55s-52 24 -52 55c0 30 22 51 53 51c30 0 53 -22 53 -51zM200 294h17c-1 -44 -5 -91 -58 -206c-26 -56 -37 -110 -37 -157c0 -66 48 -119 109 -119c48 0 94 30 94 62c0 9 -5 17 -17 31c-15 17 -21 28 -21 43c0 25 16 41 41 41
c31 0 48 -21 48 -62c0 -83 -70 -145 -162 -145c-55 0 -113 23 -148 58c-23 23 -36 59 -36 97c0 61 22 98 105 203c38 48 53 86 65 154z" />
    <glyph glyph-name="Agrave" unicode="&#xc0;" horiz-adv-x="722" 
d="M451 757h-40l-154 96c-19 12 -30 27 -30 43c0 21 14 32 36 32c15 0 26 -5 43 -23zM707 0h-255v19c36 0 43 2 55 9c8 4 14 15 14 24c0 15 -7 42 -19 70l-41 94h-262l-46 -114c-5 -13 -9 -30 -9 -42c0 -31 22 -41 70 -41v-19h-199v19c58 6 67 27 126 167l206 488h20
l246 -563c28 -65 42 -86 94 -92v-19zM447 257l-116 275l-115 -275h231z" />
    <glyph glyph-name="Aacute" unicode="&#xc1;" horiz-adv-x="722" 
d="M276 757l147 148c18 18 27 23 42 23c22 0 35 -12 35 -32c0 -16 -9 -29 -30 -42l-154 -97h-40zM707 0h-255v19c36 0 43 2 55 9c8 4 14 15 14 24c0 15 -7 42 -19 70l-41 94h-262l-46 -114c-5 -13 -9 -30 -9 -42c0 -31 22 -41 70 -41v-19h-199v19c58 6 67 27 126 167
l206 488h20l246 -563c28 -65 42 -86 94 -92v-19zM447 257l-116 275l-115 -275h231z" />
    <glyph glyph-name="Acircumflex" unicode="&#xc2;" horiz-adv-x="722" 
d="M513 757h-34l-122 103l-121 -103h-34l124 167h62zM707 0h-255v19c36 0 43 2 55 9c8 4 14 15 14 24c0 15 -7 42 -19 70l-41 94h-262l-46 -114c-5 -13 -9 -30 -9 -42c0 -31 22 -41 70 -41v-19h-199v19c58 6 67 27 126 167l206 488h20l246 -563c28 -65 42 -86 94 -92v-19z
M447 257l-116 275l-115 -275h231z" />
    <glyph glyph-name="Atilde" unicode="&#xc3;" horiz-adv-x="722" 
d="M495 888h29c-21 -76 -50 -106 -105 -106c-25 0 -40 4 -81 24l-23 11c-15 7 -29 11 -41 11c-23 0 -40 -15 -51 -46h-29c15 65 51 101 101 101c22 0 46 -6 70 -18l24 -12c19 -10 38 -15 53 -15c23 0 36 13 53 50zM707 0h-255v19c36 0 43 2 55 9c8 4 14 15 14 24
c0 15 -7 42 -19 70l-41 94h-262l-46 -114c-5 -13 -9 -30 -9 -42c0 -31 22 -41 70 -41v-19h-199v19c58 6 67 27 126 167l206 488h20l246 -563c28 -65 42 -86 94 -92v-19zM447 257l-116 275l-115 -275h231z" />
    <glyph glyph-name="Adieresis" unicode="&#xc4;" horiz-adv-x="722" 
d="M508 822c0 -27 -23 -49 -51 -49c-27 0 -48 22 -48 50c0 27 22 49 49 49s50 -23 50 -50zM309 822c0 -27 -23 -49 -51 -49c-27 0 -48 22 -48 50c0 27 22 49 49 49s50 -23 50 -50zM707 0h-255v19c36 0 43 2 55 9c8 4 14 15 14 24c0 15 -7 42 -19 70l-41 94h-262l-46 -114
c-5 -13 -9 -30 -9 -42c0 -31 22 -41 70 -41v-19h-199v19c58 6 67 27 126 167l206 488h20l246 -563c28 -65 42 -86 94 -92v-19zM447 257l-116 275l-115 -275h231z" />
    <glyph glyph-name="Aring" unicode="&#xc5;" horiz-adv-x="722" 
d="M459 861c0 -55 -45 -99 -101 -99c-55 0 -98 44 -98 100c0 55 45 99 101 99c53 0 98 -46 98 -100zM425 862c0 36 -30 65 -67 65c-34 0 -64 -30 -64 -65c0 -37 29 -66 64 -66c38 0 67 29 67 66zM707 0h-255v19c36 0 43 2 55 9c8 4 14 15 14 24c0 15 -7 42 -19 70l-41 94
h-262l-46 -114c-5 -13 -9 -30 -9 -42c0 -31 22 -41 70 -41v-19h-199v19c58 6 67 27 126 167l206 488h20l246 -563c28 -65 42 -86 94 -92v-19zM447 257l-116 275l-115 -275h231z" />
    <glyph glyph-name="AE" unicode="&#xc6;" horiz-adv-x="889" 
d="M863 168l-44 -168h-509v19l17 2c62 7 71 25 71 91v148h-176c-69 -131 -92 -189 -92 -212c0 -14 24 -25 67 -29h1v-19h-198v19c43 6 58 19 88 78l245 484c6 11 9 22 9 28c0 22 -28 33 -90 33v20h564v-141h-23c-13 91 -38 105 -184 105h-84c-19 0 -28 -15 -28 -37v-223h104
c98 0 137 17 139 98h21v-235h-21c-9 79 -33 100 -102 100h-141v-235c0 -50 6 -56 70 -56h73c112 0 146 20 199 130h24zM398 299v319l-158 -319h158z" />
    <glyph glyph-name="Ccedilla" unicode="&#xc7;" horiz-adv-x="667" 
d="M614 131l19 -18c-58 -83 -160 -127 -273 -127c-8 0 -15 0 -24 1l-20 -52c10 2 16 3 26 3c54 0 86 -25 86 -69c0 -52 -48 -84 -125 -84c-31 0 -55 4 -84 16l14 31c27 -9 44 -12 65 -12c34 0 55 17 55 44c0 26 -15 36 -53 36c-12 0 -20 -1 -28 -4l-7 5l37 89
c-75 10 -139 42 -186 91c-56 59 -88 144 -88 248c0 125 49 223 139 287c57 40 127 60 195 60c49 0 98 -7 147 -24c16 -5 30 -9 40 -9c19 0 35 12 41 33h21l9 -226h-23c-15 105 -111 186 -215 186c-145 0 -238 -116 -238 -290c0 -95 22 -185 67 -238c44 -52 110 -78 181 -78
c83 0 148 30 222 101z" />
    <glyph glyph-name="Egrave" unicode="&#xc8;" horiz-adv-x="611" 
d="M402 757h-40l-154 96c-19 12 -30 27 -30 43c0 21 14 32 36 32c15 0 26 -5 43 -23zM597 169l-46 -169h-539v19c77 5 87 18 87 95v436c0 74 -12 89 -87 93v19h530l4 -143h-25c-15 90 -38 105 -154 105h-131c-28 0 -35 -4 -35 -36v-220h151c86 0 101 17 113 96h23v-234h-23
c-12 84 -27 97 -113 97h-151v-243c0 -42 27 -47 101 -47h36c143 0 186 26 231 132h28z" />
    <glyph glyph-name="Eacute" unicode="&#xc9;" horiz-adv-x="611" 
d="M245 757l147 148c18 18 27 23 42 23c22 0 35 -12 35 -32c0 -16 -9 -29 -30 -42l-154 -97h-40zM597 169l-46 -169h-539v19c77 5 87 18 87 95v436c0 74 -12 89 -87 93v19h530l4 -143h-25c-15 90 -38 105 -154 105h-131c-28 0 -35 -4 -35 -36v-220h151c86 0 101 17 113 96
h23v-234h-23c-12 84 -27 97 -113 97h-151v-243c0 -42 27 -47 101 -47h36c143 0 186 26 231 132h28z" />
    <glyph glyph-name="Ecircumflex" unicode="&#xca;" horiz-adv-x="611" 
d="M483 757h-34l-122 103l-121 -103h-34l124 167h62zM597 169l-46 -169h-539v19c77 5 87 18 87 95v436c0 74 -12 89 -87 93v19h530l4 -143h-25c-15 90 -38 105 -154 105h-131c-28 0 -35 -4 -35 -36v-220h151c86 0 101 17 113 96h23v-234h-23c-12 84 -27 97 -113 97h-151
v-243c0 -42 27 -47 101 -47h36c143 0 186 26 231 132h28z" />
    <glyph glyph-name="Edieresis" unicode="&#xcb;" horiz-adv-x="611" 
d="M475 822c0 -27 -23 -49 -51 -49c-27 0 -48 22 -48 50c0 27 22 49 49 49s50 -23 50 -50zM276 822c0 -27 -23 -49 -51 -49c-27 0 -48 22 -48 50c0 27 22 49 49 49s50 -23 50 -50zM597 169l-46 -169h-539v19c77 5 87 18 87 95v436c0 74 -12 89 -87 93v19h530l4 -143h-25
c-15 90 -38 105 -154 105h-131c-28 0 -35 -4 -35 -36v-220h151c86 0 101 17 113 96h23v-234h-23c-12 84 -27 97 -113 97h-151v-243c0 -42 27 -47 101 -47h36c143 0 186 26 231 132h28z" />
    <glyph glyph-name="Igrave" unicode="&#xcc;" horiz-adv-x="333" 
d="M269 757h-40l-154 96c-19 12 -30 27 -30 43c0 21 14 32 36 32c15 0 26 -5 43 -23zM315 0h-297v19c84 3 97 15 97 93v439c0 79 -12 87 -97 92v19h297v-19c-84 -4 -98 -16 -98 -92v-439c0 -75 16 -90 98 -93v-19z" />
    <glyph glyph-name="Iacute" unicode="&#xcd;" horiz-adv-x="333" 
d="M64 757l147 148c18 18 27 23 42 23c22 0 35 -12 35 -32c0 -16 -9 -29 -30 -42l-154 -97h-40zM315 0h-297v19c84 3 97 15 97 93v439c0 79 -12 87 -97 92v19h297v-19c-84 -4 -98 -16 -98 -92v-439c0 -75 16 -90 98 -93v-19z" />
    <glyph glyph-name="Icircumflex" unicode="&#xce;" horiz-adv-x="333" 
d="M321 757h-34l-122 103l-121 -103h-34l124 167h62zM307 0h-297v19c84 3 97 15 97 93v439c0 79 -12 87 -97 92v19h297v-19c-84 -4 -98 -16 -98 -92v-439c0 -75 16 -90 98 -93v-19z" />
    <glyph glyph-name="Idieresis" unicode="&#xcf;" horiz-adv-x="333" 
d="M315 822c0 -27 -23 -49 -51 -49c-27 0 -48 22 -48 50c0 27 22 49 49 49s50 -23 50 -50zM116 822c0 -27 -23 -49 -51 -49c-27 0 -48 22 -48 50c0 27 22 49 49 49s50 -23 50 -50zM314 0h-297v19c84 3 97 15 97 93v439c0 79 -12 87 -97 92v19h297v-19
c-84 -4 -98 -16 -98 -92v-439c0 -75 16 -90 98 -93v-19z" />
    <glyph glyph-name="Eth" unicode="&#xd0;" horiz-adv-x="722" 
d="M16 662h270c251 0 399 -121 399 -328c0 -101 -40 -194 -110 -252c-62 -51 -164 -82 -275 -82h-284v19c76 5 88 18 88 90v206h-83v44h83v194c0 74 -9 83 -88 90v19zM206 315v-237c0 -32 12 -41 51 -41c88 0 146 12 197 41c81 47 122 131 122 249c0 109 -43 197 -122 250
c-48 33 -110 48 -199 48c-39 0 -49 -8 -49 -39v-227h146v-44h-146z" />
    <glyph glyph-name="Ntilde" unicode="&#xd1;" horiz-adv-x="722" 
d="M489 888h29c-21 -76 -50 -106 -105 -106c-25 0 -40 4 -81 24l-23 11c-15 7 -29 11 -41 11c-23 0 -40 -15 -51 -46h-29c15 65 51 101 101 101c22 0 46 -6 70 -18l24 -12c19 -10 38 -15 53 -15c23 0 36 13 53 50zM707 662v-19c-38 -4 -53 -7 -66 -18
c-19 -17 -29 -39 -29 -118v-518h-18l-441 549v-388c0 -103 16 -120 93 -131v-19h-234v19c82 9 97 24 97 131v440c-33 41 -48 53 -97 53v19h170l386 -483v340c0 51 -4 81 -19 98c-17 19 -35 21 -79 26v19h237z" />
    <glyph glyph-name="Ograve" unicode="&#xd2;" horiz-adv-x="722" 
d="M450 757h-40l-154 96c-19 12 -30 27 -30 43c0 21 14 32 36 32c15 0 26 -5 43 -23zM688 331c0 -206 -135 -345 -327 -345c-194 0 -327 140 -327 348c0 203 132 342 327 342c196 0 327 -147 327 -345zM574 337c0 114 -34 208 -91 256c-36 30 -76 47 -123 47
c-54 0 -104 -22 -143 -67c-43 -49 -69 -146 -69 -241c0 -119 29 -209 90 -265c34 -31 78 -45 124 -45c50 0 94 15 129 48c55 53 83 147 83 267z" />
    <glyph glyph-name="Oacute" unicode="&#xd3;" horiz-adv-x="722" 
d="M259 757l147 148c18 18 27 23 42 23c22 0 35 -12 35 -32c0 -16 -9 -29 -30 -42l-154 -97h-40zM688 331c0 -206 -135 -345 -327 -345c-194 0 -327 140 -327 348c0 203 132 342 327 342c196 0 327 -147 327 -345zM574 337c0 114 -34 208 -91 256c-36 30 -76 47 -123 47
c-54 0 -104 -22 -143 -67c-43 -49 -69 -146 -69 -241c0 -119 29 -209 90 -265c34 -31 78 -45 124 -45c50 0 94 15 129 48c55 53 83 147 83 267z" />
    <glyph glyph-name="Ocircumflex" unicode="&#xd4;" horiz-adv-x="722" 
d="M510 757h-34l-122 103l-121 -103h-34l124 167h62zM688 331c0 -206 -135 -345 -327 -345c-194 0 -327 140 -327 348c0 203 132 342 327 342c196 0 327 -147 327 -345zM574 337c0 114 -34 208 -91 256c-36 30 -76 47 -123 47c-54 0 -104 -22 -143 -67
c-43 -49 -69 -146 -69 -241c0 -119 29 -209 90 -265c34 -31 78 -45 124 -45c50 0 94 15 129 48c55 53 83 147 83 267z" />
    <glyph glyph-name="Otilde" unicode="&#xd5;" horiz-adv-x="722" 
d="M489 888h29c-21 -76 -50 -106 -105 -106c-25 0 -40 4 -81 24l-23 11c-15 7 -29 11 -41 11c-23 0 -40 -15 -51 -46h-29c15 65 51 101 101 101c22 0 46 -6 70 -18l24 -12c19 -10 38 -15 53 -15c23 0 36 13 53 50zM688 331c0 -206 -135 -345 -327 -345
c-194 0 -327 140 -327 348c0 203 132 342 327 342c196 0 327 -147 327 -345zM574 337c0 114 -34 208 -91 256c-36 30 -76 47 -123 47c-54 0 -104 -22 -143 -67c-43 -49 -69 -146 -69 -241c0 -119 29 -209 90 -265c34 -31 78 -45 124 -45c50 0 94 15 129 48
c55 53 83 147 83 267z" />
    <glyph glyph-name="Odieresis" unicode="&#xd6;" horiz-adv-x="722" 
d="M503 822c0 -27 -23 -49 -51 -49c-27 0 -48 22 -48 50c0 27 22 49 49 49s50 -23 50 -50zM304 822c0 -27 -23 -49 -51 -49c-27 0 -48 22 -48 50c0 27 22 49 49 49s50 -23 50 -50zM688 331c0 -206 -135 -345 -327 -345c-194 0 -327 140 -327 348c0 203 132 342 327 342
c196 0 327 -147 327 -345zM574 337c0 114 -34 208 -91 256c-36 30 -76 47 -123 47c-54 0 -104 -22 -143 -67c-43 -49 -69 -146 -69 -241c0 -119 29 -209 90 -265c34 -31 78 -45 124 -45c50 0 94 15 129 48c55 53 83 147 83 267z" />
    <glyph glyph-name="multiply" unicode="&#xd7;" horiz-adv-x="640" 
d="M597 22l-46 -47l-231 230l-231 -230l-46 46l230 231l-230 231l47 46l230 -230l231 230l46 -45l-230 -232z" />
    <glyph glyph-name="Oslash" unicode="&#xd8;" horiz-adv-x="722" 
d="M658 734l-88 -130c43 -40 61 -61 79 -99c23 -48 39 -112 39 -173c0 -205 -134 -346 -329 -346c-67 0 -113 13 -175 50l-79 -116h-49l95 139c-44 40 -61 61 -79 99c-24 49 -38 111 -38 172c0 203 135 346 328 346c66 0 111 -13 175 -49l72 107h49zM194 123l308 452
c-44 46 -85 65 -141 65c-131 0 -213 -119 -213 -310c0 -88 12 -143 46 -207zM527 540l-308 -452c43 -47 84 -66 142 -66c132 0 213 117 213 308c0 89 -13 145 -47 210z" />
    <glyph glyph-name="Ugrave" unicode="&#xd9;" horiz-adv-x="722" 
d="M453 757h-40l-154 96c-19 12 -30 27 -30 43c0 21 14 32 36 32c15 0 26 -5 43 -23zM705 662v-19c-84 -8 -94 -32 -94 -127v-255c0 -97 -9 -151 -54 -202c-42 -48 -110 -73 -202 -73c-73 0 -129 15 -170 46c-55 41 -81 111 -81 217v310c0 67 -11 78 -90 84v19h283v-19
c-80 -7 -91 -19 -91 -94v-312c0 -78 4 -123 44 -162c29 -28 71 -45 128 -45c64 0 120 22 152 59c33 40 37 80 37 161v263c0 103 -13 125 -94 130v19h232z" />
    <glyph glyph-name="Uacute" unicode="&#xda;" horiz-adv-x="722" 
d="M264 757l147 148c18 18 27 23 42 23c22 0 35 -12 35 -32c0 -16 -9 -29 -30 -42l-154 -97h-40zM705 662v-19c-84 -8 -94 -32 -94 -127v-255c0 -97 -9 -151 -54 -202c-42 -48 -110 -73 -202 -73c-73 0 -129 15 -170 46c-55 41 -81 111 -81 217v310c0 67 -11 78 -90 84v19
h283v-19c-80 -7 -91 -19 -91 -94v-312c0 -78 4 -123 44 -162c29 -28 71 -45 128 -45c64 0 120 22 152 59c33 40 37 80 37 161v263c0 103 -13 125 -94 130v19h232z" />
    <glyph glyph-name="Ucircumflex" unicode="&#xdb;" horiz-adv-x="722" 
d="M511 757h-34l-122 103l-121 -103h-34l124 167h62zM705 662v-19c-84 -8 -94 -32 -94 -127v-255c0 -97 -9 -151 -54 -202c-42 -48 -110 -73 -202 -73c-73 0 -129 15 -170 46c-55 41 -81 111 -81 217v310c0 67 -11 78 -90 84v19h283v-19c-80 -7 -91 -19 -91 -94v-312
c0 -78 4 -123 44 -162c29 -28 71 -45 128 -45c64 0 120 22 152 59c33 40 37 80 37 161v263c0 103 -13 125 -94 130v19h232z" />
    <glyph glyph-name="Udieresis" unicode="&#xdc;" horiz-adv-x="722" 
d="M503 822c0 -27 -23 -49 -51 -49c-27 0 -48 22 -48 50c0 27 22 49 49 49s50 -23 50 -50zM304 822c0 -27 -23 -49 -51 -49c-27 0 -48 22 -48 50c0 27 22 49 49 49s50 -23 50 -50zM705 662v-19c-84 -8 -94 -32 -94 -127v-255c0 -97 -9 -151 -54 -202
c-42 -48 -110 -73 -202 -73c-73 0 -129 15 -170 46c-55 41 -81 111 -81 217v310c0 67 -11 78 -90 84v19h283v-19c-80 -7 -91 -19 -91 -94v-312c0 -78 4 -123 44 -162c29 -28 71 -45 128 -45c64 0 120 22 152 59c33 40 37 80 37 161v263c0 103 -13 125 -94 130v19h232z" />
    <glyph glyph-name="Yacute" unicode="&#xdd;" horiz-adv-x="722" 
d="M266 757l147 148c18 18 27 23 42 23c22 0 35 -12 35 -32c0 -16 -9 -29 -30 -42l-154 -97h-40zM703 662v-19c-59 -5 -82 -26 -138 -112l-148 -228v-192c0 -78 19 -88 103 -92v-19h-306v19c89 6 101 15 101 104v171l-131 192c-92 135 -114 155 -162 157v19h279v-19l-24 -1
c-32 -1 -47 -10 -47 -26c0 -13 7 -31 18 -47l146 -221l145 222c10 15 14 31 14 42c-1 22 -16 30 -68 31v19h218z" />
    <glyph glyph-name="Thorn" unicode="&#xde;" horiz-adv-x="556" 
d="M202 532h80c160 0 260 -70 260 -181c0 -66 -37 -127 -96 -159c-43 -24 -96 -34 -175 -34c-26 0 -42 1 -69 3v-52c0 -73 15 -87 94 -90v-19h-280v19c76 7 84 17 84 101v433c0 72 -10 82 -84 90v19h277v-19c-82 -7 -92 -20 -91 -111zM202 461v-260c22 -2 36 -3 57 -3
c115 0 174 50 174 147c0 104 -61 149 -199 149c-26 0 -32 -7 -32 -33z" />
    <glyph glyph-name="germandbls" unicode="&#xdf;" horiz-adv-x="500" 
d="M73 84v370c0 155 57 229 178 229c104 0 170 -59 170 -152c0 -72 -30 -105 -137 -154c61 -12 90 -23 122 -51c40 -34 62 -83 62 -140c0 -110 -78 -195 -179 -195c-57 0 -97 30 -97 73c0 27 19 48 45 48c22 0 40 -17 42 -40l2 -22c2 -22 10 -30 29 -30c16 0 31 5 40 18
c13 18 24 67 24 112c0 135 -44 204 -132 207c-23 1 -32 6 -32 17c0 9 8 13 29 15c65 7 95 48 95 127c0 88 -34 140 -91 140c-53 0 -86 -41 -86 -107v-549h-145v15c51 4 61 16 61 69z" />
    <glyph glyph-name="agrave" unicode="&#xe0;" horiz-adv-x="444" 
d="M317 507h-40l-154 96c-19 12 -30 27 -30 43c0 21 14 32 36 32c15 0 26 -5 43 -23zM442 66v-28c-30 -38 -56 -48 -90 -48c-37 0 -59 20 -64 73h-1c-53 -60 -102 -73 -145 -73c-62 0 -105 38 -105 104c0 52 31 91 70 117c30 20 67 39 180 81v54c0 62 -33 90 -78 90
c-40 0 -70 -22 -70 -49c0 -18 6 -21 6 -42c0 -19 -20 -41 -46 -41c-21 0 -43 19 -43 46c0 26 16 58 51 80c28 18 70 30 115 30c56 0 94 -16 118 -45s28 -50 28 -111v-191c0 -46 13 -66 31 -66c16 0 26 5 43 19zM287 127v141c-62 -22 -103 -43 -128 -66
c-24 -22 -34 -46 -34 -77c0 -53 30 -77 69 -77c20 0 41 5 58 16c29 20 35 34 35 63z" />
    <glyph glyph-name="aacute" unicode="&#xe1;" horiz-adv-x="444" 
d="M119 507l147 148c18 18 27 23 42 23c22 0 35 -12 35 -32c0 -16 -9 -29 -30 -42l-154 -97h-40zM442 66v-28c-30 -38 -56 -48 -90 -48c-37 0 -59 20 -64 73h-1c-53 -60 -102 -73 -145 -73c-62 0 -105 38 -105 104c0 52 31 91 70 117c30 20 67 39 180 81v54
c0 62 -33 90 -78 90c-40 0 -70 -22 -70 -49c0 -18 6 -21 6 -42c0 -19 -20 -41 -46 -41c-21 0 -43 19 -43 46c0 26 16 58 51 80c28 18 70 30 115 30c56 0 94 -16 118 -45s28 -50 28 -111v-191c0 -46 13 -66 31 -66c16 0 26 5 43 19zM287 127v141c-62 -22 -103 -43 -128 -66
c-24 -22 -34 -46 -34 -77c0 -53 30 -77 69 -77c20 0 41 5 58 16c29 20 35 34 35 63z" />
    <glyph glyph-name="acircumflex" unicode="&#xe2;" horiz-adv-x="444" 
d="M381 507h-34l-122 103l-121 -103h-34l124 167h62zM442 66v-28c-30 -38 -56 -48 -90 -48c-37 0 -59 20 -64 73h-1c-53 -60 -102 -73 -145 -73c-62 0 -105 38 -105 104c0 52 31 91 70 117c30 20 67 39 180 81v54c0 62 -33 90 -78 90c-40 0 -70 -22 -70 -49
c0 -18 6 -21 6 -42c0 -19 -20 -41 -46 -41c-21 0 -43 19 -43 46c0 26 16 58 51 80c28 18 70 30 115 30c56 0 94 -16 118 -45s28 -50 28 -111v-191c0 -46 13 -66 31 -66c16 0 26 5 43 19zM287 127v141c-62 -22 -103 -43 -128 -66c-24 -22 -34 -46 -34 -77
c0 -53 30 -77 69 -77c20 0 41 5 58 16c29 20 35 34 35 63z" />
    <glyph glyph-name="atilde" unicode="&#xe3;" horiz-adv-x="444" 
d="M360 638h29c-21 -76 -50 -106 -105 -106c-25 0 -40 4 -81 24l-23 11c-15 7 -29 11 -41 11c-23 0 -40 -15 -51 -46h-29c15 65 51 101 101 101c22 0 46 -6 70 -18l24 -12c19 -10 38 -15 53 -15c23 0 36 13 53 50zM442 66v-28c-30 -38 -56 -48 -90 -48c-37 0 -59 20 -64 73
h-1c-53 -60 -102 -73 -145 -73c-62 0 -105 38 -105 104c0 52 31 91 70 117c30 20 67 39 180 81v54c0 62 -33 90 -78 90c-40 0 -70 -22 -70 -49c0 -18 6 -21 6 -42c0 -19 -20 -41 -46 -41c-21 0 -43 19 -43 46c0 26 16 58 51 80c28 18 70 30 115 30c56 0 94 -16 118 -45
s28 -50 28 -111v-191c0 -46 13 -66 31 -66c16 0 26 5 43 19zM287 127v141c-62 -22 -103 -43 -128 -66c-24 -22 -34 -46 -34 -77c0 -53 30 -77 69 -77c20 0 41 5 58 16c29 20 35 34 35 63z" />
    <glyph glyph-name="adieresis" unicode="&#xe4;" horiz-adv-x="444" 
d="M373 572c0 -27 -23 -49 -51 -49c-27 0 -48 22 -48 50c0 27 22 49 49 49s50 -23 50 -50zM174 572c0 -27 -23 -49 -51 -49c-27 0 -48 22 -48 50c0 27 22 49 49 49s50 -23 50 -50zM442 66v-28c-30 -38 -56 -48 -90 -48c-37 0 -59 20 -64 73h-1c-53 -60 -102 -73 -145 -73
c-62 0 -105 38 -105 104c0 52 31 91 70 117c30 20 67 39 180 81v54c0 62 -33 90 -78 90c-40 0 -70 -22 -70 -49c0 -18 6 -21 6 -42c0 -19 -20 -41 -46 -41c-21 0 -43 19 -43 46c0 26 16 58 51 80c28 18 70 30 115 30c56 0 94 -16 118 -45s28 -50 28 -111v-191
c0 -46 13 -66 31 -66c16 0 26 5 43 19zM287 127v141c-62 -22 -103 -43 -128 -66c-24 -22 -34 -46 -34 -77c0 -53 30 -77 69 -77c20 0 41 5 58 16c29 20 35 34 35 63z" />
    <glyph glyph-name="aring" unicode="&#xe5;" horiz-adv-x="444" 
d="M324 613c0 -55 -45 -99 -101 -99c-55 0 -98 44 -98 100c0 55 45 99 101 99c53 0 98 -46 98 -100zM290 614c0 36 -30 65 -67 65c-34 0 -64 -30 -64 -65c0 -37 29 -66 64 -66c38 0 67 29 67 66zM442 66v-28c-30 -38 -56 -48 -90 -48c-37 0 -59 20 -64 73h-1
c-53 -60 -102 -73 -145 -73c-62 0 -105 38 -105 104c0 52 31 91 70 117c30 20 67 39 180 81v54c0 62 -33 90 -78 90c-40 0 -70 -22 -70 -49c0 -18 6 -21 6 -42c0 -19 -20 -41 -46 -41c-21 0 -43 19 -43 46c0 26 16 58 51 80c28 18 70 30 115 30c56 0 94 -16 118 -45
s28 -50 28 -111v-191c0 -46 13 -66 31 -66c16 0 26 5 43 19zM287 127v141c-62 -22 -103 -43 -128 -66c-24 -22 -34 -46 -34 -77c0 -53 30 -77 69 -77c20 0 41 5 58 16c29 20 35 34 35 63z" />
    <glyph glyph-name="ae" unicode="&#xe6;" horiz-adv-x="667" 
d="M620 154l12 -5c-29 -62 -48 -91 -79 -116c-35 -29 -74 -40 -118 -40c-57 0 -95 18 -129 70c-68 -57 -102 -70 -152 -70c-68 0 -116 42 -116 107c0 60 8 117 107 145l129 36v63c0 64 -15 90 -61 90c-38 0 -68 -19 -68 -42c0 -15 3 -23 3 -42c0 -28 -17 -46 -44 -46
s-44 18 -44 48c0 61 69 108 159 108c50 0 80 -13 118 -47c45 35 72 47 119 47c102 0 149 -54 160 -183h-262c1 -100 6 -131 27 -170c17 -30 54 -50 95 -50c57 0 96 26 144 97zM355 307h166c-2 88 -25 122 -79 122c-57 0 -82 -34 -87 -122zM274 201v52
c-121 -44 -149 -68 -149 -128c0 -47 20 -87 66 -87c37 0 102 32 102 50c0 1 -1 2 -1 3c-12 39 -18 75 -18 110z" />
    <glyph glyph-name="ccedilla" unicode="&#xe7;" horiz-adv-x="444" 
d="M398 156l14 -9c-52 -105 -105 -150 -186 -157l-21 -55c10 2 16 3 26 3c54 0 86 -25 86 -69c0 -52 -48 -84 -125 -84c-31 0 -55 4 -84 16l14 31c27 -9 44 -12 65 -12c34 0 55 17 55 44c0 26 -15 36 -53 36c-12 0 -20 -1 -28 -4l-7 5l38 91c-101 13 -167 101 -167 220
c0 83 29 152 84 197c40 33 88 51 135 51c84 0 154 -47 154 -103c0 -23 -21 -42 -47 -42c-22 0 -40 17 -48 46l-6 22c-10 37 -23 48 -59 48c-81 0 -136 -70 -136 -174c0 -115 63 -195 155 -195c57 0 93 24 141 94z" />
    <glyph glyph-name="egrave" unicode="&#xe8;" horiz-adv-x="444" 
d="M310 507h-40l-154 96c-19 12 -30 27 -30 43c0 21 14 32 36 32c15 0 26 -5 43 -23zM408 164l16 -7c-39 -109 -109 -167 -209 -167c-118 0 -190 89 -190 227c0 141 81 243 207 243c62 0 107 -24 139 -69c20 -28 30 -60 34 -114h-308c5 -76 10 -115 46 -163
c28 -37 65 -55 111 -55c67 0 105 31 154 105zM99 309h204c-11 81 -32 115 -98 115c-56 0 -95 -40 -106 -115z" />
    <glyph glyph-name="eacute" unicode="&#xe9;" horiz-adv-x="444" 
d="M116 507l147 148c18 18 27 23 42 23c22 0 35 -12 35 -32c0 -16 -9 -29 -30 -42l-154 -97h-40zM408 164l16 -7c-39 -109 -109 -167 -209 -167c-118 0 -190 89 -190 227c0 141 81 243 207 243c62 0 107 -24 139 -69c20 -28 30 -60 34 -114h-308c5 -76 10 -115 46 -163
c28 -37 65 -55 111 -55c67 0 105 31 154 105zM99 309h204c-11 81 -32 115 -98 115c-56 0 -95 -40 -106 -115z" />
    <glyph glyph-name="ecircumflex" unicode="&#xea;" horiz-adv-x="444" 
d="M380 507h-34l-122 103l-121 -103h-34l124 167h62zM408 164l16 -7c-39 -109 -109 -167 -209 -167c-118 0 -190 89 -190 227c0 141 81 243 207 243c62 0 107 -24 139 -69c20 -28 30 -60 34 -114h-308c5 -76 10 -115 46 -163c28 -37 65 -55 111 -55c67 0 105 31 154 105z
M99 309h204c-11 81 -32 115 -98 115c-56 0 -95 -40 -106 -115z" />
    <glyph glyph-name="edieresis" unicode="&#xeb;" horiz-adv-x="444" 
d="M372 572c0 -27 -23 -49 -51 -49c-27 0 -48 22 -48 50c0 27 22 49 49 49s50 -23 50 -50zM173 572c0 -27 -23 -49 -51 -49c-27 0 -48 22 -48 50c0 27 22 49 49 49s50 -23 50 -50zM408 164l16 -7c-39 -109 -109 -167 -209 -167c-118 0 -190 89 -190 227
c0 141 81 243 207 243c62 0 107 -24 139 -69c20 -28 30 -60 34 -114h-308c5 -76 10 -115 46 -163c28 -37 65 -55 111 -55c67 0 105 31 154 105zM99 309h204c-11 81 -32 115 -98 115c-56 0 -95 -40 -106 -115z" />
    <glyph glyph-name="igrave" unicode="&#xec;" horiz-adv-x="278" 
d="M230 507h-40l-154 96c-19 12 -30 27 -30 43c0 21 14 32 36 32c15 0 26 -5 43 -23zM243 0h-237v15c69 4 79 13 79 89v227c0 47 -8 63 -33 63c-9 0 -24 0 -42 -5v16l154 55l5 -4v-351c0 -74 8 -85 74 -90v-15z" />
    <glyph glyph-name="iacute" unicode="&#xed;" horiz-adv-x="278" 
d="M49 507l147 148c18 18 27 23 42 23c22 0 35 -12 35 -32c0 -16 -9 -29 -30 -42l-154 -97h-40zM253 0h-237v15c69 4 79 13 79 89v227c0 47 -8 63 -33 63c-9 0 -24 0 -42 -5v16l154 55l5 -4v-351c0 -74 8 -85 74 -90v-15z" />
    <glyph glyph-name="icircumflex" unicode="&#xee;" horiz-adv-x="278" 
d="M294 507h-34l-122 103l-121 -103h-34l124 167h62zM220 0h-237v15c69 4 79 13 79 89v227c0 47 -8 63 -33 63c-9 0 -24 0 -42 -5v16l154 55l5 -4v-351c0 -74 8 -85 74 -90v-15z" />
    <glyph glyph-name="idieresis" unicode="&#xef;" horiz-adv-x="278" 
d="M288 572c0 -27 -23 -49 -51 -49c-27 0 -48 22 -48 50c0 27 22 49 49 49s50 -23 50 -50zM89 572c0 -27 -23 -49 -51 -49c-27 0 -48 22 -48 50c0 27 22 49 49 49s50 -23 50 -50zM227 0h-237v15c69 4 79 13 79 89v227c0 47 -8 63 -33 63c-9 0 -24 0 -42 -5v16l154 55l5 -4
v-351c0 -74 8 -85 74 -90v-15z" />
    <glyph glyph-name="eth" unicode="&#xf0;" horiz-adv-x="500" 
d="M424 656l-91 -48c96 -81 138 -197 138 -323c0 -74 -20 -145 -53 -198c-40 -63 -93 -97 -173 -97c-125 0 -216 87 -216 227c0 142 97 243 217 243c48 0 73 -12 121 -60c-14 73 -39 121 -97 175l-123 -65l-33 30l121 64c-42 35 -79 46 -134 55l42 24c66 -4 112 -17 153 -47
l95 50zM381 202c0 137 -59 230 -146 230c-68 0 -116 -67 -116 -151c0 -100 37 -263 144 -263c69 0 118 69 118 184z" />
    <glyph glyph-name="ntilde" unicode="&#xf1;" horiz-adv-x="500" 
d="M392 638h29c-21 -76 -50 -106 -105 -106c-25 0 -40 4 -81 24l-23 11c-15 7 -29 11 -41 11c-23 0 -40 -15 -51 -46h-29c15 65 51 101 101 101c22 0 46 -6 70 -18l24 -12c19 -10 38 -15 53 -15c23 0 36 13 53 50zM485 0h-208l1 15c50 4 62 24 62 90v199
c0 71 -24 101 -73 101c-33 0 -57 -12 -103 -57v-276c0 -39 14 -53 65 -57v-15h-211v15c51 4 62 20 62 79v243c0 49 -7 65 -35 65c-11 0 -22 -1 -29 -4v17c55 16 88 27 137 45l8 -3v-78h1c52 59 98 81 144 81c76 0 118 -55 118 -154v-221c0 -54 12 -65 61 -70v-15z" />
    <glyph glyph-name="ograve" unicode="&#xf2;" horiz-adv-x="500" 
d="M332 507h-40l-154 96c-19 12 -30 27 -30 43c0 21 14 32 36 32c15 0 26 -5 43 -23zM470 231c0 -139 -90 -241 -225 -241c-121 0 -216 99 -216 238s90 232 225 232c122 0 216 -91 216 -229zM380 204c0 68 -18 137 -50 178c-24 30 -52 50 -95 50c-69 0 -116 -59 -116 -159
c0 -79 16 -151 53 -205c22 -32 54 -50 90 -50c74 0 118 70 118 186z" />
    <glyph glyph-name="oacute" unicode="&#xf3;" horiz-adv-x="500" 
d="M154 507l147 148c18 18 27 23 42 23c22 0 35 -12 35 -32c0 -16 -9 -29 -30 -42l-154 -97h-40zM470 231c0 -139 -90 -241 -225 -241c-121 0 -216 99 -216 238s90 232 225 232c122 0 216 -91 216 -229zM380 204c0 68 -18 137 -50 178c-24 30 -52 50 -95 50
c-69 0 -116 -59 -116 -159c0 -79 16 -151 53 -205c22 -32 54 -50 90 -50c74 0 118 70 118 186z" />
    <glyph glyph-name="ocircumflex" unicode="&#xf4;" horiz-adv-x="500" 
d="M401 507h-34l-122 103l-121 -103h-34l124 167h62zM470 231c0 -139 -90 -241 -225 -241c-121 0 -216 99 -216 238s90 232 225 232c122 0 216 -91 216 -229zM380 204c0 68 -18 137 -50 178c-24 30 -52 50 -95 50c-69 0 -116 -59 -116 -159c0 -79 16 -151 53 -205
c22 -32 54 -50 90 -50c74 0 118 70 118 186z" />
    <glyph glyph-name="otilde" unicode="&#xf5;" horiz-adv-x="500" 
d="M381 638h29c-21 -76 -50 -106 -105 -106c-25 0 -40 4 -81 24l-23 11c-15 7 -29 11 -41 11c-23 0 -40 -15 -51 -46h-29c15 65 51 101 101 101c22 0 46 -6 70 -18l24 -12c19 -10 38 -15 53 -15c23 0 36 13 53 50zM470 231c0 -139 -90 -241 -225 -241
c-121 0 -216 99 -216 238s90 232 225 232c122 0 216 -91 216 -229zM380 204c0 68 -18 137 -50 178c-24 30 -52 50 -95 50c-69 0 -116 -59 -116 -159c0 -79 16 -151 53 -205c22 -32 54 -50 90 -50c74 0 118 70 118 186z" />
    <glyph glyph-name="odieresis" unicode="&#xf6;" horiz-adv-x="500" 
d="M394 572c0 -27 -23 -49 -51 -49c-27 0 -48 22 -48 50c0 27 22 49 49 49s50 -23 50 -50zM195 572c0 -27 -23 -49 -51 -49c-27 0 -48 22 -48 50c0 27 22 49 49 49s50 -23 50 -50zM470 231c0 -139 -90 -241 -225 -241c-121 0 -216 99 -216 238s90 232 225 232
c122 0 216 -91 216 -229zM380 204c0 68 -18 137 -50 178c-24 30 -52 50 -95 50c-69 0 -116 -59 -116 -159c0 -79 16 -151 53 -205c22 -32 54 -50 90 -50c74 0 118 70 118 186z" />
    <glyph glyph-name="divide" unicode="&#xf7;" horiz-adv-x="564" 
d="M338 459c0 -29 -26 -54 -56 -54c-31 0 -55 24 -55 55s25 56 56 56c29 0 55 -27 55 -57zM534 220h-504v66h504v-66zM338 44c0 -29 -26 -54 -56 -54c-31 0 -55 24 -55 55s25 56 56 56c29 0 55 -27 55 -57z" />
    <glyph glyph-name="oslash" unicode="&#xf8;" horiz-adv-x="500" 
d="M437 551l-65 -125c67 -46 98 -108 98 -192c0 -139 -96 -244 -223 -244c-35 0 -58 5 -93 21l-65 -123h-37l73 140c-36 29 -49 44 -65 73c-20 37 -31 82 -31 126c0 136 91 233 220 233c33 0 57 -5 92 -18l57 109h39zM158 92l159 304c-27 26 -49 36 -80 36
c-71 0 -118 -62 -118 -155c0 -70 12 -127 39 -185zM340 366l-161 -306c25 -30 48 -42 82 -42c75 0 119 68 119 185c0 64 -11 108 -40 163z" />
    <glyph glyph-name="ugrave" unicode="&#xf9;" horiz-adv-x="500" 
d="M339 507h-40l-154 96c-19 12 -30 27 -30 43c0 21 14 32 36 32c15 0 26 -5 43 -23zM480 50v-14c-51 -14 -87 -25 -137 -45l-5 3v82h-2c-49 -67 -106 -86 -143 -86c-77 0 -122 51 -122 128v251c0 50 -14 64 -62 67v14h146v-323c0 -46 32 -79 71 -79c29 0 59 9 84 31
c16 14 23 23 23 58v231c0 53 -14 61 -74 65v17h158v-343c0 -46 11 -57 57 -57h6z" />
    <glyph glyph-name="uacute" unicode="&#xfa;" horiz-adv-x="500" 
d="M156 507l147 148c18 18 27 23 42 23c22 0 35 -12 35 -32c0 -16 -9 -29 -30 -42l-154 -97h-40zM480 50v-14c-51 -14 -87 -25 -137 -45l-5 3v82h-2c-49 -67 -106 -86 -143 -86c-77 0 -122 51 -122 128v251c0 50 -14 64 -62 67v14h146v-323c0 -46 32 -79 71 -79
c29 0 59 9 84 31c16 14 23 23 23 58v231c0 53 -14 61 -74 65v17h158v-343c0 -46 11 -57 57 -57h6z" />
    <glyph glyph-name="ucircumflex" unicode="&#xfb;" horiz-adv-x="500" 
d="M401 507h-34l-122 103l-121 -103h-34l124 167h62zM480 50v-14c-51 -14 -87 -25 -137 -45l-5 3v82h-2c-49 -67 -106 -86 -143 -86c-77 0 -122 51 -122 128v251c0 50 -14 64 -62 67v14h146v-323c0 -46 32 -79 71 -79c29 0 59 9 84 31c16 14 23 23 23 58v231
c0 53 -14 61 -74 65v17h158v-343c0 -46 11 -57 57 -57h6z" />
    <glyph glyph-name="udieresis" unicode="&#xfc;" horiz-adv-x="500" 
d="M393 572c0 -27 -23 -49 -51 -49c-27 0 -48 22 -48 50c0 27 22 49 49 49s50 -23 50 -50zM194 572c0 -27 -23 -49 -51 -49c-27 0 -48 22 -48 50c0 27 22 49 49 49s50 -23 50 -50zM480 50v-14c-51 -14 -87 -25 -137 -45l-5 3v82h-2c-49 -67 -106 -86 -143 -86
c-77 0 -122 51 -122 128v251c0 50 -14 64 -62 67v14h146v-323c0 -46 32 -79 71 -79c29 0 59 9 84 31c16 14 23 23 23 58v231c0 53 -14 61 -74 65v17h158v-343c0 -46 11 -57 57 -57h6z" />
    <glyph glyph-name="yacute" unicode="&#xfd;" horiz-adv-x="500" 
d="M143 507l147 148c18 18 27 23 42 23c22 0 35 -12 35 -32c0 -16 -9 -29 -30 -42l-154 -97h-40zM475 450v-15c-24 -3 -36 -14 -50 -51l-150 -409c-52 -142 -99 -193 -175 -193c-43 0 -70 25 -70 58c0 25 19 46 43 46c18 0 34 -3 52 -13c11 -6 20 -7 26 -7c14 0 34 20 50 44
c20 29 40 92 40 108c0 15 -23 61 -42 101l-132 282c-10 22 -27 31 -53 35v14h205v-15c-43 -2 -57 -9 -57 -27c0 -11 7 -27 13 -41l112 -250l97 276c3 7 4 14 4 18c0 16 -15 24 -46 24v15h133z" />
    <glyph glyph-name="thorn" unicode="&#xfe;" horiz-adv-x="500" 
d="M159 679v-299c42 57 89 80 144 80c105 0 167 -81 167 -213c0 -145 -91 -257 -210 -257c-42 0 -65 10 -101 43v-154c0 -63 11 -77 86 -78v-18h-240v18c59 5 70 19 70 71v696c0 42 -8 56 -49 56c-7 0 -12 -1 -17 -2v17c69 19 96 27 144 44zM159 332v-242
c0 -30 56 -68 103 -68c76 0 122 81 122 191c0 125 -42 187 -123 187c-42 0 -102 -38 -102 -68z" />
    <glyph glyph-name="ydieresis" unicode="&#xff;" horiz-adv-x="500" 
d="M396 572c0 -27 -23 -49 -51 -49c-27 0 -48 22 -48 50c0 27 22 49 49 49s50 -23 50 -50zM197 572c0 -27 -23 -49 -51 -49c-27 0 -48 22 -48 50c0 27 22 49 49 49s50 -23 50 -50zM475 450v-15c-24 -3 -36 -14 -50 -51l-150 -409c-52 -142 -99 -193 -175 -193
c-43 0 -70 25 -70 58c0 25 19 46 43 46c18 0 34 -3 52 -13c11 -6 20 -7 26 -7c14 0 34 20 50 44c20 29 40 92 40 108c0 15 -23 61 -42 101l-132 282c-10 22 -27 31 -53 35v14h205v-15c-43 -2 -57 -9 -57 -27c0 -11 7 -27 13 -41l112 -250l97 276c3 7 4 14 4 18
c0 16 -15 24 -46 24v15h133z" />
    <glyph glyph-name="uni0100" unicode="&#x100;" horiz-adv-x="722" 
d="M511 719h-311v54h311v-54zM707 0h-255v19c36 0 43 2 55 9c8 4 14 15 14 24c0 15 -7 42 -19 70l-41 94h-262l-46 -114c-5 -13 -9 -30 -9 -42c0 -31 22 -41 70 -41v-19h-199v19c58 6 67 27 126 167l206 488h20l246 -563c28 -65 42 -86 94 -92v-19zM447 257l-116 275
l-115 -275h231z" />
    <glyph glyph-name="uni0101" unicode="&#x101;" horiz-adv-x="444" 
d="M380 507h-311v54h311v-54zM442 66v-28c-30 -38 -56 -48 -90 -48c-37 0 -59 20 -64 73h-1c-53 -60 -102 -73 -145 -73c-62 0 -105 38 -105 104c0 52 31 91 70 117c30 20 67 39 180 81v54c0 62 -33 90 -78 90c-40 0 -70 -22 -70 -49c0 -18 6 -21 6 -42
c0 -19 -20 -41 -46 -41c-21 0 -43 19 -43 46c0 26 16 58 51 80c28 18 70 30 115 30c56 0 94 -16 118 -45s28 -50 28 -111v-191c0 -46 13 -66 31 -66c16 0 26 5 43 19zM287 127v141c-62 -22 -103 -43 -128 -66c-24 -22 -34 -46 -34 -77c0 -53 30 -77 69 -77c20 0 41 5 58 16
c29 20 35 34 35 63z" />
    <glyph glyph-name="uni0102" unicode="&#x102;" horiz-adv-x="722" 
d="M470 876h29c-12 -106 -60 -157 -142 -157c-94 0 -139 60 -139 157h29c13 -63 49 -97 112 -97c54 0 82 26 111 97zM707 0h-255v19c36 0 43 2 55 9c8 4 14 15 14 24c0 15 -7 42 -19 70l-41 94h-262l-46 -114c-5 -13 -9 -30 -9 -42c0 -31 22 -41 70 -41v-19h-199v19
c58 6 67 27 126 167l206 488h20l246 -563c28 -65 42 -86 94 -92v-19zM447 257l-116 275l-115 -275h231z" />
    <glyph glyph-name="uni0103" unicode="&#x103;" horiz-adv-x="444" 
d="M343 664h29c-12 -106 -60 -157 -142 -157c-94 0 -139 60 -139 157h29c13 -63 49 -97 112 -97c54 0 82 26 111 97zM442 66v-28c-30 -38 -56 -48 -90 -48c-37 0 -59 20 -64 73h-1c-53 -60 -102 -73 -145 -73c-62 0 -105 38 -105 104c0 52 31 91 70 117c30 20 67 39 180 81
v54c0 62 -33 90 -78 90c-40 0 -70 -22 -70 -49c0 -18 6 -21 6 -42c0 -19 -20 -41 -46 -41c-21 0 -43 19 -43 46c0 26 16 58 51 80c28 18 70 30 115 30c56 0 94 -16 118 -45s28 -50 28 -111v-191c0 -46 13 -66 31 -66c16 0 26 5 43 19zM287 127v141
c-62 -22 -103 -43 -128 -66c-24 -22 -34 -46 -34 -77c0 -53 30 -77 69 -77c20 0 41 5 58 16c29 20 35 34 35 63z" />
    <glyph glyph-name="uni0104" unicode="&#x104;" horiz-adv-x="722" 
d="M561 0h-109v19c36 0 43 2 55 9c8 4 14 15 14 24c0 15 -7 42 -19 70l-41 94h-262l-46 -114c-5 -13 -9 -30 -9 -42c0 -31 22 -41 70 -41v-19h-199v19c58 6 67 27 126 167l206 488h20l246 -563c28 -65 42 -86 94 -92v-19h-100c-31 -25 -44 -47 -44 -70c0 -28 16 -39 38 -39
c21 0 42 9 71 36l20 -16c-36 -54 -65 -76 -111 -76c-43 0 -74 27 -74 74c0 36 16 64 54 91zM447 257l-116 275l-115 -275h231z" />
    <glyph glyph-name="uni0105" unicode="&#x105;" horiz-adv-x="444" 
d="M452 -73l20 -16c-36 -54 -65 -76 -111 -76c-43 0 -74 27 -74 74c0 33 13 59 44 84c-24 7 -39 28 -43 70h-1c-53 -60 -102 -73 -145 -73c-62 0 -105 38 -105 104c0 52 31 91 70 117c30 20 67 39 180 81v54c0 62 -33 90 -78 90c-40 0 -70 -22 -70 -49c0 -18 6 -21 6 -42
c0 -19 -20 -41 -46 -41c-21 0 -43 19 -43 46c0 26 16 58 51 80c28 18 70 30 115 30c56 0 94 -16 118 -45s28 -50 28 -111v-191c0 -46 13 -66 31 -66c16 0 26 5 43 19v-28c-22 -28 -42 -40 -64 -45c-24 -22 -35 -42 -35 -63c0 -28 16 -39 38 -39c21 0 42 9 71 36zM287 127
v141c-62 -22 -103 -43 -128 -66c-24 -22 -34 -46 -34 -77c0 -53 30 -77 69 -77c20 0 41 5 58 16c29 20 35 34 35 63z" />
    <glyph glyph-name="uni0106" unicode="&#x106;" horiz-adv-x="667" 
d="M293 719l147 148c18 18 27 23 42 23c22 0 35 -12 35 -32c0 -16 -9 -29 -30 -42l-154 -97h-40zM614 131l19 -18c-58 -83 -155 -127 -273 -127c-91 0 -178 32 -236 89c-61 60 -96 151 -96 250c0 100 33 183 90 247c64 71 150 104 243 104c39 0 79 -4 119 -15
c21 -6 52 -18 69 -18c19 0 36 12 42 33h20l9 -227h-23c-12 55 -27 84 -52 111c-44 47 -96 76 -161 76c-151 0 -240 -122 -240 -295c0 -110 25 -188 72 -239c44 -47 109 -72 178 -72c90 0 145 30 220 101z" />
    <glyph glyph-name="uni0107" unicode="&#x107;" horiz-adv-x="444" 
d="M177 507l147 148c18 18 27 23 42 23c22 0 35 -12 35 -32c0 -16 -9 -29 -30 -42l-154 -97h-40zM398 156l14 -9c-32 -62 -52 -91 -82 -115c-34 -28 -72 -42 -115 -42c-111 0 -190 93 -190 222c0 83 30 152 84 197c40 33 88 51 135 51c84 0 154 -47 154 -103
c0 -23 -21 -42 -47 -42c-22 0 -40 17 -48 46l-6 22c-10 37 -23 48 -59 48c-81 0 -136 -70 -136 -174c0 -115 63 -195 155 -195c57 0 93 24 141 94z" />
    <glyph glyph-name="uni0108" unicode="&#x108;" horiz-adv-x="667" 
d="M510 719h-34l-122 103l-121 -103h-34l124 167h62zM614 131l19 -18c-58 -83 -155 -127 -273 -127c-91 0 -178 32 -236 89c-61 60 -96 151 -96 250c0 100 33 183 90 247c64 71 150 104 243 104c39 0 79 -4 119 -15c21 -6 52 -18 69 -18c19 0 36 12 42 33h20l9 -227h-23
c-12 55 -27 84 -52 111c-44 47 -96 76 -161 76c-151 0 -240 -122 -240 -295c0 -110 25 -188 72 -239c44 -47 109 -72 178 -72c90 0 145 30 220 101z" />
    <glyph glyph-name="uni0109" unicode="&#x109;" horiz-adv-x="444" 
d="M376 507h-34l-122 103l-121 -103h-34l124 167h62zM398 156l14 -9c-32 -62 -52 -91 -82 -115c-34 -28 -72 -42 -115 -42c-111 0 -190 93 -190 222c0 83 30 152 84 197c40 33 88 51 135 51c84 0 154 -47 154 -103c0 -23 -21 -42 -47 -42c-22 0 -40 17 -48 46l-6 22
c-10 37 -23 48 -59 48c-81 0 -136 -70 -136 -174c0 -115 63 -195 155 -195c57 0 93 24 141 94z" />
    <glyph glyph-name="uni010A" unicode="&#x10a;" horiz-adv-x="667" 
d="M450 784c0 -29 -23 -49 -50 -49s-49 22 -49 49s19 50 49 50c31 0 50 -22 50 -50zM614 131l19 -18c-58 -83 -155 -127 -273 -127c-91 0 -178 32 -236 89c-61 60 -96 151 -96 250c0 100 33 183 90 247c64 71 150 104 243 104c39 0 79 -4 119 -15c21 -6 52 -18 69 -18
c19 0 36 12 42 33h20l9 -227h-23c-12 55 -27 84 -52 111c-44 47 -96 76 -161 76c-151 0 -240 -122 -240 -295c0 -110 25 -188 72 -239c44 -47 109 -72 178 -72c90 0 145 30 220 101z" />
    <glyph glyph-name="uni010B" unicode="&#x10b;" horiz-adv-x="444" 
d="M301 572c0 -29 -23 -49 -50 -49s-49 22 -49 49s19 50 49 50c31 0 50 -22 50 -50zM398 156l14 -9c-32 -62 -52 -91 -82 -115c-34 -28 -72 -42 -115 -42c-111 0 -190 93 -190 222c0 83 30 152 84 197c40 33 88 51 135 51c84 0 154 -47 154 -103c0 -23 -21 -42 -47 -42
c-22 0 -40 17 -48 46l-6 22c-10 37 -23 48 -59 48c-81 0 -136 -70 -136 -174c0 -115 63 -195 155 -195c57 0 93 24 141 94z" />
    <glyph glyph-name="uni010C" unicode="&#x10c;" horiz-adv-x="667" 
d="M543 886l-124 -167h-64l-123 167h35l120 -103l121 103h35zM614 131l19 -18c-58 -83 -155 -127 -273 -127c-91 0 -178 32 -236 89c-61 60 -96 151 -96 250c0 100 33 183 90 247c64 71 150 104 243 104c39 0 79 -4 119 -15c21 -6 52 -18 69 -18c19 0 36 12 42 33h20l9 -227
h-23c-12 55 -27 84 -52 111c-44 47 -96 76 -161 76c-151 0 -240 -122 -240 -295c0 -110 25 -188 72 -239c44 -47 109 -72 178 -72c90 0 145 30 220 101z" />
    <glyph glyph-name="uni010D" unicode="&#x10d;" horiz-adv-x="444" 
d="M396 674l-124 -167h-64l-123 167h35l120 -103l121 103h35zM398 156l14 -9c-32 -62 -52 -91 -82 -115c-34 -28 -72 -42 -115 -42c-111 0 -190 93 -190 222c0 83 30 152 84 197c40 33 88 51 135 51c84 0 154 -47 154 -103c0 -23 -21 -42 -47 -42c-22 0 -40 17 -48 46l-6 22
c-10 37 -23 48 -59 48c-81 0 -136 -70 -136 -174c0 -115 63 -195 155 -195c57 0 93 24 141 94z" />
    <glyph glyph-name="uni010E" unicode="&#x10e;" horiz-adv-x="722" 
d="M496 886l-124 -167h-64l-123 167h35l120 -103l121 103h35zM16 662h270c129 0 232 -32 300 -91c65 -56 99 -134 99 -237c0 -119 -47 -213 -136 -270c-62 -40 -151 -64 -252 -64h-281v19c78 5 88 18 88 96v435c0 79 -12 88 -88 93v19zM206 583v-499c0 -35 9 -47 48 -47
c103 0 158 12 218 52c70 47 104 126 104 239c0 104 -32 173 -95 228c-59 52 -122 69 -222 69c-38 0 -53 -9 -53 -42z" />
    <glyph glyph-name="uni010F" unicode="&#x10f;" horiz-adv-x="586" 
d="M492 458l-9 19c54 37 82 73 82 107c0 7 -6 13 -14 13c0 0 -2 0 -7 -2c-6 -1 -13 -2 -20 -2c-37 0 -59 19 -59 51c0 34 24 57 59 57c45 0 80 -39 80 -89c0 -60 -45 -121 -112 -154zM491 42l-147 -52l-4 3v64c-34 -47 -72 -67 -128 -67c-111 0 -185 87 -185 215
c0 142 93 255 208 255c40 0 67 -11 105 -43v156c0 41 -9 51 -46 51c-8 0 -14 0 -22 -1v16c64 17 99 27 147 44l5 -2v-567c0 -46 8 -57 44 -57c5 0 6 0 23 1v-16zM340 102v230c0 53 -48 100 -102 100c-76 0 -125 -74 -125 -187c0 -123 54 -203 138 -203c31 0 56 11 74 32
c9 10 15 21 15 28z" />
    <glyph glyph-name="uni0110" unicode="&#x110;" horiz-adv-x="722" 
d="M16 662h270c251 0 399 -121 399 -328c0 -101 -40 -194 -110 -252c-62 -51 -164 -82 -275 -82h-284v19c76 5 88 18 88 90v206h-83v44h83v194c0 74 -9 83 -88 90v19zM206 315v-237c0 -32 12 -41 51 -41c88 0 146 12 197 41c81 47 122 131 122 249c0 109 -43 197 -122 250
c-48 33 -110 48 -199 48c-39 0 -49 -8 -49 -39v-227h146v-44h-146z" />
    <glyph glyph-name="uni0111" unicode="&#x111;" horiz-adv-x="500" 
d="M507 522h-83v-408c0 -46 8 -57 44 -57c5 0 6 0 23 1v-16l-147 -52l-4 3v64c-34 -47 -72 -67 -128 -67c-111 0 -185 87 -185 215c0 142 93 255 208 255c40 0 67 -11 105 -43v105h-175v39h175v12c0 41 -9 51 -46 51c-8 0 -14 0 -22 -1v16c64 17 99 27 147 44l5 -2v-120h83
v-39zM340 102v230c0 53 -48 100 -102 100c-76 0 -125 -74 -125 -187c0 -123 54 -203 138 -203c31 0 56 11 74 32c9 10 15 21 15 28z" />
    <glyph glyph-name="uni0112" unicode="&#x112;" horiz-adv-x="611" 
d="M461 719h-311v54h311v-54zM597 169l-46 -169h-539v19c77 5 87 18 87 95v436c0 74 -12 89 -87 93v19h530l4 -143h-25c-15 90 -38 105 -154 105h-131c-28 0 -35 -4 -35 -36v-220h151c86 0 101 17 113 96h23v-234h-23c-12 84 -27 97 -113 97h-151v-243c0 -42 27 -47 101 -47
h36c143 0 186 26 231 132h28z" />
    <glyph glyph-name="uni0113" unicode="&#x113;" horiz-adv-x="444" 
d="M381 507h-311v54h311v-54zM408 164l16 -7c-39 -109 -109 -167 -209 -167c-118 0 -190 89 -190 227c0 141 81 243 207 243c62 0 107 -24 139 -69c20 -28 30 -60 34 -114h-308c5 -76 10 -115 46 -163c28 -37 65 -55 111 -55c67 0 105 31 154 105zM99 309h204
c-11 81 -32 115 -98 115c-56 0 -95 -40 -106 -115z" />
    <glyph glyph-name="uni0114" unicode="&#x114;" horiz-adv-x="611" 
d="M423 876h29c-12 -106 -60 -157 -142 -157c-94 0 -139 60 -139 157h29c13 -63 49 -97 112 -97c54 0 82 26 111 97zM597 169l-46 -169h-539v19c77 5 87 18 87 95v436c0 74 -12 89 -87 93v19h530l4 -143h-25c-15 90 -38 105 -154 105h-131c-28 0 -35 -4 -35 -36v-220h151
c86 0 101 17 113 96h23v-234h-23c-12 84 -27 97 -113 97h-151v-243c0 -42 27 -47 101 -47h36c143 0 186 26 231 132h28z" />
    <glyph glyph-name="uni0115" unicode="&#x115;" horiz-adv-x="444" 
d="M333 664h29c-12 -106 -60 -157 -142 -157c-94 0 -139 60 -139 157h29c13 -63 49 -97 112 -97c54 0 82 26 111 97zM408 164l16 -7c-39 -109 -109 -167 -209 -167c-118 0 -190 89 -190 227c0 141 81 243 207 243c62 0 107 -24 139 -69c20 -28 30 -60 34 -114h-308
c5 -76 10 -115 46 -163c28 -37 65 -55 111 -55c67 0 105 31 154 105zM99 309h204c-11 81 -32 115 -98 115c-56 0 -95 -40 -106 -115z" />
    <glyph glyph-name="uni0116" unicode="&#x116;" horiz-adv-x="611" 
d="M350 784c0 -29 -23 -49 -50 -49s-49 22 -49 49s19 50 49 50c31 0 50 -22 50 -50zM597 169l-46 -169h-539v19c77 5 87 18 87 95v436c0 74 -12 89 -87 93v19h530l4 -143h-25c-15 90 -38 105 -154 105h-131c-28 0 -35 -4 -35 -36v-220h151c86 0 101 17 113 96h23v-234h-23
c-12 84 -27 97 -113 97h-151v-243c0 -42 27 -47 101 -47h36c143 0 186 26 231 132h28z" />
    <glyph glyph-name="uni0117" unicode="&#x117;" horiz-adv-x="444" 
d="M290 572c0 -29 -23 -49 -50 -49s-49 22 -49 49s19 50 49 50c31 0 50 -22 50 -50zM408 164l16 -7c-39 -109 -109 -167 -209 -167c-118 0 -190 89 -190 227c0 141 81 243 207 243c62 0 107 -24 139 -69c20 -28 30 -60 34 -114h-308c5 -76 10 -115 46 -163
c28 -37 65 -55 111 -55c67 0 105 31 154 105zM99 309h204c-11 81 -32 115 -98 115c-56 0 -95 -40 -106 -115z" />
    <glyph glyph-name="uni0118" unicode="&#x118;" horiz-adv-x="611" 
d="M382 0h-370v19c77 5 87 18 87 95v436c0 74 -12 89 -87 93v19h530l4 -143h-25c-15 90 -38 105 -154 105h-131c-28 0 -35 -4 -35 -36v-220h151c86 0 101 17 113 96h23v-234h-23c-12 84 -27 97 -113 97h-151v-243c0 -42 27 -47 101 -47h36c143 0 186 26 231 132h28l-46 -169
h-123c-31 -25 -44 -47 -44 -70c0 -28 16 -39 38 -39c21 0 42 9 71 36l20 -16c-36 -54 -65 -76 -111 -76c-43 0 -74 27 -74 74c0 36 16 64 54 91z" />
    <glyph glyph-name="uni0119" unicode="&#x119;" horiz-adv-x="444" 
d="M346 -73l20 -16c-36 -54 -65 -76 -111 -76c-43 0 -74 27 -74 74c0 32 12 57 41 81h-7c-118 0 -190 89 -190 227c0 141 81 243 207 243c62 0 107 -24 139 -69c20 -28 30 -60 34 -114h-308c5 -76 10 -115 46 -163c28 -37 65 -55 111 -55c67 0 105 31 154 105l16 -7
c-30 -83 -78 -137 -144 -157c-30 -25 -43 -47 -43 -70c0 -28 16 -39 38 -39c21 0 42 9 71 36zM99 309h204c-11 81 -32 115 -98 115c-56 0 -95 -40 -106 -115z" />
    <glyph glyph-name="uni011A" unicode="&#x11a;" horiz-adv-x="611" 
d="M469 886l-124 -167h-64l-123 167h35l120 -103l121 103h35zM597 169l-46 -169h-539v19c77 5 87 18 87 95v436c0 74 -12 89 -87 93v19h530l4 -143h-25c-15 90 -38 105 -154 105h-131c-28 0 -35 -4 -35 -36v-220h151c86 0 101 17 113 96h23v-234h-23c-12 84 -27 97 -113 97
h-151v-243c0 -42 27 -47 101 -47h36c143 0 186 26 231 132h28z" />
    <glyph glyph-name="uni011B" unicode="&#x11b;" horiz-adv-x="444" 
d="M396 674l-124 -167h-64l-123 167h35l120 -103l121 103h35zM408 164l16 -7c-39 -109 -109 -167 -209 -167c-118 0 -190 89 -190 227c0 141 81 243 207 243c62 0 107 -24 139 -69c20 -28 30 -60 34 -114h-308c5 -76 10 -115 46 -163c28 -37 65 -55 111 -55
c67 0 105 31 154 105zM99 309h204c-11 81 -32 115 -98 115c-56 0 -95 -40 -106 -115z" />
    <glyph glyph-name="uni011C" unicode="&#x11c;" horiz-adv-x="722" 
d="M509 719h-34l-122 103l-121 -103h-34l124 167h62zM709 354v-18c-58 -5 -70 -15 -70 -80v-200c-55 -45 -151 -70 -254 -70c-102 0 -204 38 -270 107c-56 59 -83 136 -83 234c0 110 40 202 107 263c60 55 142 86 239 86c54 0 88 -8 133 -23c19 -7 34 -10 44 -10
c21 0 39 14 45 33h22l8 -211h-23c-25 61 -41 87 -71 116c-38 36 -90 55 -146 55c-69 0 -124 -25 -167 -69c-53 -53 -77 -144 -77 -243c0 -186 106 -298 263 -298c77 0 133 28 133 61v157c0 78 -10 86 -89 92v18h256z" />
    <glyph glyph-name="uni011D" unicode="&#x11d;" horiz-adv-x="500" 
d="M405 507h-34l-122 103l-121 -103h-34l124 167h62zM470 388h-83c14 -32 19 -55 19 -84c0 -52 -16 -89 -52 -116c-32 -24 -69 -39 -104 -39c-6 0 -20 1 -38 3l-19 2c-27 -8 -60 -43 -60 -63c0 -16 24 -24 78 -27l129 -6c74 -3 121 -45 121 -107c0 -40 -19 -73 -60 -105
c-52 -40 -128 -64 -200 -64c-96 0 -173 44 -173 97c0 37 26 70 98 122c-42 20 -53 31 -53 53c0 20 13 40 46 69c15 13 29 26 43 40c-67 33 -93 71 -93 134c0 91 74 163 167 163c26 0 53 -5 80 -15l22 -8c20 -7 35 -10 55 -10h77v-39zM152 338v-3c0 -96 41 -161 103 -161
c45 0 74 35 74 90c0 41 -11 86 -30 121c-16 30 -42 47 -73 47c-46 0 -74 -35 -74 -94zM433 -64c0 37 -33 49 -124 49c-49 0 -128 6 -162 13c-40 -48 -49 -63 -49 -86c0 -44 57 -73 145 -73c114 0 190 39 190 97z" />
    <glyph glyph-name="uni011E" unicode="&#x11e;" horiz-adv-x="722" 
d="M495 876h29c-12 -106 -60 -157 -142 -157c-94 0 -139 60 -139 157h29c13 -63 49 -97 112 -97c54 0 82 26 111 97zM709 354v-18c-58 -5 -70 -15 -70 -80v-200c-55 -45 -151 -70 -254 -70c-102 0 -204 38 -270 107c-56 59 -83 136 -83 234c0 110 40 202 107 263
c60 55 142 86 239 86c54 0 88 -8 133 -23c19 -7 34 -10 44 -10c21 0 39 14 45 33h22l8 -211h-23c-25 61 -41 87 -71 116c-38 36 -90 55 -146 55c-69 0 -124 -25 -167 -69c-53 -53 -77 -144 -77 -243c0 -186 106 -298 263 -298c77 0 133 28 133 61v157c0 78 -10 86 -89 92v18
h256z" />
    <glyph glyph-name="uni011F" unicode="&#x11f;" horiz-adv-x="500" 
d="M351 664h29c-12 -106 -60 -157 -142 -157c-94 0 -139 60 -139 157h29c13 -63 49 -97 112 -97c54 0 82 26 111 97zM470 388h-83c14 -32 19 -55 19 -84c0 -52 -16 -89 -52 -116c-32 -24 -69 -39 -104 -39c-6 0 -20 1 -38 3l-19 2c-27 -8 -60 -43 -60 -63
c0 -16 24 -24 78 -27l129 -6c74 -3 121 -45 121 -107c0 -40 -19 -73 -60 -105c-52 -40 -128 -64 -200 -64c-96 0 -173 44 -173 97c0 37 26 70 98 122c-42 20 -53 31 -53 53c0 20 13 40 46 69c15 13 29 26 43 40c-67 33 -93 71 -93 134c0 91 74 163 167 163
c26 0 53 -5 80 -15l22 -8c20 -7 35 -10 55 -10h77v-39zM152 338v-3c0 -96 41 -161 103 -161c45 0 74 35 74 90c0 41 -11 86 -30 121c-16 30 -42 47 -73 47c-46 0 -74 -35 -74 -94zM433 -64c0 37 -33 49 -124 49c-49 0 -128 6 -162 13c-40 -48 -49 -63 -49 -86
c0 -44 57 -73 145 -73c114 0 190 39 190 97z" />
    <glyph glyph-name="uni0120" unicode="&#x120;" horiz-adv-x="722" 
d="M420 784c0 -29 -23 -49 -50 -49s-49 22 -49 49s19 50 49 50c31 0 50 -22 50 -50zM709 354v-18c-58 -5 -70 -15 -70 -80v-200c-55 -45 -151 -70 -254 -70c-102 0 -204 38 -270 107c-56 59 -83 136 -83 234c0 110 40 202 107 263c60 55 142 86 239 86c54 0 88 -8 133 -23
c19 -7 34 -10 44 -10c21 0 39 14 45 33h22l8 -211h-23c-25 61 -41 87 -71 116c-38 36 -90 55 -146 55c-69 0 -124 -25 -167 -69c-53 -53 -77 -144 -77 -243c0 -186 106 -298 263 -298c77 0 133 28 133 61v157c0 78 -10 86 -89 92v18h256z" />
    <glyph glyph-name="uni0121" unicode="&#x121;" horiz-adv-x="500" 
d="M300 572c0 -29 -23 -49 -50 -49s-49 22 -49 49s19 50 49 50c31 0 50 -22 50 -50zM470 388h-83c14 -32 19 -55 19 -84c0 -52 -16 -89 -52 -116c-32 -24 -69 -39 -104 -39c-6 0 -20 1 -38 3l-19 2c-27 -8 -60 -43 -60 -63c0 -16 24 -24 78 -27l129 -6
c74 -3 121 -45 121 -107c0 -40 -19 -73 -60 -105c-52 -40 -128 -64 -200 -64c-96 0 -173 44 -173 97c0 37 26 70 98 122c-42 20 -53 31 -53 53c0 20 13 40 46 69c15 13 29 26 43 40c-67 33 -93 71 -93 134c0 91 74 163 167 163c26 0 53 -5 80 -15l22 -8c20 -7 35 -10 55 -10
h77v-39zM152 338v-3c0 -96 41 -161 103 -161c45 0 74 35 74 90c0 41 -11 86 -30 121c-16 30 -42 47 -73 47c-46 0 -74 -35 -74 -94zM433 -64c0 37 -33 49 -124 49c-49 0 -128 6 -162 13c-40 -48 -49 -63 -49 -86c0 -44 57 -73 145 -73c114 0 190 39 190 97z" />
    <glyph glyph-name="uni0122" unicode="&#x122;" horiz-adv-x="722" 
d="M709 354v-18c-58 -5 -70 -15 -70 -80v-200c-55 -45 -151 -70 -254 -70c-102 0 -204 38 -270 107c-56 59 -83 136 -83 234c0 110 40 202 107 263c60 55 142 86 239 86c54 0 88 -8 133 -23c19 -7 34 -10 44 -10c21 0 39 14 45 33h22l8 -211h-23c-25 61 -41 87 -71 116
c-38 36 -90 55 -146 55c-69 0 -124 -25 -167 -69c-53 -53 -77 -144 -77 -243c0 -186 106 -298 263 -298c77 0 133 28 133 61v157c0 78 -10 86 -89 92v18h256zM358 -280l-10 19c55 37 83 74 83 107c0 7 -6 13 -14 13s-18 -4 -29 -4c-37 0 -58 17 -58 51s24 57 60 57
c45 0 80 -35 80 -87c0 -60 -43 -123 -112 -156z" />
    <glyph glyph-name="uni0123" unicode="&#x123;" horiz-adv-x="500" 
d="M293 766l9 -19c-55 -38 -82 -73 -82 -106c0 -8 6 -14 14 -14c0 0 2 0 7 2c6 1 13 2 20 2c37 0 59 -19 59 -51c0 -34 -24 -57 -59 -57c-46 0 -80 38 -80 89c0 60 45 121 112 154zM470 388h-83c14 -32 19 -55 19 -84c0 -52 -16 -89 -52 -116c-32 -24 -69 -39 -104 -39
c-6 0 -20 1 -38 3l-19 2c-27 -8 -60 -43 -60 -63c0 -16 24 -24 78 -27l129 -6c74 -3 121 -45 121 -107c0 -40 -19 -73 -60 -105c-52 -40 -128 -64 -200 -64c-96 0 -173 44 -173 97c0 37 26 70 98 122c-42 20 -53 31 -53 53c0 20 13 40 46 69c15 13 29 26 43 40
c-67 33 -93 71 -93 134c0 91 74 163 167 163c26 0 53 -5 80 -15l22 -8c20 -7 35 -10 55 -10h77v-39zM152 338v-3c0 -96 41 -161 103 -161c45 0 74 35 74 90c0 41 -11 86 -30 121c-16 30 -42 47 -73 47c-46 0 -74 -35 -74 -94zM433 -64c0 37 -33 49 -124 49
c-49 0 -128 6 -162 13c-40 -48 -49 -63 -49 -86c0 -44 57 -73 145 -73c114 0 190 39 190 97z" />
    <glyph glyph-name="uni0124" unicode="&#x124;" horiz-adv-x="722" 
d="M518 719h-34l-122 103l-121 -103h-34l124 167h62zM703 0h-279v19c78 5 88 21 88 105v191h-303v-202c0 -73 13 -90 87 -94l1 -19h-279v19c78 5 89 17 89 103v426c0 78 -12 89 -89 95v19h280v-19c-73 -6 -89 -17 -89 -95v-189h303v189c0 79 -13 89 -89 95v19h280v-19
c-74 -6 -89 -18 -89 -95v-437c0 -71 14 -86 89 -92v-19z" />
    <glyph glyph-name="uni0125" unicode="&#x125;" horiz-adv-x="500" 
d="M376 719h-34l-122 103l-121 -103h-34l124 167h62zM487 0h-212v15c58 6 68 18 68 87v198c0 70 -25 106 -74 106c-40 0 -70 -17 -112 -63v-241c0 -69 10 -81 68 -87v-15h-216v15c58 8 64 17 64 87v471c0 43 -8 51 -51 51c-4 0 -9 0 -12 -1v16l27 8c57 17 80 24 115 36l5 -3
v-304c46 60 88 84 147 84c82 0 123 -54 123 -159v-199c0 -69 6 -77 60 -87v-15z" />
    <glyph glyph-name="uni0126" unicode="&#x126;" horiz-adv-x="723" 
d="M702 0h-279v19c78 5 88 21 88 105v191h-303v-202c0 -73 14 -90 88 -94v-19h-279v19c78 5 89 17 89 103v354h-89v44h89v28c0 78 -12 89 -89 95v19h280v-19c-73 -6 -89 -17 -89 -95v-28h303v28c0 79 -13 89 -89 95v19h280v-19c-74 -6 -89 -18 -89 -95v-28h88v-44h-88v-365
c0 -71 14 -86 89 -92v-19zM511 359v117h-303v-117h303z" />
    <glyph glyph-name="uni0127" unicode="&#x127;" horiz-adv-x="500" 
d="M487 0h-212v15c58 6 68 18 68 87v198c0 70 -25 106 -74 106c-40 0 -70 -17 -112 -63v-241c0 -69 10 -81 68 -87v-15h-216v15c58 8 64 17 64 87v410h-65v54h65v7c0 43 -8 51 -51 51c-4 0 -9 0 -12 -1v16l27 8c57 17 80 24 115 36l5 -3v-114h162v-54h-162v-136
c46 60 88 84 147 84c82 0 123 -54 123 -159v-199c0 -69 6 -77 60 -87v-15z" />
    <glyph glyph-name="uni0128" unicode="&#x128;" horiz-adv-x="333" 
d="M302 850h29c-21 -76 -50 -106 -105 -106c-25 0 -40 4 -81 24l-23 11c-15 7 -29 11 -41 11c-23 0 -40 -15 -51 -46h-29c15 65 51 101 101 101c22 0 46 -6 70 -18l24 -12c19 -10 38 -15 53 -15c23 0 36 13 53 50zM315 0h-297v19c84 3 97 15 97 93v439c0 79 -12 87 -97 92
v19h297v-19c-84 -4 -98 -16 -98 -92v-439c0 -75 16 -90 98 -93v-19z" />
    <glyph glyph-name="uni0129" unicode="&#x129;" horiz-adv-x="278" 
d="M276 638h29c-21 -76 -50 -106 -105 -106c-25 0 -40 4 -81 24l-23 11c-15 7 -29 11 -41 11c-23 0 -40 -15 -51 -46h-29c15 65 51 101 101 101c22 0 46 -6 70 -18l24 -12c19 -10 38 -15 53 -15c23 0 36 13 53 50zM253 0h-237v15c69 4 79 13 79 89v227c0 47 -8 63 -33 63
c-9 0 -24 0 -42 -5v16l154 55l5 -4v-351c0 -74 8 -85 74 -90v-15z" />
    <glyph glyph-name="uni012A" unicode="&#x12a;" horiz-adv-x="333" 
d="M322 719h-311v54h311v-54zM315 0h-297v19c84 3 97 15 97 93v439c0 79 -12 87 -97 92v19h297v-19c-84 -4 -98 -16 -98 -92v-439c0 -75 16 -90 98 -93v-19z" />
    <glyph glyph-name="uni012B" unicode="&#x12b;" horiz-adv-x="278" 
d="M290 507h-311v54h311v-54zM253 0h-237v15c69 4 79 13 79 89v227c0 47 -8 63 -33 63c-9 0 -24 0 -42 -5v16l154 55l5 -4v-351c0 -74 8 -85 74 -90v-15z" />
    <glyph glyph-name="uni012C" unicode="&#x12c;" horiz-adv-x="333" 
d="M276 876h29c-12 -106 -60 -157 -142 -157c-94 0 -139 60 -139 157h29c13 -63 49 -97 112 -97c54 0 82 26 111 97zM315 0h-297v19c84 3 97 15 97 93v439c0 79 -12 87 -97 92v19h297v-19c-84 -4 -98 -16 -98 -92v-439c0 -75 16 -90 98 -93v-19z" />
    <glyph glyph-name="uni012D" unicode="&#x12d;" horiz-adv-x="278" 
d="M251 664h29c-12 -106 -60 -157 -142 -157c-94 0 -139 60 -139 157h29c13 -63 49 -97 112 -97c54 0 82 26 111 97zM253 0h-237v15c69 4 79 13 79 89v227c0 47 -8 63 -33 63c-9 0 -24 0 -42 -5v16l154 55l5 -4v-351c0 -74 8 -85 74 -90v-15z" />
    <glyph glyph-name="uni012E" unicode="&#x12e;" horiz-adv-x="333" 
d="M174 0h-156v19c84 3 97 15 97 93v439c0 79 -12 87 -97 92v19h297v-19c-84 -4 -98 -16 -98 -92v-439c0 -75 16 -90 98 -93v-19h-95c-31 -25 -44 -47 -44 -70c0 -28 16 -39 38 -39c21 0 42 9 71 36l20 -16c-36 -54 -65 -76 -111 -76c-43 0 -74 27 -74 74c0 36 16 64 54 91z
" />
    <glyph glyph-name="uni012F" unicode="&#x12f;" horiz-adv-x="278" 
d="M146 0h-130v15c69 4 79 13 79 89v227c0 47 -8 63 -33 63c-9 0 -24 0 -42 -5v16l155 55l4 -4v-351c0 -74 8 -85 74 -90v-15h-61c-31 -25 -44 -47 -44 -70c0 -28 16 -39 38 -39c21 0 42 9 71 36l20 -16c-36 -54 -65 -76 -111 -76c-43 0 -74 27 -74 74c0 36 16 64 54 91z
M180 632c0 -29 -22 -51 -52 -51c-28 0 -50 22 -50 51c0 28 23 51 51 51c29 0 51 -23 51 -51z" />
    <glyph glyph-name="uni0130" unicode="&#x130;" horiz-adv-x="333" 
d="M215 784c0 -29 -23 -49 -50 -49s-49 22 -49 49s19 50 49 50c31 0 50 -22 50 -50zM315 0h-297v19c84 3 97 15 97 93v439c0 79 -12 87 -97 92v19h297v-19c-84 -4 -98 -16 -98 -92v-439c0 -75 16 -90 98 -93v-19z" />
    <glyph glyph-name="dotlessi" unicode="&#x131;" horiz-adv-x="278" 
d="M253 0h-237v15c69 4 79 13 79 89v227c0 47 -8 63 -33 63c-9 0 -24 0 -42 -5v16l154 55l5 -4v-351c0 -74 8 -85 74 -90v-15z" />
    <glyph glyph-name="uni0134" unicode="&#x134;" horiz-adv-x="373" 
d="M367 719h-34l-122 103l-121 -103h-34l124 167h62zM354 662v-19c-81 -6 -92 -17 -92 -94v-364c0 -137 -61 -199 -167 -199c-60 0 -101 25 -101 72c0 26 22 52 49 52c23 0 38 -14 49 -42c10 -25 11 -44 31 -44c31 0 37 20 37 70v456c0 81 -12 86 -93 93v19h287z" />
    <glyph glyph-name="uni0135" unicode="&#x135;" horiz-adv-x="278" 
d="M295 507h-34l-122 103l-121 -103h-34l124 167h62zM193 457v-457c0 -142 -59 -218 -170 -218c-54 0 -93 23 -93 55c0 22 18 39 41 39c16 0 30 -9 48 -32c17 -21 27 -28 42 -28c14 0 28 8 34 18c11 20 14 45 14 121v379c0 43 -9 60 -32 60c-10 0 -24 0 -40 -3l-5 -1v16
c59 18 97 31 156 54z" />
    <glyph glyph-name="uni0136" unicode="&#x136;" horiz-adv-x="722" 
d="M723 0h-303v19l27 1c29 1 42 10 42 24c0 27 -58 88 -137 170l-100 103l-26 -21v-185c0 -77 16 -86 89 -92v-19h-282v19c79 4 91 19 91 106v424c0 74 -11 89 -90 94v19h282v-19c-83 -6 -90 -18 -90 -95v-200l178 164c48 45 78 74 78 99c0 20 -8 30 -41 31l-25 1v19h259
v-19c-68 -5 -87 -15 -156 -81l-186 -178l234 -256c83 -91 110 -109 156 -109v-19zM328 -280l-10 19c55 37 83 74 83 107c0 7 -6 13 -14 13s-18 -4 -29 -4c-37 0 -58 17 -58 51s24 57 60 57c45 0 80 -35 80 -87c0 -60 -43 -123 -112 -156z" />
    <glyph glyph-name="uni0137" unicode="&#x137;" horiz-adv-x="500" 
d="M505 0h-218v15h19c12 0 21 6 21 15c0 5 -3 13 -11 23l-150 198v-184c0 -35 15 -49 55 -51l20 -1v-15h-234v15c72 12 75 15 75 67v482c0 48 -9 61 -43 61c-10 0 -19 -1 -32 -2v16l30 8c60 16 86 24 125 36l4 -2v-420l137 122c14 13 23 26 23 35c0 13 -11 17 -50 18v14h204
v-15c-64 0 -93 -12 -216 -126l-29 -27l153 -194c41 -52 73 -70 117 -73v-15zM188 -280l-10 19c55 37 83 74 83 107c0 7 -6 13 -14 13s-18 -4 -29 -4c-37 0 -58 17 -58 51s24 57 60 57c45 0 80 -35 80 -87c0 -60 -43 -123 -112 -156z" />
    <glyph glyph-name="uni0138" unicode="&#x138;" horiz-adv-x="542" 
d="M532 0h-130c-27 15 -48 30 -76 72c-25 38 -39 72 -64 116c-15 26 -29 49 -38 54c-20 -1 -38 -2 -54 -2v-162c0 -24 5 -40 17 -48c10 -9 31 -14 59 -14v-16h-241v16c31 0 51 3 60 11c11 7 17 24 17 50v305c0 26 -6 43 -16 50c-9 6 -28 10 -61 11v16h241v-16
c-30 -1 -51 -5 -59 -11c-12 -8 -17 -25 -17 -51v-105l45 4c23 2 42 14 57 28c22 19 38 49 52 88c16 47 44 63 94 63c39 0 77 -19 77 -52c0 -25 -25 -41 -48 -41c-45 0 -44 39 -65 39c-17 0 -23 -10 -29 -30c-15 -49 -38 -85 -69 -109c11 -4 16 -6 31 -22
c24 -26 69 -118 88 -146c32 -46 86 -73 129 -83v-15z" />
    <glyph glyph-name="uni0139" unicode="&#x139;" horiz-adv-x="611" 
d="M131 719l147 148c18 18 27 23 42 23c22 0 35 -12 35 -32c0 -16 -9 -29 -30 -42l-154 -97h-40zM598 174l-48 -174h-538v19c74 4 87 20 87 96v431c0 77 -9 91 -87 97v19h283v-19c-82 -5 -94 -18 -94 -95v-464c0 -38 17 -45 90 -45h70c81 0 135 18 169 61c13 17 26 39 42 74
h26z" />
    <glyph glyph-name="uni013A" unicode="&#x13a;" horiz-adv-x="278" 
d="M29 719l147 148c18 18 27 23 42 23c22 0 35 -12 35 -32c0 -16 -9 -29 -30 -42l-154 -97h-40zM257 0h-236v15c63 5 77 22 77 77v469c0 48 -10 64 -42 64c-8 0 -21 0 -37 -2v16c69 17 106 27 158 44l5 -4v-592c0 -55 11 -68 75 -72v-15z" />
    <glyph glyph-name="uni013B" unicode="&#x13b;" horiz-adv-x="611" 
d="M598 174l-48 -174h-538v19c74 4 87 20 87 96v431c0 77 -9 91 -87 97v19h283v-19c-82 -5 -94 -18 -94 -95v-464c0 -38 17 -45 90 -45h70c81 0 135 18 169 61c13 17 26 39 42 74h26zM258 -280l-10 19c55 37 83 74 83 107c0 7 -6 13 -14 13s-18 -4 -29 -4
c-37 0 -58 17 -58 51s24 57 60 57c45 0 80 -35 80 -87c0 -60 -43 -123 -112 -156z" />
    <glyph glyph-name="uni013C" unicode="&#x13c;" horiz-adv-x="278" 
d="M257 0h-236v15c63 5 77 22 77 77v469c0 48 -10 64 -42 64c-8 0 -21 0 -37 -2v16c69 17 106 27 158 44l5 -4v-592c0 -55 11 -68 75 -72v-15zM98 -280l-10 19c55 37 83 74 83 107c0 7 -6 13 -14 13s-18 -4 -29 -4c-37 0 -58 17 -58 51s24 57 60 57c45 0 80 -35 80 -87
c0 -60 -43 -123 -112 -156z" />
    <glyph glyph-name="uni013D" unicode="&#x13d;" horiz-adv-x="611" 
d="M378 440l-9 19c54 37 82 73 82 107c0 7 -6 13 -14 13c0 0 -2 0 -7 -2c-6 -1 -13 -2 -20 -2c-37 0 -59 19 -59 51c0 34 24 57 59 57c45 0 80 -39 80 -89c0 -60 -45 -121 -112 -154zM598 174l-48 -174h-538v19c74 4 87 20 87 96v431c0 77 -9 91 -87 97v19h283v-19
c-82 -5 -94 -18 -94 -95v-464c0 -38 17 -45 90 -45h70c81 0 135 18 169 61c13 17 26 39 42 74h26z" />
    <glyph glyph-name="uni013E" unicode="&#x13e;" horiz-adv-x="381" 
d="M250 459l-9 19c54 37 82 73 82 107c0 7 -6 13 -14 13c0 0 -2 0 -7 -2c-6 -1 -13 -2 -20 -2c-37 0 -59 19 -59 51c0 34 24 57 59 57c45 0 80 -39 80 -89c0 -60 -45 -121 -112 -154zM257 0h-236v15c63 5 77 22 77 77v469c0 48 -10 64 -42 64c-8 0 -21 0 -37 -2v16
c69 17 106 27 158 44l5 -4v-592c0 -55 11 -68 75 -72v-15z" />
    <glyph glyph-name="uni013F" unicode="&#x13f;" horiz-adv-x="620" 
d="M456 345c0 -29 -26 -54 -56 -54c-31 0 -55 24 -55 55s25 56 56 56c29 0 55 -27 55 -57zM615 174l-48 -174h-538v19c74 4 87 20 87 96v431c0 77 -9 91 -87 97v19h283v-19c-82 -5 -94 -18 -94 -95v-464c0 -38 17 -45 90 -45h70c81 0 135 18 169 61c13 17 26 39 42 74h26z
" />
    <glyph glyph-name="uni0140" unicode="&#x140;" horiz-adv-x="370" 
d="M354 342c0 -29 -26 -54 -56 -54c-31 0 -55 24 -55 55s25 56 56 56c29 0 55 -27 55 -57zM257 0h-236v15c63 5 77 22 77 77v469c0 48 -10 64 -42 64c-8 0 -21 0 -37 -2v16c69 17 106 27 158 44l5 -4v-592c0 -55 11 -68 75 -72v-15z" />
    <glyph glyph-name="Lslash" unicode="&#x141;" horiz-adv-x="611" 
d="M597 174l-49 -174h-538v19c74 3 88 25 88 92v169l-87 -53v49l87 54v221c0 74 -14 88 -87 92v19h282v-19c-75 -4 -93 -17 -93 -92v-172l155 95v-49l-155 -94v-249c0 -35 15 -43 88 -43h63c71 0 115 10 148 33c30 22 50 55 72 102h26z" />
    <glyph glyph-name="lslash" unicode="&#x142;" horiz-adv-x="278" 
d="M259 429l-77 -53v-290c0 -58 10 -64 76 -71v-15h-238v15c67 5 78 16 78 74v230l-78 -54v44l78 54v199c0 52 -10 63 -42 63c-8 0 -22 -2 -37 -5v19c69 17 106 27 158 44l5 -3v-260l77 53v-44z" />
    <glyph glyph-name="uni0143" unicode="&#x143;" horiz-adv-x="722" 
d="M279 719l147 148c18 18 27 23 42 23c22 0 35 -12 35 -32c0 -16 -9 -29 -30 -42l-154 -97h-40zM707 662v-19c-38 -4 -53 -7 -66 -18c-19 -17 -29 -39 -29 -118v-518h-18l-441 549v-388c0 -103 16 -120 93 -131v-19h-234v19c82 9 97 24 97 131v440c-33 41 -48 53 -97 53v19
h170l386 -483v340c0 51 -4 81 -19 98c-17 19 -35 21 -79 26v19h237z" />
    <glyph glyph-name="uni0144" unicode="&#x144;" horiz-adv-x="500" 
d="M191 507l147 148c18 18 27 23 42 23c22 0 35 -12 35 -32c0 -16 -9 -29 -30 -42l-154 -97h-40zM485 0h-208l1 15c50 4 62 24 62 90v199c0 71 -24 101 -73 101c-33 0 -57 -12 -103 -57v-276c0 -39 14 -53 65 -57v-15h-211v15c51 4 62 20 62 79v243c0 49 -7 65 -35 65
c-11 0 -22 -1 -29 -4v17c55 16 88 27 137 45l8 -3v-78h1c52 59 98 81 144 81c76 0 118 -55 118 -154v-221c0 -54 12 -65 61 -70v-15z" />
    <glyph glyph-name="uni0145" unicode="&#x145;" horiz-adv-x="722" 
d="M707 662v-19c-38 -4 -53 -7 -66 -18c-19 -17 -29 -39 -29 -118v-518h-18l-441 549v-388c0 -103 16 -120 93 -131v-19h-234v19c82 9 97 24 97 131v440c-33 41 -48 53 -97 53v19h170l386 -483v340c0 51 -4 81 -19 98c-17 19 -35 21 -79 26v19h237zM318 -280l-10 19
c55 37 83 74 83 107c0 7 -6 13 -14 13s-18 -4 -29 -4c-37 0 -58 17 -58 51s24 57 60 57c45 0 80 -35 80 -87c0 -60 -43 -123 -112 -156z" />
    <glyph glyph-name="uni0146" unicode="&#x146;" horiz-adv-x="500" 
d="M485 0h-208l1 15c50 4 62 24 62 90v199c0 71 -24 101 -73 101c-33 0 -57 -12 -103 -57v-276c0 -39 14 -53 65 -57v-15h-211v15c51 4 62 20 62 79v243c0 49 -7 65 -35 65c-11 0 -22 -1 -29 -4v17c55 16 88 27 137 45l8 -3v-78h1c52 59 98 81 144 81c76 0 118 -55 118 -154
v-221c0 -54 12 -65 61 -70v-15zM213 -280l-10 19c55 37 83 74 83 107c0 7 -6 13 -14 13s-18 -4 -29 -4c-37 0 -58 17 -58 51s24 57 60 57c45 0 80 -35 80 -87c0 -60 -43 -123 -112 -156z" />
    <glyph glyph-name="uni0147" unicode="&#x147;" horiz-adv-x="722" 
d="M519 886l-124 -167h-64l-123 167h35l120 -103l121 103h35zM707 662v-19c-38 -4 -53 -7 -66 -18c-19 -17 -29 -39 -29 -118v-518h-18l-441 549v-388c0 -103 16 -120 93 -131v-19h-234v19c82 9 97 24 97 131v440c-33 41 -48 53 -97 53v19h170l386 -483v340
c0 51 -4 81 -19 98c-17 19 -35 21 -79 26v19h237z" />
    <glyph glyph-name="uni0148" unicode="&#x148;" horiz-adv-x="500" 
d="M406 674l-124 -167h-64l-123 167h35l120 -103l121 103h35zM485 0h-208l1 15c50 4 62 24 62 90v199c0 71 -24 101 -73 101c-33 0 -57 -12 -103 -57v-276c0 -39 14 -53 65 -57v-15h-211v15c51 4 62 20 62 79v243c0 49 -7 65 -35 65c-11 0 -22 -1 -29 -4v17
c55 16 88 27 137 45l8 -3v-78h1c52 59 98 81 144 81c76 0 118 -55 118 -154v-221c0 -54 12 -65 61 -70v-15z" />
    <glyph glyph-name="uni0149" unicode="&#x149;" horiz-adv-x="590" 
d="M47 459l-9 19c54 37 82 74 82 107c0 7 -6 13 -14 13c0 0 -2 0 -7 -2c-6 -1 -13 -2 -20 -2c-37 0 -59 19 -59 51c0 34 24 57 59 57c45 0 80 -39 80 -89c0 -60 -45 -121 -112 -154zM566 0h-208l1 15c50 4 62 24 62 90v199c0 71 -24 101 -73 101c-33 0 -57 -12 -103 -57
v-276c0 -39 14 -53 65 -57v-15h-211v15c51 4 62 20 62 79v243c0 49 -7 65 -35 65c-11 0 -22 -1 -29 -4v17c55 16 88 27 137 45l8 -3v-78h1c52 59 98 81 144 81c76 0 118 -55 118 -154v-221c0 -54 12 -65 61 -70v-15z" />
    <glyph glyph-name="uni014A" unicode="&#x14a;" horiz-adv-x="710" 
d="M190 662v-120c50 104 118 136 194 136c196 0 289 -168 289 -339c0 -153 -86 -357 -269 -357c-63 0 -108 37 -108 93c0 35 22 76 63 76c43 0 64 -33 64 -65c0 -11 -8 -35 -8 -43c0 -13 7 -24 22 -24c73 0 127 113 127 292c0 192 -71 321 -196 321
c-74 0 -148 -63 -174 -190v-331c0 -44 13 -95 50 -95h14v-16h-223v16c52 0 57 33 57 76v455c0 60 -13 98 -62 98h-14v17h174z" />
    <glyph glyph-name="uni014B" unicode="&#x14b;" horiz-adv-x="504" 
d="M424 306v-306c0 -142 -59 -218 -170 -218c-54 0 -93 23 -93 55c0 22 18 39 41 39c16 0 30 -9 48 -32c17 -21 27 -28 42 -28c14 0 28 8 34 18c11 20 14 45 14 121v349c0 71 -24 101 -73 101c-33 0 -57 -12 -103 -57v-276c0 -39 14 -53 65 -57v-15h-211v15
c51 4 62 20 62 79v243c0 49 -7 65 -35 65c-11 0 -22 -1 -29 -4v17c55 16 88 27 137 45l8 -3v-78h1c52 59 98 81 144 81c76 0 118 -55 118 -154z" />
    <glyph glyph-name="uni014C" unicode="&#x14c;" horiz-adv-x="722" 
d="M516 719h-311v54h311v-54zM688 331c0 -206 -135 -345 -327 -345c-194 0 -327 140 -327 348c0 203 132 342 327 342c196 0 327 -147 327 -345zM574 337c0 114 -34 208 -91 256c-36 30 -76 47 -123 47c-54 0 -104 -22 -143 -67c-43 -49 -69 -146 -69 -241
c0 -119 29 -209 90 -265c34 -31 78 -45 124 -45c50 0 94 15 129 48c55 53 83 147 83 267z" />
    <glyph glyph-name="uni014D" unicode="&#x14d;" horiz-adv-x="500" 
d="M404 507h-311v54h311v-54zM470 231c0 -139 -90 -241 -225 -241c-121 0 -216 99 -216 238s90 232 225 232c122 0 216 -91 216 -229zM380 204c0 68 -18 137 -50 178c-24 30 -52 50 -95 50c-69 0 -116 -59 -116 -159c0 -79 16 -151 53 -205c22 -32 54 -50 90 -50
c74 0 118 70 118 186z" />
    <glyph glyph-name="uni014E" unicode="&#x14e;" horiz-adv-x="722" 
d="M471 876h29c-12 -106 -60 -157 -142 -157c-94 0 -139 60 -139 157h29c13 -63 49 -97 112 -97c54 0 82 26 111 97zM688 331c0 -206 -135 -345 -327 -345c-194 0 -327 140 -327 348c0 203 132 342 327 342c196 0 327 -147 327 -345zM574 337c0 114 -34 208 -91 256
c-36 30 -76 47 -123 47c-54 0 -104 -22 -143 -67c-43 -49 -69 -146 -69 -241c0 -119 29 -209 90 -265c34 -31 78 -45 124 -45c50 0 94 15 129 48c55 53 83 147 83 267z" />
    <glyph glyph-name="uni014F" unicode="&#x14f;" horiz-adv-x="500" 
d="M362 664h29c-12 -106 -60 -157 -142 -157c-94 0 -139 60 -139 157h29c13 -63 49 -97 112 -97c54 0 82 26 111 97zM470 231c0 -139 -90 -241 -225 -241c-121 0 -216 99 -216 238s90 232 225 232c122 0 216 -91 216 -229zM380 204c0 68 -18 137 -50 178
c-24 30 -52 50 -95 50c-69 0 -116 -59 -116 -159c0 -79 16 -151 53 -205c22 -32 54 -50 90 -50c74 0 118 70 118 186z" />
    <glyph glyph-name="uni0150" unicode="&#x150;" horiz-adv-x="722" 
d="M327 719l146 148c20 20 30 23 43 23c20 0 34 -11 34 -30c0 -18 -8 -32 -29 -45l-154 -96h-40zM171 719l146 148c20 20 30 23 43 23c20 0 34 -11 34 -30c0 -18 -8 -32 -29 -45l-154 -96h-40zM688 331c0 -206 -135 -345 -327 -345c-194 0 -327 140 -327 348
c0 203 132 342 327 342c196 0 327 -147 327 -345zM574 337c0 114 -34 208 -91 256c-36 30 -76 47 -123 47c-54 0 -104 -22 -143 -67c-43 -49 -69 -146 -69 -241c0 -119 29 -209 90 -265c34 -31 78 -45 124 -45c50 0 94 15 129 48c55 53 83 147 83 267z" />
    <glyph glyph-name="uni0151" unicode="&#x151;" horiz-adv-x="500" 
d="M230 507l146 148c20 20 30 23 43 23c20 0 34 -11 34 -30c0 -18 -8 -32 -29 -45l-154 -96h-40zM74 507l146 148c20 20 30 23 43 23c20 0 34 -11 34 -30c0 -18 -8 -32 -29 -45l-154 -96h-40zM470 231c0 -139 -90 -241 -225 -241c-121 0 -216 99 -216 238s90 232 225 232
c122 0 216 -91 216 -229zM380 204c0 68 -18 137 -50 178c-24 30 -52 50 -95 50c-69 0 -116 -59 -116 -159c0 -79 16 -151 53 -205c22 -32 54 -50 90 -50c74 0 118 70 118 186z" />
    <glyph glyph-name="OE" unicode="&#x152;" horiz-adv-x="889" 
d="M885 168l-44 -168h-343c-58 0 -136 -6 -184 -6c-79 0 -163 37 -210 94c-49 60 -74 143 -74 241c0 129 46 225 129 285c50 36 114 54 183 54c15 0 17 0 65 -3c18 -1 93 -3 113 -3h318v-141h-23c-12 89 -39 105 -161 105h-53c-56 0 -70 -10 -70 -35v-225h101
c101 0 127 17 135 98h21v-234h-21c-9 79 -34 99 -103 99h-133v-236c0 -37 10 -55 60 -55h113c64 0 111 34 157 130h24zM431 133v392c0 73 -25 107 -94 107c-121 0 -195 -108 -195 -303c0 -90 14 -161 42 -211c32 -57 81 -87 147 -87c71 0 100 31 100 102z" />
    <glyph glyph-name="oe" unicode="&#x153;" horiz-adv-x="722" 
d="M679 145l11 -6c-52 -108 -101 -149 -179 -149c-62 0 -98 27 -128 95c-38 -69 -79 -95 -147 -95c-121 0 -206 94 -206 228c0 79 31 156 80 198c33 29 74 44 122 44c62 0 102 -20 152 -76c41 56 75 76 130 76c51 0 98 -23 126 -62c23 -31 31 -60 34 -121h-254
c7 -151 48 -220 129 -220c48 0 83 24 130 88zM579 307v27c0 56 -33 97 -79 97c-53 0 -80 -41 -81 -124h160zM343 195c0 156 -40 236 -117 236c-27 0 -55 -14 -74 -36c-20 -23 -32 -75 -32 -140c0 -75 14 -148 37 -188c20 -34 47 -51 83 -51c67 0 103 63 103 179z" />
    <glyph glyph-name="uni0154" unicode="&#x154;" horiz-adv-x="667" 
d="M215 719l147 148c18 18 27 23 42 23c22 0 35 -12 35 -32c0 -16 -9 -29 -30 -42l-154 -97h-40zM660 0h-162l-238 308l-56 -2v-194c0 -76 12 -88 89 -93v-19h-276v19c75 6 85 17 85 105v427c0 74 -8 86 -85 92v19h272c95 0 166 -24 209 -59c33 -27 49 -76 49 -120
c0 -87 -56 -145 -181 -164l200 -253c29 -37 50 -43 94 -47v-19zM204 583v-240c96 2 131 9 177 34c36 20 57 64 57 114c0 90 -59 134 -183 134c-34 0 -51 -7 -51 -42z" />
    <glyph glyph-name="uni0155" unicode="&#x155;" horiz-adv-x="333" 
d="M66 507l147 148c18 18 27 23 42 23c22 0 35 -12 35 -32c0 -16 -9 -29 -30 -42l-154 -97h-40zM160 458v-92c50 72 78 94 120 94c34 0 55 -20 55 -53c0 -28 -15 -45 -39 -45c-13 0 -24 5 -40 20c-11 10 -20 15 -26 15c-28 0 -70 -50 -70 -82v-225c0 -57 17 -72 85 -75v-15
h-240v15c64 12 71 19 71 69v250c0 44 -9 60 -34 60c-12 0 -21 -1 -35 -4v16c59 19 95 33 148 54z" />
    <glyph glyph-name="uni0156" unicode="&#x156;" horiz-adv-x="667" 
d="M660 0h-162l-238 308l-56 -2v-194c0 -76 12 -88 89 -93v-19h-276v19c75 6 85 17 85 105v427c0 74 -8 86 -85 92v19h272c95 0 166 -24 209 -59c33 -27 49 -76 49 -120c0 -87 -56 -145 -181 -164l200 -253c29 -37 50 -43 94 -47v-19zM204 583v-240c96 2 131 9 177 34
c36 20 57 64 57 114c0 90 -59 134 -183 134c-34 0 -51 -7 -51 -42zM308 -280l-10 19c55 37 83 74 83 107c0 7 -6 13 -14 13s-18 -4 -29 -4c-37 0 -58 17 -58 51s24 57 60 57c45 0 80 -35 80 -87c0 -60 -43 -123 -112 -156z" />
    <glyph glyph-name="uni0157" unicode="&#x157;" horiz-adv-x="333" 
d="M160 458v-92c50 72 78 94 120 94c34 0 55 -20 55 -53c0 -28 -15 -45 -39 -45c-13 0 -24 5 -40 20c-11 10 -20 15 -26 15c-28 0 -70 -50 -70 -82v-225c0 -57 17 -72 85 -75v-15h-240v15c64 12 71 19 71 69v250c0 44 -9 60 -34 60c-12 0 -21 -1 -35 -4v16
c59 19 95 33 148 54zM118 -280l-10 19c55 37 83 74 83 107c0 7 -6 13 -14 13s-18 -4 -29 -4c-37 0 -58 17 -58 51s24 57 60 57c45 0 80 -35 80 -87c0 -60 -43 -123 -112 -156z" />
    <glyph glyph-name="uni0158" unicode="&#x158;" horiz-adv-x="667" 
d="M446 886l-124 -167h-64l-123 167h35l120 -103l121 103h35zM660 0h-162l-238 308l-56 -2v-194c0 -76 12 -88 89 -93v-19h-276v19c75 6 85 17 85 105v427c0 74 -8 86 -85 92v19h272c95 0 166 -24 209 -59c33 -27 49 -76 49 -120c0 -87 -56 -145 -181 -164l200 -253
c29 -37 50 -43 94 -47v-19zM204 583v-240c96 2 131 9 177 34c36 20 57 64 57 114c0 90 -59 134 -183 134c-34 0 -51 -7 -51 -42z" />
    <glyph glyph-name="uni0159" unicode="&#x159;" horiz-adv-x="333" 
d="M321 674l-124 -167h-64l-123 167h35l120 -103l121 103h35zM160 458v-92c50 72 78 94 120 94c34 0 55 -20 55 -53c0 -28 -15 -45 -39 -45c-13 0 -24 5 -40 20c-11 10 -20 15 -26 15c-28 0 -70 -50 -70 -82v-225c0 -57 17 -72 85 -75v-15h-240v15c64 12 71 19 71 69v250
c0 44 -9 60 -34 60c-12 0 -21 -1 -35 -4v16c59 19 95 33 148 54z" />
    <glyph glyph-name="uni015A" unicode="&#x15a;" horiz-adv-x="556" 
d="M201 719l147 148c18 18 27 23 42 23c22 0 35 -12 35 -32c0 -16 -9 -29 -30 -42l-154 -97h-40zM469 463h-25c-12 44 -23 70 -41 94c-35 45 -85 78 -145 78c-62 0 -101 -40 -101 -95c0 -68 74 -110 179 -171c106 -62 155 -120 155 -196c0 -112 -88 -187 -204 -187
c-42 0 -81 7 -118 23c-19 8 -36 11 -47 11c-15 0 -28 -12 -28 -33h-22l-29 212h22c46 -121 111 -177 206 -177c70 0 119 46 119 112c0 35 -10 58 -29 79c-35 38 -104 82 -168 116c-90 48 -122 110 -122 172c0 109 75 175 174 175c41 0 67 -6 105 -22c18 -8 34 -12 44 -12
c17 0 28 12 32 34h21z" />
    <glyph glyph-name="uni015B" unicode="&#x15b;" horiz-adv-x="389" 
d="M117 507l147 148c18 18 27 23 42 23c22 0 35 -12 35 -32c0 -16 -9 -29 -30 -42l-154 -97h-40zM156 301l104 -63c64 -39 88 -66 88 -123c0 -67 -64 -125 -140 -125c-21 0 -50 1 -73 9c-24 8 -35 9 -46 9c-12 0 -18 -2 -24 -12h-13v157h16c21 -97 58 -141 127 -141
c51 0 83 33 83 74c0 31 -20 57 -53 75l-54 30c-83 46 -120 94 -120 145c0 79 56 123 138 123c24 0 46 -1 67 -11c11 -5 21 -8 28 -8c4 0 8 1 16 10h11l5 -136h-15c-23 90 -53 123 -113 123c-43 0 -75 -21 -75 -68c0 -22 15 -51 43 -68z" />
    <glyph glyph-name="uni015C" unicode="&#x15c;" horiz-adv-x="556" 
d="M426 719h-34l-122 103l-121 -103h-34l124 167h62zM469 463h-25c-12 44 -23 70 -41 94c-35 45 -85 78 -145 78c-62 0 -101 -40 -101 -95c0 -68 74 -110 179 -171c106 -62 155 -120 155 -196c0 -112 -88 -187 -204 -187c-42 0 -81 7 -118 23c-19 8 -36 11 -47 11
c-15 0 -28 -12 -28 -33h-22l-29 212h22c46 -121 111 -177 206 -177c70 0 119 46 119 112c0 35 -10 58 -29 79c-35 38 -104 82 -168 116c-90 48 -122 110 -122 172c0 109 75 175 174 175c41 0 67 -6 105 -22c18 -8 34 -12 44 -12c17 0 28 12 32 34h21z" />
    <glyph glyph-name="uni015D" unicode="&#x15d;" horiz-adv-x="389" 
d="M351 507h-34l-122 103l-121 -103h-34l124 167h62zM156 301l104 -63c64 -39 88 -66 88 -123c0 -67 -64 -125 -140 -125c-21 0 -50 1 -73 9c-24 8 -35 9 -46 9c-12 0 -18 -2 -24 -12h-13v157h16c21 -97 58 -141 127 -141c51 0 83 33 83 74c0 31 -20 57 -53 75l-54 30
c-83 46 -120 94 -120 145c0 79 56 123 138 123c24 0 46 -1 67 -11c11 -5 21 -8 28 -8c4 0 8 1 16 10h11l5 -136h-15c-23 90 -53 123 -113 123c-43 0 -75 -21 -75 -68c0 -22 15 -51 43 -68z" />
    <glyph glyph-name="uni015E" unicode="&#x15e;" horiz-adv-x="556" 
d="M225 -99l36 86c-32 2 -63 9 -92 22c-19 8 -36 11 -47 11c-15 0 -28 -12 -28 -33h-22l-29 212h22c46 -121 111 -177 206 -177c70 0 119 46 119 112c0 35 -10 58 -29 79c-35 38 -104 82 -168 116c-90 48 -122 110 -122 172c0 109 75 175 174 175c41 0 67 -6 105 -22
c18 -8 34 -12 44 -12c17 0 28 12 32 34h21l22 -213h-25c-12 44 -23 70 -41 94c-35 45 -85 78 -145 78c-62 0 -101 -40 -101 -95c0 -68 74 -110 179 -171c106 -62 155 -120 155 -196c0 -109 -84 -183 -195 -187l-20 -51c10 2 16 3 26 3c54 0 86 -25 86 -69
c0 -52 -48 -84 -125 -84c-31 0 -55 4 -84 16l14 31c27 -9 44 -12 65 -12c34 0 55 17 55 44c0 26 -15 36 -53 36c-12 0 -20 -1 -28 -4z" />
    <glyph glyph-name="uni015F" unicode="&#x15f;" horiz-adv-x="389" 
d="M145 -99l37 90c-16 1 -33 3 -47 8c-24 8 -35 9 -46 9c-12 0 -18 -2 -24 -12h-13v157h16c21 -97 58 -141 127 -141c51 0 83 33 83 74c0 31 -20 57 -53 75l-54 30c-83 46 -120 94 -120 145c0 79 56 123 138 123c24 0 46 -1 67 -11c11 -5 21 -8 28 -8c4 0 8 1 16 10h11
l5 -136h-15c-23 90 -53 123 -113 123c-43 0 -75 -21 -75 -68c0 -22 15 -51 43 -68l104 -63c64 -39 88 -66 88 -123c0 -64 -59 -120 -131 -125l-21 -55c10 2 16 3 26 3c54 0 86 -25 86 -69c0 -52 -48 -84 -125 -84c-31 0 -55 4 -84 16l14 31c27 -9 44 -12 65 -12
c34 0 55 17 55 44c0 26 -15 36 -53 36c-12 0 -20 -1 -28 -4z" />
    <glyph glyph-name="Scaron" unicode="&#x160;" horiz-adv-x="556" 
d="M429 924l-124 -167h-64l-123 167h35l120 -103l121 103h35zM469 463h-25c-12 44 -23 70 -41 94c-35 45 -85 78 -145 78c-62 0 -101 -40 -101 -95c0 -68 74 -110 179 -171c106 -62 155 -120 155 -196c0 -112 -88 -187 -204 -187c-42 0 -81 7 -118 23c-19 8 -36 11 -47 11
c-15 0 -28 -12 -28 -33h-22l-29 212h22c46 -121 111 -177 206 -177c70 0 119 46 119 112c0 35 -10 58 -29 79c-35 38 -104 82 -168 116c-90 48 -122 110 -122 172c0 109 75 175 174 175c41 0 67 -6 105 -22c18 -8 34 -12 44 -12c17 0 28 12 32 34h21z" />
    <glyph glyph-name="scaron" unicode="&#x161;" horiz-adv-x="389" 
d="M349 674l-124 -167h-64l-123 167h35l120 -103l121 103h35zM143 301l104 -63c64 -39 88 -66 88 -123c0 -67 -64 -125 -140 -125c-21 0 -50 1 -73 9c-24 8 -35 9 -46 9c-12 0 -18 -2 -24 -12h-13v157h16c21 -97 58 -141 127 -141c51 0 83 33 83 74c0 31 -20 57 -53 75
l-54 30c-83 46 -120 94 -120 145c0 79 56 123 138 123c24 0 46 -1 67 -11c11 -5 21 -8 28 -8c4 0 8 1 16 10h11l5 -136h-15c-23 90 -53 123 -113 123c-43 0 -75 -21 -75 -68c0 -22 15 -51 43 -68z" />
    <glyph glyph-name="uni0162" unicode="&#x162;" horiz-adv-x="611" 
d="M286 0h-126v19c83 5 94 16 94 104v497h-60c-106 0 -133 -18 -153 -128h-24l7 170h562l7 -170h-24c-22 110 -48 128 -154 128h-59v-509c0 -76 14 -88 96 -92v-19h-131l-25 -65c10 2 16 3 26 3c54 0 86 -25 86 -69c0 -52 -48 -84 -125 -84c-31 0 -55 4 -84 16l14 31
c27 -9 44 -12 65 -12c34 0 55 17 55 44c0 26 -15 36 -53 36c-12 0 -20 -1 -28 -4l-7 5z" />
    <glyph glyph-name="uni0163" unicode="&#x163;" horiz-adv-x="278" 
d="M88 -99l39 94c-38 14 -57 55 -57 122v301h-53c-3 2 -4 4 -4 7c0 6 6 12 17 19c26 15 59 52 97 107c6 9 14 18 20 28c5 0 7 -3 7 -13v-116h101v-32h-101v-286c0 -64 15 -90 52 -90c22 0 38 9 60 35l13 -11c-33 -51 -70 -75 -119 -76l-21 -55c10 2 16 3 26 3
c54 0 86 -25 86 -69c0 -52 -48 -84 -125 -84c-31 0 -55 4 -84 16l14 31c27 -9 44 -12 65 -12c34 0 55 17 55 44c0 26 -15 36 -53 36c-12 0 -20 -1 -28 -4z" />
    <glyph glyph-name="uni0164" unicode="&#x164;" horiz-adv-x="611" 
d="M461 886l-124 -167h-64l-123 167h35l120 -103l121 103h35zM593 492h-24c-22 110 -48 128 -154 128h-59v-509c0 -76 14 -88 96 -92v-19h-292v19c83 5 94 16 94 104v497h-60c-106 0 -133 -18 -153 -128h-24l7 170h562z" />
    <glyph glyph-name="uni0165" unicode="&#x165;" horiz-adv-x="315" 
d="M221 458l-9 19c54 37 82 73 82 107c0 7 -6 13 -14 13c0 0 -2 0 -7 -2c-6 -1 -13 -2 -20 -2c-37 0 -59 19 -59 51c0 34 24 57 59 57c45 0 80 -39 80 -89c0 -60 -45 -121 -112 -154zM266 77l13 -11c-33 -52 -71 -76 -121 -76c-58 0 -88 43 -88 127v301h-53c-3 2 -4 4 -4 7
c0 6 6 12 17 19c26 15 59 52 97 107c6 9 14 18 20 28c5 0 7 -3 7 -13v-116h51v-32h-51v-286c0 -64 15 -90 52 -90c22 0 38 9 60 35z" />
    <glyph glyph-name="uni0166" unicode="&#x166;" horiz-adv-x="613" 
d="M593 492h-24c-22 110 -48 128 -154 128h-59v-264h126v-44h-126v-201c0 -76 14 -88 96 -92v-19h-292v19c83 5 94 16 94 104v189h-128v44h128v264h-60c-106 0 -133 -18 -153 -128h-24l7 170h562z" />
    <glyph glyph-name="uni0167" unicode="&#x167;" horiz-adv-x="279" 
d="M267 82l13 -11c-32 -52 -73 -76 -119 -76c-75 0 -90 64 -90 131v109h-60v44h60v144h-49c-5 0 -8 1 -8 7c0 11 19 19 34 31c19 16 43 43 63 71l37 52c4 0 7 -1 7 -12v-117h101v-32h-101v-144h97v-44h-97v-100c0 -69 20 -88 52 -88c25 0 39 11 60 35z" />
    <glyph glyph-name="uni0168" unicode="&#x168;" horiz-adv-x="722" 
d="M505 849h29c-21 -76 -50 -106 -105 -106c-25 0 -40 4 -81 24l-23 11c-15 7 -29 11 -41 11c-23 0 -40 -15 -51 -46h-29c15 65 51 101 101 101c22 0 46 -6 70 -18l24 -12c19 -10 38 -15 53 -15c23 0 36 13 53 50zM705 662v-19c-84 -8 -94 -32 -94 -127v-255
c0 -97 -9 -151 -54 -202c-42 -48 -110 -73 -202 -73c-73 0 -129 15 -170 46c-55 41 -81 111 -81 217v310c0 67 -11 78 -90 84v19h283v-19c-80 -7 -91 -19 -91 -94v-312c0 -78 4 -123 44 -162c29 -28 71 -45 128 -45c64 0 120 22 152 59c33 40 37 80 37 161v263
c0 103 -13 125 -94 130v19h232z" />
    <glyph glyph-name="uni0169" unicode="&#x169;" horiz-adv-x="500" 
d="M376 638h29c-21 -76 -50 -106 -105 -106c-25 0 -40 4 -81 24l-23 11c-15 7 -29 11 -41 11c-23 0 -40 -15 -51 -46h-29c15 65 51 101 101 101c22 0 46 -6 70 -18l24 -12c19 -10 38 -15 53 -15c23 0 36 13 53 50zM480 50v-14c-51 -14 -87 -25 -137 -45l-5 3v82h-2
c-49 -67 -106 -86 -143 -86c-77 0 -122 51 -122 128v251c0 50 -14 64 -62 67v14h146v-323c0 -46 32 -79 71 -79c29 0 59 9 84 31c16 14 23 23 23 58v231c0 53 -14 61 -74 65v17h158v-343c0 -46 11 -57 57 -57h6z" />
    <glyph glyph-name="uni016A" unicode="&#x16a;" horiz-adv-x="722" 
d="M510 719h-311v54h311v-54zM705 662v-19c-84 -8 -94 -32 -94 -127v-255c0 -97 -9 -151 -54 -202c-42 -48 -110 -73 -202 -73c-73 0 -129 15 -170 46c-55 41 -81 111 -81 217v310c0 67 -11 78 -90 84v19h283v-19c-80 -7 -91 -19 -91 -94v-312c0 -78 4 -123 44 -162
c29 -28 71 -45 128 -45c64 0 120 22 152 59c33 40 37 80 37 161v263c0 103 -13 125 -94 130v19h232z" />
    <glyph glyph-name="uni016B" unicode="&#x16b;" horiz-adv-x="500" 
d="M405 507h-311v54h311v-54zM480 50v-14c-51 -14 -87 -25 -137 -45l-5 3v82h-2c-49 -67 -106 -86 -143 -86c-77 0 -122 51 -122 128v251c0 50 -14 64 -62 67v14h146v-323c0 -46 32 -79 71 -79c29 0 59 9 84 31c16 14 23 23 23 58v231c0 53 -14 61 -74 65v17h158v-343
c0 -46 11 -57 57 -57h6z" />
    <glyph glyph-name="uni016C" unicode="&#x16c;" horiz-adv-x="722" 
d="M483 876h29c-12 -106 -60 -157 -142 -157c-94 0 -139 60 -139 157h29c13 -63 49 -97 112 -97c54 0 82 26 111 97zM705 662v-19c-84 -8 -94 -32 -94 -127v-255c0 -97 -9 -151 -54 -202c-42 -48 -110 -73 -202 -73c-73 0 -129 15 -170 46c-55 41 -81 111 -81 217v310
c0 67 -11 78 -90 84v19h283v-19c-80 -7 -91 -19 -91 -94v-312c0 -78 4 -123 44 -162c29 -28 71 -45 128 -45c64 0 120 22 152 59c33 40 37 80 37 161v263c0 103 -13 125 -94 130v19h232z" />
    <glyph glyph-name="uni016D" unicode="&#x16d;" horiz-adv-x="500" 
d="M352 664h29c-12 -106 -60 -157 -142 -157c-94 0 -139 60 -139 157h29c13 -63 49 -97 112 -97c54 0 82 26 111 97zM480 50v-14c-51 -14 -87 -25 -137 -45l-5 3v82h-2c-49 -67 -106 -86 -143 -86c-77 0 -122 51 -122 128v251c0 50 -14 64 -62 67v14h146v-323
c0 -46 32 -79 71 -79c29 0 59 9 84 31c16 14 23 23 23 58v231c0 53 -14 61 -74 65v17h158v-343c0 -46 11 -57 57 -57h6z" />
    <glyph glyph-name="uni016E" unicode="&#x16e;" horiz-adv-x="722" 
d="M465 798c0 -55 -45 -99 -101 -99c-55 0 -98 44 -98 100c0 55 45 99 101 99c53 0 98 -46 98 -100zM431 799c0 36 -30 65 -67 65c-34 0 -64 -30 -64 -65c0 -37 29 -66 64 -66c38 0 67 29 67 66zM705 662v-19c-84 -8 -94 -32 -94 -127v-255c0 -97 -9 -151 -54 -202
c-42 -48 -110 -73 -202 -73c-73 0 -129 15 -170 46c-55 41 -81 111 -81 217v310c0 67 -11 78 -90 84v19h283v-19c-80 -7 -91 -19 -91 -94v-312c0 -78 4 -123 44 -162c29 -28 71 -45 128 -45c64 0 120 22 152 59c33 40 37 80 37 161v263c0 103 -13 125 -94 130v19h232z" />
    <glyph glyph-name="uni016F" unicode="&#x16f;" horiz-adv-x="500" 
d="M349 611c0 -55 -45 -99 -101 -99c-55 0 -98 44 -98 100c0 55 45 99 101 99c53 0 98 -46 98 -100zM315 612c0 36 -30 65 -67 65c-34 0 -64 -30 -64 -65c0 -37 29 -66 64 -66c38 0 67 29 67 66zM480 50v-14c-51 -14 -87 -25 -137 -45l-5 3v82h-2c-49 -67 -106 -86 -143 -86
c-77 0 -122 51 -122 128v251c0 50 -14 64 -62 67v14h146v-323c0 -46 32 -79 71 -79c29 0 59 9 84 31c16 14 23 23 23 58v231c0 53 -14 61 -74 65v17h158v-343c0 -46 11 -57 57 -57h6z" />
    <glyph glyph-name="uni0170" unicode="&#x170;" horiz-adv-x="722" 
d="M338 719l146 148c20 20 30 23 43 23c20 0 34 -11 34 -30c0 -18 -8 -32 -29 -45l-154 -96h-40zM182 719l146 148c20 20 30 23 43 23c20 0 34 -11 34 -30c0 -18 -8 -32 -29 -45l-154 -96h-40zM705 662v-19c-84 -8 -94 -32 -94 -127v-255c0 -97 -9 -151 -54 -202
c-42 -48 -110 -73 -202 -73c-73 0 -129 15 -170 46c-55 41 -81 111 -81 217v310c0 67 -11 78 -90 84v19h283v-19c-80 -7 -91 -19 -91 -94v-312c0 -78 4 -123 44 -162c29 -28 71 -45 128 -45c64 0 120 22 152 59c33 40 37 80 37 161v263c0 103 -13 125 -94 130v19h232z" />
    <glyph glyph-name="uni0171" unicode="&#x171;" horiz-adv-x="500" 
d="M211 507l146 148c20 20 30 23 43 23c20 0 34 -11 34 -30c0 -18 -8 -32 -29 -45l-154 -96h-40zM55 507l146 148c20 20 30 23 43 23c20 0 34 -11 34 -30c0 -18 -8 -32 -29 -45l-154 -96h-40zM480 50v-14c-51 -14 -87 -25 -137 -45l-5 3v82h-2c-49 -67 -106 -86 -143 -86
c-77 0 -122 51 -122 128v251c0 50 -14 64 -62 67v14h146v-323c0 -46 32 -79 71 -79c29 0 59 9 84 31c16 14 23 23 23 58v231c0 53 -14 61 -74 65v17h158v-343c0 -46 11 -57 57 -57h6z" />
    <glyph glyph-name="uni0172" unicode="&#x172;" horiz-adv-x="722" 
d="M497 -73l20 -16c-36 -54 -65 -76 -111 -76c-43 0 -74 27 -74 74c0 30 11 54 37 77h-14c-73 0 -129 15 -170 46c-55 41 -81 111 -81 217v310c0 67 -11 78 -90 84v19h283v-19c-80 -7 -91 -19 -91 -94v-312c0 -78 4 -123 44 -162c29 -28 71 -45 128 -45c64 0 120 22 152 59
c33 40 37 80 37 161v263c0 103 -13 125 -94 130v19h232v-19c-84 -8 -94 -32 -94 -127v-255c0 -97 -9 -151 -54 -202c-31 -36 -77 -59 -136 -68c-23 -21 -33 -41 -33 -61c0 -28 16 -39 38 -39c21 0 42 9 71 36z" />
    <glyph glyph-name="uni0173" unicode="&#x173;" horiz-adv-x="500" 
d="M338 4v72h-2c-49 -67 -106 -86 -143 -86c-77 0 -122 51 -122 128v251c0 50 -14 64 -62 67v14h146v-323c0 -46 32 -79 71 -79c29 0 59 9 84 31c16 14 23 23 23 58v231c0 53 -14 61 -74 65v17h158v-343c0 -46 11 -57 57 -57h6v-14c-33 -9 -60 -17 -89 -27
c-31 -25 -44 -47 -44 -70c0 -28 16 -39 38 -39c21 0 42 9 71 36l20 -16c-36 -54 -65 -76 -111 -76c-43 0 -74 27 -74 74c0 34 14 60 47 86z" />
    <glyph glyph-name="uni0174" unicode="&#x174;" horiz-adv-x="944" 
d="M627 719h-34l-122 103l-121 -103h-34l124 167h62zM932 662v-19c-53 -10 -64 -18 -83 -70c-109 -294 -119 -323 -204 -584h-15c-51 142 -108 290 -160 423l-154 -423h-15c-61 180 -133 366 -192 534c-33 95 -53 119 -104 120v19h244v-19c-51 -1 -64 -10 -64 -31
c0 -12 4 -28 11 -47l144 -376l104 283l-28 75c-33 88 -45 95 -102 96v19h265v-19c-50 -1 -77 -14 -77 -35c0 -11 8 -34 17 -58l143 -364l126 339c11 31 17 56 17 77c0 27 -19 40 -70 41v19h197z" />
    <glyph glyph-name="uni0175" unicode="&#x175;" horiz-adv-x="722" 
d="M528 507h-34l-122 103l-121 -103h-34l124 167h62zM694 450v-15c-20 -7 -25 -14 -41 -54l-138 -346c-16 -40 -21 -49 -28 -49s-9 5 -24 43l-91 236l-112 -240c-12 -26 -20 -39 -25 -39c-6 0 -14 13 -26 44l-135 342c-21 54 -30 61 -53 63v15h180v-15
c-35 -4 -46 -12 -46 -33c0 -10 2 -20 6 -30l99 -261l91 199l-20 56c-19 54 -32 65 -69 69v15h203v-15c-47 -7 -58 -14 -58 -35c0 -17 5 -29 17 -60l84 -224l90 222c11 27 17 51 17 67s-10 23 -44 30v15h123z" />
    <glyph glyph-name="uni0176" unicode="&#x176;" horiz-adv-x="722" 
d="M517 719h-34l-122 103l-121 -103h-34l124 167h62zM703 662v-19c-59 -5 -82 -26 -138 -112l-148 -228v-192c0 -78 19 -88 103 -92v-19h-306v19c89 6 101 15 101 104v171l-131 192c-92 135 -114 155 -162 157v19h279v-19l-24 -1c-32 -1 -47 -10 -47 -26c0 -13 7 -31 18 -47
l146 -221l145 222c10 15 14 31 14 42c-1 22 -16 30 -68 31v19h218z" />
    <glyph glyph-name="uni0177" unicode="&#x177;" horiz-adv-x="500" 
d="M405 507h-34l-122 103l-121 -103h-34l124 167h62zM475 450v-15c-24 -3 -36 -14 -50 -51l-150 -409c-52 -142 -99 -193 -175 -193c-43 0 -70 25 -70 58c0 25 19 46 43 46c18 0 34 -3 52 -13c11 -6 20 -7 26 -7c14 0 34 20 50 44c20 29 40 92 40 108c0 15 -23 61 -42 101
l-132 282c-10 22 -27 31 -53 35v14h205v-15c-43 -2 -57 -9 -57 -27c0 -11 7 -27 13 -41l112 -250l97 276c3 7 4 14 4 18c0 16 -15 24 -46 24v15h133z" />
    <glyph glyph-name="Ydieresis" unicode="&#x178;" horiz-adv-x="722" 
d="M518 822c0 -27 -23 -49 -51 -49c-27 0 -48 22 -48 50c0 27 22 49 49 49s50 -23 50 -50zM319 822c0 -27 -23 -49 -51 -49c-27 0 -48 22 -48 50c0 27 22 49 49 49s50 -23 50 -50zM703 662v-19c-59 -5 -82 -26 -138 -112l-148 -228v-192c0 -78 19 -88 103 -92v-19h-306v19
c89 6 101 15 101 104v171l-131 192c-92 135 -114 155 -162 157v19h279v-19l-24 -1c-32 -1 -47 -10 -47 -26c0 -13 7 -31 18 -47l146 -221l145 222c10 15 14 31 14 42c-1 22 -16 30 -68 31v19h218z" />
    <glyph glyph-name="uni0179" unicode="&#x179;" horiz-adv-x="612" 
d="M238 719l147 148c18 18 27 23 42 23c22 0 35 -12 35 -32c0 -16 -9 -29 -30 -42l-154 -97h-40zM598 176l-25 -176h-563v15l437 609h-214c-71 0 -110 -11 -134 -35c-25 -26 -31 -43 -41 -98h-26l21 171h525v-15l-432 -609h252c56 0 92 10 117 28c33 23 42 51 60 110h23z
" />
    <glyph glyph-name="uni017A" unicode="&#x17a;" horiz-adv-x="444" 
d="M154 507l147 148c18 18 27 23 42 23c22 0 35 -12 35 -32c0 -16 -9 -29 -30 -42l-154 -97h-40zM418 136l-15 -136h-376v15l266 405h-135c-63 0 -78 -15 -87 -88h-18l4 118h346v-15l-269 -405h133c58 0 92 10 106 27s17 33 27 83z" />
    <glyph glyph-name="uni017B" unicode="&#x17b;" horiz-adv-x="612" 
d="M369 784c0 -29 -23 -49 -50 -49s-49 22 -49 49s19 50 49 50c31 0 50 -22 50 -50zM598 176l-25 -176h-563v15l437 609h-214c-71 0 -110 -11 -134 -35c-25 -26 -31 -43 -41 -98h-26l21 171h525v-15l-432 -609h252c56 0 92 10 117 28c33 23 42 51 60 110h23z" />
    <glyph glyph-name="uni017C" unicode="&#x17c;" horiz-adv-x="444" 
d="M287 572c0 -29 -23 -49 -50 -49s-49 22 -49 49s19 50 49 50c31 0 50 -22 50 -50zM418 136l-15 -136h-376v15l266 405h-135c-63 0 -78 -15 -87 -88h-18l4 118h346v-15l-269 -405h133c58 0 92 10 106 27s17 33 27 83z" />
    <glyph glyph-name="Zcaron" unicode="&#x17d;" horiz-adv-x="612" 
d="M464 924l-124 -167h-64l-123 167h35l120 -103l121 103h35zM598 176l-25 -176h-563v15l437 609h-214c-71 0 -110 -11 -134 -35c-25 -26 -31 -43 -41 -98h-26l21 171h525v-15l-432 -609h252c56 0 92 10 117 28c33 23 42 51 60 110h23z" />
    <glyph glyph-name="zcaron" unicode="&#x17e;" horiz-adv-x="444" 
d="M384 674l-124 -167h-64l-123 167h35l120 -103l121 103h35zM418 136l-15 -136h-376v15l266 405h-135c-63 0 -78 -15 -87 -88h-18l4 118h346v-15l-269 -405h133c58 0 92 10 106 27s17 33 27 83z" />
    <glyph glyph-name="uni017F" unicode="&#x17f;" horiz-adv-x="334" 
d="M76 450h27c0 34 2 69 8 94c20 86 74 139 168 139c15 0 42 -2 64 -12c27 -12 40 -29 40 -50c0 -22 -19 -41 -41 -41c-21 0 -33 14 -45 34c-17 29 -31 41 -53 41c-42 0 -57 -33 -57 -91v-476c0 -29 7 -49 18 -58c13 -10 38 -14 75 -15v-15h-260v15c34 2 54 6 65 16
c12 9 18 30 18 59v328h-27v32z" />
    <glyph glyph-name="uni0180" unicode="&#x180;" horiz-adv-x="500" 
d="M157 509v-133c21 51 74 84 135 84c107 0 180 -96 180 -220c0 -148 -102 -250 -234 -250c-81 0 -165 32 -165 66v453h-92v31h92v26c0 50 -8 58 -49 58c-7 0 -12 -1 -17 -2v17l30 9c47 14 73 20 115 35l5 -2v-141h187v-31h-187zM157 318v-244c0 -32 45 -52 97 -52
c57 0 130 35 130 178c0 59 -21 197 -128 197c-53 0 -99 -37 -99 -79z" />
    <glyph glyph-name="uni0188" unicode="&#x188;" horiz-adv-x="500" 
d="M398 156l14 -9c-40 -85 -96 -157 -198 -157c-117 0 -189 103 -189 220c0 92 37 169 101 212c33 23 72 38 120 38c26 0 54 -6 79 -16c4 67 47 115 116 115c33 0 70 -22 70 -58c0 -16 -8 -28 -25 -28c-42 0 -24 61 -67 61c-35 0 -40 -45 -40 -83c0 -18 1 -35 1 -45
c10 -13 18 -30 18 -47c0 -25 -21 -44 -46 -44c-74 0 -28 116 -108 116c-93 0 -142 -73 -142 -178c0 -91 51 -191 153 -191c69 0 107 40 143 94z" />
    <glyph glyph-name="uni0190" unicode="&#x190;" horiz-adv-x="580" 
d="M526 168l36 -9c-1 -40 -22 -75 -60 -107c-48 -39 -113 -58 -197 -58c-118 0 -272 42 -272 178c0 83 51 165 137 180c-74 35 -126 64 -126 146c0 129 145 185 265 186c40 0 76 -5 107 -14c49 -14 103 -58 103 -107c0 -28 -17 -60 -47 -60s-51 26 -64 81
c-9 35 -61 56 -95 56c-110 0 -165 -55 -165 -166c0 -65 45 -97 134 -97c19 0 83 11 105 11c17 0 46 -8 46 -29c0 -26 -52 -42 -74 -42c-15 0 -68 5 -81 5c-91 0 -141 -52 -141 -141c0 -85 63 -127 190 -127c110 0 161 14 199 114z" />
    <glyph glyph-name="florin" unicode="&#x192;" horiz-adv-x="434" 
d="M62 437h114c17 180 65 269 159 269c47 0 91 -29 91 -68c0 -25 -17 -45 -42 -45c-20 0 -41 11 -41 33c0 24 9 26 9 39c0 7 -9 12 -21 12c-17 0 -31 -6 -40 -18c-27 -37 -32 -157 -32 -222h119v-31h-120c-1 -156 -29 -411 -51 -468c-27 -67 -62 -97 -115 -97
c-47 0 -86 29 -86 69c0 27 15 45 42 45c22 0 39 -14 39 -36c0 -9 -1 -17 -6 -27c-4 -7 -5 -11 -5 -14c1 -8 9 -13 21 -13c46 0 69 57 69 174c0 43 -2 122 -2 149c0 66 3 130 8 218h-110v31z" />
    <glyph glyph-name="uni0195" unicode="&#x195;" horiz-adv-x="735" 
d="M427 287v-161c0 -46 39 -95 87 -95c100 0 166 113 166 202c0 151 -102 144 -102 195c0 20 25 32 43 32c79 0 89 -149 89 -205c0 -132 -62 -265 -213 -265c-96 0 -154 36 -154 138v172c0 52 -13 106 -76 106c-46 0 -83 -32 -110 -63v-241c0 -62 6 -82 68 -87v-15h-216v15
c63 7 64 25 64 86v477c0 42 -15 46 -48 46c-5 0 -8 0 -15 -1v16c48 14 94 28 142 44l5 -3v-304c23 29 65 84 146 84c123 0 124 -116 124 -173z" />
    <glyph glyph-name="uni0199" unicode="&#x199;" horiz-adv-x="500" 
d="M505 0h-218v15h19c8 0 21 3 21 16c0 8 -8 19 -21 36l-140 184v-184c0 -41 22 -49 55 -51l20 -1v-15h-234v15c67 11 75 13 75 65v385c0 117 94 218 223 218c47 0 93 -19 93 -56c0 -23 -21 -38 -40 -38c-43 0 -53 60 -89 60c-50 0 -103 -57 -103 -139v-249l137 122
c15 13 23 28 23 35c0 11 -8 17 -50 17v15h204v-15c-27 0 -49 -2 -80 -18c-36 -19 -99 -74 -125 -98l-40 -37l155 -197c51 -64 88 -68 115 -70v-15z" />
    <glyph glyph-name="uni019A" unicode="&#x19a;" horiz-adv-x="278" 
d="M257 0h-236v15c63 5 77 22 77 77v255h-77v31h77v183c0 48 -10 64 -42 64c-8 0 -21 0 -37 -2v16c69 17 106 27 158 44l5 -4v-301h75v-31h-75v-260c0 -55 11 -68 75 -72v-15z" />
    <glyph glyph-name="uni019B" unicode="&#x19b;" horiz-adv-x="520" 
d="M516 0h-133v15c31 0 46 8 46 24c0 4 -1 11 -4 18l-97 276l-112 -250c-6 -14 -13 -30 -13 -41c0 -18 14 -25 57 -27v-15h-205v15c26 3 43 12 53 34l132 282c19 41 42 87 42 101c0 19 -13 50 -17 61l-194 -194v54l177 176c-2 4 -4 8 -6 11c-16 24 -36 44 -50 44
c-6 0 -15 -1 -26 -7c-18 -10 -34 -13 -52 -13c-24 0 -43 21 -43 46c0 33 27 58 70 58c60 0 100 -32 139 -108l106 108v-54l-88 -90l168 -458c14 -37 26 -48 50 -51v-15z" />
    <glyph glyph-name="uni019E" unicode="&#x19e;" horiz-adv-x="500" 
d="M485 -233h-208l1 15c50 4 62 24 62 90v432c0 71 -24 101 -73 101c-33 0 -57 -12 -103 -57v-276c0 -39 14 -53 65 -57v-15h-211v15c51 4 62 20 62 79v243c0 49 -7 65 -35 65c-11 0 -22 -1 -29 -4v17c55 16 88 27 137 45l8 -3v-78h1c52 59 98 81 144 81
c76 0 118 -55 118 -154v-454c0 -54 12 -65 61 -70v-15z" />
    <glyph glyph-name="uni01A0" unicode="&#x1a0;" horiz-adv-x="722" 
d="M552 627h-14c93 -59 150 -167 150 -296c0 -206 -135 -345 -327 -345c-194 0 -327 140 -327 348c0 203 132 342 327 342c46 0 89 -8 127 -23c15 -4 34 -8 55 -8c40 0 55 4 55 23c-18 10 -34 24 -34 46c0 19 19 40 46 40s49 -21 49 -56c0 -37 -25 -60 -66 -68
c-13 -2 -27 -3 -41 -3zM574 337c0 114 -34 208 -91 256c-36 30 -76 47 -123 47c-54 0 -104 -22 -143 -67c-43 -49 -69 -146 -69 -241c0 -119 29 -209 90 -265c34 -31 78 -45 124 -45c50 0 94 15 129 48c55 53 83 147 83 267z" />
    <glyph glyph-name="uni01A1" unicode="&#x1a1;" horiz-adv-x="545" 
d="M471 382l-1 4c-18 13 -34 25 -34 47c0 19 19 41 46 41c24 0 49 -21 49 -56c0 -37 -25 -61 -67 -69l-20 -4c17 -32 26 -71 26 -114c0 -139 -90 -241 -225 -241c-121 0 -216 99 -216 238s90 232 225 232c76 0 141 -35 179 -95c15 1 38 10 38 17zM380 204
c0 68 -18 137 -50 178c-24 30 -52 50 -95 50c-69 0 -116 -59 -116 -159c0 -79 16 -151 53 -205c22 -32 54 -50 90 -50c74 0 118 70 118 186z" />
    <glyph glyph-name="uni01A5" unicode="&#x1a5;" horiz-adv-x="500" 
d="M159 535v-154c44 55 88 79 144 79c97 0 167 -89 167 -213c0 -145 -91 -257 -210 -257c-42 0 -65 10 -101 43v-157c0 -63 13 -74 88 -75v-18h-242v17c59 6 70 17 70 69v582c0 117 41 218 170 218c47 0 93 -19 93 -56c0 -23 -21 -38 -40 -38c-43 0 -53 60 -89 60
c-29 0 -50 -20 -50 -100zM159 334v-246c0 -30 57 -66 104 -66c72 0 121 75 121 185c0 117 -49 193 -123 193c-46 0 -102 -36 -102 -66z" />
    <glyph glyph-name="uni01AA" unicode="&#x1aa;" horiz-adv-x="432" 
d="M412 -177c0 -44 -59 -56 -92 -56c-114 0 -173 80 -173 188c0 177 44 355 52 532c-19 -15 -43 -24 -69 -24c-60 0 -110 50 -110 110c0 59 50 111 110 111c102 0 155 -98 155 -190c0 -191 -54 -409 -54 -603c0 -36 4 -90 51 -90c37 0 47 60 90 60c21 0 40 -17 40 -38z
M201 545c-1 46 -8 105 -65 105c-46 0 -82 -28 -82 -77c0 -42 34 -76 76 -76c32 0 60 20 71 48z" />
    <glyph glyph-name="uni01AB" unicode="&#x1ab;" horiz-adv-x="290" 
d="M266 77l13 -11c-2 -29 -2 -59 -2 -89c0 -100 -2 -195 -101 -195c-47 0 -93 19 -93 56c0 23 21 38 40 38c43 0 53 -60 89 -60c32 0 38 93 38 155c0 38 -2 47 -2 53c-2 -4 -40 -34 -86 -34c-51 0 -92 27 -92 127v301h-53c-2 1 -4 4 -4 7c0 13 22 18 44 40
c47 45 88 114 91 114c6 0 6 -8 6 -13v-116h101v-32h-101v-286c0 -31 0 -90 51 -90c32 0 50 22 61 35z" />
    <glyph glyph-name="uni01AD" unicode="&#x1ad;" horiz-adv-x="310" 
d="M17 418l-3 7c0 7 47 43 56 54c0 111 46 204 170 204c34 0 93 -12 93 -56c0 -21 -19 -38 -39 -38c-43 0 -53 60 -90 60c-46 0 -50 -58 -50 -100v-99h101v-32h-101v-288c0 -35 2 -88 51 -88c28 0 45 16 61 35l13 -11c-27 -42 -63 -76 -120 -76c-72 0 -89 62 -89 127v301
h-53z" />
    <glyph glyph-name="uni01AF" unicode="&#x1af;" horiz-adv-x="766" 
d="M750 682l-1 4c-15 10 -35 23 -35 46c0 18 18 42 47 42c24 0 49 -20 49 -56c0 -45 -38 -67 -80 -72l-34 -4c-76 -9 -85 -35 -85 -126v-255c0 -97 -9 -151 -54 -202c-42 -48 -110 -73 -202 -73c-73 0 -129 15 -170 46c-55 41 -81 111 -81 217v310c0 67 -11 78 -90 84v19
h283v-19c-80 -7 -91 -19 -91 -94v-312c0 -78 4 -123 44 -162c29 -28 71 -45 128 -45c64 0 120 22 152 59c33 40 37 80 37 161v263c0 103 -13 125 -94 130v19h231c20 0 46 13 46 20z" />
    <glyph glyph-name="uni01B0" unicode="&#x1b0;" horiz-adv-x="500" 
d="M259 450h158c24 0 61 8 61 19c0 24 -34 17 -34 55c0 18 17 37 46 37c22 0 49 -20 49 -56c0 -45 -38 -72 -93 -72h-29v-326c0 -46 11 -57 57 -57h6v-14c-51 -14 -87 -25 -137 -45l-5 3v82h-2c-49 -67 -106 -86 -143 -86c-77 0 -122 51 -122 128v251c0 50 -14 64 -62 67v14
h146v-323c0 -46 32 -79 71 -79c29 0 59 9 84 31c16 14 23 23 23 58v231c0 53 -14 61 -74 65v17z" />
    <glyph glyph-name="uni01B5" unicode="&#x1b5;" horiz-adv-x="612" 
d="M598 176l-25 -176h-563v15l216 302h-124v43h155l190 264h-214c-71 0 -110 -11 -134 -35c-25 -26 -31 -43 -41 -98h-26l21 171h525v-15l-204 -287h145v-43h-175l-198 -279h252c56 0 92 10 117 28c33 23 42 51 60 110h23z" />
    <glyph glyph-name="uni01BA" unicode="&#x1ba;" horiz-adv-x="381" 
d="M360 429l-191 -186s37 17 66 17c76 0 124 -52 124 -123c0 -46 -27 -79 -61 -106c0 0 -121 -67 -172 -101c-24 -16 -35 -36 -35 -67c0 -40 35 -70 87 -70c36 0 69 21 76 55c9 44 28 64 52 64c30 0 48 -21 48 -44c0 -18 -12 -50 -43 -70c-32 -20 -82 -32 -125 -32
c-36 0 -68 13 -91 29c-35 25 -51 60 -51 98c0 54 29 89 67 113c50 31 74 44 134 75c24 13 36 29 36 58c0 39 -31 65 -89 65c-52 0 -74 -11 -112 -48c0 0 -14 11 -20 18l211 212h-165c-29 0 -78 -31 -85 -85h-17l32 149h324v-21z" />
    <glyph glyph-name="uni01BB" unicode="&#x1bb;" horiz-adv-x="500" 
d="M482 360v-46c-45 -1 -90 -1 -135 -1c-15 -21 -34 -41 -52 -61l-165 -176h234c52 0 71 24 96 67l14 -6l-54 -137h-391v12l178 189c32 34 64 71 87 112l-272 1v46h296c12 32 19 66 19 101c0 88 -51 141 -139 141c-87 0 -117 -57 -147 -130l-21 5c21 115 83 199 208 199
c104 0 185 -69 185 -176c0 -51 -17 -97 -43 -140h102z" />
    <glyph glyph-name="uni01BE" unicode="&#x1be;" horiz-adv-x="500" 
d="M212 447l3 -62c7 1 16 1 23 1c113 0 189 -100 189 -207c0 -128 -74 -191 -201 -191c-56 0 -153 35 -153 103c0 25 21 44 46 44c69 0 36 -128 121 -128c67 0 91 106 91 158c0 85 -74 133 -150 133h-20v149h-77v31h77v61h47l3 -61h78v-31h-77z" />
    <glyph glyph-name="uni01C0" unicode="&#x1c0;" horiz-adv-x="160" 
d="M105 0h-51v736h51v-736z" />
    <glyph glyph-name="uni01C1" unicode="&#x1c1;" horiz-adv-x="280" 
d="M225 0h-51v736h51v-736zM105 0h-51v736h51v-736z" />
    <glyph glyph-name="uni01C2" unicode="&#x1c2;" horiz-adv-x="435" 
d="M400 272h-157v-272h-51v272h-158v51h158v90h-158v51h158v272h51v-272h157v-51h-157v-90h157v-51z" />
    <glyph glyph-name="uni01C3" unicode="&#x1c3;" horiz-adv-x="333" 
d="M177 176l-45 381c-1 11 -2 26 -2 38c0 49 19 81 53 81c38 0 53 -33 53 -76c0 -11 -1 -23 -3 -43l-42 -381h-14zM236 43c0 -30 -22 -52 -52 -52c-31 0 -54 22 -54 51c0 30 24 55 53 55c30 0 53 -24 53 -54z" />
    <glyph glyph-name="uni01F0" unicode="&#x1f0;" horiz-adv-x="278" 
d="M294 674l-124 -167h-64l-123 167h35l120 -103l121 103h35zM193 457v-457c0 -142 -59 -218 -170 -218c-54 0 -93 23 -93 55c0 22 18 39 41 39c16 0 30 -9 48 -32c17 -21 27 -28 42 -28c14 0 28 8 34 18c11 20 14 45 14 121v379c0 43 -9 60 -32 60c-10 0 -24 0 -40 -3
l-5 -1v16c59 18 97 31 156 54z" />
    <glyph glyph-name="uni01FA" unicode="&#x1fa;" horiz-adv-x="722" 
d="M379 646l234 -535c28 -65 42 -86 94 -92v-19h-255v19c36 0 43 2 55 9c8 4 14 15 14 24c0 15 -7 42 -19 70l-41 94h-262l-46 -114c-5 -13 -9 -30 -9 -42c0 -31 22 -41 70 -41v-19h-199v19c58 6 67 27 126 167l194 460c-32 10 -56 41 -56 77c0 44 36 79 81 79
c43 0 78 -36 78 -80c0 -36 -24 -67 -59 -76zM447 257l-116 275l-115 -275h231zM405 724c0 25 -21 45 -48 45c-23 0 -45 -21 -45 -45c0 -27 21 -48 45 -48c28 0 48 21 48 48zM256 798l141 121c17 15 22 19 40 19s25 -10 25 -26c0 -15 -13 -24 -32 -35l-141 -79h-33z" />
    <glyph glyph-name="uni01FB" unicode="&#x1fb;" horiz-adv-x="444" 
d="M118 719l147 148c18 18 27 23 42 23c22 0 35 -12 35 -32c0 -16 -9 -29 -30 -42l-154 -97h-40zM330 611c0 -55 -45 -99 -101 -99c-55 0 -98 44 -98 100c0 55 45 99 101 99c53 0 98 -46 98 -100zM296 612c0 36 -30 65 -67 65c-34 0 -64 -30 -64 -65c0 -37 29 -66 64 -66
c38 0 67 29 67 66zM442 66v-28c-30 -38 -56 -48 -90 -48c-37 0 -59 20 -64 73h-1c-53 -60 -102 -73 -145 -73c-62 0 -105 38 -105 104c0 52 31 91 70 117c30 20 67 39 180 81v54c0 62 -33 90 -78 90c-40 0 -70 -22 -70 -49c0 -18 6 -21 6 -42c0 -19 -20 -41 -46 -41
c-21 0 -43 19 -43 46c0 26 16 58 51 80c28 18 70 30 115 30c56 0 94 -16 118 -45s28 -50 28 -111v-191c0 -46 13 -66 31 -66c16 0 26 5 43 19zM287 127v141c-62 -22 -103 -43 -128 -66c-24 -22 -34 -46 -34 -77c0 -53 30 -77 69 -77c20 0 41 5 58 16c29 20 35 34 35 63z" />
    <glyph glyph-name="uni01FC" unicode="&#x1fc;" horiz-adv-x="889" 
d="M433 719l147 148c18 18 27 23 42 23c22 0 35 -12 35 -32c0 -16 -9 -29 -30 -42l-154 -97h-40zM863 168l-44 -168h-509v19l17 2c62 7 71 25 71 91v148h-176c-69 -131 -92 -189 -92 -212c0 -14 24 -25 67 -29h1v-19h-198v19c43 6 58 19 88 78l245 484c6 11 9 22 9 28
c0 22 -28 33 -90 33v20h564v-141h-23c-13 91 -38 105 -184 105h-84c-19 0 -28 -15 -28 -37v-223h104c98 0 137 17 139 98h21v-235h-21c-9 79 -33 100 -102 100h-141v-235c0 -50 6 -56 70 -56h73c112 0 146 20 199 130h24zM398 299v319l-158 -319h158z" />
    <glyph glyph-name="uni01FD" unicode="&#x1fd;" horiz-adv-x="667" 
d="M218 507l147 148c18 18 27 23 42 23c22 0 35 -12 35 -32c0 -16 -9 -29 -30 -42l-154 -97h-40zM620 154l12 -5c-29 -62 -48 -91 -79 -116c-35 -29 -74 -40 -118 -40c-57 0 -95 18 -129 70c-68 -57 -102 -70 -152 -70c-68 0 -116 42 -116 107c0 60 8 117 107 145l129 36v63
c0 64 -15 90 -61 90c-38 0 -68 -19 -68 -42c0 -15 3 -23 3 -42c0 -28 -17 -46 -44 -46s-44 18 -44 48c0 61 69 108 159 108c50 0 80 -13 118 -47c45 35 72 47 119 47c102 0 149 -54 160 -183h-262c1 -100 6 -131 27 -170c17 -30 54 -50 95 -50c57 0 96 26 144 97zM355 307
h166c-2 88 -25 122 -79 122c-57 0 -82 -34 -87 -122zM274 201v52c-121 -44 -149 -68 -149 -128c0 -47 20 -87 66 -87c37 0 102 32 102 50c0 1 -1 2 -1 3c-12 39 -18 75 -18 110z" />
    <glyph glyph-name="uni01FE" unicode="&#x1fe;" horiz-adv-x="722" 
d="M245 719l147 148c18 18 27 23 42 23c22 0 35 -12 35 -32c0 -16 -9 -29 -30 -42l-154 -97h-40zM658 734l-88 -130c43 -40 61 -61 79 -99c23 -48 39 -112 39 -173c0 -205 -134 -346 -329 -346c-67 0 -113 13 -175 50l-79 -116h-49l95 139c-44 40 -61 61 -79 99
c-24 49 -38 111 -38 172c0 203 135 346 328 346c66 0 111 -13 175 -49l72 107h49zM194 123l308 452c-44 46 -85 65 -141 65c-131 0 -213 -119 -213 -310c0 -88 12 -143 46 -207zM527 540l-308 -452c43 -47 84 -66 142 -66c132 0 213 117 213 308c0 89 -13 145 -47 210z" />
    <glyph glyph-name="uni01FF" unicode="&#x1ff;" horiz-adv-x="500" 
d="M131 507l147 148c18 18 27 23 42 23c22 0 35 -12 35 -32c0 -16 -9 -29 -30 -42l-154 -97h-40zM437 551l-65 -125c67 -46 98 -108 98 -192c0 -139 -96 -244 -223 -244c-35 0 -58 5 -93 21l-65 -123h-37l73 140c-36 29 -49 44 -65 73c-20 37 -31 82 -31 126
c0 136 91 233 220 233c33 0 57 -5 92 -18l57 109h39zM158 92l159 304c-27 26 -49 36 -80 36c-71 0 -118 -62 -118 -155c0 -70 12 -127 39 -185zM340 366l-161 -306c25 -30 48 -42 82 -42c75 0 119 68 119 185c0 64 -11 108 -40 163z" />
    <glyph glyph-name="uni0221" unicode="&#x221;" horiz-adv-x="671" 
d="M424 681v-591c0 -21 11 -42 22 -59c32 54 76 128 147 128c35 0 59 -35 59 -68c0 -26 -12 -48 -31 -65c-36 -32 -82 -36 -127 -36h-34c-28 -46 -53 -92 -77 -140h-36c24 49 50 97 77 144c-33 7 -67 32 -77 66c-33 -44 -80 -70 -135 -70c-123 0 -185 102 -185 215
c0 119 75 255 208 255c44 0 72 -15 105 -43v156c0 41 -13 52 -42 52c-8 0 -16 -1 -26 -2v16c50 13 99 27 147 44zM480 20h26c43 0 116 13 116 69c0 19 -12 40 -33 40c-51 0 -88 -70 -109 -109zM340 102v230c0 54 -49 100 -102 100c-96 0 -125 -109 -125 -187
c0 -86 32 -203 138 -203c28 0 55 10 74 32c6 7 15 19 15 28z" />
    <glyph glyph-name="uni0234" unicode="&#x234;" horiz-adv-x="429" 
d="M182 679v-568c0 -28 3 -58 22 -80c32 54 76 128 147 128c35 0 59 -35 59 -68c0 -26 -12 -48 -31 -65c-36 -32 -82 -36 -127 -36h-34c-28 -46 -53 -92 -77 -140h-36c24 49 50 97 77 144c-62 12 -84 65 -84 123v444c0 38 -4 64 -48 64c-10 0 -21 -1 -31 -2v16
c53 13 106 27 158 44zM238 20h26c43 0 116 13 116 69c0 19 -12 40 -33 40c-51 0 -87 -70 -109 -109z" />
    <glyph glyph-name="uni0235" unicode="&#x235;" horiz-adv-x="672" 
d="M424 306v-216c0 -20 10 -43 24 -57c30 51 76 126 143 126c37 0 62 -35 62 -70c0 -78 -96 -89 -162 -89h-24c-30 -49 -58 -99 -83 -150h-36c26 51 53 101 81 150h-152v15c59 4 63 40 63 90v199c0 51 -12 101 -73 101c-43 0 -75 -29 -103 -57v-276c0 -45 25 -55 65 -57v-15
h-211v15c56 3 62 29 62 79v251c0 25 -1 57 -35 57c-10 0 -20 -1 -29 -4v17c46 13 92 28 137 45l8 -3v-78h1c37 42 85 81 144 81c90 0 118 -76 118 -154zM623 90c0 21 -16 40 -38 40c-40 0 -81 -69 -99 -100c7 0 14 -1 21 -1c39 0 116 8 116 61z" />
    <glyph glyph-name="uni0236" unicode="&#x236;" horiz-adv-x="401" 
d="M154 418v-286c0 -29 2 -78 22 -101c32 54 76 128 147 128c35 0 59 -35 59 -68c0 -26 -12 -48 -31 -65c-36 -32 -82 -36 -127 -36h-34c-27 -46 -53 -93 -77 -140h-36c23 49 49 97 76 144c-64 12 -83 63 -83 123v301h-53c-3 2 -4 4 -4 7c0 9 11 15 17 19
c40 26 70 68 97 107c7 9 14 18 20 28c7 1 7 -9 7 -13v-116h101v-32h-101zM210 20h26c43 0 116 13 116 69c0 19 -12 40 -33 40c-51 0 -88 -70 -109 -109z" />
    <glyph glyph-name="uni0237" unicode="&#x237;" horiz-adv-x="278" 
d="M193 457v-457c0 -142 -59 -218 -170 -218c-54 0 -93 23 -93 55c0 22 18 39 41 39c16 0 30 -9 48 -32c17 -21 27 -28 42 -28c14 0 28 8 34 18c11 20 14 45 14 121v379c0 43 -9 60 -32 60c-10 0 -24 0 -40 -3l-5 -1v16c59 18 97 31 156 54z" />
    <glyph glyph-name="uni0250" unicode="&#x250;" horiz-adv-x="444" 
d="M162 387h1c53 60 102 73 145 73c62 0 105 -38 105 -104c0 -52 -31 -91 -70 -117c-30 -20 -67 -39 -180 -81v-54c0 -62 33 -90 78 -90c40 0 70 22 70 49c0 18 -6 21 -6 42c0 19 20 41 46 41c21 0 43 -19 43 -46c0 -26 -16 -58 -51 -80c-28 -18 -70 -30 -115 -30
c-56 0 -94 16 -118 45s-28 50 -28 111v191c0 46 -13 66 -31 66c-16 0 -26 -5 -43 -19v28c30 38 56 48 90 48c37 0 59 -20 64 -73zM163 323v-141c62 22 103 43 128 66c24 22 34 46 34 77c0 53 -30 77 -69 77c-20 0 -41 -5 -58 -16c-29 -20 -35 -34 -35 -63z" />
    <glyph glyph-name="uni0251" unicode="&#x251;" horiz-adv-x="500" 
d="M491 58v-16l-147 -52l-4 3v61h-2c-18 -27 -55 -64 -129 -64c-39 0 -182 20 -182 224c0 131 95 246 207 246c43 0 73 -14 106 -43l63 43h21v-346c0 -37 0 -57 49 -57c5 0 11 0 18 1zM340 102v230c-7 68 -56 100 -103 100c-56 0 -124 -49 -124 -185
c0 -149 72 -205 138 -205c42 0 81 24 89 60z" />
    <glyph glyph-name="uni0252" unicode="&#x252;" horiz-adv-x="500" 
d="M178 396h2c18 27 55 64 129 64c39 0 182 -20 182 -224c0 -131 -95 -246 -207 -246c-43 0 -73 14 -106 43l-63 -43h-21v346c0 37 0 57 -49 57c-5 0 -11 0 -18 -1v16l147 52l4 -3v-61zM178 348v-230c7 -68 56 -100 103 -100c56 0 124 49 124 185c0 149 -72 205 -138 205
c-42 0 -81 -24 -89 -60z" />
    <glyph glyph-name="uni0253" unicode="&#x253;" horiz-adv-x="500" 
d="M153 510v-134c13 35 59 84 135 84c120 0 180 -112 180 -224c0 -90 -58 -246 -238 -246c-67 0 -161 29 -161 66v409c0 117 94 218 223 218c47 0 93 -19 93 -56c0 -23 -21 -38 -40 -38c-43 0 -53 60 -89 60c-50 0 -103 -57 -103 -139zM153 316v-243c0 -35 55 -51 94 -51
c115 0 133 111 133 177c0 93 -36 198 -130 198c-33 0 -97 -24 -97 -81z" />
    <glyph glyph-name="uni0254" unicode="&#x254;" horiz-adv-x="444" 
d="M24 293l-14 9c32 62 52 91 82 115c34 28 72 42 115 42c111 0 190 -93 190 -222c0 -83 -30 -152 -84 -197c-40 -33 -88 -51 -135 -51c-84 0 -154 47 -154 103c0 23 21 42 47 42c22 0 40 -17 48 -46l6 -22c10 -37 23 -48 59 -48c81 0 136 70 136 174
c0 115 -63 195 -155 195c-57 0 -93 -24 -141 -94z" />
    <glyph glyph-name="uni0255" unicode="&#x255;" horiz-adv-x="444" 
d="M84 -160l79 158c-83 32 -138 106 -138 215c0 164 117 247 221 247c36 0 79 -11 107 -31c29 -21 45 -45 45 -70c0 -23 -17 -44 -47 -44c-26 0 -42 22 -48 46c-13 52 -17 70 -70 70c-40 0 -131 -31 -131 -178c0 -75 46 -148 103 -193c50 63 71 89 127 89
c52 0 85 -28 85 -74c0 -50 -39 -91 -122 -91h-22c-25 0 -50 1 -73 6l-80 -150h-36zM384 76c0 30 -19 47 -51 47c-48 0 -67 -29 -103 -82c23 -13 46 -21 68 -21c75 0 86 28 86 56z" />
    <glyph glyph-name="uni0256" unicode="&#x256;" horiz-adv-x="553" 
d="M424 681v-796c0 -37 4 -84 46 -84c36 0 46 60 89 60c21 0 40 -17 40 -38c0 -44 -59 -56 -93 -56c-150 0 -166 120 -166 235v55c-30 -47 -79 -67 -131 -67c-126 0 -182 110 -182 224s82 246 207 246c43 0 74 -15 106 -43v156c0 41 -11 51 -41 51c-8 0 -17 0 -27 -1v16
c50 13 99 27 147 44zM340 102v230c0 55 -50 100 -103 100c-95 0 -124 -109 -124 -185c0 -86 32 -205 138 -205c30 0 89 23 89 60z" />
    <glyph glyph-name="uni0257" unicode="&#x257;" horiz-adv-x="587" 
d="M340 417v48c0 117 40 218 169 218c47 0 93 -19 93 -56c0 -23 -21 -38 -40 -38c-43 0 -53 60 -89 60c-44 0 -49 -44 -49 -110v-425c0 -37 1 -57 45 -57c5 0 15 0 22 1v-16l-147 -52l-4 3v64c-20 -28 -53 -67 -127 -67c-20 0 -62 1 -108 34c-41 30 -78 90 -78 183
c0 141 95 253 207 253c43 0 73 -14 106 -43zM340 102v225c0 68 -56 105 -103 105c-56 0 -124 -49 -124 -185c0 -149 71 -205 139 -205c42 0 80 24 88 60z" />
    <glyph glyph-name="uni0258" unicode="&#x258;" horiz-adv-x="444" 
d="M350 277h-311c11 131 82 183 176 183c80 0 204 -61 204 -246c0 -142 -76 -224 -187 -224c-144 0 -202 136 -212 167l16 7c23 -37 66 -105 155 -105c66 0 147 41 159 218zM141 309h206c-16 88 -55 115 -110 115c-79 0 -89 -67 -96 -115z" />
    <glyph glyph-name="uni0259" unicode="&#x259;" horiz-adv-x="444" 
d="M30 286l-16 7c10 31 68 167 212 167c111 0 187 -82 187 -224c0 -185 -124 -246 -204 -246c-94 0 -165 52 -176 183h311c-12 177 -93 218 -159 218c-89 0 -132 -68 -155 -105zM341 141h-206c7 -48 17 -115 96 -115c55 0 94 27 110 115z" />
    <glyph glyph-name="uni025A" unicode="&#x25a;" horiz-adv-x="657" 
d="M621 293l30 -12c-11 -36 -43 -71 -83 -71c-74 0 -84 56 -84 114c0 21 1 49 1 61l-79 -47c19 -34 31 -73 31 -113c0 -111 -99 -238 -216 -238c-101 0 -177 66 -185 168l289 167c-24 54 -73 100 -135 100c-45 0 -98 -23 -133 -51l-17 9c48 50 79 80 152 80
c81 0 153 -33 200 -99l119 69l6 -4v-14c0 -5 -2 -101 -2 -119c0 -29 24 -53 53 -53s45 28 53 53zM335 296l-259 -152c0 -62 39 -116 105 -116c101 0 164 105 164 197c0 24 -4 48 -10 71z" />
    <glyph glyph-name="uni025B" unicode="&#x25b;" horiz-adv-x="438" 
d="M377 84l12 -12c-46 -56 -107 -86 -179 -86c-46 0 -97 13 -131 34c-35 21 -59 63 -59 103c0 41 24 82 61 102c22 12 42 18 82 24v2c-77 16 -116 52 -116 107c0 70 66 117 164 117c38 0 88 -13 113 -30c30 -20 43 -52 43 -70c0 -23 -18 -44 -48 -44c-26 0 -42 27 -48 49
c-13 45 -20 62 -46 62c-52 0 -90 -39 -90 -90c0 -25 13 -50 35 -68c19 -16 37 -20 75 -21v-30h-11c-71 0 -120 -43 -120 -104c0 -62 44 -107 107 -107c50 0 106 22 156 62z" />
    <glyph glyph-name="uni025C" unicode="&#x25c;" horiz-adv-x="438" 
d="M246 251v-2c40 -6 60 -12 82 -24c37 -20 61 -61 61 -102c0 -40 -24 -82 -59 -103c-34 -21 -85 -34 -131 -34c-72 0 -133 30 -179 86l12 12c50 -40 106 -62 156 -62c63 0 107 45 107 107c0 61 -49 104 -120 104h-11v30c38 1 56 5 75 21c22 18 35 43 35 68
c0 51 -38 90 -90 90c-26 0 -33 -17 -46 -62c-6 -22 -22 -49 -48 -49c-30 0 -48 21 -48 44c0 18 13 50 43 70c25 17 75 30 113 30c98 0 164 -47 164 -117c0 -55 -39 -91 -116 -107z" />
    <glyph glyph-name="uni025D" unicode="&#x25d;" horiz-adv-x="623" 
d="M573 293l30 -12c-10 -37 -43 -71 -83 -71c-75 0 -84 60 -84 119c0 30 1 39 1 56l-75 -43c-7 -56 -68 -82 -116 -91v-2c72 -11 143 -42 143 -126c0 -98 -108 -137 -190 -137c-71 0 -134 31 -179 86l12 12c44 -35 99 -62 156 -62c62 0 107 45 107 107
c0 76 -64 104 -131 104v30c55 1 110 27 110 89c0 51 -39 90 -90 90c-57 0 -29 -111 -96 -111c-25 0 -46 19 -46 44c0 72 98 100 156 100c67 0 154 -26 163 -104l102 59l6 -4l-1 -30c-1 -16 -1 -62 -1 -103c0 -29 24 -53 53 -53s48 27 53 53z" />
    <glyph glyph-name="uni025E" unicode="&#x25e;" horiz-adv-x="479" 
d="M287 251v-2c71 -11 143 -42 143 -126c0 -98 -108 -137 -190 -137c-152 0 -220 102 -220 248c0 136 77 241 219 241c72 0 164 -31 164 -117c0 -67 -59 -95 -116 -107zM205 233v30c54 1 110 26 110 89c0 51 -39 90 -90 90c-98 0 -140 -128 -140 -207
c0 -76 41 -213 135 -213c61 0 116 43 116 107c0 76 -65 104 -131 104z" />
    <glyph glyph-name="uni025F" unicode="&#x25f;" horiz-adv-x="315" 
d="M296 210h-82v-210c0 -142 -59 -218 -170 -218c-54 0 -93 23 -93 55c0 22 18 39 41 39c16 0 30 -9 48 -32c17 -21 27 -28 42 -28c14 0 28 8 34 18c11 20 14 45 14 121v255h-122v31h122v137c0 27 -5 46 -20 55c-12 7 -26 10 -55 12v15h236v-15c-31 -3 -47 -7 -58 -16
c-17 -14 -19 -36 -19 -62v-126h82v-31z" />
    <glyph glyph-name="uni0260" unicode="&#x260;" horiz-adv-x="594" 
d="M372 435v30c0 117 40 218 169 218c47 0 93 -19 93 -56c0 -23 -21 -38 -40 -38c-43 0 -53 60 -89 60c-50 0 -50 -57 -50 -139v-537c0 -111 -94 -185 -229 -185c-94 0 -171 36 -171 79c0 21 16 37 37 37c34 0 47 -37 68 -56c20 -18 56 -32 84 -32c38 0 76 17 99 45
c20 24 30 55 30 99v93c-40 -41 -94 -67 -142 -67c-107 0 -199 109 -199 235c0 137 107 254 233 254c39 0 70 -11 107 -40zM373 88v225c0 33 -11 65 -30 87c-22 25 -58 43 -88 43c-75 0 -131 -82 -131 -190c0 -116 68 -209 153 -209c34 0 69 16 96 44z" />
    <glyph glyph-name="uni0261" unicode="&#x261;" horiz-adv-x="537" 
d="M455 482v-509c0 -127 -116 -185 -229 -185c-43 0 -171 17 -171 79c0 21 16 37 37 37c49 0 56 -88 152 -88c85 0 129 65 129 144v93c-36 -37 -89 -67 -142 -67c-120 0 -199 125 -199 235c0 128 99 254 233 254c49 0 83 -20 119 -51c23 19 28 32 42 58h29zM373 88v225
c0 65 -48 130 -118 130c-94 0 -131 -113 -131 -190c0 -88 49 -209 153 -209c36 0 71 18 96 44z" />
    <glyph glyph-name="uni0262" unicode="&#x262;" horiz-adv-x="570" 
d="M539 235v-12c-40 -2 -50 -11 -50 -54v-131c0 -22 -152 -49 -188 -49c-83 0 -158 23 -207 70c-44 43 -64 102 -64 168c0 69 33 125 83 165c47 37 107 58 177 58c24 0 48 -5 97 -14c15 -3 35 -7 40 -7c15 0 27 8 32 21h16l5 -142h-16c-18 39 -31 58 -53 78
c-29 25 -68 36 -110 36c-48 0 -90 -11 -123 -42c-41 -39 -61 -97 -61 -169c0 -120 77 -195 194 -195c38 0 103 11 103 39v105c0 52 -8 62 -66 63v12h191z" />
    <glyph glyph-name="uni0263" unicode="&#x263;" horiz-adv-x="500" 
d="M480 450v-15c-38 -4 -46 -41 -54 -62l-110 -299l52 -108c15 -30 26 -57 26 -99c0 -63 -44 -101 -106 -101c-58 0 -104 21 -104 86c0 37 6 55 19 81l45 92l-145 309l-31 67c-11 24 -27 30 -53 34v15h205v-15c-19 -1 -57 -3 -57 -26c0 -8 3 -19 9 -33l116 -259l93 264
c4 12 8 24 8 30c0 22 -26 24 -46 24v15h133zM267 -13l-29 -68c-7 -17 -11 -37 -11 -56c0 -28 8 -64 41 -64c32 0 55 25 55 57c0 10 -6 30 -14 47z" />
    <glyph glyph-name="uni0264" unicode="&#x264;" horiz-adv-x="500" 
d="M266 263l83 125c21 31 38 62 80 62c30 0 57 -27 57 -57c0 -23 -11 -44 -22 -64c-8 23 -20 57 -50 57s-48 -26 -63 -49l-65 -100c21 -35 69 -105 69 -145c0 -59 -52 -102 -109 -102c-55 0 -96 28 -96 86c0 25 16 48 30 68l43 60l-90 137c-13 20 -33 45 -59 45
c-40 0 -45 -52 -52 -57c-5 14 -9 28 -9 42c0 42 36 79 78 79c51 0 82 -42 107 -81zM284 85c0 26 -30 67 -44 90c-18 -26 -55 -67 -55 -102c0 -29 24 -44 51 -44c32 0 48 27 48 56z" />
    <glyph glyph-name="uni0265" unicode="&#x265;" horiz-adv-x="500" 
d="M491 450v-15c-58 -8 -64 -17 -64 -87v-471c0 -43 8 -51 51 -51c4 0 9 0 12 1v-16l-27 -8c-57 -17 -80 -24 -115 -36l-5 3v304c-46 -60 -88 -84 -147 -84c-82 0 -123 54 -123 159v199c0 69 -6 77 -60 87v15h212v-15c-58 -6 -68 -18 -68 -87v-198c0 -70 25 -106 74 -106
c40 0 70 17 112 63v241c0 69 -10 81 -68 87v15h216z" />
    <glyph glyph-name="uni0266" unicode="&#x266;" horiz-adv-x="500" 
d="M487 0h-212v15c50 6 68 12 68 79v206c0 67 -22 106 -77 106c-29 0 -68 -15 -109 -63v-246c0 -71 19 -77 68 -82v-15h-216v15c54 8 64 13 64 84v399c0 103 77 185 183 185c94 0 171 -30 171 -73c0 -21 -16 -37 -37 -37c-26 0 -35 17 -58 45c-17 21 -44 40 -72 40
c-32 0 -54 -16 -75 -42c-17 -20 -28 -46 -28 -80v-160c41 55 86 84 146 84c123 0 124 -119 124 -159v-199c0 -73 10 -78 60 -87v-15z" />
    <glyph glyph-name="uni0267" unicode="&#x267;" horiz-adv-x="481" 
d="M427 298v-313c0 -117 -60 -218 -189 -218c-47 0 -93 19 -93 56c0 23 21 38 40 38c43 0 53 -60 89 -60c50 0 69 57 69 139v360c0 67 -22 106 -77 106c-29 0 -68 -15 -109 -63v-241c0 -77 19 -82 68 -87v-15h-216v15c54 7 64 14 64 87v396c0 103 77 185 183 185
c94 0 171 -30 171 -73c0 -21 -16 -37 -37 -37c-25 0 -33 14 -57 44c-19 24 -46 41 -72 41c-27 0 -55 -16 -76 -42c-17 -20 -28 -46 -28 -80v-160c39 53 85 84 146 84c123 0 124 -120 124 -162z" />
    <glyph glyph-name="uni0268" unicode="&#x268;" horiz-adv-x="278" 
d="M180 632c0 -29 -22 -51 -52 -51c-28 0 -50 22 -50 51c0 28 23 51 51 51c29 0 51 -23 51 -51zM253 0h-237v15c69 4 79 13 79 89v126h-79v31h79v70c0 47 -8 63 -33 63c-9 0 -24 0 -42 -5v16l155 55l4 -4v-195h74v-31h-74v-125c0 -74 8 -85 74 -90v-15z" />
    <glyph glyph-name="uni0269" unicode="&#x269;" horiz-adv-x="333" 
d="M295 80l16 -12c-25 -34 -73 -78 -123 -78c-76 0 -96 48 -96 135v210c0 45 -10 59 -33 59c-7 0 -24 0 -42 -5v16c45 15 136 49 149 49c6 0 10 -11 10 -20v-330c0 -46 27 -60 53 -60c21 0 42 11 66 36z" />
    <glyph glyph-name="uni026A" unicode="&#x26a;" horiz-adv-x="258" 
d="M231 0h-210v18c65 2 66 23 66 72v274c0 50 -1 65 -66 68v18h210v-18c-64 -2 -64 -21 -64 -73v-264c0 -49 2 -75 64 -77v-18z" />
    <glyph glyph-name="uni026B" unicode="&#x26b;" horiz-adv-x="350" 
d="M311 425h29c-21 -76 -50 -106 -105 -106c-7 0 -13 0 -19 1v-233c0 -55 11 -68 75 -72v-15h-236v15c63 5 77 22 77 77v261l-1 1c-15 7 -29 11 -41 11c-23 0 -40 -15 -51 -46h-29c15 65 51 101 101 101c7 0 14 -1 21 -2v143c0 48 -10 64 -42 64c-8 0 -21 0 -37 -2v16
c69 17 106 27 158 44l5 -4v-295c15 -6 30 -10 42 -10c23 0 36 14 53 51z" />
    <glyph glyph-name="uni026C" unicode="&#x26c;" horiz-adv-x="375" 
d="M351 360l11 -13s-43 -58 -130 -89v-174c0 -55 17 -66 75 -69v-15h-236v15c59 5 77 19 77 75v149c-10 -2 -19 -2 -29 -2c-58 0 -107 47 -107 106s50 107 107 107c19 0 25 -4 29 -5v119c0 45 -10 61 -43 61c-14 0 -24 -1 -36 -2v16c53 13 103 26 159 44l4 -2v-391
c55 19 100 51 119 70zM148 276v141c-5 2 -11 4 -16 4c-30 0 -68 -35 -68 -68c0 -39 27 -72 66 -76c6 -1 12 -1 18 -1z" />
    <glyph glyph-name="uni026D" unicode="&#x26d;" horiz-adv-x="302" 
d="M173 681v-741c0 -82 0 -139 50 -139c36 0 46 60 89 60c19 0 40 -15 40 -38c0 -37 -46 -56 -93 -56c-129 0 -170 101 -170 218v579c0 45 -10 61 -44 61c-13 0 -23 -1 -35 -2v16c53 13 106 27 159 44z" />
    <glyph glyph-name="uni026E" unicode="&#x26e;" horiz-adv-x="549" 
d="M506 400l-164 -204c11 2 21 3 32 3c84 0 164 -69 164 -198c0 -164 -124 -234 -222 -234c-36 0 -81 14 -106 31c-30 20 -43 52 -43 70c0 23 17 44 49 44c22 0 41 -21 48 -52c12 -50 17 -64 70 -64c37 0 129 31 129 178c0 115 -68 161 -152 161c-14 0 -41 -14 -52 -19
l-14 11l214 259h-277v-302c0 -57 17 -64 75 -69v-15h-236v15c52 4 77 15 77 72v477c0 45 -10 61 -43 61c-13 0 -24 0 -36 -2v16c53 13 105 26 158 44l5 -2v-231h324v-50z" />
    <glyph glyph-name="uni026F" unicode="&#x26f;" horiz-adv-x="778" 
d="M770 450v-15c-56 -1 -70 -15 -70 -73v-248c0 -49 9 -66 35 -66c11 0 19 1 32 4v-17c-55 -15 -88 -26 -139 -45l-8 3v74h-2c-66 -68 -108 -77 -153 -77c-54 0 -88 27 -106 84c-54 -58 -105 -84 -163 -84c-81 0 -116 62 -116 180v203c0 45 -13 58 -43 60l-26 2v15h218v-15
c-56 -6 -65 -17 -65 -75v-206c0 -79 20 -112 77 -112c47 0 77 18 107 61v252c0 65 -15 79 -72 80v15h224v-15c-57 -4 -68 -10 -68 -71v-211c0 -69 22 -111 65 -111c37 0 86 19 106 43c7 8 13 15 13 17v278c0 43 -15 53 -68 55v15h222z" />
    <glyph glyph-name="uni0270" unicode="&#x270;" horiz-adv-x="803" 
d="M785 -233h-240v15c55 10 71 13 71 69v216c-44 -51 -93 -77 -147 -77c-65 0 -91 30 -110 84c-24 -25 -79 -84 -162 -84c-104 0 -117 104 -117 178v206c0 22 -1 56 -41 59l-28 2v15h218v-15c-50 -6 -65 -11 -65 -72v-208c0 -54 5 -113 77 -113c55 0 82 26 107 61v258
c0 72 -30 72 -72 74v15h224v-15c-55 -4 -68 -9 -68 -69v-214c0 -66 20 -110 66 -110c69 0 118 54 118 59v282c0 49 -30 50 -68 52v15h222v-15c-40 -1 -70 -3 -70 -70v-508c0 -69 34 -73 85 -75v-15z" />
    <glyph glyph-name="uni0271" unicode="&#x271;" horiz-adv-x="778" 
d="M706 282v-297c0 -117 -60 -218 -189 -218c-47 0 -93 19 -93 56c0 23 21 38 40 38c43 0 53 -60 89 -60c50 0 69 57 69 139v354c0 51 -4 114 -76 114c-57 0 -85 -28 -108 -61v-259c0 -71 34 -72 72 -73v-15h-224v15c47 6 68 1 68 66v220c0 66 -24 107 -64 107
c-72 0 -120 -53 -120 -60v-280c0 -49 27 -50 68 -53v-15h-222v15c45 1 70 6 70 69v254c0 61 -19 64 -35 64c-14 0 -24 -2 -32 -4v17c47 13 88 26 140 45l7 -2v-76c63 62 100 78 154 78c65 0 92 -37 107 -85c30 34 84 85 163 85c104 0 116 -104 116 -178z" />
    <glyph glyph-name="uni0272" unicode="&#x272;" horiz-adv-x="529" 
d="M514 0h-208v15c38 5 63 9 63 84v205c0 61 -16 101 -75 101c-36 0 -63 -20 -101 -57v-363c0 -117 -41 -218 -170 -218c-47 0 -93 19 -93 56c0 23 21 38 40 38c43 0 53 -60 89 -60c50 0 50 57 50 139v402c0 58 -18 60 -35 60c-14 0 -25 -2 -29 -4v17c45 13 91 28 137 45
l8 -3v-79c42 47 87 82 144 82s119 -31 119 -154v-225c0 -47 12 -62 61 -66v-15z" />
    <glyph glyph-name="uni0273" unicode="&#x273;" horiz-adv-x="533" 
d="M424 308v-368c0 -82 0 -139 50 -139c36 0 46 60 89 60c19 0 40 -15 40 -38c0 -37 -46 -56 -93 -56c-129 0 -170 101 -170 218v319c0 61 -16 101 -75 101c-35 0 -63 -20 -101 -57v-277c0 -36 13 -53 65 -56v-15h-211v15c47 4 62 16 62 75v250c0 61 -18 62 -35 62
c-14 0 -25 -2 -29 -4v17c45 13 91 28 137 45l8 -3v-79c40 44 85 82 144 82c54 0 119 -29 119 -152z" />
    <glyph glyph-name="uni0274" unicode="&#x274;" horiz-adv-x="602" 
d="M561 450v-18c-31 -3 -40 -5 -52 -13c-13 -11 -21 -26 -21 -81v-346h-14l-333 368v-254c0 -69 9 -81 70 -88v-18h-182v18c67 6 77 16 77 88v289c-26 28 -37 37 -77 37v18h133l291 -324v220c0 35 -2 56 -14 68c-8 13 -24 15 -61 18v18h183z" />
    <glyph glyph-name="uni0275" unicode="&#x275;" horiz-adv-x="500" 
d="M470 231c0 -136 -92 -241 -218 -241c-132 0 -223 105 -223 238c0 142 91 232 223 232c124 0 218 -90 218 -229zM119 247h261c0 123 -65 185 -128 185c-66 0 -132 -60 -133 -185zM380 214h-260c0 -117 66 -196 132 -196c64 0 128 79 128 196z" />
    <glyph glyph-name="uni0276" unicode="&#x276;" horiz-adv-x="720" 
d="M697 110l-34 -112h-270c-48 0 -109 -4 -145 -4c-64 0 -131 26 -166 64c-38 42 -59 96 -59 163c0 88 37 152 100 192c40 25 93 37 148 37c9 0 11 0 49 -2c14 -1 75 -3 90 -3h251v-96h-19c-8 61 -28 70 -127 70h-42c-43 0 -53 -6 -53 -23v-150h77c83 0 103 11 109 66h18
v-159h-18c-7 53 -26 67 -84 67h-102v-159c0 -25 9 -37 46 -37h89c52 0 87 22 125 86h17zM339 88v265c0 49 -20 71 -72 71c-98 0 -157 -71 -157 -203c0 -61 12 -110 34 -143c26 -38 66 -58 118 -58c55 0 77 20 77 68z" />
    <glyph glyph-name="uni0277" unicode="&#x277;" horiz-adv-x="667" 
d="M629 194c0 -105 -71 -198 -181 -198c-55 0 -94 34 -115 84c-21 -50 -60 -84 -115 -84c-110 0 -181 93 -181 198c0 172 143 281 297 281c147 0 295 -109 295 -281zM533 210c0 169 -91 245 -199 245c-109 0 -201 -76 -201 -245c0 -60 15 -172 93 -172c41 0 76 32 76 76
c0 46 -26 94 -26 151c0 38 17 61 57 61s57 -23 57 -61c0 -57 -26 -105 -26 -151c0 -44 35 -76 76 -76c78 0 93 112 93 172z" />
    <glyph glyph-name="uni0278" unicode="&#x278;" horiz-adv-x="667" 
d="M375 599v-164c127 -11 251 -77 251 -215c0 -129 -117 -215 -251 -223v-146c0 -58 17 -66 75 -69v-15h-236v15c59 4 77 17 77 72v143c-134 8 -251 94 -251 223c0 138 124 204 251 215v161c0 55 -18 68 -77 72v15h236v-15c-58 -3 -75 -11 -75 -69zM375 407v-382
c101 14 151 105 151 197c0 100 -50 178 -151 185zM291 25v382c-100 -7 -151 -85 -151 -185c0 -92 51 -183 151 -197z" />
    <glyph glyph-name="uni0279" unicode="&#x279;" horiz-adv-x="370" 
d="M360 450v-15c-64 -12 -71 -19 -71 -69v-250c0 -44 9 -60 34 -60c12 0 21 1 35 4v-16c-59 -19 -95 -33 -148 -54l-5 2v92c-50 -72 -78 -94 -120 -94c-34 0 -55 20 -55 53c0 28 15 45 39 45c13 0 24 -5 40 -20c11 -10 20 -15 26 -15c28 0 70 50 70 82v225
c0 57 -17 72 -85 75v15h240z" />
    <glyph glyph-name="uni027A" unicode="&#x27a;" horiz-adv-x="370" 
d="M364 0h-159v84c-49 -71 -78 -94 -120 -94c-35 0 -55 21 -55 54c0 25 14 44 38 44c35 0 45 -35 68 -35c26 0 69 49 69 82v424c0 45 -8 66 -42 66c-13 0 -25 -1 -37 -2v16c53 13 106 27 159 44l4 -2v-597c0 -58 17 -64 75 -69v-15z" />
    <glyph glyph-name="uni027B" unicode="&#x27b;" horiz-adv-x="418" 
d="M289 366v-249c0 -82 0 -316 50 -316c36 0 46 60 89 60c19 0 40 -15 40 -38c0 -37 -46 -56 -93 -56c-129 0 -170 197 -170 314c-47 -71 -83 -91 -121 -91c-34 0 -54 21 -54 54c0 25 14 44 38 44c35 0 45 -35 69 -35s68 50 68 82v225c0 69 -34 73 -85 75v15h240v-15
c-55 -10 -71 -13 -71 -69z" />
    <glyph glyph-name="uni027C" unicode="&#x27c;" horiz-adv-x="333" 
d="M160 458v-92c49 70 77 94 120 94c36 0 55 -21 55 -54c0 -25 -14 -44 -38 -44c-35 0 -45 35 -69 35s-68 -50 -68 -81v-459c0 -69 34 -73 85 -75v-15h-240v15c55 10 71 13 71 69v483c0 59 -19 60 -35 60c-14 0 -25 -2 -34 -4v16c49 16 99 34 148 54z" />
    <glyph glyph-name="uni027D" unicode="&#x27d;" horiz-adv-x="370" 
d="M160 315v-375c0 -82 0 -139 50 -139c36 0 46 60 89 60c19 0 40 -15 40 -38c0 -37 -46 -56 -93 -56c-129 0 -170 101 -170 218v349c0 59 -19 60 -35 60c-14 0 -25 -2 -34 -4v16c49 16 99 34 148 54l5 -2v-92c50 71 76 94 121 94c34 0 54 -21 54 -54c0 -25 -14 -44 -38 -44
c-35 0 -45 35 -69 35s-68 -49 -68 -82z" />
    <glyph glyph-name="uni027E" unicode="&#x27e;" horiz-adv-x="315" 
d="M74 76v176c0 117 41 218 170 218c47 0 93 -19 93 -56c0 -23 -21 -38 -40 -38c-43 0 -53 60 -89 60c-50 0 -50 -57 -50 -139v-221c0 -48 8 -59 64 -63v-13h-212v13c54 4 64 11 64 63z" />
    <glyph glyph-name="uni027F" unicode="&#x27f;" horiz-adv-x="350" 
d="M332 0h-212v13c56 4 64 15 64 63v221c0 82 0 139 -50 139c-36 0 -46 -60 -89 -60c-19 0 -40 15 -40 38c0 37 46 56 93 56c129 0 170 -101 170 -218v-176c0 -52 10 -59 64 -63v-13z" />
    <glyph glyph-name="uni0280" unicode="&#x280;" horiz-adv-x="475" 
d="M470 0h-120l-144 209h-37v-106c0 -63 16 -83 68 -85v-18h-216v18c29 1 44 7 56 23c9 12 11 24 11 57v257c0 40 -2 53 -14 67c-12 15 -26 21 -53 24v18h222c101 0 170 -50 170 -122c0 -56 -42 -98 -121 -120l114 -170c18 -26 31 -34 54 -34h10v-18zM169 242h17
c34 0 59 5 79 16c35 18 55 49 55 84c0 55 -39 90 -103 90c-18 0 -28 -2 -48 -7v-183z" />
    <glyph glyph-name="uni0281" unicode="&#x281;" horiz-adv-x="475" 
d="M470 446h-10c-23 0 -36 -8 -54 -34l-114 -170c79 -22 121 -64 121 -120c0 -72 -69 -122 -170 -122h-222v18c27 3 41 9 53 24c12 14 14 27 14 67v257c0 33 -2 45 -11 57c-12 16 -27 22 -56 23v18h216v-18c-52 -2 -68 -22 -68 -85v-106h37l144 209h120v-18zM169 222v-183
c20 -5 30 -7 48 -7c64 0 103 35 103 90c0 35 -20 66 -55 84c-20 11 -45 16 -79 16h-17z" />
    <glyph glyph-name="uni0282" unicode="&#x282;" horiz-adv-x="389" 
d="M156 300l104 -63c64 -39 88 -66 88 -123c0 -67 -64 -125 -140 -125c-21 0 -50 1 -73 9c-24 8 -35 9 -46 9h-6c-1 -32 -2 -66 -2 -96c0 -54 6 -95 38 -95c36 0 46 60 89 60c19 0 40 -15 40 -38c0 -37 -46 -56 -93 -56c-92 0 -105 45 -105 116c0 29 2 62 2 98v156h16
c21 -97 58 -141 127 -141c51 0 83 33 83 74c0 31 -20 57 -53 75l-54 30c-83 46 -120 94 -120 145c0 79 56 123 138 123c24 0 46 -1 67 -11c11 -5 21 -8 28 -8c4 0 8 1 16 10h11l5 -136h-15c-23 90 -53 123 -113 123c-43 0 -75 -21 -75 -68c0 -22 15 -51 43 -68z" />
    <glyph glyph-name="uni0283" unicode="&#x283;" horiz-adv-x="322" 
d="M111 -109v574c0 119 37 218 168 218c47 0 93 -19 93 -56c0 -23 -21 -38 -40 -38c-43 0 -53 60 -89 60c-48 0 -48 -71 -48 -112v-582c0 -104 -54 -188 -172 -188c-47 0 -93 19 -93 56c0 23 21 38 40 38c43 0 53 -60 89 -60c39 0 52 35 52 90z" />
    <glyph glyph-name="uni0284" unicode="&#x284;" horiz-adv-x="304" 
d="M109 31v400c0 121 19 252 170 252c34 0 93 -12 93 -56c0 -21 -20 -38 -39 -38c-43 0 -51 60 -90 60c-48 0 -50 -86 -50 -120v-498h77v-31h-77c0 -115 -40 -218 -170 -218c-46 0 -93 18 -93 55c0 18 15 39 40 39c43 0 53 -60 89 -60c49 0 50 52 50 136v48h-77v31h77z" />
    <glyph glyph-name="uni0285" unicode="&#x285;" horiz-adv-x="400" 
d="M278 252v-312c0 -82 0 -139 50 -139c36 0 46 60 89 60c19 0 40 -15 40 -38c0 -37 -46 -56 -93 -56c-129 0 -170 101 -170 218v312c0 82 0 139 -50 139c-36 0 -46 -60 -89 -60c-19 0 -40 15 -40 38c0 37 46 56 93 56c129 0 170 -101 170 -218z" />
    <glyph glyph-name="uni0286" unicode="&#x286;" horiz-adv-x="437" 
d="M161 11v459c0 116 40 213 168 213c34 0 93 -13 93 -56c0 -21 -20 -38 -39 -38c-45 0 -54 60 -90 60c-48 0 -48 -70 -48 -105v-572c62 -46 95 -121 95 -197c0 -6 -1 -12 -2 -18h-26v14c0 63 -21 126 -67 169c-9 -105 -53 -173 -143 -173c-68 0 -125 58 -125 126
s57 125 126 125c15 0 43 -2 58 -7zM161 -114v98c-16 6 -43 9 -59 9c-54 0 -100 -46 -100 -100c0 -53 47 -101 100 -101c45 0 59 47 59 94z" />
    <glyph glyph-name="uni0287" unicode="&#x287;" horiz-adv-x="278" 
d="M225 32h53c3 -2 4 -4 4 -7c0 -6 -6 -12 -17 -19c-26 -15 -59 -52 -97 -107c-6 -9 -14 -18 -20 -28c-5 0 -7 3 -7 13v116h-101v32h101v286c0 64 -15 90 -52 90c-22 0 -38 -9 -60 -35l-13 11c33 52 71 76 121 76c58 0 88 -43 88 -127v-301z" />
    <glyph glyph-name="uni0288" unicode="&#x288;" horiz-adv-x="270" 
d="M154 418v-560c0 -36 2 -57 15 -57c38 0 30 61 73 61c20 0 41 -15 41 -39c0 -37 -47 -56 -94 -56c-104 0 -119 64 -119 150v501h-53c-2 1 -4 4 -4 7c0 13 22 18 44 40c38 39 55 63 90 114c7 0 7 -5 7 -13v-116h101v-32h-101z" />
    <glyph glyph-name="uni0289" unicode="&#x289;" horiz-adv-x="500" 
d="M480 49v-13c-51 -14 -87 -25 -137 -45l-5 3v82h-2c-49 -67 -106 -86 -143 -86c-77 0 -122 51 -122 128v112h-62v31h62v108c0 50 -14 64 -62 67v14h146v-189h178v107c0 53 -14 61 -74 65v17h158v-189h62v-31h-62v-123c0 -46 11 -58 57 -58h6zM333 137v93h-178v-103
c0 -46 32 -79 71 -79c29 0 59 9 84 31c16 14 23 23 23 58z" />
    <glyph glyph-name="uni028A" unicode="&#x28a;" horiz-adv-x="537" 
d="M490 430h-38c-21 0 -41 -19 -41 -37c0 -14 4 -24 10 -30c8 -7 67 -73 67 -150c0 -123 -97 -223 -220 -223s-220 102 -220 219c0 83 60 147 67 154c8 8 10 17 10 28c0 23 -21 39 -41 39h-38v20h140c-37 -104 -50 -174 -50 -246c0 -15 2 -44 7 -75c10 -65 58 -119 125 -119
s115 54 125 119c5 31 7 49 7 76c0 72 -14 145 -50 245h140v-20z" />
    <glyph glyph-name="uni028B" unicode="&#x28b;" horiz-adv-x="500" 
d="M193 457v-331c0 -46 39 -95 87 -95c100 0 166 113 166 202c0 151 -102 145 -102 194c0 20 26 33 43 33c79 0 89 -149 89 -205c0 -131 -62 -265 -213 -265c-95 0 -154 35 -154 138v206c0 28 0 60 -35 60c-14 0 -28 -2 -42 -4v16c53 16 105 34 156 54z" />
    <glyph glyph-name="uni028C" unicode="&#x28c;" horiz-adv-x="500" 
d="M454 0h-196v15c34 3 46 10 46 27c0 10 -3 23 -9 38l-102 256l-99 -259c-4 -10 -6 -20 -6 -30c0 -19 15 -29 47 -32v-15h-139v15c30 3 38 11 65 78l128 321c15 37 22 50 28 50s11 -9 18 -26l128 -308c43 -103 53 -113 91 -115v-15z" />
    <glyph glyph-name="uni028D" unicode="&#x28d;" horiz-adv-x="722" 
d="M694 0h-180v15c35 4 46 12 46 33c0 10 -2 20 -6 30l-99 261l-91 -199l20 -56c19 -54 32 -65 69 -69v-15h-203v15c47 7 58 14 58 35c0 17 -5 29 -17 60l-84 224l-90 -222c-11 -27 -17 -51 -17 -67s10 -23 44 -30v-15h-123v15c20 7 25 14 41 54l138 346c16 40 21 49 28 49
s9 -5 24 -43l91 -236l112 240c12 26 20 39 25 39c6 0 14 -13 26 -44l135 -342c21 -54 30 -61 53 -63v-15z" />
    <glyph glyph-name="uni028E" unicode="&#x28e;" horiz-adv-x="444" 
d="M459 0h-205v15c43 2 57 9 57 27c0 11 -7 27 -13 41l-112 250l-97 -276c-3 -7 -4 -14 -4 -18c0 -16 15 -24 46 -24v-15h-133v15c24 3 36 14 50 51l150 409c52 142 99 193 175 193c43 0 70 -25 70 -58c0 -25 -19 -46 -43 -46c-18 0 -34 3 -52 13c-11 6 -20 7 -26 7
c-14 0 -34 -20 -50 -44c-20 -29 -40 -92 -40 -108c0 -15 23 -61 42 -101l132 -282c10 -22 27 -31 53 -35v-14z" />
    <glyph glyph-name="uni028F" unicode="&#x28f;" horiz-adv-x="587" 
d="M564 464v-18c-50 -4 -61 -18 -108 -79l-119 -155v-106c0 -44 3 -88 68 -88v-18h-216v18c66 0 67 44 67 78v110l-104 133c-73 93 -89 105 -129 107v18h210v-18l-21 -1c-27 -1 -28 -7 -28 -18c0 -9 10 -21 19 -32l115 -151l116 151c8 11 12 21 12 34c0 11 -2 16 -40 17v18
h158z" />
    <glyph glyph-name="uni0290" unicode="&#x290;" horiz-adv-x="528" 
d="M400 140l18 -4c-15 -183 -18 -221 -18 -250c0 -47 9 -70 40 -70c36 0 46 60 89 60c19 0 40 -15 40 -38c0 -37 -46 -56 -93 -56c-89 0 -104 64 -104 131c0 30 3 61 4 87h-349v15l266 405h-142c-68 0 -72 -35 -80 -88h-18l4 118h346v-15l-269 -405h133c54 0 88 7 106 27
c14 15 19 41 27 83z" />
    <glyph glyph-name="uni0291" unicode="&#x291;" horiz-adv-x="507" 
d="M134 30h114c41 63 88 121 129 127c9 1 17 2 25 2c52 0 85 -28 85 -74c0 -50 -37 -85 -120 -85h-99c-43 -73 -78 -150 -78 -150h-36s32 74 76 150h-203v15l266 405h-141c-69 0 -72 -32 -81 -88h-18l4 118h346v-15zM286 30h82c73 0 86 28 86 56c0 30 -19 47 -51 47
c-8 0 -17 -1 -26 -3c-25 -6 -59 -49 -91 -100z" />
    <glyph glyph-name="uni0292" unicode="&#x292;" horiz-adv-x="413" 
d="M360 400l-164 -204c11 2 21 3 32 3c84 0 164 -69 164 -198c0 -161 -120 -234 -224 -234c-36 0 -79 14 -104 31c-30 20 -43 52 -43 70c0 23 17 44 49 44c26 0 42 -28 47 -50c13 -53 19 -66 71 -66c37 0 129 31 129 178c0 115 -68 161 -152 161c-14 0 -41 -14 -52 -19
l-14 11l214 259h-199c-73 0 -77 -32 -84 -86h-18l24 150h324v-50z" />
    <glyph glyph-name="uni0293" unicode="&#x293;" horiz-adv-x="431" 
d="M398 435l-178 -268c5 0 9 1 16 1c75 0 174 -58 174 -172c0 -120 -68 -189 -140 -214l46 -87h-37l-43 77c-21 -5 -53 -5 -77 -5c-91 0 -147 26 -147 90c0 45 30 79 88 79c59 0 91 -35 152 -126c34 19 68 66 68 164c0 88 -62 161 -153 161c-20 0 -45 -14 -56 -19l-14 11
l191 293h-138c-73 0 -77 -34 -84 -88h-18l4 118h346v-15zM221 -202c-58 88 -88 104 -104 104c-23 0 -35 -20 -35 -44c0 -47 57 -62 93 -62c15 0 39 0 46 2z" />
    <glyph glyph-name="uni0294" unicode="&#x294;" horiz-adv-x="450" 
d="M160 102v254c76 0 145 72 145 152c0 64 -28 158 -92 158c-34 0 -60 -34 -66 -64c-9 -44 -28 -64 -52 -64c-30 0 -48 21 -48 44c0 18 13 50 43 70c27 18 73 31 113 31c159 0 197 -105 197 -176c0 -114 -85 -158 -156 -171v-234c0 -78 17 -84 79 -87v-15h-237v15
c69 4 74 21 74 87z" />
    <glyph glyph-name="uni0295" unicode="&#x295;" horiz-adv-x="450" 
d="M204 102v234c-71 13 -156 57 -156 171c0 71 38 176 197 176c40 0 86 -13 113 -31c30 -20 43 -52 43 -70c0 -23 -18 -44 -48 -44c-24 0 -43 20 -52 64c-6 30 -32 64 -66 64c-64 0 -92 -94 -92 -158c0 -80 69 -152 145 -152v-254c0 -66 5 -83 74 -87v-15h-237v15
c62 3 79 9 79 87z" />
    <glyph glyph-name="uni0296" unicode="&#x296;" horiz-adv-x="450" 
d="M244 560v-227c71 -13 156 -57 156 -171c0 -71 -38 -176 -197 -176c-40 0 -86 13 -113 31c-30 20 -43 52 -43 70c0 23 18 44 48 44c24 0 43 -20 52 -64c6 -30 32 -64 66 -64c64 0 92 94 92 158c0 80 -69 152 -145 152v247c0 66 -5 83 -74 87v15h237v-15
c-62 -3 -79 -9 -79 -87z" />
    <glyph glyph-name="uni0297" unicode="&#x297;" horiz-adv-x="450" 
d="M410 -39v-38c0 -83 -85 -153 -165 -153c-82 0 -165 69 -165 154v378c0 98 93 158 183 158c68 0 127 -46 127 -117c0 -23 -12 -61 -40 -61c-15 0 -29 13 -29 28c0 19 14 32 14 50c0 36 -29 65 -65 65c-49 0 -106 -43 -106 -95v-398c0 -61 49 -116 111 -116
c74 0 112 55 112 121c0 8 -1 16 -2 24h25z" />
    <glyph glyph-name="uni0298" unicode="&#x298;" horiz-adv-x="723" 
d="M421 331c0 -35 -27 -63 -62 -63s-64 28 -64 63s28 63 64 63c34 0 62 -28 62 -63zM690 330c0 -192 -125 -347 -327 -347c-181 0 -330 137 -330 348c0 208 138 348 332 348c198 0 325 -152 325 -349zM597 333c0 177 -90 318 -238 318c-130 0 -233 -115 -233 -318
c0 -176 81 -317 236 -317c127 0 235 139 235 317z" />
    <glyph glyph-name="uni0299" unicode="&#x299;" horiz-adv-x="460" 
d="M309 245v-1c74 -13 135 -47 135 -119c0 -78 -74 -125 -189 -125h-240v18c61 0 76 22 76 71v281c0 45 -14 69 -76 76v18h203c136 0 198 -42 198 -117c0 -68 -44 -90 -107 -102zM172 260h53c80 0 112 25 112 84c0 58 -39 88 -131 88h-16c-14 0 -18 -6 -18 -22v-150z
M172 226v-162c0 -25 12 -32 49 -32c69 0 133 20 133 93c0 92 -75 101 -161 101h-21z" />
    <glyph glyph-name="uni029A" unicode="&#x29a;" horiz-adv-x="479" 
d="M163 249v2c-57 12 -116 40 -116 107c0 86 92 117 164 117c142 0 219 -105 219 -241c0 -146 -68 -248 -220 -248c-82 0 -190 39 -190 137c0 84 72 115 143 126zM245 263v-30c-66 0 -131 -28 -131 -104c0 -64 55 -107 116 -107c94 0 135 137 135 213c0 79 -42 207 -140 207
c-51 0 -90 -39 -90 -90c0 -63 56 -88 110 -89z" />
    <glyph glyph-name="uni029B" unicode="&#x29b;" horiz-adv-x="600" 
d="M485 171v-133c0 -23 -160 -49 -183 -49c-153 0 -273 72 -273 236c0 139 129 225 258 225c48 0 94 -14 141 -23c3 56 39 96 96 96c28 0 59 -18 59 -47c0 -14 -7 -23 -21 -23c-35 0 -22 49 -56 49c-32 0 -33 -45 -33 -68c0 -42 3 -84 5 -126h-17c-30 75 -81 115 -165 115
c-123 0 -182 -97 -182 -210c0 -119 76 -197 196 -197c21 0 102 6 102 39v109c0 54 -16 54 -67 58v13h193v-13c-40 -3 -53 -9 -53 -51z" />
    <glyph glyph-name="uni029C" unicode="&#x29c;" horiz-adv-x="572" 
d="M560 0h-216v18c62 3 67 17 67 76v126h-242v-126c0 -51 8 -73 67 -76v-18h-215v18c63 4 67 18 67 79v282c0 55 -9 63 -67 67v18h215v-18c-56 -4 -67 -12 -67 -67v-126h242v126c0 56 -8 62 -67 67v18h216v-18c-58 -4 -68 -13 -68 -67v-289c0 -50 11 -71 68 -72v-18z" />
    <glyph glyph-name="uni029D" unicode="&#x29d;" horiz-adv-x="387" 
d="M284 632c0 -29 -23 -51 -52 -51c-27 0 -50 24 -50 51s23 51 50 51c28 0 52 -23 52 -51zM412 -233h-40c-30 40 -65 75 -98 112c-31 -75 -86 -112 -167 -112c-66 0 -130 48 -130 118c0 66 64 115 126 115c33 0 65 -11 96 -20v359c0 25 -3 55 -35 55c-14 0 -28 -2 -42 -4v16
c53 16 105 34 156 54l5 -3v-537c48 -46 91 -98 129 -153zM199 -94v38c-22 11 -67 21 -92 21c-43 0 -95 -27 -95 -75c0 -57 55 -88 106 -88c62 0 81 50 81 104z" />
    <glyph glyph-name="uni029E" unicode="&#x29e;" horiz-adv-x="519" 
d="M499 -189l-30 -8c-60 -16 -86 -24 -125 -36l-4 2v420l-137 -122c-14 -13 -23 -26 -23 -35c0 -13 11 -17 50 -18v-14h-204v15c64 0 93 12 216 126l29 27l-153 194c-41 52 -73 70 -117 73v15h218v-15h-19c-12 0 -21 -6 -21 -15c0 -5 3 -13 11 -23l150 -198v184
c0 35 -15 49 -55 51l-20 1v15h234v-15c-72 -12 -75 -15 -75 -67v-482c0 -48 9 -61 43 -61c10 0 19 1 32 2v-16z" />
    <glyph glyph-name="uni029F" unicode="&#x29f;" horiz-adv-x="470" 
d="M441 127l-35 -127h-385v18c52 2 60 18 60 65v294c0 52 -3 65 -60 69v18h193v-18c-59 -3 -60 -24 -60 -70v-312c0 -27 12 -32 65 -32h50c59 0 99 13 123 43c9 12 18 27 30 52h19z" />
    <glyph glyph-name="uni02A0" unicode="&#x2a0;" horiz-adv-x="600" 
d="M362 426l3 37c6 75 52 119 106 119c23 0 55 -1 85 -18c14 -8 34 -24 34 -53c0 -16 -10 -33 -34 -33c-19 0 -36 11 -45 28c-12 23 -25 33 -40 33c-18 0 -46 -11 -46 -87v-593c0 -42 10 -53 63 -59v-17h-236v17c71 5 89 20 89 76v188c-44 -48 -99 -74 -157 -74
c-94 0 -160 89 -160 215c0 144 96 255 220 255c40 0 70 -8 118 -34zM341 127v206c0 66 -31 98 -93 98c-85 0 -138 -72 -138 -190c0 -69 22 -134 56 -163c20 -18 46 -27 75 -27c32 0 66 12 88 32c8 7 12 21 12 44z" />
    <glyph glyph-name="uni02A1" unicode="&#x2a1;" horiz-adv-x="450" 
d="M161 193v161c79 0 145 75 145 152c0 52 -24 158 -91 158c-85 0 -52 -128 -121 -128c-25 0 -46 19 -46 44c0 66 94 103 149 103c113 0 204 -55 204 -176c0 -99 -64 -156 -157 -173v-141h78v-31h-78v-69c0 -48 8 -75 80 -78v-15h-237v15c69 4 74 22 74 87v60h-77v31h77z
" />
    <glyph glyph-name="uni02A2" unicode="&#x2a2;" horiz-adv-x="450" 
d="M205 193v141c-93 17 -157 74 -157 173c0 121 91 176 204 176c55 0 149 -37 149 -103c0 -25 -21 -44 -46 -44c-69 0 -36 128 -121 128c-67 0 -91 -106 -91 -158c0 -77 66 -152 145 -152v-161h77v-31h-77v-60c0 -65 5 -83 74 -87v-15h-237v15c72 3 80 30 80 78v69h-78v31
h78z" />
    <glyph glyph-name="uni02A3" unicode="&#x2a3;" horiz-adv-x="802" 
d="M775 126l-15 -136h-416l-4 3v64c-34 -47 -72 -67 -128 -67c-111 0 -185 87 -185 215c0 142 93 255 208 255c40 0 67 -11 105 -43v156c0 41 -9 51 -46 51c-8 0 -14 0 -22 -1v16c64 17 99 27 147 44l5 -2v-241h336v-15l-269 -405h133c58 0 92 10 106 27s17 33 27 83z
M650 410h-135c-63 0 -78 -15 -87 -88h-4v-208c0 -19 1 -32 5 -41zM340 102v230c0 53 -48 100 -102 100c-76 0 -125 -74 -125 -187c0 -123 54 -203 138 -203c31 0 56 11 74 32c9 10 15 21 15 28z" />
    <glyph glyph-name="uni02A4" unicode="&#x2a4;" horiz-adv-x="743" 
d="M690 400l-164 -204c11 2 21 3 32 3c86 0 164 -74 164 -203c0 -166 -127 -229 -224 -229c-36 0 -79 14 -104 31c-30 20 -43 52 -43 70c0 23 16 44 46 44c28 0 46 -25 55 -67c6 -30 13 -49 66 -49c37 0 129 31 129 178c0 115 -68 161 -152 161c-14 0 -33 -15 -42 -23
c-34 -32 -59 -69 -99 -120l-14 1v64c-20 -27 -50 -67 -131 -67c-59 0 -182 38 -182 218c0 140 95 252 207 252c43 0 73 -14 106 -43v156c0 30 0 51 -44 51c-6 0 -16 0 -24 -1v16c50 13 99 27 147 44l5 -2v-231h266v-50zM643 386h-219v-261zM340 104v224
c0 67 -56 104 -103 104c-56 0 -124 -49 -124 -185c0 -149 70 -205 142 -205c44 0 85 37 85 62z" />
    <glyph glyph-name="uni02A5" unicode="&#x2a5;" horiz-adv-x="864" 
d="M491 20h114c41 63 88 121 129 127c9 1 17 2 25 2c52 0 85 -28 85 -74c0 -50 -37 -85 -120 -85h-99c-43 -73 -78 -150 -78 -150h-36s32 74 76 150h-243l-4 3v64c-34 -47 -72 -67 -128 -67c-111 0 -185 87 -185 215c0 142 93 255 208 255c40 0 67 -11 105 -43v156
c0 41 -9 51 -46 51c-8 0 -14 0 -22 -1v16c64 17 99 27 147 44l5 -2v-241h336v-15zM643 20h82c73 0 86 28 86 56c0 30 -19 47 -51 47c-8 0 -17 -1 -26 -3c-25 -6 -59 -49 -91 -100zM650 410h-141c-69 0 -72 -32 -81 -88h-4v-208c0 -19 1 -32 5 -41zM340 102v230
c0 53 -48 100 -102 100c-76 0 -125 -74 -125 -187c0 -123 54 -203 138 -203c31 0 56 11 74 32c9 10 15 21 15 28z" />
    <glyph glyph-name="uni02A6" unicode="&#x2a6;" horiz-adv-x="536" 
d="M303 302l104 -63c64 -39 88 -66 88 -123c0 -67 -64 -126 -140 -126c-21 0 -50 2 -73 10c-24 8 -35 9 -46 9c-3 0 -6 0 -9 1c-20 -13 -43 -20 -69 -20c-58 0 -88 43 -88 127v301h-53c-3 2 -4 4 -4 7c0 6 6 12 17 19c26 15 59 52 97 107c6 9 14 21 20 28c5 0 7 -3 7 -13
v-116h120c18 6 39 10 62 10c24 0 46 -1 67 -11c11 -5 21 -8 28 -8c4 0 8 1 16 10h11l5 -136h-15c-23 90 -53 123 -113 123c-43 0 -75 -21 -75 -68c0 -22 15 -51 43 -68zM266 77l13 -11l-16 -23c25 -24 47 -31 79 -31c51 0 83 34 83 75c0 31 -20 57 -53 75l-54 30
c-83 46 -120 94 -120 145c0 33 10 61 28 81h-72v-286c0 -64 15 -90 52 -90c22 0 38 9 60 35z" />
    <glyph glyph-name="uni02A7" unicode="&#x2a7;" horiz-adv-x="483" 
d="M154 450h125c0 56 3 91 16 129c22 64 69 104 152 104c47 0 93 -19 93 -56c0 -23 -21 -38 -40 -38c-43 0 -53 60 -89 60c-41 0 -48 -52 -48 -102v-593c0 -103 -54 -187 -172 -187c-47 0 -93 19 -93 56c0 23 21 38 40 38c43 0 53 -60 89 -60c39 0 52 35 52 90v143
c-26 -16 -77 -44 -117 -44c-51 0 -92 26 -92 126v302h-53c-2 1 -4 3 -4 6c0 16 22 19 44 41c36 35 57 67 90 114c6 0 7 -5 7 -13v-116zM279 63v355h-125v-287c0 -41 5 -89 51 -89c20 0 49 6 74 21z" />
    <glyph glyph-name="uni02A8" unicode="&#x2a8;" horiz-adv-x="650" 
d="M154 418v-286c0 -64 15 -90 52 -90c39 0 69 13 93 24c-31 40 -49 89 -49 153c0 164 117 247 221 247c36 0 79 -11 107 -31c29 -21 45 -45 45 -70c0 -23 -17 -44 -47 -44c-26 0 -42 22 -48 46c-13 52 -17 70 -70 70c-40 0 -131 -31 -131 -178c0 -53 23 -105 56 -146
c68 44 102 57 158 57c51 0 100 -34 100 -89s-43 -91 -123 -91c-56 0 -96 3 -130 15c-30 11 -46 22 -68 39c-64 -38 -105 -54 -162 -54c-58 0 -88 43 -88 127v301h-53c-3 2 -4 4 -4 7c0 6 6 12 17 19c26 15 59 52 97 107c6 9 14 18 20 28c5 0 7 -3 7 -13v-116h101v-32h-101z
M609 82c0 38 -37 62 -69 62c-48 0 -68 -11 -137 -54c48 -48 88 -64 119 -64c75 0 87 28 87 56z" />
    <glyph glyph-name="uni02AE" unicode="&#x2ae;" horiz-adv-x="619" 
d="M612 450v-14c-58 -8 -64 -17 -64 -87v-471c0 -43 8 -51 51 -51c4 0 9 0 12 1v-16l-27 -8c-57 -17 -80 -24 -115 -36l-5 3v304c-46 -60 -88 -84 -147 -84c-82 0 -123 54 -123 159v182c0 62 -8 104 -50 104c-36 0 -46 -60 -89 -60c-19 0 -40 15 -40 38c0 36 46 55 93 55
c129 0 170 -101 170 -217v-101c0 -70 25 -106 74 -106c40 0 70 17 112 63v241c0 69 -10 81 -68 87v14h216z" />
    <glyph glyph-name="uni02AF" unicode="&#x2af;" horiz-adv-x="679" 
d="M548 349v-458c0 -55 13 -90 52 -90c36 0 46 60 89 60c19 0 40 -15 40 -38c0 -37 -46 -56 -93 -56c-118 0 -172 84 -172 188v120c-46 -60 -88 -84 -147 -84c-82 0 -123 54 -123 159v182c0 62 -8 104 -50 104c-36 0 -46 -60 -89 -60c-19 0 -40 15 -40 38c0 36 46 55 93 55
c129 0 170 -101 170 -217v-101c0 -70 25 -106 74 -106c40 0 70 17 112 63v241c0 69 -10 81 -68 87v14h216v-14c-58 -8 -64 -17 -64 -87z" />
    <glyph glyph-name="uni02B0" unicode="&#x2b0;" horiz-adv-x="378" 
d="M365 336h-159v11c43 5 52 13 52 62v153c0 52 -20 79 -57 79c-25 0 -51 -12 -83 -48v-181c0 -51 8 -61 51 -65v-11h-162v11c43 6 48 13 48 63v356c0 32 -5 38 -38 38c-3 0 -6 0 -9 -1v12l106 33l4 -2v-228c34 45 69 62 108 62c61 0 95 -37 95 -115v-149
c0 -53 3 -62 44 -69v-11z" />
    <glyph glyph-name="uni02B1" unicode="&#x2b1;" horiz-adv-x="378" 
d="M365 336h-159v11c38 5 52 9 52 59v155c0 50 -17 80 -58 80c-22 0 -51 -12 -82 -48v-185c0 -53 14 -57 51 -61v-11h-162v11c41 6 48 10 48 63v299c0 77 58 139 138 139c70 0 128 -23 128 -55c0 -15 -12 -27 -28 -27c-20 0 -27 13 -44 33c-13 16 -33 30 -53 30
c-24 0 -41 -12 -57 -32c-13 -15 -21 -33 -21 -59v-120c31 41 65 62 109 62c93 0 94 -88 94 -119v-149c0 -54 7 -58 44 -65v-11z" />
    <glyph glyph-name="uni02B2" unicode="&#x2b2;" horiz-adv-x="300" 
d="M244 813c0 -22 -17 -38 -39 -38c-21 0 -38 16 -38 38s17 39 38 39c22 0 39 -17 39 -39zM243 681v-347c0 -107 -44 -165 -128 -165c-41 0 -71 17 -71 42c0 16 14 29 31 29c12 0 23 -7 37 -24c12 -16 20 -21 31 -21s22 6 26 13c8 15 11 34 11 92v288c0 32 -7 45 -25 45
c-7 0 -18 -1 -30 -2l-4 -1v12c45 14 74 24 119 41z" />
    <glyph glyph-name="uni02B3" unicode="&#x2b3;" horiz-adv-x="252" 
d="M121 680v-69c37 54 58 70 90 70c25 0 41 -15 41 -40c0 -21 -11 -33 -29 -33c-10 0 -18 3 -30 15c-9 7 -15 11 -20 11c-21 0 -52 -38 -52 -62v-168c0 -43 12 -54 63 -57v-11h-179v11c48 9 53 15 53 52v188c0 33 -7 45 -26 45c-9 0 -15 -1 -26 -3v12c44 14 71 24 111 40z
" />
    <glyph glyph-name="uni02B4" unicode="&#x2b4;" horiz-adv-x="277" 
d="M257 680v-11c-48 -9 -53 -15 -53 -52v-188c0 -33 7 -45 26 -45c9 0 15 1 26 3v-12c-44 -14 -71 -24 -111 -40l-4 1v69c-37 -54 -58 -70 -90 -70c-25 0 -41 15 -41 40c0 21 11 33 29 33c10 0 18 -3 30 -15c9 -7 15 -11 20 -11c21 0 52 38 52 62v168c0 43 -12 54 -63 57v11
h179z" />
    <glyph glyph-name="uni02B5" unicode="&#x2b5;" horiz-adv-x="325" 
d="M204 620v-199c0 -69 1 -227 37 -227c27 0 34 45 67 45c14 0 30 -11 30 -29c0 -27 -35 -42 -70 -42c-97 0 -127 149 -127 237c-37 -54 -58 -70 -90 -70c-26 0 -41 15 -41 40c0 19 10 33 29 33c25 0 34 -26 50 -26c21 0 52 38 52 62v174c0 40 -22 50 -63 51v11h179v-11
c-44 -8 -53 -13 -53 -49z" />
    <glyph glyph-name="uni02B6" unicode="&#x2b6;" horiz-adv-x="390" 
d="M379 667h-8c-19 0 -31 -5 -45 -25l-94 -130c65 -16 100 -47 100 -88c0 -52 -57 -89 -141 -89h-185v13c23 2 35 7 44 18c10 10 12 19 12 49v193c0 25 -2 33 -9 42c-10 12 -22 16 -47 17v13h180v-13c-43 -2 -57 -16 -57 -62v-84h31l120 159h99v-13zM129 497v-134
c17 -3 25 -5 40 -5c53 0 86 26 86 66c0 26 -17 48 -46 62c-16 8 -37 11 -65 11h-15z" />
    <glyph glyph-name="uni02B7" unicode="&#x2b7;" horiz-adv-x="520" 
d="M512 680v-11c-15 -5 -19 -10 -31 -40l-104 -261c-12 -30 -16 -37 -21 -37s-7 4 -18 33l-68 177l-85 -180c-9 -20 -15 -30 -18 -30c-5 0 -11 10 -20 34l-101 257c-16 40 -23 46 -40 47v11h135v-11c-26 -3 -34 -9 -34 -25c0 -7 1 -15 4 -22l74 -197l69 150l-15 42
c-15 41 -24 49 -52 52v11h153v-11c-36 -5 -44 -10 -44 -26c0 -13 4 -22 13 -45l63 -169l68 167c8 21 12 39 12 51s-7 17 -33 22v11h93z" />
    <glyph glyph-name="uni02B8" unicode="&#x2b8;" horiz-adv-x="370" 
d="M361 680v-12c-19 -2 -28 -10 -38 -38l-113 -309c-39 -107 -75 -145 -132 -145c-32 0 -52 18 -52 43c0 19 14 35 32 35c13 0 26 -2 39 -10c8 -4 15 -5 20 -5c10 0 25 15 37 33c15 22 30 70 30 82c0 11 -17 46 -31 76l-100 213c-7 16 -20 23 -39 25v12h154v-12
c-33 -1 -43 -7 -43 -20c0 -8 5 -21 10 -31l84 -189l73 209c2 5 3 10 3 13c0 12 -11 18 -35 18v12h101z" />
    <glyph glyph-name="uni02B9" unicode="&#x2b9;" horiz-adv-x="208" 
d="M90 432l93 212c13 30 23 40 45 40c19 0 29 -12 29 -32c0 -14 -9 -27 -19 -41l-131 -190z" />
    <glyph glyph-name="uni02BA" unicode="&#x2ba;" horiz-adv-x="305" 
d="M157 432l93 212c13 30 23 40 45 40c19 0 29 -12 29 -32c0 -14 -9 -27 -19 -41l-131 -190zM19 432l93 212c13 30 23 40 45 40c19 0 29 -12 29 -32c0 -14 -9 -27 -19 -41l-131 -190z" />
    <glyph glyph-name="uni02BB" unicode="&#x2bb;" horiz-adv-x="333" 
d="M191 686l9 -19c-66 -42 -82 -87 -82 -106c0 -9 7 -14 14 -14c6 0 13 4 24 4c26 0 62 -10 62 -50c0 -43 -33 -58 -58 -58c-23 0 -81 13 -81 96c0 71 82 137 112 147z" />
    <glyph glyph-name="uni02BC" unicode="&#x2bc;" horiz-adv-x="333" 
d="M106 443l-9 19c66 42 82 87 82 106c0 9 -7 14 -14 14c-6 0 -13 -4 -24 -4c-26 0 -62 10 -62 50c0 43 33 58 58 58c23 0 81 -13 81 -96c0 -71 -82 -137 -112 -147z" />
    <glyph glyph-name="uni02BD" unicode="&#x2bd;" horiz-adv-x="333" 
d="M200 462l-9 -19c-30 10 -112 76 -112 147c0 83 58 96 81 96c25 0 58 -15 58 -58c0 -40 -36 -50 -62 -50c-11 0 -18 4 -24 4c-7 0 -14 -5 -14 -14c0 -19 16 -64 82 -106z" />
    <glyph glyph-name="uni02BE" unicode="&#x2be;" horiz-adv-x="198" 
d="M35 680h30c54 0 98 -43 98 -97s-44 -98 -98 -98h-30v37h30c34 0 61 27 61 61s-27 60 -61 60h-30v37z" />
    <glyph glyph-name="uni02BF" unicode="&#x2bf;" horiz-adv-x="198" 
d="M163 485h-30c-54 0 -98 44 -98 98s44 97 98 97h30v-37h-30c-34 0 -61 -26 -61 -60s27 -61 61 -61h30v-37z" />
    <glyph glyph-name="uni02C0" unicode="&#x2c0;" horiz-adv-x="326" 
d="M93 446h12c72 0 123 45 123 105c0 51 -22 126 -75 126c-24 0 -46 -27 -51 -50c-7 -33 -20 -52 -41 -52c-24 0 -38 17 -38 35c0 14 10 39 34 55c21 14 56 25 90 25c125 0 156 -76 156 -151c0 -93 -69 -163 -149 -163c-6 0 -13 0 -18 1l-6 -82h-37v151z" />
    <glyph glyph-name="uni02C1" unicode="&#x2c1;" horiz-adv-x="326" 
d="M196 295l-6 82c-5 -1 -12 -1 -18 -1c-80 0 -149 70 -149 163c0 75 31 151 156 151c34 0 69 -11 90 -25c24 -16 34 -41 34 -55c0 -18 -14 -35 -38 -35c-21 0 -34 19 -41 52c-5 23 -27 50 -51 50c-53 0 -75 -75 -75 -126c0 -60 51 -105 123 -105h12v-151h-37z" />
    <glyph glyph-name="uni02C2" unicode="&#x2c2;" horiz-adv-x="317" 
d="M285 419l-252 153v30l252 153v-68l-163 -100l163 -100v-68z" />
    <glyph glyph-name="uni02C3" unicode="&#x2c3;" horiz-adv-x="317" 
d="M285 572l-252 -153v68l163 100l-163 100v68l252 -153v-30z" />
    <glyph glyph-name="uni02C4" unicode="&#x2c4;" horiz-adv-x="317" 
d="M327 461h-68l-100 163l-100 -163h-68l153 252h30z" />
    <glyph glyph-name="uni02C5" unicode="&#x2c5;" horiz-adv-x="317" 
d="M327 713l-153 -252h-30l-153 252h68l100 -163l100 163h68z" />
    <glyph glyph-name="circumflex" unicode="&#x2c6;" horiz-adv-x="333" 
d="M322 507h-34l-122 103l-121 -103h-34l124 167h62z" />
    <glyph glyph-name="caron" unicode="&#x2c7;" horiz-adv-x="333" 
d="M322 674l-124 -167h-64l-123 167h35l120 -103l121 103h35z" />
    <glyph glyph-name="uni02C8" unicode="&#x2c8;" horiz-adv-x="278" 
d="M159 448h-40v265h40v-265z" />
    <glyph glyph-name="uni02C9" unicode="&#x2c9;" horiz-adv-x="334" 
d="M322 547h-311v54h311v-54z" />
    <glyph glyph-name="uni02CA" unicode="&#x2ca;" horiz-adv-x="333" 
d="M93 509l136 136c18 18 44 34 59 34c19 0 32 -11 32 -36c0 -14 -19 -29 -35 -39l-152 -95h-40z" />
    <glyph glyph-name="uni02CB" unicode="&#x2cb;" horiz-adv-x="333" 
d="M249 509h-40l-152 95c-16 10 -35 25 -35 39c0 25 13 36 32 36c15 0 41 -16 59 -34z" />
    <glyph glyph-name="uni02CC" unicode="&#x2cc;" horiz-adv-x="278" 
d="M159 -195h-40v265h40v-265z" />
    <glyph glyph-name="uni02CD" unicode="&#x2cd;" horiz-adv-x="334" 
d="M323 -159h-312v55h312v-55z" />
    <glyph glyph-name="uni02CE" unicode="&#x2ce;" horiz-adv-x="333" 
d="M249 -192h-40l-154 96c-19 12 -30 27 -30 43c0 21 14 32 36 32c15 0 26 -5 43 -23z" />
    <glyph glyph-name="uni02CF" unicode="&#x2cf;" horiz-adv-x="333" 
d="M84 -192l147 148c18 18 27 23 42 23c22 0 35 -12 35 -32c0 -16 -9 -29 -30 -42l-154 -97h-40z" />
    <glyph glyph-name="uni02D0" unicode="&#x2d0;" horiz-adv-x="333" 
d="M244 460l-55 -161h-45l-55 161h155zM244 19h-155l55 161h45z" />
    <glyph glyph-name="uni02D1" unicode="&#x2d1;" horiz-adv-x="333" 
d="M244 460l-55 -161h-45l-55 161h155z" />
    <glyph glyph-name="uni02D2" unicode="&#x2d2;" horiz-adv-x="333" 
d="M72 365h45c80 0 145 -65 145 -145s-65 -145 -145 -145h-45v55h45c50 0 90 40 90 90s-40 90 -90 90h-45v55z" />
    <glyph glyph-name="uni02D3" unicode="&#x2d3;" horiz-adv-x="333" 
d="M261 75h-45c-80 0 -145 65 -145 145s65 145 145 145h45v-55h-45c-50 0 -90 -40 -90 -90s40 -90 90 -90h45v-55z" />
    <glyph glyph-name="uni02D4" unicode="&#x2d4;" horiz-adv-x="333" 
d="M281 18h-230v40h95v147h40v-147h95v-40z" />
    <glyph glyph-name="uni02D5" unicode="&#x2d5;" horiz-adv-x="333" 
d="M281 165h-95v-147h-40v147h-95v40h230v-40z" />
    <glyph glyph-name="uni02D6" unicode="&#x2d6;" horiz-adv-x="333" 
d="M263 100h-77v-74h-38v74h-77v44h77v74h38v-74h77v-44z" />
    <glyph glyph-name="uni02D7" unicode="&#x2d7;" horiz-adv-x="333" 
d="M263 100h-192v44h192v-44z" />
    <glyph glyph-name="breve" unicode="&#x2d8;" horiz-adv-x="335" 
d="M279 664h29c-12 -106 -60 -157 -142 -157c-94 0 -139 60 -139 157h29c13 -63 49 -97 112 -97c54 0 82 26 111 97z" />
    <glyph glyph-name="dotaccent" unicode="&#x2d9;" horiz-adv-x="333" 
d="M217 572c0 -29 -23 -49 -50 -49s-49 22 -49 49s19 50 49 50c31 0 50 -22 50 -50z" />
    <glyph glyph-name="ring" unicode="&#x2da;" horiz-adv-x="333" 
d="M266 611c0 -55 -45 -99 -101 -99c-55 0 -98 44 -98 100c0 55 45 99 101 99c53 0 98 -46 98 -100zM232 612c0 36 -30 65 -67 65c-34 0 -64 -30 -64 -65c0 -37 29 -66 64 -66c38 0 67 29 67 66z" />
    <glyph glyph-name="ogonek" unicode="&#x2db;" horiz-adv-x="333" 
d="M229 -73l20 -16c-36 -54 -65 -76 -111 -76c-43 0 -74 27 -74 74c0 36 16 64 54 91h46c-31 -25 -44 -47 -44 -70c0 -28 16 -39 38 -39c21 0 42 9 71 36z" />
    <glyph glyph-name="tilde" unicode="&#x2dc;" horiz-adv-x="333" 
d="M302 638h29c-21 -76 -50 -106 -105 -106c-25 0 -40 4 -81 24l-23 11c-15 7 -29 11 -41 11c-23 0 -40 -15 -51 -46h-29c15 65 51 101 101 101c22 0 46 -6 70 -18l24 -12c19 -10 38 -15 53 -15c23 0 36 13 53 50z" />
    <glyph glyph-name="hungarumlaut" unicode="&#x2dd;" horiz-adv-x="333" 
d="M153 507l146 148c20 20 30 23 43 23c20 0 34 -11 34 -30c0 -18 -8 -32 -29 -45l-154 -96h-40zM-3 507l146 148c20 20 30 23 43 23c20 0 34 -11 34 -30c0 -18 -8 -32 -29 -45l-154 -96h-40z" />
    <glyph glyph-name="uni02DE" unicode="&#x2de;" horiz-adv-x="298" 
d="M243 322l20 -56c-3 -10 -11 -35 -24 -52c-20 -26 -43 -28 -60 -28c-24 0 -46 32 -56 49c-24 42 -35 64 -52 100c-15 -28 -60 -45 -68 -49l-3 48c11 8 32 18 54 46c16 21 23 47 27 63c9 -25 38 -122 78 -176c6 -8 20 -21 30 -21c14 0 29 14 36 27c8 15 11 24 18 49z" />
    <glyph glyph-name="uni02DF" unicode="&#x2df;" horiz-adv-x="333" 
d="M284 628l-83 -85l81 -81l-34 -37l-83 83l-81 -83l-32 35l80 83l-84 85l36 34l81 -83l86 83z" />
    <glyph glyph-name="uni02E0" unicode="&#x2e0;" horiz-adv-x="378" 
d="M335 684v-10c-29 -2 -36 -32 -44 -53l-76 -191c21 -45 54 -90 54 -142c0 -43 -28 -69 -70 -69c-39 0 -71 14 -71 58c0 39 23 88 40 122l-65 157c-13 31 -25 63 -42 93c-9 15 -18 24 -37 25v10h133v-10c-14 0 -31 -4 -31 -21c0 -22 62 -165 75 -198c14 38 71 168 71 196
c0 17 -18 23 -31 23v10h94zM223 280c0 20 -31 74 -42 93c-10 -28 -27 -57 -27 -88c0 -19 9 -44 32 -44c21 0 37 17 37 39z" />
    <glyph glyph-name="uni02E1" unicode="&#x2e1;" horiz-adv-x="215" 
d="M197 336h-176v11c47 4 57 17 57 58v352c0 36 -7 48 -31 48c-6 0 -16 0 -28 -2v12c52 13 79 20 118 33l4 -3v-444c0 -41 8 -51 56 -54v-11z" />
    <glyph glyph-name="uni02E2" unicode="&#x2e2;" horiz-adv-x="291" 
d="M233 573h-11c-15 60 -42 91 -80 91c-29 0 -56 -18 -56 -48c0 -21 15 -41 45 -60c28 -18 59 -33 84 -52c31 -23 46 -47 46 -74c0 -31 -11 -55 -34 -74c-21 -18 -46 -25 -80 -25c-11 0 -26 1 -45 7c-18 6 -31 8 -40 9c-8 -1 -13 -4 -15 -11h-11v115h12
c12 -70 45 -104 98 -104c33 0 60 20 60 55c0 16 -8 31 -25 46c-9 7 -28 19 -57 35c-28 16 -48 30 -60 41c-18 18 -28 40 -28 64c0 28 11 51 32 68c20 16 45 25 73 25c11 0 23 -4 40 -9s26 -8 31 -8c6 0 10 4 12 11h9v-102z" />
    <glyph glyph-name="uni02E3" unicode="&#x2e3;" horiz-adv-x="380" 
d="M372 336h-160v12c26 1 32 5 32 19c0 5 -2 9 -5 14l-72 98l-63 -84c-11 -18 -16 -27 -16 -33c0 -10 9 -14 32 -14v-12h-115v12c26 2 33 9 57 40l91 118l-75 114c-25 38 -37 48 -61 48h-7v12h164v-12c-23 -1 -34 -5 -34 -17c0 -5 2 -13 9 -24l39 -63l42 60
c8 11 11 21 11 27c0 11 -8 16 -32 17v12h126v-12c-25 -1 -49 -13 -64 -35l-66 -95l101 -143c24 -34 41 -47 66 -47v-12z" />
    <glyph glyph-name="uni02E4" unicode="&#x2e4;" horiz-adv-x="341" 
d="M166 415v166c-55 10 -121 44 -121 132c0 55 29 137 153 137c31 0 66 -10 87 -24c24 -16 34 -40 34 -54c0 -18 -14 -35 -38 -35c-18 0 -33 16 -40 50c-5 23 -25 50 -51 50c-50 0 -72 -73 -72 -123c0 -62 54 -118 113 -118v-181c0 -51 4 -64 57 -67v-12h-184v12
c49 2 62 7 62 67z" />
    <glyph glyph-name="uni02E5" unicode="&#x2e5;" horiz-adv-x="413" 
d="M373 0h-50v612h-275v50h325v-662z" />
    <glyph glyph-name="uni02E6" unicode="&#x2e6;" horiz-adv-x="405" 
d="M365 0h-50v431h-275v50h275v181h50v-662z" />
    <glyph glyph-name="uni02E7" unicode="&#x2e7;" horiz-adv-x="405" 
d="M365 0h-50v306h-275v50h275v306h50v-662z" />
    <glyph glyph-name="uni02E8" unicode="&#x2e8;" horiz-adv-x="405" 
d="M365 0h-50v181h-275v50h275v431h50v-662z" />
    <glyph glyph-name="uni02E9" unicode="&#x2e9;" horiz-adv-x="405" 
d="M365 0h-325v50h275v612h50v-662z" />
    <glyph glyph-name="uni02EC" unicode="&#x2ec;" horiz-adv-x="333" 
d="M311 70l-132 -217h-26l-132 217h69l76 -120l76 120h69z" />
    <glyph glyph-name="uni02ED" unicode="&#x2ed;" horiz-adv-x="405" 
d="M395 611h-385v54h385v-54zM395 507h-385v54h385v-54z" />
    <glyph glyph-name="uni02F7" unicode="&#x2f7;" horiz-adv-x="333" 
d="M302 -113h29c-21 -76 -50 -106 -105 -106c-25 0 -40 4 -81 24c-38 18 -46 22 -64 22c-23 0 -40 -15 -51 -46h-29c15 65 51 101 101 101c22 0 46 -6 70 -18c43 -22 57 -28 77 -28c23 0 36 14 53 51z" />
    <glyph glyph-name="uni0300" unicode="&#x300;" horiz-adv-x="0" 
d="M-147 507h-40l-154 96c-19 12 -30 27 -30 43c0 21 14 32 36 32c15 0 26 -5 43 -23z" />
    <glyph glyph-name="uni0301" unicode="&#x301;" horiz-adv-x="0" 
d="M-371 507l145 148c17 18 28 23 43 23c22 0 36 -11 36 -32c0 -16 -11 -31 -30 -43l-154 -96h-40z" />
    <glyph glyph-name="uni0302" unicode="&#x302;" horiz-adv-x="0" 
d="M-75 507h-34l-122 103l-121 -103h-34l124 167h62z" />
    <glyph glyph-name="uni0303" unicode="&#x303;" horiz-adv-x="0" 
d="M-94 638h29c-21 -76 -50 -106 -105 -106c-25 0 -40 4 -81 24c-38 18 -46 22 -64 22c-23 0 -40 -15 -51 -46h-29c15 65 51 101 101 101c22 0 46 -6 70 -18c43 -22 57 -28 77 -28c23 0 36 14 53 51z" />
    <glyph glyph-name="uni0304" unicode="&#x304;" horiz-adv-x="0" 
d="M-74 547h-311v54h311v-54z" />
    <glyph glyph-name="uni0305" unicode="&#x305;" horiz-adv-x="0" 
d="M20 770h-500v50h500v-50z" />
    <glyph glyph-name="uni0306" unicode="&#x306;" horiz-adv-x="0" 
d="M-121 664h29c-12 -106 -60 -157 -142 -157c-94 0 -139 60 -139 157h29c13 -63 49 -97 112 -97c54 0 82 26 111 97z" />
    <glyph glyph-name="uni0307" unicode="&#x307;" horiz-adv-x="0" 
d="M-181 572c0 -29 -23 -49 -50 -49s-49 22 -49 49s19 50 49 50c31 0 50 -22 50 -50z" />
    <glyph glyph-name="uni0308" unicode="&#x308;" horiz-adv-x="0" 
d="M-81 572c0 -27 -23 -49 -51 -49c-27 0 -48 22 -48 50c0 27 22 49 49 49s50 -23 50 -50zM-280 572c0 -27 -23 -49 -51 -49c-27 0 -48 22 -48 50c0 27 22 49 49 49s50 -23 50 -50z" />
    <glyph glyph-name="uni0309" unicode="&#x309;" horiz-adv-x="0" 
d="M-261 581h12c44 0 76 30 76 70c0 37 -14 77 -45 77c-43 0 -24 -64 -61 -64c-17 0 -28 14 -28 28c0 11 8 30 24 41c15 11 38 18 61 18c83 0 104 -55 104 -108c0 -66 -46 -116 -100 -116h-8l-2 -35h-33v89z" />
    <glyph glyph-name="uni030A" unicode="&#x30a;" horiz-adv-x="0" 
d="M-130 611c0 -55 -45 -99 -101 -99c-55 0 -98 44 -98 100c0 55 45 99 101 99c53 0 98 -46 98 -100zM-164 612c0 36 -30 65 -67 65c-34 0 -64 -30 -64 -65c0 -37 29 -66 64 -66c38 0 67 29 67 66z" />
    <glyph glyph-name="uni030B" unicode="&#x30b;" horiz-adv-x="0" 
d="M-245 507l146 148c20 20 30 23 43 23c20 0 34 -11 34 -30c0 -18 -8 -32 -29 -45l-154 -96h-40zM-401 507l146 148c20 20 30 23 43 23c20 0 34 -11 34 -30c0 -18 -8 -32 -29 -45l-154 -96h-40z" />
    <glyph glyph-name="uni030C" unicode="&#x30c;" horiz-adv-x="0" 
d="M-74 674l-124 -167h-64l-123 167h35l120 -103l121 103h35z" />
    <glyph glyph-name="uni030D" unicode="&#x30d;" horiz-adv-x="0" 
d="M-195 500h-55v200h55v-200z" />
    <glyph glyph-name="uni030E" unicode="&#x30e;" horiz-adv-x="0" 
d="M-133 500h-55v200h55v-200zM-272 500h-54v200h54v-200z" />
    <glyph glyph-name="uni030F" unicode="&#x30f;" horiz-adv-x="0" 
d="M-22 507h-40l-154 96c-21 13 -29 27 -29 45c0 19 14 30 34 30c13 0 23 -3 43 -23zM-178 507h-40l-154 96c-21 13 -29 27 -29 45c0 19 14 30 34 30c13 0 23 -3 43 -23z" />
    <glyph glyph-name="uni0310" unicode="&#x310;" horiz-adv-x="0" 
d="M-181 717c0 -29 -23 -49 -50 -49s-49 22 -49 49s19 50 49 50c31 0 50 -22 50 -50zM-121 664h29c-12 -106 -60 -157 -142 -157c-94 0 -139 60 -139 157h29c13 -63 49 -97 112 -97c54 0 82 26 111 97z" />
    </font>
</defs>
</svg>
