<?xml version="1.0" standalone="no"?>
<!DOCTYPE svg PUBLIC "-//W3C//DTD SVG 1.1//EN" "http://www.w3.org/Graphics/SVG/1.1/DTD/svg11.dtd" >
<svg xmlns="http://www.w3.org/2000/svg" xmlns:xlink="http://www.w3.org/1999/xlink" version="1.1">
<metadata>
Created by FontForge 20170731 at Mon Oct 17 03:25:18 2005
 By Aleksey,,,
\251 Dutch Design: Albert-Jan Pool, 1995. Published by FontShop International FontFont release 15
</metadata>
<defs>
<font id="DIN-BlackAlternate" horiz-adv-x="500" >
  <font-face 
    font-family="DIN"
    font-weight="400"
    font-stretch="normal"
    units-per-em="1000"
    panose-1="2 0 5 3 3 0 0 2 0 4"
    ascent="814"
    descent="-186"
    x-height="538"
    cap-height="712"
    bbox="-122 -200 1184 1031"
    underline-thickness="108"
    underline-position="-240"
    unicode-range="U+0001-2122"
  />
<missing-glyph horiz-adv-x="1000" 
 />
    <glyph glyph-name=".notdef" horiz-adv-x="1000" 
 />
    <glyph glyph-name=".null" horiz-adv-x="0" 
 />
    <glyph glyph-name="nonmarkingreturn" horiz-adv-x="222" 
 />
    <glyph glyph-name="Eth" horiz-adv-x="679" 
d="M630 356v-80.5t-6 -73.5t-21.5 -68t-46.5 -64q-37 -37 -86.5 -53.5t-105.5 -16.5h-264v293h-65v134h65v285h264q56 0 105.5 -16.5t86.5 -53.5q31 -31 46.5 -64t21.5 -68t6 -73.5v-80.5zM455 356q0 45 -1 73t-3 44.5t-6 26t-9 16.5q-12 18 -31.5 29t-52.5 11h-77v-129h90
v-134h-90v-137h77q33 0 52.5 11t31.5 29q5 8 9 16.5t6 25.5t3 45t1 73z" />
    <glyph glyph-name="eth" horiz-adv-x="550" 
d="M499 259q0 -38 -2.5 -67.5t-9.5 -52.5t-17.5 -42t-27.5 -37q-23 -25 -63.5 -45.5t-103.5 -20.5t-103.5 20.5t-63.5 45.5q-16 18 -27 37t-18 42t-9.5 52.5t-2.5 67.5t2.5 67t9.5 52.5t18 42.5t27 37q11 12 28.5 24.5t40.5 22.5q17 8 36 12.5t41 5.5l-20 40h-113v114h57
l-22 46h176l22 -46h97v-114h-41l26 -57q17 -36 28.5 -64.5t19.5 -56t11.5 -57.5t3.5 -69zM335 259q0 37 -3.5 63t-17.5 40t-39 14t-39 -14t-17.5 -40t-3.5 -63t3.5 -63t17.5 -40t39 -14t39 14t17.5 40t3.5 63z" />
    <glyph glyph-name="Lslash" horiz-adv-x="599" 
d="M95 0v217l-60 -38v146l60 38v349h175v-239l113 71v-145l-113 -71v-172h299v-156h-474z" />
    <glyph glyph-name="lslash" horiz-adv-x="348" 
d="M241 0q-45 0 -76.5 14.5t-51.5 37.5t-29.5 51t-9.5 56v120l-49 -30v137l49 30v296h164v-198l49 30v-137l-49 -30v-206q0 -33 33 -33h57v-138h-87z" />
    <glyph glyph-name="Scaron" horiz-adv-x="593" 
d="M550 218q0 -54 -22 -96t-59.5 -70.5t-87.5 -43t-106 -14.5q-82 0 -149 19.5t-121 74.5l112 112q28 -28 72 -39t87 -11q102 0 102 64q0 27 -14 42q-15 15 -47 19l-86 12q-95 14 -143 63q-49 50 -49 143q0 49 18 90t51.5 71t81.5 47t109 17q77 0 135.5 -19.5t104.5 -65.5
l-110 -110q-17 17 -36 25.5t-37 12.5t-34 4h-28q-23 0 -39 -6t-26.5 -15.5t-15.5 -21t-5 -23.5q0 -7 3 -16t11 -17q7 -7 18.5 -13t30.5 -8l86 -12q94 -13 140 -59q29 -28 41 -67t12 -89zM360 782h-126l-136 179h120l79 -83l79 83h120z" />
    <glyph glyph-name="scaron" horiz-adv-x="504" 
d="M477 176q0 -48 -19 -82t-51 -56.5t-74 -33t-89 -10.5q-30 0 -60 2t-59.5 9.5t-58 23t-56.5 43.5l106 106q17 -17 35.5 -26t36.5 -13.5t33.5 -5t25.5 -0.5q9 0 21 1.5t23 5.5t18.5 11t7.5 17q0 11 -7.5 21.5t-31.5 12.5l-83 8q-35 3 -63.5 13t-49 29t-32 47t-11.5 67
q0 45 18.5 78t48.5 55.5t68.5 33.5t78.5 11q66 0 119 -13t93 -53l-101 -101q-20 20 -51 26t-63 6q-30 0 -41.5 -11t-11.5 -20q0 -2 0.5 -6.5t3.5 -9t10 -8.5t21 -6l83 -8q42 -4 73 -18t50.5 -36t29 -50t9.5 -60zM316 610h-126l-136 179h120l79 -83l79 83h120z" />
    <glyph glyph-name="Yacute" horiz-adv-x="605" 
d="M390 290v-290h-175v290l-215 422h191l112 -256l111 256h191zM343 782h-99l49 180h168z" />
    <glyph glyph-name="yacute" horiz-adv-x="514" 
d="M299 -64q-16 -45 -42 -71q-24 -26 -54.5 -35.5t-66.5 -9.5h-62v148h35q22 0 34.5 7.5t20.5 32.5l15 45l-179 485h172l91 -279l87 279h172zM298 610h-99l49 180h168z" />
    <glyph glyph-name="Thorn" horiz-adv-x="627" 
d="M597 360q0 -44 -15.5 -85t-46.5 -73t-76.5 -51.5t-104.5 -19.5h-107v-131h-175v712h175v-123h107q59 0 104.5 -19.5t76.5 -51.5t46.5 -73t15.5 -85zM422 360q0 28 -20 50t-56 22h-99v-144h99q36 0 56 22t20 50z" />
    <glyph glyph-name="thorn" horiz-adv-x="571" 
d="M526 269q0 -30 -0.5 -61.5t-5 -61.5t-14.5 -56.5t-30 -46.5q-23 -23 -57 -36t-73 -13q-40 0 -68.5 11t-51.5 34v-213h-164v886h164v-213q23 23 51.5 34t68.5 11q39 0 73 -13t57 -36q20 -20 30 -46.5t14.5 -56.5t5 -61.5t0.5 -61.5zM362 269q0 29 -2 52.5t-9 40
t-20.5 25.5t-36.5 9t-36.5 -9t-20.5 -25.5t-9 -40t-2 -52.5t2 -52.5t9 -40t20.5 -25.5t36.5 -9t36.5 9t20.5 25.5t9 40t2 52.5z" />
    <glyph glyph-name="Zcaron" horiz-adv-x="543" 
d="M30 0v136l273 420h-261v156h471v-136l-274 -420h274v-156h-483zM336 782h-126l-136 179h120l79 -83l79 83h120z" />
    <glyph glyph-name="zcaron" horiz-adv-x="489" 
d="M30 0v121l205 269h-193v148h407v-121l-209 -269h209v-148h-419zM309 610h-126l-136 179h120l79 -83l79 83h120z" />
    <glyph glyph-name="onehalf" horiz-adv-x="904" 
d="M577 0v104l151 154q12 12 17 20t5 20q0 13 -7.5 21t-21.5 8q-8 0 -18 -5t-10 -25h-116q0 33 12 58.5t31.5 42t46 25t54.5 8.5q31 0 57 -9t45 -26t30 -41.5t11 -56.5q0 -36 -15 -59.5t-44 -51.5l-87 -83h146v-104h-287zM320 0h-126l339 712h126zM130 285v297l-95 -82v130
l95 82h116v-427h-116z" />
    <glyph glyph-name="onequarter" horiz-adv-x="871" 
d="M805 53v-53h-109v53h-179v110l138 264h127l-139 -264h53v37h109v-37h26v-110h-26zM320 0h-126l339 712h126zM130 285v297l-95 -82v130l95 82h116v-427h-116z" />
    <glyph glyph-name="onesuperior" horiz-adv-x="311" 
d="M130 285v297l-95 -82v130l95 82h116v-427h-116z" />
    <glyph glyph-name="threequarters" horiz-adv-x="891" 
d="M825 53v-53h-109v53h-179v110l138 264h127l-139 -264h53v37h109v-37h26v-110h-26zM340 0h-126l339 712h126zM335 416q0 -35 -12.5 -60.5t-33 -42t-47 -24.5t-55.5 -8q-27 0 -53.5 7.5t-47.5 24t-33.5 43.5t-12.5 65h115q-1 -17 8 -26.5t24 -9.5q32 0 32 35q0 14 -9.5 24
t-23.5 10h-16v99h16q17 0 23.5 10.5t6.5 18.5q0 15 -8.5 22.5t-19.5 7.5t-20 -7.5t-8 -23.5h-116q0 31 11 56t31 42.5t46 27t56 9.5q31 0 57 -10t45 -27t30 -41t11 -52q0 -36 -13.5 -53t-26.5 -27l14 -14t14.5 -18.5t11 -24.5t4.5 -33z" />
    <glyph glyph-name="threesuperior" horiz-adv-x="375" 
d="M335 416q0 -35 -12.5 -60.5t-33 -42t-47 -24.5t-55.5 -8q-27 0 -53.5 7.5t-47.5 24t-33.5 43.5t-12.5 65h115q-1 -17 8 -26.5t24 -9.5q32 0 32 35q0 14 -9.5 24t-23.5 10h-16v99h16q17 0 23.5 10.5t6.5 18.5q0 15 -8.5 22.5t-19.5 7.5t-20 -7.5t-8 -23.5h-116q0 31 11 56
t31 42.5t46 27t56 9.5q31 0 57 -10t45 -27t30 -41t11 -52q0 -36 -13.5 -53t-26.5 -27l14 -14t14.5 -18.5t11 -24.5t4.5 -33z" />
    <glyph glyph-name="twosuperior" horiz-adv-x="367" 
d="M40 285v104l151 154q12 12 17 20t5 20q0 13 -7.5 21t-21.5 8q-8 0 -18 -5t-10 -25h-116q0 33 12 58.5t31.5 42t46 25t54.5 8.5q31 0 57 -9t45 -26t30 -41.5t11 -56.5q0 -36 -15 -59.5t-44 -51.5l-87 -83h146v-104h-287z" />
    <glyph glyph-name="brokenbar" horiz-adv-x="364" 
d="M100 436v350h164v-350h-164zM100 -74v350h164v-350h-164z" />
    <glyph glyph-name="minus" horiz-adv-x="556" 
d="M49 218v154h458v-154h-458z" />
    <glyph glyph-name="multiply" horiz-adv-x="556" 
d="M413 57l-135 135l-134 -135l-105 104l136 134l-136 135l104 104l134 -135l135 135l105 -104l-136 -135l136 -134z" />
    <glyph glyph-name="space" unicode=" " horiz-adv-x="222" 
 />
    <glyph glyph-name="exclam" unicode="!" horiz-adv-x="366" 
d="M262 237h-118l-44 475h206zM298 92q0 -19 -7.5 -36.5t-20.5 -30.5t-30 -20.5t-37 -7.5q-19 0 -36.5 7.5t-30.5 20.5t-20.5 30.5t-7.5 36.5q0 20 7.5 37t20.5 30t30.5 20.5t36.5 7.5q20 0 37 -7.5t30 -20.5t20.5 -30t7.5 -37z" />
    <glyph glyph-name="quotedbl" unicode="&#x22;" horiz-adv-x="488" 
d="M284 478v234h147v-234h-147zM57 478v234h147v-234h-147z" />
    <glyph glyph-name="numbersign" unicode="#" horiz-adv-x="713" 
d="M583 412l-13 -88h58v-155h-83l-27 -169h-174l27 169h-90l-27 -169h-174l27 169h-58v155h83l13 88h-58v155h83l24 153h174l-24 -153h90l24 153h174l-24 -153h58v-155h-83zM319 412l-13 -88h90l13 88h-90z" />
    <glyph glyph-name="dollar" unicode="$" horiz-adv-x="633" 
d="M590 218q0 -47 -16.5 -84.5t-45 -65t-68 -45t-84.5 -24.5v-113h-126v108q-74 2 -134.5 22.5t-110.5 71.5l112 112q27 -27 69 -38t84 -12v132l-39 5q-93 12 -143 63q-49 50 -49 143q0 44 14.5 81.5t41.5 66.5t66 48.5t89 25.5v91h126v-89q63 -4 113 -24t90 -60l-110 -110
q-12 12 -26.5 19.5t-30 12t-30.5 6.5t-26 3v-125l41 -6q94 -13 140 -59q29 -28 41 -67t12 -89zM270 563q-33 -6 -47.5 -25t-14.5 -39q0 -7 3 -16t11 -17q7 -7 18.5 -13t29.5 -8v118zM418 214q0 28 -14 42q-9 10 -22 13.5t-26 5.5v-122q62 12 62 61z" />
    <glyph glyph-name="percent" unicode="%" horiz-adv-x="857" 
d="M812 133q0 -36 -12.5 -62t-33.5 -43t-48 -25.5t-57 -8.5t-57 8.5t-48 25.5t-33.5 43t-12.5 62v95q0 36 12.5 62t33.5 43t48 25.5t57 8.5t57 -8.5t48 -25.5t33.5 -43t12.5 -62v-95v0zM322 0h-126l339 712h126zM347 484q0 -36 -12.5 -62t-33.5 -43t-48 -25.5t-57 -8.5
t-57 8.5t-48 25.5t-33.5 43t-12.5 62v95q0 36 12.5 62t33.5 43t48 25.5t57 8.5t57 -8.5t48 -25.5t33.5 -43t12.5 -62v-95v0zM696 224q0 22 -10 30.5t-25 8.5t-25 -8.5t-10 -30.5v-87q0 -22 10 -30.5t25 -8.5t25 8.5t10 30.5v87zM231 575q0 22 -10 30.5t-25 8.5t-25 -8.5
t-10 -30.5v-87q0 -22 10 -30.5t25 -8.5t25 8.5t10 30.5v87z" />
    <glyph glyph-name="ampersand" unicode="&#x26;" horiz-adv-x="710" 
d="M504 0l-45 52q-13 -10 -27.5 -20t-34 -18.5t-45.5 -14t-62 -5.5q-126 0 -183.5 59t-57.5 163q0 31 10 57.5t26.5 49t36.5 40.5t40 31q-9 11 -21 25t-22 32.5t-17 40.5t-7 49q0 79 53 128t156 49q47 0 84 -13t62.5 -37t39 -57t13.5 -72q0 -41 -18.5 -69t-51.5 -53l-18 -14
q-8 -6 -16.5 -12t-15.5 -11l84 -97q15 17 23 47.5t10 55.5h154q-5 -70 -24.5 -125t-58.5 -98l139 -163h-206zM349 538q0 18 -11 30t-34 12q-26 0 -35.5 -12t-9.5 -31q0 -16 14.5 -32.5t23.5 -25.5q4 2 7.5 5t7.5 6q4 4 9 6q13 9 20.5 19.5t7.5 22.5zM249 295
q-25 -17 -33.5 -34.5t-8.5 -43.5q0 -33 25 -54t58 -21q27 0 42.5 7.5t27.5 18.5z" />
    <glyph glyph-name="quotesingle" unicode="'" horiz-adv-x="262" 
d="M57 478v234h148v-234h-148z" />
    <glyph glyph-name="parenleft" unicode="(" horiz-adv-x="358" 
d="M199 -94q-26 26 -52.5 53.5t-45.5 59.5q-20 32 -24.5 69.5t-4.5 74.5v386q0 37 4.5 74.5t24.5 69.5q19 32 45.5 59.5t52.5 53.5l110 -110l-16.5 -16.5t-14 -15t-13 -15.5t-13.5 -20q-16 -27 -16 -86v-374q0 -59 16 -86q7 -12 13.5 -20t13 -15.5t14 -15l16.5 -16.5z" />
    <glyph glyph-name="parenright" unicode=")" horiz-adv-x="358" 
d="M286 163q0 -37 -4.5 -74.5t-24.5 -69.5q-19 -32 -45.5 -59.5t-52.5 -53.5l-110 110l16.5 16.5t14 15t13 15.5t13.5 20q16 27 16 86v374q0 59 -16 86q-7 12 -13.5 20t-13 15.5t-14 15l-16.5 16.5l110 110q26 -26 52.5 -53.5t45.5 -59.5q20 -32 24.5 -69.5t4.5 -74.5v-386
v0z" />
    <glyph glyph-name="asterisk" unicode="*" horiz-adv-x="506" 
d="M403 356l-99 64l5 -118h-112l5 118l-99 -64l-56 97l105 54l-105 54l56 97l99 -64l-5 118h112l-5 -118l99 64l56 -97l-105 -54l105 -54z" />
    <glyph glyph-name="plus" unicode="+" horiz-adv-x="556" 
d="M355 206v-152h-154v152h-152v154h152v152h154v-152h152v-154h-152z" />
    <glyph glyph-name="comma" unicode="," horiz-adv-x="288" 
d="M57 -178v352h174v-224z" />
    <glyph glyph-name="hyphen" unicode="-" horiz-adv-x="426" 
d="M49 218v154h328v-154h-328z" />
    <glyph glyph-name="period" unicode="." horiz-adv-x="308" 
d="M259 102q0 -22 -8 -41t-22.5 -33t-33.5 -22.5t-41 -8.5t-41 8.5t-33 22.5t-22.5 33t-8.5 41t8.5 41t22.5 33.5t33 22.5t41 8t41 -8t33.5 -22.5t22.5 -33.5t8 -41z" />
    <glyph glyph-name="slash" unicode="/" horiz-adv-x="431" 
d="M152 -74h-152l285 860h152z" />
    <glyph glyph-name="zero" unicode="0" horiz-adv-x="556" 
d="M507 216q0 -55 -19 -96.5t-51 -69.5t-73.5 -42t-85.5 -14t-85.5 14t-73.5 42t-51 69.5t-19 96.5v165q0 55 19 96.5t51 69.5t73.5 42t85.5 14t85.5 -14t73.5 -42t51 -69.5t19 -96.5v-165v0zM343 381q0 38 -19.5 56t-45.5 18t-45.5 -18t-19.5 -56v-166q0 -38 19.5 -55.5
t45.5 -17.5t45.5 17.5t19.5 55.5v166z" />
    <glyph glyph-name="one" unicode="1" horiz-adv-x="476" 
d="M207 0v422l-152 -132v175l152 132h164v-597h-164z" />
    <glyph glyph-name="two" unicode="2" horiz-adv-x="573" 
d="M45 0v148l221 173q35 27 54 48.5t19 44.5q0 28 -17 44.5t-47 16.5q-11 0 -23 -3t-21.5 -11t-15.5 -21t-6 -34h-164q0 53 18.5 93t50 68t73.5 42t88 14q48 0 89.5 -14t72.5 -40.5t48.5 -64.5t17.5 -86q0 -30 -10.5 -56t-30 -50.5t-46.5 -48.5t-60 -49l-86 -66h243v-148
h-468z" />
    <glyph glyph-name="three" unicode="3" horiz-adv-x="546" 
d="M504 98q0 -56 -19.5 -97t-52 -68t-75.5 -40.5t-90 -13.5q-44 0 -86.5 12.5t-76 39t-54 69t-20.5 102.5h164q0 -38 21 -56.5t52 -18.5q32 0 52.5 19t20.5 57q0 32 -21.5 53.5t-54.5 21.5h-23v142h23q37 0 52.5 21.5t15.5 45.5q0 34 -19.5 51t-45.5 17t-45.5 -17.5
t-19.5 -49.5h-164q0 50 18 90t49 68t72.5 42.5t89.5 14.5q50 0 91.5 -15.5t72.5 -43.5t48 -67t17 -85q0 -29 -6.5 -51.5t-17 -39t-23.5 -28t-27 -20.5q15 -10 29.5 -23.5t26 -32t19 -43t7.5 -56.5z" />
    <glyph glyph-name="four" unicode="4" horiz-adv-x="619" 
d="M506 30v-153h-156v153h-309v156l231 462h177l-231 -462h132v114h156v-114h73v-156h-73z" />
    <glyph glyph-name="five" unicode="5" horiz-adv-x="571" 
d="M525 128q0 -32 -3 -58t-10.5 -48.5t-20 -42t-32.5 -39.5q-23 -23 -64 -42t-101 -19t-103 19.5t-66 42.5q-38 38 -48.5 80t-13.5 81h164q4 -35 19.5 -55t47.5 -20q28 0 46 18q21 21 21 83q0 59 -18.5 80t-48.5 21q-18 0 -29.5 -5.5t-19 -13t-11.5 -16.5t-7 -16h-151v419
h434v-148h-285v-110q11 8 37 18t59 10q47 0 81.5 -14t56.5 -36t35 -44.5t20 -46.5t9 -48.5t2 -49.5z" />
    <glyph glyph-name="six" unicode="6" horiz-adv-x="562" 
d="M527 227q0 -58 -20 -102t-53.5 -73t-78 -43.5t-94.5 -14.5q-49 0 -94 14.5t-78.5 43.5t-53.5 73t-20 102q0 37 5 68t15 61t25 60.5t34 65.5l134 246h177l-165 -289q13 7 30 9.5t40 2.5q36 0 71.5 -14t63 -41.5t45 -69.5t17.5 -99zM363 227q0 45 -24 68t-58 23t-58 -23
t-24 -68t24 -68t58 -23t58 23t24 68z" />
    <glyph glyph-name="seven" unicode="7" horiz-adv-x="583" 
d="M301 -115h-178l247 564h-169v-112h-156v260h503v-148z" />
    <glyph glyph-name="eight" unicode="8" horiz-adv-x="576" 
d="M527 213q0 -55 -19 -96.5t-51.5 -68.5t-76 -40.5t-92.5 -13.5t-92.5 13.5t-76 40.5t-51.5 68.5t-19 96.5q0 33 8.5 58t21 43.5t26.5 31t24 20.5q-9 8 -22 20t-24 29.5t-19 40t-8 51.5q0 51 19 90t51 66t74 41t88 14t88 -14t74 -41t51 -66t19 -90q0 -29 -8 -51.5t-19 -40
t-24 -29.5t-22 -20q10 -8 24 -20.5t26.5 -31t21 -43.5t8.5 -58zM356 502q0 29 -19.5 48.5t-48.5 19.5t-48.5 -19.5t-19.5 -48.5t19.5 -48.5t48.5 -19.5t48.5 19.5t19.5 48.5zM363 217q0 31 -22 53t-53 22t-53 -22t-22 -53t22 -53t53 -22t53 22t22 53z" />
    <glyph glyph-name="nine" unicode="9" horiz-adv-x="562" 
d="M527 370q0 -37 -5 -68t-15 -61t-25 -60.5t-34 -65.5l-134 -246h-177l165 289q-13 -7 -30 -9.5t-40 -2.5q-36 0 -71.5 14t-63 41.5t-45 69.5t-17.5 99q0 59 20 102.5t53.5 72.5t78.5 43.5t94 14.5q50 0 94.5 -14.5t78 -43.5t53.5 -72.5t20 -102.5zM363 370q0 45 -24 68
t-58 23t-58 -23t-24 -68t24 -68t58 -23t58 23t24 68z" />
    <glyph glyph-name="colon" unicode=":" horiz-adv-x="331" 
d="M282 352q0 -22 -8 -41t-22.5 -33t-33.5 -22.5t-41 -8.5t-41 8.5t-33 22.5t-22.5 33t-8.5 41t8.5 41t22.5 33.5t33 22.5t41 8t41 -8t33.5 -22.5t22.5 -33.5t8 -41zM282 102q0 -22 -8 -41t-22.5 -33t-33.5 -22.5t-41 -8.5t-41 8.5t-33 22.5t-22.5 33t-8.5 41t8.5 41
t22.5 33.5t33 22.5t41 8t41 -8t33.5 -22.5t22.5 -33.5t8 -41z" />
    <glyph glyph-name="semicolon" unicode=";" horiz-adv-x="317" 
d="M282 352q0 -22 -8 -41t-22.5 -33t-33.5 -22.5t-41 -8.5t-41 8.5t-33 22.5t-22.5 33t-8.5 41t8.5 41t22.5 33.5t33 22.5t41 8t41 -8t33.5 -22.5t22.5 -33.5t8 -41zM90 -178v352h174v-224z" />
    <glyph glyph-name="less" unicode="&#x3c;" horiz-adv-x="1027" 
d="M513 -171l-377 377v205l300 -304v654h154v-654l300 304v-205z" />
    <glyph glyph-name="equal" unicode="=" horiz-adv-x="556" 
d="M49 340v154h458v-154h-458zM49 96v154h458v-154h-458z" />
    <glyph glyph-name="greater" unicode="&#x3e;" horiz-adv-x="1027" 
d="M591 484v-655h-154v655l-300 -304v205l377 377l377 -377v-205z" />
    <glyph glyph-name="question" unicode="?" horiz-adv-x="538" 
d="M508 508q0 -39 -15 -70t-36 -58l-69 -87q-7 -8 -12.5 -21t-5.5 -26v-9h-164v23q0 34 9 59.5t32 51.5l70 82q11 13 19 28.5t8 27.5q0 26 -15 43.5t-45 17.5q-32 0 -46 -18t-14 -45h-164q0 51 18 90.5t48.5 66t71.5 40.5t86 14q44 0 84.5 -13.5t71.5 -39.5t49.5 -65.5
t18.5 -91.5zM383 92q0 -19 -7.5 -36.5t-20.5 -30.5t-30 -20.5t-37 -7.5q-19 0 -36.5 7.5t-30.5 20.5t-20.5 30.5t-7.5 36.5q0 20 7.5 37t20.5 30t30.5 20.5t36.5 7.5q20 0 37 -7.5t30 -20.5t20.5 -30t7.5 -37z" />
    <glyph glyph-name="at" unicode="@" horiz-adv-x="784" 
d="M584 0v40q-23 -23 -48.5 -34.5t-64.5 -11.5q-37 0 -67.5 11.5t-52.5 32.5q-17 17 -27 35.5t-14.5 41.5t-5.5 50.5t-1 60.5t1 60.5t5.5 50t14.5 41.5t27 36q22 21 52 32.5t67 11.5q35 0 61.5 -10.5t47.5 -30.5v26q0 26 -6 50.5t-26 44.5q-19 19 -44 25.5t-51 6.5h-120
q-26 0 -50.5 -6t-44.5 -26q-21 -21 -26.5 -45t-5.5 -50v-262q0 -32 8 -49t28 -37l-113 -113q-21 21 -35.5 40t-24.5 41t-14.5 48t-4.5 60v278q0 67 13 117t51 88t88.5 51t119.5 13h142q66 0 117.5 -12.5t90.5 -51.5q38 -38 51 -87.5t13 -117.5v-453zM579 226q0 54 -15 75
t-45 21t-45 -21t-15 -75t15 -75t45 -21t45 21t15 75z" />
    <glyph glyph-name="A" unicode="A" horiz-adv-x="653" 
d="M470 0l-33 106h-219l-35 -106h-183l259 712h135l259 -712h-183zM331 442l-64 -190h124z" />
    <glyph glyph-name="B" unicode="B" horiz-adv-x="653" 
d="M604 210q0 -51 -17 -90t-46.5 -66t-70 -40.5t-88.5 -13.5h-310v712h295q56 0 98 -15t71 -42t43.5 -65t14.5 -84q0 -30 -9 -54t-21.5 -41.5t-26 -28.5t-21.5 -17q11 -7 26 -18t29 -29t23.5 -44t9.5 -64zM419 497q0 21 -13.5 39.5t-49.5 18.5h-109v-116h109q36 0 49.5 18.5
t13.5 39.5zM429 220q0 23 -14 42.5t-50 19.5h-118v-125h118q36 0 50 20t14 43z" />
    <glyph glyph-name="C" unicode="C" horiz-adv-x="547" 
d="M516 73q-18 -18 -38 -32.5t-43.5 -25t-52 -16t-63.5 -5.5q-63 0 -111 20.5t-87 59.5q-28 28 -43 60.5t-21.5 68.5t-7 74.5t-0.5 78.5t0.5 78.5t7 74.5t21.5 68.5t43 60.5q39 39 87 59.5t111 20.5q35 0 63.5 -5.5t52 -16t43.5 -25t38 -32.5l-116 -116q-17 17 -34 28
t-47 11q-24 0 -41 -8.5t-27 -21.5q-6 -8 -11 -18t-8.5 -29t-5.5 -49.5t-2 -79.5t2 -79.5t5.5 -49.5t8.5 -29t11 -18q10 -13 27 -21.5t41 -8.5q30 0 47 11t34 28l116 -116v0z" />
    <glyph glyph-name="D" unicode="D" horiz-adv-x="651" 
d="M602 356v-80.5t-6 -73.5t-21.5 -68t-46.5 -64q-37 -37 -86.5 -53.5t-105.5 -16.5h-264v712h264q56 0 105.5 -16.5t86.5 -53.5q31 -31 46.5 -64t21.5 -68t6 -73.5v-80.5zM427 356q0 45 -1 73t-3 44.5t-6 26t-9 16.5q-12 18 -31.5 29t-52.5 11h-77v-400h77q33 0 52.5 11
t31.5 29q5 8 9 16.5t6 25.5t3 45t1 73z" />
    <glyph glyph-name="E" unicode="E" horiz-adv-x="608" 
d="M72 0v712h484v-156h-309v-119h264v-156h-264v-125h309v-156h-484z" />
    <glyph glyph-name="F" unicode="F" horiz-adv-x="596" 
d="M247 556v-125h264v-156h-264v-275h-175v712h484v-156h-309z" />
    <glyph glyph-name="G" unicode="G" horiz-adv-x="633" 
d="M591 314q0 -43 -3.5 -78t-11.5 -63.5t-21.5 -52t-33.5 -44.5q-40 -41 -89 -61.5t-113 -20.5q-63 0 -111 20.5t-87 59.5q-28 28 -43 60.5t-21.5 68.5t-7 74.5t-0.5 78.5t0.5 78.5t7 74.5t21.5 68.5t43 60.5q39 39 86 59.5t112 20.5q38 0 68.5 -4.5t56 -15t48.5 -27.5
t47 -41l-119 -119q-25 26 -46 38.5t-55 12.5q-24 0 -41.5 -9t-27.5 -22q-6 -8 -11 -18t-8 -28.5t-5 -49t-2 -79.5t2 -79.5t5 -49.5t8 -29t11 -18q10 -13 27.5 -21.5t41.5 -8.5q28 0 44 7.5t28 20.5q14 14 20 37t6 41v8h-98v146h272v-96v0z" />
    <glyph glyph-name="H" unicode="H" horiz-adv-x="680" 
d="M433 0v282h-186v-282h-175v712h175v-274h186v274h175v-712h-175z" />
    <glyph glyph-name="I" unicode="I" horiz-adv-x="319" 
d="M72 0v712h175v-712h-175z" />
    <glyph glyph-name="J" unicode="J" horiz-adv-x="516" 
d="M454 244q0 -63 -23 -110t-60.5 -78t-86 -46.5t-98.5 -15.5q-31 0 -57 4t-49.5 13t-44.5 24t-43 37l115 114q17 -17 33.5 -26.5t45.5 -9.5q41 0 67 23.5t26 74.5v464h175v-468v0z" />
    <glyph glyph-name="K" unicode="K" horiz-adv-x="673" 
d="M469 0l-164 292l-60 -69v-223h-173v712h173v-252l206 252h214l-243 -288l251 -424h-204z" />
    <glyph glyph-name="L" unicode="L" horiz-adv-x="576" 
d="M72 0v712h175v-556h299v-156h-474z" />
    <glyph glyph-name="M" unicode="M" horiz-adv-x="808" 
d="M561 0v341l-101 -176h-112l-101 176v-341h-175v712h172l160 -314l160 314h172v-712h-175z" />
    <glyph glyph-name="N" unicode="N" horiz-adv-x="700" 
d="M475 0l-228 358v-358h-175v712h153l228 -358v358h175v-712h-153z" />
    <glyph glyph-name="O" unicode="O" horiz-adv-x="640" 
d="M591 356q0 -40 -0.5 -78.5t-7 -74.5t-21.5 -68.5t-43 -60.5q-39 -39 -86 -59.5t-113 -20.5t-113 20.5t-86 59.5q-28 28 -43 60.5t-21.5 68.5t-7 74.5t-0.5 78.5t0.5 78.5t7 74.5t21.5 68.5t43 60.5q39 39 86 59.5t113 20.5t113 -20.5t86 -59.5q28 -28 43 -60.5
t21.5 -68.5t7 -74.5t0.5 -78.5zM416 356q0 49 -2 79.5t-5 49t-8 28.5t-11 18q-10 13 -28 22t-42 9t-42 -9t-28 -22q-6 -8 -11 -18t-8 -28.5t-5 -49t-2 -79.5t2 -79t5 -48.5t8 -28.5t11 -18q10 -13 28 -22.5t42 -9.5t42 9.5t28 22.5q6 8 11 18t8 28.5t5 48.5t2 79z" />
    <glyph glyph-name="P" unicode="P" horiz-adv-x="627" 
d="M597 483q0 -44 -15.5 -85t-46.5 -73t-76.5 -51.5t-104.5 -19.5h-107v-254h-175v712h282q59 0 104.5 -19.5t76.5 -51.5t46.5 -73t15.5 -85zM422 483q0 28 -20 50t-56 22h-99v-144h99q36 0 56 22t20 50z" />
    <glyph glyph-name="Q" unicode="Q" horiz-adv-x="640" 
d="M513 -28l-55 55q-57 -33 -138 -33q-66 0 -113 20.5t-86 59.5q-28 28 -43 60.5t-21.5 68.5t-7 74.5t-0.5 78.5t0.5 78.5t7 74.5t21.5 68.5t43 60.5q39 39 86 59.5t113 20.5t113 -20.5t86 -59.5q28 -28 43 -60.5t21.5 -68.5t7 -74.5t0.5 -78.5q0 -33 -0.5 -65.5t-4 -63.5
t-12 -59.5t-24.5 -54.5l52 -52zM416 356q0 49 -2 79.5t-5 49t-8 28.5t-11 18q-10 13 -28 22t-42 9t-42 -9t-28 -22q-6 -8 -11 -18t-8 -28.5t-5 -49t-2 -79.5t2 -79t5 -48.5t8 -28.5t11 -18q10 -13 28 -22.5t42 -9.5q9 0 14 1l-45 45l89 89l34 -34q2 18 3 43.5t1 61.5z" />
    <glyph glyph-name="R" unicode="R" horiz-adv-x="652" 
d="M432 0l-126 265h-59v-265h-175v712h282q59 0 104.5 -19.5t76.5 -51.5t46.5 -73t15.5 -85q0 -36 -10 -66t-26.5 -53t-37.5 -39.5t-42 -27.5l154 -297h-203zM422 483q0 28 -20 50t-56 22h-99v-144h99q36 0 56 22t20 50z" />
    <glyph glyph-name="S" unicode="S" horiz-adv-x="593" 
d="M550 218q0 -54 -22 -96t-59.5 -70.5t-87.5 -43t-106 -14.5q-82 0 -149 19.5t-121 74.5l112 112q28 -28 72 -39t87 -11q102 0 102 64q0 27 -14 42q-15 15 -47 19l-86 12q-95 14 -143 63q-49 50 -49 143q0 49 18 90t51.5 71t81.5 47t109 17q77 0 135.5 -19.5t104.5 -65.5
l-110 -110q-17 17 -36 25.5t-37 12.5t-34 4h-28q-23 0 -39 -6t-26.5 -15.5t-15.5 -21t-5 -23.5q0 -7 3 -16t11 -17q7 -7 18.5 -13t30.5 -8l86 -12q94 -13 140 -59q29 -28 41 -67t12 -89z" />
    <glyph glyph-name="T" unicode="T" horiz-adv-x="585" 
d="M380 556v-556h-175v556h-175v156h525v-156h-175z" />
    <glyph glyph-name="U" unicode="U" horiz-adv-x="660" 
d="M600 250q0 -58 -21.5 -105.5t-58.5 -81t-86 -51.5t-105 -18q-55 0 -104 18t-86 51.5t-58 81t-21 105.5v462h175v-458q0 -50 25 -77t69 -27t70 27t26 77v458h175v-462v0z" />
    <glyph glyph-name="V" unicode="V" horiz-adv-x="601" 
d="M365 0h-130l-235 712h181l120 -398l118 398h182z" />
    <glyph glyph-name="W" unicode="W" horiz-adv-x="906" 
d="M711 0h-143l-115 351l-115 -351h-142l-196 712h183l93 -376l115 376h124l115 -376l93 376h183z" />
    <glyph glyph-name="X" unicode="X" horiz-adv-x="634" 
d="M434 0l-117 219l-117 -219h-200l222 365l-208 347h199l104 -201l104 201h199l-208 -347l222 -365h-200z" />
    <glyph glyph-name="Y" unicode="Y" horiz-adv-x="605" 
d="M390 290v-290h-175v290l-215 422h191l112 -256l111 256h191z" />
    <glyph glyph-name="Z" unicode="Z" horiz-adv-x="543" 
d="M30 0v136l273 420h-261v156h471v-136l-274 -420h274v-156h-483z" />
    <glyph glyph-name="bracketleft" unicode="[" horiz-adv-x="416" 
d="M72 -74v860h304v-148h-140v-564h140v-148h-304z" />
    <glyph glyph-name="backslash" unicode="\" horiz-adv-x="431" 
d="M279 -74l-279 842h152l279 -842h-152z" />
    <glyph glyph-name="bracketright" unicode="]" horiz-adv-x="416" 
d="M40 -74v148h140v564h-140v148h304v-860h-304z" />
    <glyph glyph-name="asciicircum" unicode="^" horiz-adv-x="640" 
d="M410 375l-90 165l-90 -165h-173l187 345h152l187 -345h-173z" />
    <glyph glyph-name="underscore" unicode="_" horiz-adv-x="640" 
d="M0 -186v108h640v-108h-640z" />
    <glyph glyph-name="grave" unicode="`" 
d="M209 610l-118 180h168l49 -180h-99z" />
    <glyph glyph-name="a" unicode="a" horiz-adv-x="536" 
d="M323 0v44q-25 -25 -51 -37t-69 -12q-41 0 -73.5 12.5t-55.5 35.5t-35 55.5t-12 70.5q0 30 10.5 58.5t33 50t57 34.5t82.5 13h109v14q0 37 -19 52t-62 15q-32 0 -49 -8t-37 -28l-102 102q21 21 41 34.5t43.5 22t50.5 12t61 3.5q116 0 176.5 -48t60.5 -147v-349h-160z
M319 216h-83q-24 0 -38 -12t-14 -31q0 -18 13.5 -31.5t40.5 -13.5q24 0 37.5 3.5t27.5 16.5q16 15 16 54v14z" />
    <glyph glyph-name="b" unicode="b" horiz-adv-x="569" 
d="M526 269q0 -30 -0.5 -61.5t-5 -61.5t-14.5 -56.5t-30 -46.5q-23 -23 -57.5 -36t-73.5 -13q-42 0 -70.5 12.5t-53.5 37.5v-44h-159v712h164v-213q23 23 51.5 34t68.5 11q39 0 73 -13t57 -36q20 -20 30 -46.5t14.5 -56.5t5 -61.5t0.5 -61.5zM362 269q0 29 -2 52.5t-9 40
t-20.5 25.5t-36.5 9t-36.5 -9t-20.5 -25.5t-9 -40t-2 -52.5t2 -52.5t9 -40t20.5 -25.5t36.5 -9t36.5 9t20.5 25.5t9 40t2 52.5z" />
    <glyph glyph-name="c" unicode="c" horiz-adv-x="475" 
d="M457 63q-33 -33 -76.5 -51t-100.5 -18q-35 0 -77 10t-79 39.5t-61.5 83.5t-24.5 142t24.5 142t61.5 83.5t79 39.5t77 10q57 0 100.5 -18t76.5 -51l-111 -111q-16 16 -31 24t-35 8q-17 0 -28.5 -5t-22.5 -16q-27 -28 -27 -106t27 -106q11 -11 22.5 -16t28.5 -5q20 0 35 8
t31 24l111 -111v0z" />
    <glyph glyph-name="d" unicode="d" horiz-adv-x="569" 
d="M348 0v44q-25 -25 -53.5 -37.5t-70.5 -12.5q-39 0 -73.5 13t-57.5 36q-20 20 -30 46.5t-14.5 56.5t-5 61.5t-0.5 61.5t0.5 61.5t5 61.5t14.5 56.5t30 46.5q23 23 57 36t73 13q40 0 68.5 -11t51.5 -34v213h164v-712h-159zM343 269q0 29 -2 52.5t-9 40t-20.5 25.5t-36.5 9
t-36.5 -9t-20.5 -25.5t-9 -40t-2 -52.5t2 -52.5t9 -40t20.5 -25.5t36.5 -9t36.5 9t20.5 25.5t9 40t2 52.5z" />
    <glyph glyph-name="e" unicode="e" horiz-adv-x="559" 
d="M199 216q0 -33 24.5 -58.5t70.5 -25.5q43 0 66 11.5t45 33.5l98 -98q-21 -21 -42 -36.5t-45.5 -26.5t-54 -16.5t-67.5 -5.5q-45 0 -90.5 10.5t-82 40t-60 83.5t-23.5 141q0 66 18 117t50 86.5t76 53.5t97 18q59 0 104 -20t75.5 -54.5t46.5 -81t16 -99.5v-73h-322z
M359 325q0 10 -2 20.5t-7 21.5q-8 17 -25 29.5t-46 12.5t-46 -12.5t-25 -29.5q-5 -11 -7 -21.5t-2 -20.5h160v0z" />
    <glyph glyph-name="f" unicode="f" horiz-adv-x="358" 
d="M243 391v-391h-164v391h-49v126h49v47q0 28 9.5 56t29.5 51t51.5 37.5t76.5 14.5h87v-138h-57q-33 0 -33 -33v-35h90v-126h-90z" />
    <glyph glyph-name="g" unicode="g" horiz-adv-x="561" 
d="M499 39q0 -48 -17.5 -88t-49 -69t-76.5 -45.5t-100 -16.5q-63 0 -112 14.5t-90 55.5l102 102q19 -19 41.5 -26.5t50.5 -7.5q26 0 43 8t26.5 20t13.5 26.5t4 27.5v39q-23 -23 -50.5 -34t-65.5 -11q-78 0 -126 48q-18 18 -28.5 39t-15 46t-5.5 55t-1 67t1 67t5.5 55t15 46
t28.5 39q48 48 127 48q42 0 68.5 -12.5t51.5 -37.5v44h159v-499v0zM335 289q0 21 -1.5 40t-8 34t-19 24t-35.5 9q-22 0 -35 -9t-19.5 -24t-8 -34t-1.5 -40t1.5 -40t8 -34t19.5 -24t35 -9q23 0 35.5 9t19 24t8 34t1.5 40z" />
    <glyph glyph-name="h" unicode="h" horiz-adv-x="573" 
d="M352 0v326q0 22 -7 35.5t-16.5 21t-20.5 10.5t-19 3t-19 -3t-20.5 -10.5t-16.5 -21t-7 -35.5v-326h-164v712h164v-218q26 26 56.5 38t61.5 12q44 0 76 -15t53.5 -41.5t32 -62t10.5 -76.5v-349h-164z" />
    <glyph glyph-name="i" unicode="i" horiz-adv-x="288" 
d="M244 662q0 -42 -29 -71t-71 -29t-71 29t-29 71t29 71t71 29t71 -29t29 -71zM62 0v517h164v-517h-164z" />
    <glyph glyph-name="j" unicode="j" horiz-adv-x="288" 
d="M244 662q0 -42 -29 -71t-71 -29t-71 29t-29 71t29 71t71 29t71 -29t29 -71zM226 -21q0 -28 -9.5 -56t-29.5 -51t-51.5 -37.5t-76.5 -14.5h-87v138h57q33 0 33 33v526h164v-538v0z" />
    <glyph glyph-name="k" unicode="k" horiz-adv-x="573" 
d="M370 0l-112 197l-32 -35v-162h-164v712h164v-362l145 188h197l-198 -223l203 -315h-203z" />
    <glyph glyph-name="l" unicode="l" horiz-adv-x="341" 
d="M224 0q-45 0 -76.5 14.5t-51.5 37.5t-29.5 51t-9.5 56v553h164v-541q0 -33 33 -33h57v-138h-87z" />
    <glyph glyph-name="m" unicode="m" horiz-adv-x="875" 
d="M654 0v322q0 23 -7 37.5t-17.5 22.5t-22 11t-19.5 3t-19.5 -3t-22 -11t-17.5 -22.5t-7 -37.5v-322h-164v322q0 23 -7 37.5t-17.5 22.5t-22 11t-19.5 3t-19.5 -3t-22 -11t-17.5 -22.5t-7 -37.5v-322h-164v538h160v-44q25 25 59 37.5t66 12.5q40 0 72.5 -13.5t58.5 -43.5
q35 31 70 44t82 13q38 0 72.5 -12t56.5 -34q35 -35 47 -73t12 -81v-344h-164z" />
    <glyph glyph-name="n" unicode="n" horiz-adv-x="579" 
d="M358 0v322q0 23 -7 37.5t-17.5 22.5t-22 11t-19.5 3t-19.5 -3t-22 -11t-17.5 -22.5t-7 -37.5v-322h-164v538h160v-44q25 25 59 37.5t66 12.5q38 0 68.5 -12t52.5 -34q35 -35 44.5 -73t9.5 -81v-344h-164z" />
    <glyph glyph-name="o" unicode="o" horiz-adv-x="550" 
d="M507 269q0 -40 -3 -70t-9.5 -54t-18 -44t-28.5 -38q-12 -13 -28.5 -25t-37.5 -22t-47.5 -16t-59.5 -6t-59.5 6t-47.5 16t-37.5 22t-28.5 25q-17 18 -28.5 38t-18 44t-9.5 54t-3 70q0 39 3 69.5t9.5 54.5t18 44t28.5 38q24 26 66 47.5t107 21.5t107 -21.5t66 -47.5
q17 -18 28.5 -38t18 -44t9.5 -54.5t3 -69.5zM343 269q0 40 -4 68t-20 44q-15 15 -44 15t-44 -15q-16 -16 -20 -44t-4 -68t4 -68t20 -44q15 -15 44 -15t44 15q16 16 20 44t4 68z" />
    <glyph glyph-name="p" unicode="p" horiz-adv-x="569" 
d="M526 269q0 -30 -0.5 -61.5t-5 -61.5t-14.5 -56.5t-30 -46.5q-23 -23 -57 -36t-73 -13q-40 0 -68.5 11t-51.5 34v-213h-164v712h159v-44q25 25 53.5 37.5t70.5 12.5q39 0 73.5 -13t57.5 -36q20 -20 30 -46.5t14.5 -56.5t5 -61.5t0.5 -61.5zM362 269q0 29 -2 52.5t-9 40
t-20.5 25.5t-36.5 9t-36.5 -9t-20.5 -25.5t-9 -40t-2 -52.5t2 -52.5t9 -40t20.5 -25.5t36.5 -9t36.5 9t20.5 25.5t9 40t2 52.5z" />
    <glyph glyph-name="q" unicode="q" horiz-adv-x="569" 
d="M343 -174v213q-23 -23 -51.5 -34t-68.5 -11q-39 0 -73 13t-57 36q-20 20 -30 46.5t-14.5 56.5t-5 61.5t-0.5 61.5t0.5 61.5t5 61.5t14.5 56.5t30 46.5q23 23 57.5 36t73.5 13q42 0 70.5 -12.5t53.5 -37.5v44h159v-712h-164zM343 269q0 29 -2 52.5t-9 40t-20.5 25.5
t-36.5 9t-36.5 -9t-20.5 -25.5t-9 -40t-2 -52.5t2 -52.5t9 -40t20.5 -25.5t36.5 -9t36.5 9t20.5 25.5t9 40t2 52.5z" />
    <glyph glyph-name="r" unicode="r" horiz-adv-x="475" 
d="M351 368q-12 12 -25 20t-34 8q-8 0 -19.5 -3t-22 -11t-17.5 -22.5t-7 -37.5v-322h-164v538h160v-44q18 18 51.5 34t75.5 16q40 0 69 -11t57 -39z" />
    <glyph glyph-name="s" unicode="s" horiz-adv-x="504" 
d="M477 176q0 -48 -19 -82t-51 -56.5t-74 -33t-89 -10.5q-30 0 -60 2t-59.5 9.5t-58 23t-56.5 43.5l106 106q17 -17 35.5 -26t36.5 -13.5t33.5 -5t25.5 -0.5q9 0 21 1.5t23 5.5t18.5 11t7.5 17q0 11 -7.5 21.5t-31.5 12.5l-83 8q-35 3 -63.5 13t-49 29t-32 47t-11.5 67
q0 45 18.5 78t48.5 55.5t68.5 33.5t78.5 11q66 0 119 -13t93 -53l-101 -101q-20 20 -51 26t-63 6q-30 0 -41.5 -11t-11.5 -20q0 -2 0.5 -6.5t3.5 -9t10 -8.5t21 -6l83 -8q42 -4 73 -18t50.5 -36t29 -50t9.5 -60z" />
    <glyph glyph-name="t" unicode="t" horiz-adv-x="363" 
d="M241 0q-45 0 -76.5 14.5t-51.5 37.5t-29.5 51t-9.5 56v232h-49v126h49v154h164v-154h85v-126h-85v-220q0 -33 33 -33h52v-138h-82z" />
    <glyph glyph-name="u" unicode="u" horiz-adv-x="579" 
d="M357 0v44q-25 -25 -59 -37.5t-66 -12.5q-38 0 -68.5 12t-52.5 34q-35 35 -44.5 73t-9.5 81v344h164v-322q0 -23 7 -37.5t17.5 -22.5t22 -11t19.5 -3t19.5 3t22 11t17.5 22.5t7 37.5v322h164v-538h-160z" />
    <glyph glyph-name="v" unicode="v" horiz-adv-x="521" 
d="M323 0h-125l-198 538h172l89 -279l88 279h172z" />
    <glyph glyph-name="w" unicode="w" horiz-adv-x="780" 
d="M618 0h-131l-97 295l-97 -295h-131l-162 538h173l67 -279l93 279h114l93 -279l67 279h173z" />
    <glyph glyph-name="x" unicode="x" horiz-adv-x="556" 
d="M359 0l-82 136l-80 -136h-197l187 275l-180 263h197l73 -130l75 130h197l-180 -263l187 -275h-197z" />
    <glyph glyph-name="y" unicode="y" horiz-adv-x="514" 
d="M299 -64q-16 -45 -42 -71q-24 -26 -54.5 -35.5t-66.5 -9.5h-62v148h35q22 0 34.5 7.5t20.5 32.5l15 45l-179 485h172l91 -279l87 279h172z" />
    <glyph glyph-name="z" unicode="z" horiz-adv-x="489" 
d="M30 0v121l205 269h-193v148h407v-121l-209 -269h209v-148h-419z" />
    <glyph glyph-name="braceleft" unicode="{" horiz-adv-x="518" 
d="M338 -74q-40 0 -69.5 11t-49.5 31q-26 26 -37 56t-11 61v119q0 43 -17 60q-18 18 -56 18h-58v148h58q38 0 56 18q17 17 17 60v119q0 31 11 61t37 56q20 20 49.5 31t69.5 11h140v-148h-70q-21 0 -35 -3t-22 -11q-16 -16 -16 -64v-104q0 -30 -8.5 -49t-20.5 -29.5
t-24.5 -15t-19.5 -6.5q7 -2 19.5 -6.5t24.5 -15t20.5 -29.5t8.5 -49v-104q0 -48 16 -64q8 -8 22 -11t35 -3h70v-148h-140z" />
    <glyph glyph-name="bar" unicode="|" horiz-adv-x="364" 
d="M100 -74v860h164v-860h-164z" />
    <glyph glyph-name="braceright" unicode="}" horiz-adv-x="518" 
d="M420 282q-38 0 -56 -18q-17 -17 -17 -60v-119q0 -31 -11 -61t-37 -56q-20 -20 -49.5 -31t-69.5 -11h-140v148h70q21 0 35 3t22 11q9 9 12.5 24t3.5 40v104q0 30 8.5 49t20.5 29.5t24.5 15t19.5 6.5q-7 2 -19.5 6.5t-24.5 15t-20.5 29.5t-8.5 49v104q0 48 -16 64
q-8 8 -22 11t-35 3h-70v148h140q40 0 69.5 -11t49.5 -31q26 -26 37 -56t11 -61v-119q0 -43 17 -60q18 -18 56 -18h58v-148h-58z" />
    <glyph glyph-name="asciitilde" unicode="~" horiz-adv-x="646" 
d="M616 283q-49 -49 -91.5 -72.5t-95.5 -23.5q-34 0 -61 7t-62 27q-22 13 -41.5 19t-42.5 6q-20 0 -40.5 -7t-47.5 -34l-104 104q24 24 46 42t44 30t45 18t50 6q34 0 61 -7t62 -27q22 -13 41.5 -19t42.5 -6q20 0 40.5 7t47.5 34l106 -104v0z" />
    <glyph glyph-name="Aring" horiz-adv-x="653" 
d="M470 0l-33 106h-219l-35 -106h-183l259 712h135l259 -712h-183zM331 442l-64 -190h124zM464 893q0 -28 -11 -53.5t-29.5 -44t-43.5 -29.5t-54 -11q-28 0 -53.5 11t-44 29.5t-29.5 44t-11 53.5q0 29 11 54t29.5 43.5t44 29.5t53.5 11q29 0 54 -10.5t43.5 -29.5t29.5 -44
t11 -54zM378 893q0 21 -15.5 36.5t-36.5 15.5t-36.5 -15.5t-15.5 -36.5t15.5 -36.5t36.5 -15.5t36.5 15.5t15.5 36.5z" />
    <glyph glyph-name="ccedilla" horiz-adv-x="475" 
d="M457 63q-33 -33 -76.5 -51t-100.5 -18q-35 0 -77 10t-79 39.5t-61.5 83.5t-24.5 142t24.5 142t61.5 83.5t79 39.5t77 10q57 0 100.5 -18t76.5 -51l-111 -111q-16 16 -31 24t-35 8q-17 0 -28.5 -5t-22.5 -16q-27 -28 -27 -106t27 -106q11 -11 22.5 -16t28.5 -5q20 0 35 8
t31 24l111 -111v0zM297 -200h-146l67 144h115z" />
    <glyph glyph-name="eacute" horiz-adv-x="559" 
d="M199 216q0 -33 24.5 -58.5t70.5 -25.5q43 0 66 11.5t45 33.5l98 -98q-21 -21 -42 -36.5t-45.5 -26.5t-54 -16.5t-67.5 -5.5q-45 0 -90.5 10.5t-82 40t-60 83.5t-23.5 141q0 66 18 117t50 86.5t76 53.5t97 18q59 0 104 -20t75.5 -54.5t46.5 -81t16 -99.5v-73h-322z
M359 325q0 10 -2 20.5t-7 21.5q-8 17 -25 29.5t-46 12.5t-46 -12.5t-25 -29.5q-5 -11 -7 -21.5t-2 -20.5h160v0zM324 610h-99l49 180h168z" />
    <glyph glyph-name="egrave" horiz-adv-x="559" 
d="M199 216q0 -33 24.5 -58.5t70.5 -25.5q43 0 66 11.5t45 33.5l98 -98q-21 -21 -42 -36.5t-45.5 -26.5t-54 -16.5t-67.5 -5.5q-45 0 -90.5 10.5t-82 40t-60 83.5t-23.5 141q0 66 18 117t50 86.5t76 53.5t97 18q59 0 104 -20t75.5 -54.5t46.5 -81t16 -99.5v-73h-322z
M359 325q0 10 -2 20.5t-7 21.5q-8 17 -25 29.5t-46 12.5t-46 -12.5t-25 -29.5q-5 -11 -7 -21.5t-2 -20.5h160v0zM242 610l-118 180h168l49 -180h-99z" />
    <glyph glyph-name="ecircumflex" horiz-adv-x="559" 
d="M199 216q0 -33 24.5 -58.5t70.5 -25.5q43 0 66 11.5t45 33.5l98 -98q-21 -21 -42 -36.5t-45.5 -26.5t-54 -16.5t-67.5 -5.5q-45 0 -90.5 10.5t-82 40t-60 83.5t-23.5 141q0 66 18 117t50 86.5t76 53.5t97 18q59 0 104 -20t75.5 -54.5t46.5 -81t16 -99.5v-73h-322z
M359 325q0 10 -2 20.5t-7 21.5q-8 17 -25 29.5t-46 12.5t-46 -12.5t-25 -29.5q-5 -11 -7 -21.5t-2 -20.5h160v0zM362 610l-79 83l-79 -83h-120l136 179h126l136 -179h-120z" />
    <glyph glyph-name="ugrave" horiz-adv-x="579" 
d="M357 0v44q-25 -25 -59 -37.5t-66 -12.5q-38 0 -68.5 12t-52.5 34q-35 35 -44.5 73t-9.5 81v344h164v-322q0 -23 7 -37.5t17.5 -22.5t22 -11t19.5 -3t19.5 3t22 11t17.5 22.5t7 37.5v322h164v-538h-160zM246 610l-118 180h168l49 -180h-99z" />
    <glyph glyph-name="ucircumflex" horiz-adv-x="579" 
d="M357 0v44q-25 -25 -59 -37.5t-66 -12.5q-38 0 -68.5 12t-52.5 34q-35 35 -44.5 73t-9.5 81v344h164v-322q0 -23 7 -37.5t17.5 -22.5t22 -11t19.5 -3t19.5 3t22 11t17.5 22.5t7 37.5v322h164v-538h-160zM366 610l-79 83l-79 -83h-120l136 179h126l136 -179h-120z" />
    <glyph glyph-name="dagger" unicode="&#xa0;" horiz-adv-x="564" 
d="M364 390v-390h-164v390h-153v148h153v174h164v-174h153v-148h-153z" />
    <glyph glyph-name="degree" unicode="&#xa1;" horiz-adv-x="486" 
d="M439 534q0 -40 -15.5 -76t-42 -62.5t-62 -42t-76.5 -15.5q-40 0 -76 15.5t-62.5 42t-42 62.5t-15.5 76q0 41 15.5 76.5t42 62t62.5 42t76 15.5q41 0 76.5 -15.5t62 -42t42 -62t15.5 -76.5zM308 534q0 27 -19 46t-46 19t-46 -19t-19 -46t19 -46t46 -19t46 19t19 46z" />
    <glyph glyph-name="cent" unicode="&#xa2;" horiz-adv-x="499" 
d="M481 174q-26 -26 -58 -46t-73 -30v-98h-126v98q-38 9 -72 29.5t-59.5 53.5t-40 79t-14.5 106t14.5 106t40 79t59.5 53.5t72 29.5v78h126v-78q41 -10 73 -30t58 -46l-107 -107q-9 9 -19.5 18t-24.5 15v-236q14 6 24.5 15t19.5 18l107 -107v0zM244 482q-3 -2 -6 -4.5
t-6 -5.5q-30 -32 -30 -106q0 -38 7.5 -64t21.5 -41l6 -6t7 -5v232z" />
    <glyph glyph-name="sterling" unicode="&#xa3;" horiz-adv-x="597" 
d="M95 0v278h-60v126h60v64q0 63 23 110t60.5 78t86 46.5t98.5 15.5q62 0 106.5 -17t87.5 -61l-115 -114q-17 17 -33.5 26.5t-45.5 9.5q-41 0 -67 -23.5t-26 -74.5v-60h93v-126h-93v-122h287v-156h-462z" />
    <glyph glyph-name="section" unicode="&#xa4;" horiz-adv-x="516" 
d="M475 285q0 -26 -8.5 -48.5t-21.5 -40.5t-26.5 -31t-24.5 -20q14 -8 26.5 -19t22.5 -27t16 -37.5t6 -51.5q0 -51 -18.5 -87t-48 -59t-66.5 -33.5t-73 -10.5t-73 9.5t-66.5 31.5t-48 57.5t-18.5 88.5h156q0 -17 13 -30.5t37 -13.5q25 0 37.5 12.5t12.5 28.5q0 12 -10 28
t-49 30l-54 20q-37 14 -65.5 29.5t-47.5 37t-28.5 51.5t-9.5 73q0 26 9 48.5t21.5 40.5t27 31t25.5 20q-12 8 -24 18t-21.5 25t-15 35.5t-5.5 47.5q0 32 10.5 64t34.5 57.5t62 41.5t92 16q55 0 93 -15t61.5 -40t34 -57.5t10.5 -68.5h-152q0 23 -14 32.5t-33 9.5
q-26 0 -36.5 -11.5t-10.5 -23.5q0 -28 56 -48l54 -20q38 -14 66 -29.5t47 -37t28.5 -51.5t9.5 -73zM319 279q0 24 -7 36t-13 17q-5 5 -15 9t-24 4t-24 -4t-15 -9q-6 -5 -13 -17t-7 -36t7 -36t13 -17q5 -5 15 -9t24 -4t24 4t15 9q6 5 13 17t7 36z" />
    <glyph glyph-name="bullet" unicode="&#xa5;" horiz-adv-x="470" 
d="M398 334q0 -34 -13 -63.5t-35 -51.5t-51.5 -35t-63.5 -13t-63.5 13t-51.5 35t-35 51.5t-13 63.5t13 63.5t35 51.5t51.5 35t63.5 13t63.5 -13t51.5 -35t35 -51.5t13 -63.5z" />
    <glyph glyph-name="paragraph" unicode="&#xa6;" horiz-adv-x="707" 
d="M471 -174v730h-90v-730h-164v472q-33 0 -66.5 15.5t-60.5 43t-43.5 65t-16.5 81.5q0 54 18.5 93.5t50.5 65t76 38t96 12.5h364v-886h-164z" />
    <glyph glyph-name="germandbls" unicode="&#xa7;" horiz-adv-x="584" 
d="M534 173q0 -85 -42 -128q-22 -22 -55.5 -33.5t-82.5 -11.5h-52v138h19q23 0 35 12q13 12 13 36v129q0 23 -12 35q-12 13 -36 13h-19v126h23q16 0 30 8t14 34q0 19 -12 29q-8 8 -22.5 11.5t-32.5 3.5q-44 0 -59.5 -17.5t-15.5 -52.5v-505h-165v519q0 55 19 93t51.5 61.5
t76 34t93.5 10.5q51 0 94 -10.5t73.5 -33t47.5 -56.5t17 -81q0 -24 -6 -42t-15 -31t-19.5 -21.5t-20.5 -14.5q23 -11 42 -33.5t19 -69.5v-152v0z" />
    <glyph glyph-name="registered" unicode="&#xa8;" horiz-adv-x="822" 
d="M773 356q0 -75 -28.5 -141t-77.5 -115t-115 -77.5t-141 -28.5t-141 28.5t-115 77.5t-77.5 115t-28.5 141t28.5 141t77.5 115t115 77.5t141 28.5t141 -28.5t115 -77.5t77.5 -115t28.5 -141zM670 356q0 59 -19.5 107.5t-54.5 83.5t-82 54.5t-103 19.5q-55 0 -102.5 -19.5
t-82.5 -54.5t-54.5 -83.5t-19.5 -107.5q0 -58 19.5 -107t54.5 -84t82.5 -54.5t102.5 -19.5q56 0 103 19.5t82 54.5t54.5 84t19.5 107zM463 167l-57 141h-31v-141h-103v378h169q32 0 56 -10.5t40 -27.5t24.5 -39t8.5 -45q0 -38 -19 -62.5t-42 -35.5l71 -158h-117zM467 423
q0 15 -10.5 26.5t-29.5 11.5h-52v-76h52q19 0 29.5 11.5t10.5 26.5z" />
    <glyph glyph-name="copyright" unicode="&#xa9;" horiz-adv-x="822" 
d="M773 356q0 -75 -28.5 -141t-77.5 -115t-115 -77.5t-141 -28.5t-141 28.5t-115 77.5t-77.5 115t-28.5 141t28.5 141t77.5 115t115 77.5t141 28.5t141 -28.5t115 -77.5t77.5 -115t28.5 -141zM670 356q0 59 -19.5 107.5t-54.5 83.5t-82 54.5t-103 19.5q-55 0 -102.5 -19.5
t-82.5 -54.5t-54.5 -83.5t-19.5 -107.5q0 -58 19.5 -107t54.5 -84t82.5 -54.5t102.5 -19.5q56 0 103 19.5t82 54.5t54.5 84t19.5 107zM552 216q-27 -23 -58.5 -37.5t-73.5 -14.5q-34 0 -66.5 11t-58 34.5t-41 59.5t-15.5 87t15.5 87t41 59.5t58 34.5t66.5 11
q42 0 73.5 -14.5t58.5 -37.5l-67 -67q-17 14 -31 20.5t-34 6.5q-35 0 -56.5 -24.5t-21.5 -75.5t21.5 -75.5t56.5 -24.5q20 0 34 6.5t31 20.5l67 -67v0z" />
    <glyph glyph-name="trademark" unicode="&#xaa;" horiz-adv-x="973" 
d="M789 285v219l-67 -131h-100l-67 131v-219h-117v427h117l117 -210l117 210h117v-427h-117zM272 608v-323h-116v323h-105v104h326v-104h-105z" />
    <glyph glyph-name="acute" unicode="&#xab;" 
d="M291 610h-99l49 180h168z" />
    <glyph glyph-name="dieresis" unicode="&#xac;" 
d="M447 680q0 -33 -23.5 -56.5t-56.5 -23.5t-56.5 23.5t-23.5 56.5t23.5 56.5t56.5 23.5t56.5 -23.5t23.5 -56.5zM213 680q0 -33 -23.5 -56.5t-56.5 -23.5t-56.5 23.5t-23.5 56.5t23.5 56.5t56.5 23.5t56.5 -23.5t23.5 -56.5z" />
    <glyph glyph-name="notequal" unicode="&#xad;" horiz-adv-x="640" 
d="M251 96l-103 -140l-99 74l48 66h-48v154h161l66 90h-227v154h340l103 140l99 -74l-48 -66h48v-154h-161l-66 -90h227v-154h-340z" />
    <glyph glyph-name="AE" unicode="&#xae;" horiz-adv-x="1013" 
d="M477 0v149h-212l-77 -149h-188l370 712h591v-156h-309v-119h264v-156h-264v-125h309v-156h-484zM477 556l-136 -261h136v261z" />
    <glyph glyph-name="Oslash" unicode="&#xaf;" horiz-adv-x="640" 
d="M591 356q0 -40 -0.5 -78.5t-7 -74.5t-21.5 -68.5t-43 -60.5q-39 -39 -86 -59.5t-113 -20.5q-60 0 -105 18l-27 -56h-118l55 114l-4 4q-28 28 -43 60.5t-21.5 68.5t-7 74.5t-0.5 78.5t0.5 78.5t7 74.5t21.5 68.5t43 60.5q39 39 86 59.5t113 20.5q60 0 105 -18l27 56h118
l-55 -114l4 -4q28 -28 43 -60.5t21.5 -68.5t7 -74.5t0.5 -78.5zM364 552q-20 10 -44 10t-42 -9t-28 -22q-6 -8 -11 -18t-8 -28.5t-5 -49t-2 -79.5q0 -58 3 -93l137 289v0zM416 356q0 59 -3 93l-137 -288q19 -11 44 -11q24 0 42 9.5t28 22.5q6 8 11 18t8 28.5t5 48.5t2 79z
" />
    <glyph glyph-name="infinity" unicode="&#xb0;" horiz-adv-x="876" 
d="M829 295q0 -43 -13 -80.5t-39 -65.5t-65 -44t-92 -16q-54 0 -100.5 25t-81.5 63q-35 -38 -81.5 -63t-100.5 -25q-53 0 -92 16t-65 44t-39 65.5t-13 80.5t13 80.5t39 65.5t65 44t92 16q54 0 100.5 -25t81.5 -63q35 38 81.5 63t100.5 25q53 0 92 -16t65 -44t39 -65.5
t13 -80.5zM669 290q0 25 -15 37t-33 12q-21 0 -37.5 -15.5t-31.5 -33.5q15 -18 31.5 -33.5t37.5 -15.5q18 0 33 12t15 37zM324 290q-15 18 -31.5 33.5t-37.5 15.5q-18 0 -33 -12t-15 -37t15 -37t33 -12q21 0 37.5 15.5t31.5 33.5z" />
    <glyph glyph-name="plusminus" unicode="&#xb1;" horiz-adv-x="556" 
d="M355 371v-152h-154v152h-152v154h152v152h154v-152h152v-154h-152zM49 0v154h458v-154h-458z" />
    <glyph glyph-name="lessequal" unicode="&#xb2;" horiz-adv-x="1027" 
d="M435 54l427 2l-145 -145h-534v534l145 145l-2 -427l462 462l109 -109z" />
    <glyph glyph-name="greaterequal" unicode="&#xb3;" horiz-adv-x="1027" 
d="M310 -89l-145 145l427 -3l-463 463l109 109l463 -463l-3 427l145 -145v-533h-533z" />
    <glyph glyph-name="yen" unicode="&#xb4;" horiz-adv-x="605" 
d="M480 466h60v-126h-125l-25 -50v-50h150v-126h-150v-114h-175v114h-150v126h150v50l-25 50h-125v126h60l-125 246h191l112 -256l111 256h191z" />
    <glyph glyph-name="mu" unicode="&#xb5;" horiz-adv-x="584" 
d="M362 0v44q-25 -25 -59 -37.5t-66 -12.5h-11v-168h-164v712h164v-322q0 -23 7 -37.5t17.5 -22.5t22 -11t19.5 -3t19.5 3t22 11t17.5 22.5t7 37.5v322h164v-538h-160z" />
    <glyph glyph-name="partialdiff" unicode="&#xb6;" horiz-adv-x="561" 
d="M499 259q0 -38 -2.5 -67.5t-9.5 -52.5t-17.5 -42t-27.5 -37q-23 -25 -63.5 -45.5t-103.5 -20.5t-103.5 20.5t-63.5 45.5q-16 18 -27 37t-18 42t-9.5 52.5t-2.5 67.5t2.5 67.5t9.5 53t18 42.5t27 37q23 25 61.5 45t101.5 20q16 0 32.5 -2.5t30.5 -9.5v1q0 4 -3.5 15
t-12.5 22.5t-26 20.5t-44 9q-28 0 -50.5 -7.5t-41.5 -26.5l-102 102q41 41 90 55.5t112 14.5q62 0 107.5 -18.5t75.5 -52t45 -79t15 -99.5v-210v0zM335 259q0 37 -3.5 63t-17.5 40t-39 14t-39 -14t-17.5 -40t-3.5 -63t3.5 -63t17.5 -40t39 -14t39 14t17.5 40t3.5 63z" />
    <glyph glyph-name="summation" unicode="&#xb7;" horiz-adv-x="553" 
d="M30 -176v136l181 342l-177 322v136h484v-156h-278l118 -224v-163l-126 -237h291v-156h-493z" />
    <glyph glyph-name="summation" unicode="&#x2219;" horiz-adv-x="553" 
d="M30 -176v136l181 342l-177 322v136h484v-156h-278l118 -224v-163l-126 -237h291v-156h-493z" />
    <glyph glyph-name="product" unicode="&#xb8;" horiz-adv-x="680" 
d="M433 -174v779h-186v-779h-175v934h536v-934h-175z" />
    <glyph glyph-name="pi" unicode="&#xb9;" horiz-adv-x="592" 
d="M366 0v382h-140v-382h-164v538h468v-538h-164z" />
    <glyph glyph-name="integral" unicode="&#xba;" horiz-adv-x="560" 
d="M435 592q-32 0 -50.5 -15.5t-18.5 -50.5v-488q0 -51 -16.5 -89.5t-46.5 -64t-71 -38.5t-90 -13h-73v138h55q32 0 50.5 15.5t18.5 50.5v488q0 51 16.5 89.5t46.5 64t71 38.5t90 13h73v-138h-55z" />
    <glyph glyph-name="ordfeminine" unicode="&#xbb;" horiz-adv-x="457" 
d="M279 283v35q-20 -20 -40.5 -29.5t-55.5 -9.5q-32 0 -58 10.5t-44 28.5q-38 38 -38 100q0 24 8.5 47t26.5 40t45.5 27.5t65.5 10.5h87v11q0 29 -15 41.5t-50 12.5q-26 0 -39 -6.5t-29 -22.5l-82 82q17 17 33 27.5t34.5 17.5t40.5 9.5t49 2.5q93 0 141 -38.5t48 -117.5
v-279h-128zM276 456h-66q-20 0 -30 -10t-10 -24t10.5 -24.5t30.5 -10.5t31 2.5t21 12.5q13 13 13 42v12z" />
    <glyph glyph-name="ordmasculine" unicode="&#xbc;" horiz-adv-x="466" 
d="M419 498q0 -32 -2.5 -56t-8 -43.5t-14.5 -35t-23 -30.5q-19 -20 -52.5 -37.5t-85.5 -17.5t-85.5 17.5t-52.5 37.5q-13 15 -22.5 30.5t-15 35t-8 43.5t-2.5 56q0 63 10.5 99.5t37.5 65.5q19 20 52.5 37.5t85.5 17.5t85.5 -17.5t52.5 -37.5q27 -29 37.5 -65.5t10.5 -99.5z
M287 498q0 32 -3 54.5t-16 35.5q-12 12 -35 12t-35 -12q-13 -13 -16 -35.5t-3 -54.5t3 -54.5t16 -35.5q12 -12 35 -12t35 12q13 13 16 35.5t3 54.5z" />
    <glyph glyph-name="Omega" unicode="&#xbd;" horiz-adv-x="640" 
d="M358 0v136q21 10 32 25q6 8 11 19.5t8 32t5 52.5t2 81t-2 80.5t-5 52t-8 31.5t-11 19q-10 13 -28 23t-42 10t-42 -10t-28 -23q-6 -8 -11 -19t-8 -31.5t-5 -52t-2 -80.5t2 -81t5 -52.5t8 -32t11 -19.5q11 -15 32 -25v-136h-233v156h45q-9 11 -15 23.5t-10 24.5
q-11 34 -15.5 72t-4.5 80q0 40 0.5 78.5t7 74.5t21.5 68.5t43 60.5q39 39 86 59.5t113 20.5t113 -20.5t86 -59.5q28 -28 43 -60.5t21.5 -68.5t7 -74.5t0.5 -78.5q0 -42 -4.5 -80t-15.5 -72q-4 -12 -10 -24.5t-15 -23.5h45v-156h-233z" />
    <glyph glyph-name="ae" unicode="&#xbe;" horiz-adv-x="840" 
d="M480 216q0 -33 24.5 -58.5t70.5 -25.5q43 0 66 11.5t45 33.5l98 -98q-21 -21 -42 -36.5t-45.5 -26.5t-54 -16.5t-67.5 -5.5q-50 0 -100 13.5t-88 51.5q-24 -22 -46.5 -35t-45 -20t-45 -8.5t-47.5 -1.5q-41 0 -73.5 13t-55.5 36t-35 55.5t-12 70.5q0 30 10.5 58.5t33 50
t57 34.5t82.5 13h109v14q0 37 -19 52t-62 15q-32 0 -49 -8t-37 -28l-102 102q21 21 41 34.5t43.5 22t50.5 12t61 3.5q112 0 170 -45q59 45 144 45q59 0 104 -20t75.5 -54.5t46.5 -81t16 -99.5v-73h-322zM640 325q0 10 -2 20.5t-7 21.5q-8 17 -25 29.5t-46 12.5t-46 -12.5
t-25 -29.5q-5 -11 -7 -21.5t-2 -20.5h160v0zM319 216h-83q-24 0 -38 -12t-14 -31q0 -18 13.5 -31.5t40.5 -13.5q24 0 37.5 3.5t27.5 16.5q16 15 16 54v14z" />
    <glyph glyph-name="oslash" unicode="&#xbf;" horiz-adv-x="550" 
d="M507 269q0 -40 -3 -70t-9.5 -54t-18 -44t-28.5 -38q-12 -13 -28.5 -25t-37.5 -22t-47.5 -16t-59.5 -6q-32 0 -57.5 5.5t-46.5 14.5l-34 -58h-93l61 104q-22 23 -34.5 47t-18.5 50t-7.5 53.5t-1.5 58.5q0 39 3 69.5t9.5 54.5t18 44t28.5 38q24 26 66 47.5t107 21.5
q32 0 57.5 -5.5t46.5 -14.5l34 58h93l-61 -104q22 -23 34.5 -47t18.5 -50t7.5 -54t1.5 -58zM309 389q-13 7 -34 7q-29 0 -44 -15q-16 -16 -20 -44t-4 -68v-26.5t2 -23.5l100 170v0zM343 269v26.5t-2 23.5l-100 -170q13 -7 34 -7q29 0 44 15q16 16 20 44t4 68z" />
    <glyph glyph-name="questiondown" unicode="&#xc0;" horiz-adv-x="538" 
d="M375 446q0 -19 -7.5 -36.5t-20.5 -30.5t-30 -20.5t-37 -7.5q-19 0 -36.5 7.5t-30.5 20.5t-20.5 30.5t-7.5 36.5q0 20 7.5 37t20.5 30t30.5 20.5t36.5 7.5q20 0 37 -7.5t30 -20.5t20.5 -30t7.5 -37zM508 31q0 -51 -18 -90.5t-48.5 -66t-71.5 -40.5t-86 -14
q-44 0 -84.5 13.5t-71.5 39.5t-49.5 65.5t-18.5 91.5q0 39 15 70t36 58l69 87q7 8 12.5 21t5.5 26v9h164v-23q0 -34 -9 -59.5t-32 -51.5l-70 -82q-11 -13 -19 -28.5t-8 -27.5q0 -26 15 -43.5t45 -17.5q32 0 46 18t14 45h164v0z" />
    <glyph glyph-name="exclamdown" unicode="&#xc1;" horiz-adv-x="366" 
d="M298 446q0 -19 -7.5 -36.5t-20.5 -30.5t-30 -20.5t-37 -7.5q-19 0 -36.5 7.5t-30.5 20.5t-20.5 30.5t-7.5 36.5q0 20 7.5 37t20.5 30t30.5 20.5t36.5 7.5q20 0 37 -7.5t30 -20.5t20.5 -30t7.5 -37zM100 -174l44 475h118l44 -475h-206z" />
    <glyph glyph-name="logicalnot" unicode="&#xc2;" horiz-adv-x="556" 
d="M359 88v150h-316v154h470v-304h-154z" />
    <glyph glyph-name="radical" unicode="&#xc3;" horiz-adv-x="616" 
d="M492 556l-184 -556h-130l-178 538h177l67 -224l118 398h224v-156h-94z" />
    <glyph glyph-name="florin" unicode="&#xc4;" horiz-adv-x="441" 
d="M331 585q-33 0 -39 -33l-26 -148h90v-126h-112l-80 -452h-164l80 452h-49v126h71l28 160q5 28 19.5 56.5t38.5 51.5t58 37t79 14l86 -1v-137h-80z" />
    <glyph glyph-name="approxequal" unicode="&#xc5;" horiz-adv-x="646" 
d="M616 408q-49 -49 -91.5 -72.5t-95.5 -23.5q-34 0 -61 7t-62 27q-22 13 -41.5 19t-42.5 6q-20 0 -40.5 -7t-47.5 -34l-104 104q24 24 46 42t44 30t45 18t50 6q34 0 61 -7t62 -27q22 -13 41.5 -19t42.5 -6q20 0 40.5 7t47.5 34l106 -104v0zM616 154q-24 -24 -46 -42
t-44 -30t-45 -18t-50 -6q-34 0 -61 7t-62 27q-22 13 -41.5 19t-42.5 6q-20 0 -40.5 -7t-47.5 -34l-106 104q49 49 91.5 72.5t95.5 23.5q34 0 61 -7t62 -27q22 -13 41.5 -19t42.5 -6q20 0 40.5 7t47.5 34l104 -104v0z" />
    <glyph glyph-name="Delta" unicode="&#xc6;" horiz-adv-x="653" 
d="M0 0l259 712h135l259 -712h-653zM331 442l-99 -296h192z" />
    <glyph glyph-name="guillemotleft" unicode="&#xc7;" horiz-adv-x="672" 
d="M339 280l273 270v-193l-81 -77l81 -78v-193zM30 280l273 270v-193l-79 -77l79 -78v-193z" />
    <glyph glyph-name="guillemotright" unicode="&#xc8;" horiz-adv-x="672" 
d="M369 9v193l79 78l-79 77v193l273 -270zM60 9v193l80 78l-80 77v193l273 -270z" />
    <glyph glyph-name="ellipsis" unicode="&#xc9;" horiz-adv-x="899" 
d="M850 102q0 -22 -8 -41t-22.5 -33t-33.5 -22.5t-41 -8.5t-41 8.5t-33 22.5t-22.5 33t-8.5 41t8.5 41t22.5 33.5t33 22.5t41 8t41 -8t33.5 -22.5t22.5 -33.5t8 -41zM554 102q0 -22 -8 -41t-22 -33t-33.5 -22.5t-40.5 -8.5q-22 0 -41 8.5t-33.5 22.5t-23 33t-8.5 41t8.5 41
t22.5 33.5t33.5 22.5t40.5 8q22 0 41 -8t33.5 -22.5t22.5 -33.5t8 -41zM259 102q0 -22 -8 -41t-22.5 -33t-33.5 -22.5t-41 -8.5t-41 8.5t-33 22.5t-22.5 33t-8.5 41t8.5 41t22.5 33.5t33 22.5t41 8t41 -8t33.5 -22.5t22.5 -33.5t8 -41z" />
    <glyph glyph-name="nonbreakingspace" unicode="&#xca;" horiz-adv-x="222" 
 />
    <glyph glyph-name="Agrave" unicode="&#xcb;" horiz-adv-x="653" 
d="M470 0l-33 106h-219l-35 -106h-183l259 712h135l259 -712h-183zM331 442l-64 -190h124zM285 782l-118 180h168l49 -180h-99z" />
    <glyph glyph-name="Atilde" unicode="&#xcc;" horiz-adv-x="653" 
d="M470 0l-33 106h-219l-35 -106h-183l259 712h135l259 -712h-183zM331 442l-64 -190h124zM519 855q-32 -32 -60 -47.5t-63 -15.5q-23 0 -40.5 4t-40.5 18q-14 8 -27.5 12.5t-28.5 4.5q-14 0 -27 -4.5t-31 -22.5l-68 69q32 32 59.5 47.5t62.5 15.5q23 0 40.5 -4t40.5 -18
q14 -8 27 -12.5t28 -4.5q14 0 27 4.5t31 22.5l70 -69v0z" />
    <glyph glyph-name="Otilde" unicode="&#xcd;" horiz-adv-x="640" 
d="M591 356q0 -40 -0.5 -78.5t-7 -74.5t-21.5 -68.5t-43 -60.5q-39 -39 -86 -59.5t-113 -20.5t-113 20.5t-86 59.5q-28 28 -43 60.5t-21.5 68.5t-7 74.5t-0.5 78.5t0.5 78.5t7 74.5t21.5 68.5t43 60.5q39 39 86 59.5t113 20.5t113 -20.5t86 -59.5q28 -28 43 -60.5
t21.5 -68.5t7 -74.5t0.5 -78.5zM416 356q0 49 -2 79.5t-5 49t-8 28.5t-11 18q-10 13 -28 22t-42 9t-42 -9t-28 -22q-6 -8 -11 -18t-8 -28.5t-5 -49t-2 -79.5t2 -79t5 -48.5t8 -28.5t11 -18q10 -13 28 -22.5t42 -9.5t42 9.5t28 22.5q6 8 11 18t8 28.5t5 48.5t2 79zM513 855
q-32 -32 -60 -47.5t-63 -15.5q-23 0 -40.5 4t-40.5 18q-14 8 -27.5 12.5t-28.5 4.5q-14 0 -27 -4.5t-31 -22.5l-68 69q32 32 59.5 47.5t62.5 15.5q23 0 40.5 -4t40.5 -18q14 -8 27 -12.5t28 -4.5q14 0 27 4.5t31 22.5l70 -69v0z" />
    <glyph glyph-name="OE" unicode="&#xce;" horiz-adv-x="952" 
d="M416 0v26q-21 -20 -50.5 -26t-51.5 -6q-65 0 -109.5 18.5t-83.5 57.5q-27 27 -42 60.5t-21.5 70t-7.5 76t-1 79.5t1 79.5t7.5 76.5t21.5 70t42 60q39 39 84 57.5t110 18.5q22 0 51 -6t50 -26v26h484v-156h-309v-119h264v-156h-264v-125h309v-156h-484zM416 356
q0 49 -2 79.5t-5 49t-8 28.5t-11 18q-10 13 -28 22t-42 9t-42 -9t-28 -22q-6 -8 -11 -18t-8 -28.5t-5 -49t-2 -79.5t2 -79t5 -48.5t8 -28.5t11 -18q10 -13 28 -22.5t42 -9.5t42 9.5t28 22.5q6 8 11 18t8 28.5t5 48.5t2 79z" />
    <glyph glyph-name="oe" unicode="&#xcf;" horiz-adv-x="864" 
d="M504 216q0 -33 24.5 -58.5t70.5 -25.5q43 0 66 11.5t45 33.5l98 -98q-21 -21 -42 -36.5t-45.5 -26.5t-54 -16.5t-67.5 -5.5q-45 0 -90 10.5t-81 39.5q-25 -20 -62 -35t-91 -15q-33 0 -59.5 6t-47.5 16t-37.5 22t-28.5 25q-17 18 -28.5 38t-18 44t-9.5 54t-3 70
q0 39 3 69.5t9.5 54.5t18 44t28.5 38q24 26 66 47.5t107 21.5q55 0 93 -16t63 -37q61 53 153 53q59 0 104 -20t75.5 -54.5t46.5 -81t16 -99.5v-73h-322zM664 325q0 10 -2 20.5t-7 21.5q-8 17 -25 29.5t-46 12.5t-46 -12.5t-25 -29.5q-5 -11 -7 -21.5t-2 -20.5h160v0z
M343 269q0 40 -4 68t-20 44q-15 15 -44 15t-44 -15q-16 -16 -20 -44t-4 -68t4 -68t20 -44q15 -15 44 -15t44 15q16 16 20 44t4 68z" />
    <glyph glyph-name="endash" unicode="&#xd0;" horiz-adv-x="556" 
d="M49 218v154h458v-154h-458z" />
    <glyph glyph-name="emdash" unicode="&#xd1;" horiz-adv-x="1093" 
d="M49 220v158h995v-158h-995z" />
    <glyph glyph-name="quotedblleft" unicode="&#xd2;" horiz-adv-x="511" 
d="M290 566v146l164 120v-266h-164zM57 566v146l163 120v-266h-163z" />
    <glyph glyph-name="quotedblright" unicode="&#xd3;" horiz-adv-x="511" 
d="M290 447v265h164v-147zM57 447v265h163v-147z" />
    <glyph glyph-name="quoteleft" unicode="&#xd4;" horiz-adv-x="278" 
d="M57 566v146l164 120v-266h-164z" />
    <glyph glyph-name="quoteright" unicode="&#xd5;" horiz-adv-x="278" 
d="M57 447v265h164v-147z" />
    <glyph glyph-name="divide" unicode="&#xd6;" horiz-adv-x="556" 
d="M383 518q0 -22 -8 -41t-22.5 -33t-33.5 -22.5t-41 -8.5t-41 8.5t-33 22.5t-22.5 33t-8.5 41t8.5 41t22.5 33.5t33 22.5t41 8t41 -8t33.5 -22.5t22.5 -33.5t8 -41zM43 218v154h470v-154h-470zM383 72q0 -22 -8 -41t-22.5 -33.5t-33.5 -22.5t-41 -8t-41 8t-33 22.5
t-22.5 33.5t-8.5 41t8.5 41t22.5 33.5t33 22.5t41 8t41 -8t33.5 -22.5t22.5 -33.5t8 -41z" />
    <glyph glyph-name="lozenge" unicode="&#xd7;" horiz-adv-x="628" 
d="M314 -34l-267 368l267 368l267 -368zM314 446l-82 -112l82 -112l82 112z" />
    <glyph glyph-name="ydieresis" unicode="&#xd8;" horiz-adv-x="514" 
d="M299 -64q-16 -45 -42 -71q-24 -26 -54.5 -35.5t-66.5 -9.5h-62v148h35q22 0 34.5 7.5t20.5 32.5l15 45l-179 485h172l91 -279l87 279h172zM454 680q0 -33 -23.5 -56.5t-56.5 -23.5t-56.5 23.5t-23.5 56.5t23.5 56.5t56.5 23.5t56.5 -23.5t23.5 -56.5zM220 680
q0 -33 -23.5 -56.5t-56.5 -23.5t-56.5 23.5t-23.5 56.5t23.5 56.5t56.5 23.5t56.5 -23.5t23.5 -56.5z" />
    <glyph glyph-name="Ydieresis" unicode="&#xd9;" horiz-adv-x="605" 
d="M390 290v-290h-175v290l-215 422h191l112 -256l111 256h191zM499 852q0 -33 -23.5 -56.5t-56.5 -23.5t-56.5 23.5t-23.5 56.5t23.5 56.5t56.5 23.5t56.5 -23.5t23.5 -56.5zM265 852q0 -33 -23.5 -56.5t-56.5 -23.5t-56.5 23.5t-23.5 56.5t23.5 56.5t56.5 23.5t56.5 -23.5
t23.5 -56.5z" />
    <glyph glyph-name="fraction" unicode="&#xda;" horiz-adv-x="221" 
d="M4 0h-126l339 712h126z" />
    <glyph glyph-name="currency" unicode="&#xdb;" horiz-adv-x="674" 
d="M518 5l-73 73q-25 -12 -52 -19t-56 -7t-56 7t-52 19l-73 -73l-109 109l73 73q-12 25 -19 52t-7 56t7 56t19 52l-73 73l109 109l73 -73q25 12 52 19t56 7t56 -7t52 -19l73 73l109 -109l-73 -73q12 -25 19 -52t7 -56t-7 -56t-19 -52l73 -73zM432 295q0 20 -7.5 37t-20.5 30
t-30 20.5t-37 7.5q-19 0 -36.5 -7.5t-30.5 -20.5t-20.5 -30t-7.5 -37q0 -19 7.5 -36.5t20.5 -30.5t30.5 -20.5t36.5 -7.5q20 0 37 7.5t30 20.5t20.5 30.5t7.5 36.5z" />
    <glyph glyph-name="guilsinglleft" unicode="&#xdc;" horiz-adv-x="363" 
d="M30 280l273 270v-193l-79 -77l79 -78v-193z" />
    <glyph glyph-name="guilsinglright" unicode="&#xdd;" horiz-adv-x="363" 
d="M60 9v193l80 78l-80 77v193l273 -270z" />
    <glyph glyph-name="fi" unicode="&#xde;" horiz-adv-x="626" 
d="M582 662q0 -42 -29 -71t-71 -29t-71 29t-29 71t29 71t71 29t71 -29t29 -71zM400 0v517h164v-517h-164zM238 391v-391h-164v391h-49v126h49v47q0 28 9.5 56t29.5 51t51.5 37.5t76.5 14.5h87v-138h-57q-33 0 -33 -33v-35h90v-126h-90z" />
    <glyph glyph-name="fl" unicode="&#xdf;" horiz-adv-x="674" 
d="M567 0q-45 0 -76.5 14.5t-51.5 37.5t-29.5 51t-9.5 56v553h164v-541q0 -33 33 -33h57v-138h-87zM238 391v-391h-164v391h-49v126h49v47q0 28 9.5 56t29.5 51t51.5 37.5t76.5 14.5h87v-138h-57q-33 0 -33 -33v-35h90v-126h-90z" />
    <glyph glyph-name="daggerdbl" unicode="&#xe0;" horiz-adv-x="564" 
d="M364 0v-174h-164v174h-153v148h153v242h-153v148h153v174h164v-174h153v-148h-153v-242h153v-148h-153z" />
    <glyph glyph-name="periodcentered" unicode="&#xe1;" horiz-adv-x="308" 
d="M259 295q0 -22 -8 -41t-22.5 -33t-33.5 -22.5t-41 -8.5t-41 8.5t-33 22.5t-22.5 33t-8.5 41t8.5 41t22.5 33.5t33 22.5t41 8t41 -8t33.5 -22.5t22.5 -33.5t8 -41z" />
    <glyph glyph-name="quotesinglbase" unicode="&#xe2;" horiz-adv-x="276" 
d="M57 -118v265h164v-147z" />
    <glyph glyph-name="quotedblbase" unicode="&#xe3;" horiz-adv-x="514" 
d="M290 -118v265h164v-147zM57 -118v265h163v-147z" />
    <glyph glyph-name="perthousand" unicode="&#xe4;" horiz-adv-x="1229" 
d="M1184 133q0 -36 -12.5 -62t-33.5 -43t-48 -25.5t-57 -8.5t-57 8.5t-48 25.5t-33.5 43t-12.5 62v95q0 36 12.5 62t33.5 43t48 25.5t57 8.5t57 -8.5t48 -25.5t33.5 -43t12.5 -62v-95v0zM812 133q0 -36 -12.5 -62t-33.5 -43t-48 -25.5t-57 -8.5t-57 8.5t-48 25.5t-33.5 43
t-12.5 62v95q0 36 12.5 62t33.5 43t48 25.5t57 8.5t57 -8.5t48 -25.5t33.5 -43t12.5 -62v-95v0zM322 0h-126l339 712h126zM347 484q0 -36 -12.5 -62t-33.5 -43t-48 -25.5t-57 -8.5t-57 8.5t-48 25.5t-33.5 43t-12.5 62v95q0 36 12.5 62t33.5 43t48 25.5t57 8.5t57 -8.5
t48 -25.5t33.5 -43t12.5 -62v-95v0zM1068 224q0 22 -10 30.5t-25 8.5t-25 -8.5t-10 -30.5v-87q0 -22 10 -30.5t25 -8.5t25 8.5t10 30.5v87zM696 224q0 22 -10 30.5t-25 8.5t-25 -8.5t-10 -30.5v-87q0 -22 10 -30.5t25 -8.5t25 8.5t10 30.5v87zM231 575q0 22 -10 30.5
t-25 8.5t-25 -8.5t-10 -30.5v-87q0 -22 10 -30.5t25 -8.5t25 8.5t10 30.5v87z" />
    <glyph glyph-name="Acircumflex" unicode="&#xe5;" horiz-adv-x="653" 
d="M470 0l-33 106h-219l-35 -106h-183l259 712h135l259 -712h-183zM331 442l-64 -190h124zM405 782l-79 83l-79 -83h-120l136 179h126l136 -179h-120z" />
    <glyph glyph-name="Ecircumflex" unicode="&#xe6;" horiz-adv-x="608" 
d="M72 0v712h484v-156h-309v-119h264v-156h-264v-125h309v-156h-484zM387 782l-79 83l-79 -83h-120l136 179h126l136 -179h-120z" />
    <glyph glyph-name="Aacute" unicode="&#xe7;" horiz-adv-x="653" 
d="M470 0l-33 106h-219l-35 -106h-183l259 712h135l259 -712h-183zM331 442l-64 -190h124zM367 782h-99l49 180h168z" />
    <glyph glyph-name="Edieresis" unicode="&#xe8;" horiz-adv-x="608" 
d="M72 0v712h484v-156h-309v-119h264v-156h-264v-125h309v-156h-484zM505 852q0 -33 -23.5 -56.5t-56.5 -23.5t-56.5 23.5t-23.5 56.5t23.5 56.5t56.5 23.5t56.5 -23.5t23.5 -56.5zM271 852q0 -33 -23.5 -56.5t-56.5 -23.5t-56.5 23.5t-23.5 56.5t23.5 56.5t56.5 23.5
t56.5 -23.5t23.5 -56.5z" />
    <glyph glyph-name="Egrave" unicode="&#xe9;" horiz-adv-x="608" 
d="M72 0v712h484v-156h-309v-119h264v-156h-264v-125h309v-156h-484zM267 782l-118 180h168l49 -180h-99z" />
    <glyph glyph-name="Iacute" unicode="&#xea;" horiz-adv-x="319" 
d="M72 0v712h175v-712h-175zM202 782h-99l49 180h168z" />
    <glyph glyph-name="Icircumflex" unicode="&#xeb;" horiz-adv-x="319" 
d="M72 0v712h175v-712h-175zM234 782l-79 83l-79 -83h-120l136 179h126l136 -179h-120z" />
    <glyph glyph-name="Idieresis" unicode="&#xec;" horiz-adv-x="319" 
d="M72 0v712h175v-712h-175zM357 852q0 -33 -23.5 -56.5t-56.5 -23.5t-56.5 23.5t-23.5 56.5t23.5 56.5t56.5 23.5t56.5 -23.5t23.5 -56.5zM123 852q0 -33 -23.5 -56.5t-56.5 -23.5t-56.5 23.5t-23.5 56.5t23.5 56.5t56.5 23.5t56.5 -23.5t23.5 -56.5z" />
    <glyph glyph-name="Igrave" unicode="&#xed;" horiz-adv-x="319" 
d="M72 0v712h175v-712h-175zM127 782l-118 180h168l49 -180h-99z" />
    <glyph glyph-name="Oacute" unicode="&#xee;" horiz-adv-x="640" 
d="M591 356q0 -40 -0.5 -78.5t-7 -74.5t-21.5 -68.5t-43 -60.5q-39 -39 -86 -59.5t-113 -20.5t-113 20.5t-86 59.5q-28 28 -43 60.5t-21.5 68.5t-7 74.5t-0.5 78.5t0.5 78.5t7 74.5t21.5 68.5t43 60.5q39 39 86 59.5t113 20.5t113 -20.5t86 -59.5q28 -28 43 -60.5
t21.5 -68.5t7 -74.5t0.5 -78.5zM416 356q0 49 -2 79.5t-5 49t-8 28.5t-11 18q-10 13 -28 22t-42 9t-42 -9t-28 -22q-6 -8 -11 -18t-8 -28.5t-5 -49t-2 -79.5t2 -79t5 -48.5t8 -28.5t11 -18q10 -13 28 -22.5t42 -9.5t42 9.5t28 22.5q6 8 11 18t8 28.5t5 48.5t2 79zM361 782
h-99l49 180h168z" />
    <glyph glyph-name="Ocircumflex" unicode="&#xef;" horiz-adv-x="640" 
d="M591 356q0 -40 -0.5 -78.5t-7 -74.5t-21.5 -68.5t-43 -60.5q-39 -39 -86 -59.5t-113 -20.5t-113 20.5t-86 59.5q-28 28 -43 60.5t-21.5 68.5t-7 74.5t-0.5 78.5t0.5 78.5t7 74.5t21.5 68.5t43 60.5q39 39 86 59.5t113 20.5t113 -20.5t86 -59.5q28 -28 43 -60.5
t21.5 -68.5t7 -74.5t0.5 -78.5zM416 356q0 49 -2 79.5t-5 49t-8 28.5t-11 18q-10 13 -28 22t-42 9t-42 -9t-28 -22q-6 -8 -11 -18t-8 -28.5t-5 -49t-2 -79.5t2 -79t5 -48.5t8 -28.5t11 -18q10 -13 28 -22.5t42 -9.5t42 9.5t28 22.5q6 8 11 18t8 28.5t5 48.5t2 79zM399 782
l-79 83l-79 -83h-120l136 179h126l136 -179h-120z" />
    <glyph glyph-name="Ograve" unicode="&#xf1;" horiz-adv-x="640" 
d="M591 356q0 -40 -0.5 -78.5t-7 -74.5t-21.5 -68.5t-43 -60.5q-39 -39 -86 -59.5t-113 -20.5t-113 20.5t-86 59.5q-28 28 -43 60.5t-21.5 68.5t-7 74.5t-0.5 78.5t0.5 78.5t7 74.5t21.5 68.5t43 60.5q39 39 86 59.5t113 20.5t113 -20.5t86 -59.5q28 -28 43 -60.5
t21.5 -68.5t7 -74.5t0.5 -78.5zM416 356q0 49 -2 79.5t-5 49t-8 28.5t-11 18q-10 13 -28 22t-42 9t-42 -9t-28 -22q-6 -8 -11 -18t-8 -28.5t-5 -49t-2 -79.5t2 -79t5 -48.5t8 -28.5t11 -18q10 -13 28 -22.5t42 -9.5t42 9.5t28 22.5q6 8 11 18t8 28.5t5 48.5t2 79zM279 782
l-118 180h168l49 -180h-99z" />
    <glyph glyph-name="Uacute" unicode="&#xf2;" horiz-adv-x="660" 
d="M600 250q0 -58 -21.5 -105.5t-58.5 -81t-86 -51.5t-105 -18q-55 0 -104 18t-86 51.5t-58 81t-21 105.5v462h175v-458q0 -50 25 -77t69 -27t70 27t26 77v458h175v-462v0zM371 782h-99l49 180h168z" />
    <glyph glyph-name="Ucircumflex" unicode="&#xf3;" horiz-adv-x="660" 
d="M600 250q0 -58 -21.5 -105.5t-58.5 -81t-86 -51.5t-105 -18q-55 0 -104 18t-86 51.5t-58 81t-21 105.5v462h175v-458q0 -50 25 -77t69 -27t70 27t26 77v458h175v-462v0zM409 782l-79 83l-79 -83h-120l136 179h126l136 -179h-120z" />
    <glyph glyph-name="Ugrave" unicode="&#xf4;" horiz-adv-x="660" 
d="M600 250q0 -58 -21.5 -105.5t-58.5 -81t-86 -51.5t-105 -18q-55 0 -104 18t-86 51.5t-58 81t-21 105.5v462h175v-458q0 -50 25 -77t69 -27t70 27t26 77v458h175v-462v0zM289 782l-118 180h168l49 -180h-99z" />
    <glyph glyph-name="dotlessi" unicode="&#xf5;" horiz-adv-x="288" 
d="M62 0v538h164v-538h-164z" />
    <glyph glyph-name="circumflex" unicode="&#xf6;" 
d="M329 610l-79 83l-79 -83h-120l136 179h126l136 -179h-120z" />
    <glyph glyph-name="tilde" unicode="&#xf7;" 
d="M443 683q-32 -32 -60 -47.5t-63 -15.5q-23 0 -40.5 4t-40.5 18q-14 8 -27.5 12.5t-28.5 4.5q-14 0 -27 -4.5t-31 -22.5l-68 69q32 32 59.5 47.5t62.5 15.5q23 0 40.5 -4t40.5 -18q14 -8 27 -12.5t28 -4.5q14 0 27 4.5t31 22.5l70 -69v0z" />
    <glyph glyph-name="macron" unicode="&#xf8;" 
d="M87 639v105h326v-105h-326z" />
    <glyph glyph-name="breve" unicode="&#xf9;" 
d="M414 750q-1 -44 -16 -74t-38 -48.5t-52 -26.5t-58 -8t-57.5 8t-52 26.5t-38.5 48.5t-16 74h106q1 -14 7 -23t14 -14.5t18 -7.5t19 -2t19 2t18.5 7.5t14 14.5t6.5 23h106v0z" />
    <glyph glyph-name="dotaccent" unicode="&#xfa;" 
d="M168 593v125h164v-125h-164z" />
    <glyph glyph-name="ring" unicode="&#xfb;" 
d="M388 731q0 -28 -11 -53.5t-29.5 -44t-43.5 -29.5t-54 -11q-28 0 -53.5 11t-44 29.5t-29.5 44t-11 53.5q0 29 11 54t29.5 43.5t44 29.5t53.5 11q29 0 54 -10.5t43.5 -29.5t29.5 -44t11 -54zM302 731q0 21 -15.5 36.5t-36.5 15.5t-36.5 -15.5t-15.5 -36.5t15.5 -36.5
t36.5 -15.5t36.5 15.5t15.5 36.5z" />
    <glyph glyph-name="cedilla" unicode="&#xfc;" 
d="M297 -200h-146l67 144h115z" />
    <glyph glyph-name="hungarumlaut" unicode="&#xfd;" 
d="M357 610h-99l49 180h168zM125 610h-100l49 180h168z" />
    <glyph glyph-name="ogonek" unicode="&#xfe;" 
d="M195 -200l-36 144h115l67 -144h-146z" />
    <glyph glyph-name="caron" unicode="&#xff;" 
d="M313 610h-126l-136 179h120l79 -83l79 83h120z" />
    <glyph glyph-name="aring" unicode="&#x152;" horiz-adv-x="536" 
d="M323 0v44q-25 -25 -51 -37t-69 -12q-41 0 -73.5 12.5t-55.5 35.5t-35 55.5t-12 70.5q0 30 10.5 58.5t33 50t57 34.5t82.5 13h109v14q0 37 -19 52t-62 15q-32 0 -49 -8t-37 -28l-102 102q21 21 41 34.5t43.5 22t50.5 12t61 3.5q116 0 176.5 -48t60.5 -147v-349h-160z
M319 216h-83q-24 0 -38 -12t-14 -31q0 -18 13.5 -31.5t40.5 -13.5q24 0 37.5 3.5t27.5 16.5q16 15 16 54v14zM404 731q0 -28 -11 -53.5t-29.5 -44t-43.5 -29.5t-54 -11q-28 0 -53.5 11t-44 29.5t-29.5 44t-11 53.5q0 29 11 54t29.5 43.5t44 29.5t53.5 11q29 0 54 -10.5
t43.5 -29.5t29.5 -44t11 -54zM318 731q0 21 -15.5 36.5t-36.5 15.5t-36.5 -15.5t-15.5 -36.5t15.5 -36.5t36.5 -15.5t36.5 15.5t15.5 36.5z" />
    <glyph glyph-name="uacute" unicode="&#x153;" horiz-adv-x="579" 
d="M357 0v44q-25 -25 -59 -37.5t-66 -12.5q-38 0 -68.5 12t-52.5 34q-35 35 -44.5 73t-9.5 81v344h164v-322q0 -23 7 -37.5t17.5 -22.5t22 -11t19.5 -3t19.5 3t22 11t17.5 22.5t7 37.5v322h164v-538h-160zM328 610h-99l49 180h168z" />
    <glyph glyph-name="adieresis" unicode="&#x160;" horiz-adv-x="536" 
d="M323 0v44q-25 -25 -51 -37t-69 -12q-41 0 -73.5 12.5t-55.5 35.5t-35 55.5t-12 70.5q0 30 10.5 58.5t33 50t57 34.5t82.5 13h109v14q0 37 -19 52t-62 15q-32 0 -49 -8t-37 -28l-102 102q21 21 41 34.5t43.5 22t50.5 12t61 3.5q116 0 176.5 -48t60.5 -147v-349h-160z
M319 216h-83q-24 0 -38 -12t-14 -31q0 -18 13.5 -31.5t40.5 -13.5q24 0 37.5 3.5t27.5 16.5q16 15 16 54v14zM463 680q0 -33 -23.5 -56.5t-56.5 -23.5t-56.5 23.5t-23.5 56.5t23.5 56.5t56.5 23.5t56.5 -23.5t23.5 -56.5zM229 680q0 -33 -23.5 -56.5t-56.5 -23.5t-56.5 23.5
t-23.5 56.5t23.5 56.5t56.5 23.5t56.5 -23.5t23.5 -56.5z" />
    <glyph glyph-name="odieresis" unicode="&#x161;" horiz-adv-x="550" 
d="M507 269q0 -40 -3 -70t-9.5 -54t-18 -44t-28.5 -38q-12 -13 -28.5 -25t-37.5 -22t-47.5 -16t-59.5 -6t-59.5 6t-47.5 16t-37.5 22t-28.5 25q-17 18 -28.5 38t-18 44t-9.5 54t-3 70q0 39 3 69.5t9.5 54.5t18 44t28.5 38q24 26 66 47.5t107 21.5t107 -21.5t66 -47.5
q17 -18 28.5 -38t18 -44t9.5 -54.5t3 -69.5zM343 269q0 40 -4 68t-20 44q-15 15 -44 15t-44 -15q-16 -16 -20 -44t-4 -68t4 -68t20 -44q15 -15 44 -15t44 15q16 16 20 44t4 68zM472 680q0 -33 -23.5 -56.5t-56.5 -23.5t-56.5 23.5t-23.5 56.5t23.5 56.5t56.5 23.5
t56.5 -23.5t23.5 -56.5zM238 680q0 -33 -23.5 -56.5t-56.5 -23.5t-56.5 23.5t-23.5 56.5t23.5 56.5t56.5 23.5t56.5 -23.5t23.5 -56.5z" />
    <glyph glyph-name="udieresis" unicode="&#x178;" horiz-adv-x="579" 
d="M357 0v44q-25 -25 -59 -37.5t-66 -12.5q-38 0 -68.5 12t-52.5 34q-35 35 -44.5 73t-9.5 81v344h164v-322q0 -23 7 -37.5t17.5 -22.5t22 -11t19.5 -3t19.5 3t22 11t17.5 22.5t7 37.5v322h164v-538h-160zM484 680q0 -33 -23.5 -56.5t-56.5 -23.5t-56.5 23.5t-23.5 56.5
t23.5 56.5t56.5 23.5t56.5 -23.5t23.5 -56.5zM250 680q0 -33 -23.5 -56.5t-56.5 -23.5t-56.5 23.5t-23.5 56.5t23.5 56.5t56.5 23.5t56.5 -23.5t23.5 -56.5z" />
    <glyph glyph-name="Eacute" unicode="&#x192;" horiz-adv-x="608" 
d="M72 0v712h484v-156h-309v-119h264v-156h-264v-125h309v-156h-484zM349 782h-99l49 180h168z" />
    <glyph glyph-name="agrave" unicode="&#x2c6;" horiz-adv-x="536" 
d="M323 0v44q-25 -25 -51 -37t-69 -12q-41 0 -73.5 12.5t-55.5 35.5t-35 55.5t-12 70.5q0 30 10.5 58.5t33 50t57 34.5t82.5 13h109v14q0 37 -19 52t-62 15q-32 0 -49 -8t-37 -28l-102 102q21 21 41 34.5t43.5 22t50.5 12t61 3.5q116 0 176.5 -48t60.5 -147v-349h-160z
M319 216h-83q-24 0 -38 -12t-14 -31q0 -18 13.5 -31.5t40.5 -13.5q24 0 37.5 3.5t27.5 16.5q16 15 16 54v14zM225 610l-118 180h168l49 -180h-99z" />
    <glyph glyph-name="ograve" unicode="&#x2dc;" horiz-adv-x="550" 
d="M507 269q0 -40 -3 -70t-9.5 -54t-18 -44t-28.5 -38q-12 -13 -28.5 -25t-37.5 -22t-47.5 -16t-59.5 -6t-59.5 6t-47.5 16t-37.5 22t-28.5 25q-17 18 -28.5 38t-18 44t-9.5 54t-3 70q0 39 3 69.5t9.5 54.5t18 44t28.5 38q24 26 66 47.5t107 21.5t107 -21.5t66 -47.5
q17 -18 28.5 -38t18 -44t9.5 -54.5t3 -69.5zM343 269q0 40 -4 68t-20 44q-15 15 -44 15t-44 -15q-16 -16 -20 -44t-4 -68t4 -68t20 -44q15 -15 44 -15t44 15q16 16 20 44t4 68zM234 610l-118 180h168l49 -180h-99z" />
    <glyph glyph-name="ntilde" unicode="&#x2013;" horiz-adv-x="579" 
d="M358 0v322q0 23 -7 37.5t-17.5 22.5t-22 11t-19.5 3t-19.5 -3t-22 -11t-17.5 -22.5t-7 -37.5v-322h-164v538h160v-44q25 25 59 37.5t66 12.5q38 0 68.5 -12t52.5 -34q35 -35 44.5 -73t9.5 -81v-344h-164zM485 683q-32 -32 -60 -47.5t-63 -15.5q-23 0 -40.5 4t-40.5 18
q-14 8 -27.5 12.5t-28.5 4.5q-14 0 -27 -4.5t-31 -22.5l-68 69q32 32 59.5 47.5t62.5 15.5q23 0 40.5 -4t40.5 -18q14 -8 27 -12.5t28 -4.5q14 0 27 4.5t31 22.5l70 -69v0z" />
    <glyph glyph-name="oacute" unicode="&#x2014;" horiz-adv-x="550" 
d="M507 269q0 -40 -3 -70t-9.5 -54t-18 -44t-28.5 -38q-12 -13 -28.5 -25t-37.5 -22t-47.5 -16t-59.5 -6t-59.5 6t-47.5 16t-37.5 22t-28.5 25q-17 18 -28.5 38t-18 44t-9.5 54t-3 70q0 39 3 69.5t9.5 54.5t18 44t28.5 38q24 26 66 47.5t107 21.5t107 -21.5t66 -47.5
q17 -18 28.5 -38t18 -44t9.5 -54.5t3 -69.5zM343 269q0 40 -4 68t-20 44q-15 15 -44 15t-44 -15q-16 -16 -20 -44t-4 -68t4 -68t20 -44q15 -15 44 -15t44 15q16 16 20 44t4 68zM316 610h-99l49 180h168z" />
    <glyph glyph-name="edieresis" unicode="&#x2018;" horiz-adv-x="559" 
d="M199 216q0 -33 24.5 -58.5t70.5 -25.5q43 0 66 11.5t45 33.5l98 -98q-21 -21 -42 -36.5t-45.5 -26.5t-54 -16.5t-67.5 -5.5q-45 0 -90.5 10.5t-82 40t-60 83.5t-23.5 141q0 66 18 117t50 86.5t76 53.5t97 18q59 0 104 -20t75.5 -54.5t46.5 -81t16 -99.5v-73h-322z
M359 325q0 10 -2 20.5t-7 21.5q-8 17 -25 29.5t-46 12.5t-46 -12.5t-25 -29.5q-5 -11 -7 -21.5t-2 -20.5h160v0zM480 680q0 -33 -23.5 -56.5t-56.5 -23.5t-56.5 23.5t-23.5 56.5t23.5 56.5t56.5 23.5t56.5 -23.5t23.5 -56.5zM246 680q0 -33 -23.5 -56.5t-56.5 -23.5
t-56.5 23.5t-23.5 56.5t23.5 56.5t56.5 23.5t56.5 -23.5t23.5 -56.5z" />
    <glyph glyph-name="iacute" unicode="&#x2019;" horiz-adv-x="288" 
d="M62 0v538h164v-538h-164zM168 610h-99l49 180h168z" />
    <glyph glyph-name="Ccedilla" unicode="&#x201a;" horiz-adv-x="547" 
d="M516 73q-18 -18 -38 -32.5t-43.5 -25t-52 -16t-63.5 -5.5q-63 0 -111 20.5t-87 59.5q-28 28 -43 60.5t-21.5 68.5t-7 74.5t-0.5 78.5t0.5 78.5t7 74.5t21.5 68.5t43 60.5q39 39 87 59.5t111 20.5q35 0 63.5 -5.5t52 -16t43.5 -25t38 -32.5l-116 -116q-17 17 -34 28
t-47 11q-24 0 -41 -8.5t-27 -21.5q-6 -8 -11 -18t-8.5 -29t-5.5 -49.5t-2 -79.5t2 -79.5t5.5 -49.5t8.5 -29t11 -18q10 -13 27 -21.5t41 -8.5q30 0 47 11t34 28l116 -116v0zM349 -200h-146l67 144h115z" />
    <glyph glyph-name="igrave" unicode="&#x201c;" horiz-adv-x="288" 
d="M62 0v538h164v-538h-164zM123 610l-118 180h168l49 -180h-99z" />
    <glyph glyph-name="icircumflex" unicode="&#x201d;" horiz-adv-x="288" 
d="M62 0v538h164v-538h-164zM224 610l-79 83l-79 -83h-120l136 179h126l136 -179h-120z" />
    <glyph glyph-name="Ntilde" unicode="&#x201e;" horiz-adv-x="700" 
d="M475 0l-228 358v-358h-175v712h153l228 -358v358h175v-712h-153zM543 855q-32 -32 -60 -47.5t-63 -15.5q-23 0 -40.5 4t-40.5 18q-14 8 -27.5 12.5t-28.5 4.5q-14 0 -27 -4.5t-31 -22.5l-68 69q32 32 59.5 47.5t62.5 15.5q23 0 40.5 -4t40.5 -18q14 -8 27 -12.5t28 -4.5
q14 0 27 4.5t31 22.5l70 -69v0z" />
    <glyph glyph-name="Udieresis" unicode="&#x2020;" horiz-adv-x="660" 
d="M600 250q0 -58 -21.5 -105.5t-58.5 -81t-86 -51.5t-105 -18q-55 0 -104 18t-86 51.5t-58 81t-21 105.5v462h175v-458q0 -50 25 -77t69 -27t70 27t26 77v458h175v-462v0zM527 852q0 -33 -23.5 -56.5t-56.5 -23.5t-56.5 23.5t-23.5 56.5t23.5 56.5t56.5 23.5t56.5 -23.5
t23.5 -56.5zM293 852q0 -33 -23.5 -56.5t-56.5 -23.5t-56.5 23.5t-23.5 56.5t23.5 56.5t56.5 23.5t56.5 -23.5t23.5 -56.5z" />
    <glyph glyph-name="aacute" unicode="&#x2021;" horiz-adv-x="536" 
d="M323 0v44q-25 -25 -51 -37t-69 -12q-41 0 -73.5 12.5t-55.5 35.5t-35 55.5t-12 70.5q0 30 10.5 58.5t33 50t57 34.5t82.5 13h109v14q0 37 -19 52t-62 15q-32 0 -49 -8t-37 -28l-102 102q21 21 41 34.5t43.5 22t50.5 12t61 3.5q116 0 176.5 -48t60.5 -147v-349h-160z
M319 216h-83q-24 0 -38 -12t-14 -31q0 -18 13.5 -31.5t40.5 -13.5q24 0 37.5 3.5t27.5 16.5q16 15 16 54v14zM307 610h-99l49 180h168z" />
    <glyph glyph-name="idieresis" unicode="&#x2022;" horiz-adv-x="288" 
d="M62 0v538h164v-538h-164zM344 680q0 -33 -23.5 -56.5t-56.5 -23.5t-56.5 23.5t-23.5 56.5t23.5 56.5t56.5 23.5t56.5 -23.5t23.5 -56.5zM110 680q0 -33 -23.5 -56.5t-56.5 -23.5t-56.5 23.5t-23.5 56.5t23.5 56.5t56.5 23.5t56.5 -23.5t23.5 -56.5z" />
    <glyph glyph-name="Odieresis" unicode="&#x2026;" horiz-adv-x="640" 
d="M591 356q0 -40 -0.5 -78.5t-7 -74.5t-21.5 -68.5t-43 -60.5q-39 -39 -86 -59.5t-113 -20.5t-113 20.5t-86 59.5q-28 28 -43 60.5t-21.5 68.5t-7 74.5t-0.5 78.5t0.5 78.5t7 74.5t21.5 68.5t43 60.5q39 39 86 59.5t113 20.5t113 -20.5t86 -59.5q28 -28 43 -60.5
t21.5 -68.5t7 -74.5t0.5 -78.5zM416 356q0 49 -2 79.5t-5 49t-8 28.5t-11 18q-10 13 -28 22t-42 9t-42 -9t-28 -22q-6 -8 -11 -18t-8 -28.5t-5 -49t-2 -79.5t2 -79t5 -48.5t8 -28.5t11 -18q10 -13 28 -22.5t42 -9.5t42 9.5t28 22.5q6 8 11 18t8 28.5t5 48.5t2 79zM517 852
q0 -33 -23.5 -56.5t-56.5 -23.5t-56.5 23.5t-23.5 56.5t23.5 56.5t56.5 23.5t56.5 -23.5t23.5 -56.5zM283 852q0 -33 -23.5 -56.5t-56.5 -23.5t-56.5 23.5t-23.5 56.5t23.5 56.5t56.5 23.5t56.5 -23.5t23.5 -56.5z" />
    <glyph glyph-name="acircumflex" unicode="&#x2030;" horiz-adv-x="536" 
d="M323 0v44q-25 -25 -51 -37t-69 -12q-41 0 -73.5 12.5t-55.5 35.5t-35 55.5t-12 70.5q0 30 10.5 58.5t33 50t57 34.5t82.5 13h109v14q0 37 -19 52t-62 15q-32 0 -49 -8t-37 -28l-102 102q21 21 41 34.5t43.5 22t50.5 12t61 3.5q116 0 176.5 -48t60.5 -147v-349h-160z
M319 216h-83q-24 0 -38 -12t-14 -31q0 -18 13.5 -31.5t40.5 -13.5q24 0 37.5 3.5t27.5 16.5q16 15 16 54v14zM345 610l-79 83l-79 -83h-120l136 179h126l136 -179h-120z" />
    <glyph glyph-name="atilde" unicode="&#x2039;" horiz-adv-x="536" 
d="M323 0v44q-25 -25 -51 -37t-69 -12q-41 0 -73.5 12.5t-55.5 35.5t-35 55.5t-12 70.5q0 30 10.5 58.5t33 50t57 34.5t82.5 13h109v14q0 37 -19 52t-62 15q-32 0 -49 -8t-37 -28l-102 102q21 21 41 34.5t43.5 22t50.5 12t61 3.5q116 0 176.5 -48t60.5 -147v-349h-160z
M319 216h-83q-24 0 -38 -12t-14 -31q0 -18 13.5 -31.5t40.5 -13.5q24 0 37.5 3.5t27.5 16.5q16 15 16 54v14zM459 683q-32 -32 -60 -47.5t-63 -15.5q-23 0 -40.5 4t-40.5 18q-14 8 -27.5 12.5t-28.5 4.5q-14 0 -27 -4.5t-31 -22.5l-68 69q32 32 59.5 47.5t62.5 15.5
q23 0 40.5 -4t40.5 -18q14 -8 27 -12.5t28 -4.5q14 0 27 4.5t31 22.5l70 -69v0z" />
    <glyph glyph-name="otilde" unicode="&#x203a;" horiz-adv-x="550" 
d="M507 269q0 -40 -3 -70t-9.5 -54t-18 -44t-28.5 -38q-12 -13 -28.5 -25t-37.5 -22t-47.5 -16t-59.5 -6t-59.5 6t-47.5 16t-37.5 22t-28.5 25q-17 18 -28.5 38t-18 44t-9.5 54t-3 70q0 39 3 69.5t9.5 54.5t18 44t28.5 38q24 26 66 47.5t107 21.5t107 -21.5t66 -47.5
q17 -18 28.5 -38t18 -44t9.5 -54.5t3 -69.5zM343 269q0 40 -4 68t-20 44q-15 15 -44 15t-44 -15q-16 -16 -20 -44t-4 -68t4 -68t20 -44q15 -15 44 -15t44 15q16 16 20 44t4 68zM468 683q-32 -32 -60 -47.5t-63 -15.5q-23 0 -40.5 4t-40.5 18q-14 8 -27.5 12.5t-28.5 4.5
q-14 0 -27 -4.5t-31 -22.5l-68 69q32 32 59.5 47.5t62.5 15.5q23 0 40.5 -4t40.5 -18q14 -8 27 -12.5t28 -4.5q14 0 27 4.5t31 22.5l70 -69v0z" />
    <glyph glyph-name="Adieresis" unicode="&#x20ac;" horiz-adv-x="653" 
d="M470 0l-33 106h-219l-35 -106h-183l259 712h135l259 -712h-183zM331 442l-64 -190h124zM523 852q0 -33 -23.5 -56.5t-56.5 -23.5t-56.5 23.5t-23.5 56.5t23.5 56.5t56.5 23.5t56.5 -23.5t23.5 -56.5zM289 852q0 -33 -23.5 -56.5t-56.5 -23.5t-56.5 23.5t-23.5 56.5
t23.5 56.5t56.5 23.5t56.5 -23.5t23.5 -56.5z" />
    <glyph glyph-name="ocircumflex" unicode="&#x2122;" horiz-adv-x="550" 
d="M507 269q0 -40 -3 -70t-9.5 -54t-18 -44t-28.5 -38q-12 -13 -28.5 -25t-37.5 -22t-47.5 -16t-59.5 -6t-59.5 6t-47.5 16t-37.5 22t-28.5 25q-17 18 -28.5 38t-18 44t-9.5 54t-3 70q0 39 3 69.5t9.5 54.5t18 44t28.5 38q24 26 66 47.5t107 21.5t107 -21.5t66 -47.5
q17 -18 28.5 -38t18 -44t9.5 -54.5t3 -69.5zM343 269q0 40 -4 68t-20 44q-15 15 -44 15t-44 -15q-16 -16 -20 -44t-4 -68t4 -68t20 -44q15 -15 44 -15t44 15q16 16 20 44t4 68zM354 610l-79 83l-79 -83h-120l136 179h126l136 -179h-120z" />
    </font>
</defs>
</svg>
