<?xml version="1.0" standalone="no"?>
<!DOCTYPE svg PUBLIC "-//W3C//DTD SVG 1.1//EN" "http://www.w3.org/Graphics/SVG/1.1/DTD/svg11.dtd" >
<svg xmlns="http://www.w3.org/2000/svg" xmlns:xlink="http://www.w3.org/1999/xlink" version="1.1">
<metadata>
Created by FontForge 20170731 at Fri Mar  4 13:27:39 2005
 By Aleksey,,,
\251 Dutch Design: Albert-Jan Pool, 1995. Published by FontShop International FontFont release 15
</metadata>
<defs>
<font id="DIN-MediumAlternate" horiz-adv-x="500" >
  <font-face 
    font-family="DIN"
    font-weight="400"
    font-stretch="normal"
    units-per-em="1000"
    panose-1="2 0 5 3 4 0 0 2 0 4"
    ascent="800"
    descent="-200"
    x-height="507"
    cap-height="712"
    bbox="-110 -211 1138 1000"
    underline-thickness="70"
    underline-position="-242"
    unicode-range="U+0020-FB02"
  />
<missing-glyph horiz-adv-x="1000" 
 />
    <glyph glyph-name=".notdef" horiz-adv-x="1000" 
 />
    <glyph glyph-name=".null" horiz-adv-x="0" 
 />
    <glyph glyph-name="nonmarkingreturn" horiz-adv-x="240" 
 />
    <glyph glyph-name="space" unicode=" " horiz-adv-x="240" 
 />
    <glyph glyph-name="exclam" unicode="!" horiz-adv-x="332" 
d="M245 712h-124l24 -500h77zM248 62q0 27 -19 46t-46 19t-46 -19t-19 -46t19 -46t46 -19t46 19t19 46z" />
    <glyph glyph-name="quotedbl" unicode="&#x22;" horiz-adv-x="444" 
d="M366 521v191h-101v-191h101zM179 521v191h-101v-191h101z" />
    <glyph glyph-name="numbersign" unicode="#" horiz-adv-x="672" 
d="M623 426v94h-78l31 196h-106l-31 -196h-136l31 196h-107l-31 -196h-95v-94h81l-20 -124h-94v-94h79l-33 -208h107l32 208h137l-33 -208h106l33 208h94v94h-79l20 124h92zM424 426l-19 -124h-137l20 124h136z" />
    <glyph glyph-name="dollar" unicode="$" horiz-adv-x="608" 
d="M556 203q0 46 -14.5 83t-43.5 63q-23 20 -53 32.5t-80 20.5l-34 5v216q38 -3 71.5 -16t59.5 -38l69 68q-41 38 -86 57t-105 23v89h-82v-90q-97 -9 -150.5 -65t-53.5 -142t53 -136q22 -20 56.5 -36t77.5 -21l26 -3v-222q-48 2 -88.5 17t-76.5 51l-72 -71q48 -48 102 -69.5
t126 -24.5v-108h82v111q48 4 88 20.5t68.5 42.5t44 62t15.5 81zM267 414q-23 3 -44 11t-37 22q-14 13 -20.5 29.5t-6.5 36.5q0 44 27.5 74t80.5 35v-208zM449 200q0 -47 -31 -74.5t-87 -32.5v212q26 -4 48 -8.5t42 -22.5q28 -25 28 -74z" />
    <glyph glyph-name="percent" unicode="%" horiz-adv-x="842" 
d="M784 130v101q0 32 -11 57.5t-30 43t-44.5 27t-54.5 9.5t-54.5 -9.5t-44.5 -27t-30 -43t-11 -57.5v-101q0 -32 11 -57.5t30 -43t44.5 -27t54.5 -9.5t54.5 9.5t44.5 27t30 43t11 57.5zM629 712h-81l-336 -712h82zM338 481v101q0 32 -11 57.5t-30 43t-44.5 27t-54.5 9.5
t-54.5 -9.5t-44.5 -27t-30 -43t-11 -57.5v-101q0 -32 11 -57.5t30 -43t44.5 -26.5t54.5 -9t54.5 9t44.5 26.5t30 43t11 57.5zM707 133q0 -34 -15.5 -53t-47.5 -19t-47.5 18.5t-15.5 53.5v95q0 35 15.5 53.5t47.5 18.5t47.5 -19t15.5 -53v-95zM261 484q0 -34 -15.5 -52.5
t-47.5 -18.5q-63 0 -63 71v95q0 35 15.5 53.5t47.5 18.5t47.5 -19t15.5 -53v-95z" />
    <glyph glyph-name="ampersand" unicode="&#x26;" horiz-adv-x="730" 
d="M684 0l-119 142q36 42 52.5 96t18.5 123h-98q-1 -49 -9.5 -82t-28.5 -61l-150 179q8 6 21 15t21.5 14.5t9.5 6.5q34 23 55 53.5t21 72.5q0 34 -12 63t-34.5 50.5t-53.5 33.5t-69 12q-40 0 -72 -12t-54.5 -33t-35 -50t-12.5 -63q0 -25 7 -46.5t18 -40.5t24 -35.5t25 -30.5
q-26 -17 -51.5 -37t-45.5 -44t-32 -53.5t-12 -66.5q0 -97 59 -154.5t171 -57.5q40 0 71.5 8t55.5 20t41 25t29 23l58 -70h131zM380 558q0 -25 -15.5 -42.5t-36.5 -31.5q-1 -1 -6.5 -4.5t-14 -9.5t-13.5 -9q-27 32 -41 54t-14 44q0 30 18.5 50t51.5 20q32 0 51.5 -20.5
t19.5 -50.5zM434 142q-35 -32 -67.5 -43.5t-68.5 -11.5q-56 0 -92.5 33.5t-36.5 87.5q0 25 7.5 44t21 34.5t30.5 29t37 27.5z" />
    <glyph glyph-name="quotesingle" unicode="'" horiz-adv-x="257" 
d="M179 521v191h-101v-191h101z" />
    <glyph glyph-name="parenleft" unicode="(" horiz-adv-x="317" 
d="M259 -25l-31.5 31.5t-24.5 34.5q-15 28 -15 82v466q0 53 15 82q11 21 24.5 34.5l31.5 31.5l-69 69q-24 -24 -45 -46t-36 -49q-16 -28 -19.5 -57t-3.5 -59v-478q0 -30 3.5 -59t19.5 -57q15 -27 36 -49t45 -46z" />
    <glyph glyph-name="parenright" unicode=")" horiz-adv-x="317" 
d="M232 117v478q0 30 -4 59t-20 57q-15 27 -35.5 49t-44.5 46l-70 -70q18 -18 31 -31.5t24 -34.5q15 -29 15 -81v-466q0 -53 -15 -81q-11 -21 -24 -34.5t-31 -31.5l70 -70q24 24 44.5 46t35.5 49q16 28 20 57t4 59z" />
    <glyph glyph-name="asterisk" unicode="*" horiz-adv-x="485" 
d="M424 466l-115 61l115 62l-37 65l-111 -69l4 130h-75l4 -130l-111 69l-37 -65l115 -62l-115 -61l37 -65l111 69l-4 -131h75l-4 131l111 -69z" />
    <glyph glyph-name="plus" unicode="+" horiz-adv-x="533" 
d="M482 225v95h-168v167h-95v-167h-168v-95h168v-168h95v168h168z" />
    <glyph glyph-name="comma" unicode="," horiz-adv-x="272" 
d="M194 -60v176h-116v-271z" />
    <glyph glyph-name="hyphen" unicode="-" horiz-adv-x="426" 
d="M359 230v95h-292v-95h292z" />
    <glyph glyph-name="period" unicode="." horiz-adv-x="284" 
d="M215 70q0 30 -21.5 51t-51.5 21t-51.5 -21t-21.5 -51t21.5 -51.5t51.5 -21.5t51.5 21.5t21.5 51.5z" />
    <glyph glyph-name="slash" unicode="/" horiz-adv-x="380" 
d="M383 786h-98l-285 -860h98z" />
    <glyph glyph-name="zero" unicode="0" horiz-adv-x="534" 
d="M473 198v201q0 48 -16.5 85.5t-44.5 64t-65.5 40.5t-79.5 14t-79.5 -14t-65.5 -40.5t-44.5 -64t-16.5 -85.5v-201q0 -48 16.5 -85.5t44.5 -64t65.5 -40.5t79.5 -14t79.5 14t65.5 40.5t44.5 64t16.5 85.5zM371 201q0 -52 -27.5 -84t-76.5 -32t-76.5 32t-27.5 84v195
q0 52 27.5 84t76.5 32t76.5 -32t27.5 -84v-195z" />
    <glyph glyph-name="one" unicode="1" horiz-adv-x="407" 
d="M294 0v597h-102l-140 -120v-113l140 122v-486h102z" />
    <glyph glyph-name="two" unicode="2" horiz-adv-x="528" 
d="M471 0v91h-291l165 156q23 22 43 43.5t35 44t23.5 46.5t8.5 52q0 42 -15 76.5t-42.5 60t-65 39.5t-82.5 14q-44 0 -81.5 -14t-65.5 -40t-44 -62t-16 -80h102q0 25 8.5 45t23 33t33.5 20t40 7q46 0 74.5 -28.5t28.5 -71.5q0 -32 -18.5 -62t-50.5 -59l-242 -220v-91h429z
" />
    <glyph glyph-name="three" unicode="3" horiz-adv-x="526" 
d="M472 85q0 66 -27 106.5t-73 60.5q42 20 65 57.5t23 94.5q0 44 -15.5 80.5t-43 63t-65.5 41t-83 14.5q-43 0 -80 -13t-65 -38t-45 -61t-19 -81h102q4 48 32 75t75 27q44 0 74.5 -28t30.5 -82q0 -49 -26 -79t-82 -30h-17v-89h17q60 0 90 -31.5t30 -85.5q0 -57 -33 -87.5
t-83 -30.5q-22 0 -42.5 6t-36.5 19.5t-26.5 33.5t-11.5 49h-102q1 -52 19.5 -89.5t48.5 -62t69 -36t82 -11.5q45 0 84.5 13t69 39t47 65t17.5 90z" />
    <glyph glyph-name="four" unicode="4" horiz-adv-x="566" 
d="M526 30v95h-85v176h-98v-176h-196l253 510h-109l-253 -510v-95h305v-153h98v153h85z" />
    <glyph glyph-name="five" unicode="5" horiz-adv-x="535" 
d="M477 123q0 25 -2 50.5t-8.5 49.5t-19 47t-32.5 43q-22 22 -54 34t-74 12q-39 0 -69 -11t-48 -30v188h291v91h-383v-389h92q8 26 33 45t69 19q31 0 51 -11.5t31.5 -31.5t16 -47t4.5 -59q0 -36 -5 -69t-28 -56q-28 -28 -75 -28q-48 0 -73 25.5t-31 73.5h-102
q3 -38 14.5 -72.5t40.5 -63.5q23 -23 61.5 -39t89.5 -16q52 0 89 16t61 40q39 39 49.5 85.5t10.5 103.5z" />
    <glyph glyph-name="six" unicode="6" horiz-adv-x="538" 
d="M492 223q0 51 -15 91.5t-41.5 69t-63 43.5t-78.5 15q-25 0 -44 -3.5t-38 -13.5l175 303h-109l-171 -306q-31 -55 -46 -102.5t-15 -101.5q0 -53 16.5 -94.5t46 -70t70.5 -44t90 -15.5t90 16t70.5 46t46 72.5t16.5 94.5zM390 220q0 -64 -33.5 -101t-87.5 -37t-87.5 37
t-33.5 101t33.5 101.5t87.5 37.5q28 0 50.5 -11t38.5 -29.5t24 -44t8 -54.5z" />
    <glyph glyph-name="seven" unicode="7" horiz-adv-x="528" 
d="M493 506v91h-448v-203h98v112h241l-276 -626h109z" />
    <glyph glyph-name="eight" unicode="8" horiz-adv-x="549" 
d="M494 201q0 32 -8.5 58t-22 46.5t-31 36t-36.5 26.5q35 21 60.5 58.5t25.5 94.5q0 45 -16 81t-44.5 62t-66.5 40t-81 14q-44 0 -81.5 -14t-66 -40t-44.5 -62t-16 -81q0 -57 26 -94.5t61 -58.5q-19 -11 -36.5 -26.5t-31 -36t-22 -46.5t-8.5 -58q0 -48 17 -86.5t46.5 -65.5
t69.5 -41t86 -14t86 14t70 41t47 65.5t17 86.5zM380 518q0 -48 -29.5 -78t-76.5 -30t-76.5 30t-29.5 78q0 47 29.5 78t76.5 31t76.5 -31t29.5 -78zM392 203q0 -25 -9 -46.5t-25 -37.5t-37.5 -25t-46.5 -9t-46.5 9t-37 25t-24.5 37.5t-9 46.5t9 46.5t24.5 37.5t37 25.5
t46.5 9.5t46.5 -9.5t37.5 -25.5t25 -37.5t9 -46.5z" />
    <glyph glyph-name="nine" unicode="9" horiz-adv-x="538" 
d="M492 379q0 52 -16.5 94t-46 70.5t-70.5 44t-90 15.5t-90 -16t-70.5 -46t-46 -72.5t-16.5 -94.5q0 -51 15 -91.5t42 -69t63.5 -43.5t78.5 -15q25 0 43.5 3.5t37.5 13.5l-175 -303h109l172 306q31 55 45.5 102.5t14.5 101.5zM390 377q0 -64 -33.5 -101.5t-87.5 -37.5
q-29 0 -51 10.5t-38 29.5t-24 44.5t-8 54.5q0 64 33.5 101t87.5 37t87.5 -37t33.5 -101z" />
    <glyph glyph-name="colon" unicode=":" horiz-adv-x="310" 
d="M240 347q0 30 -21 51.5t-51 21.5t-51.5 -21.5t-21.5 -51.5t21.5 -51.5t51.5 -21.5t51 21.5t21 51.5zM240 70q0 30 -21 51t-51 21t-51.5 -21t-21.5 -51t21.5 -51.5t51.5 -21.5t51 21.5t21 51.5z" />
    <glyph glyph-name="semicolon" unicode=";" horiz-adv-x="303" 
d="M240 347q0 30 -21 51.5t-51 21.5t-51.5 -21.5t-21.5 -51.5t21.5 -51.5t51.5 -21.5t51 21.5t21 51.5zM226 -60v176h-116v-271z" />
    <glyph glyph-name="less" unicode="&#x3c;" horiz-adv-x="1027" 
d="M905 209v130l-343 -345v745h-97v-745l-343 345v-130l392 -392z" />
    <glyph glyph-name="equal" unicode="=" horiz-adv-x="533" 
d="M482 327v95h-431v-95h431zM482 133v95h-431v-95h431z" />
    <glyph glyph-name="greater" unicode="&#x3e;" horiz-adv-x="1027" 
d="M906 217v130l-392 392l-392 -392v-130l344 345v-745h96v745z" />
    <glyph glyph-name="question" unicode="?" horiz-adv-x="511" 
d="M470 527q0 44 -16 79.5t-43 60t-63.5 38t-77.5 13.5q-42 0 -78.5 -14t-63.5 -39.5t-42 -61t-15 -77.5h102q0 41 25 71t72 30q44 0 71 -29t27 -71q0 -21 -8.5 -39.5t-22.5 -36.5l-78 -105q-18 -24 -26 -46t-8 -53v-35h102v30q0 12 5 27.5t13 26.5l77 108q20 28 34 57.5
t14 65.5zM340 62q0 27 -19 46t-46 19t-45.5 -19t-18.5 -46t18.5 -46t45.5 -19t46 19t19 46z" />
    <glyph glyph-name="at" unicode="@" horiz-adv-x="736" 
d="M672 -2v483q0 57 -14 100t-46 75t-74.5 45.5t-96.5 13.5h-146q-55 0 -97.5 -13.5t-74.5 -45.5t-45.5 -75t-13.5 -100v-318q0 -33 4 -58t13.5 -45t24.5 -37t37 -35l70 70q-15 12 -24.5 22.5t-15 23t-8 28t-2.5 36.5v312q0 36 7 60.5t30 47.5q21 21 47 29t58 8h126
q32 0 59 -8.5t47 -28.5q21 -22 29 -47.5t8 -60.5v-61q-24 28 -54 42t-72 14t-76 -15.5t-56 -41.5q-27 -32 -35 -75t-8 -109q0 -34 1.5 -61t6.5 -49t14 -40.5t23 -34.5q23 -26 56.5 -41t74.5 -15q44 0 73.5 14t53.5 43v-50zM574 234q0 -32 -4 -60t-15.5 -49t-31.5 -33
t-51 -12q-32 0 -51.5 12t-30.5 33t-15 49t-4 60t4 60.5t15 49.5t30.5 33t51.5 12q31 0 51 -12t31.5 -33t15.5 -49.5t4 -60.5z" />
    <glyph glyph-name="A" unicode="A" horiz-adv-x="625" 
d="M617 0l-261 712h-87l-261 -712h115l49 143h281l49 -143h115zM423 235h-219l111 316z" />
    <glyph glyph-name="B" unicode="B" horiz-adv-x="663" 
d="M596 201q0 34 -9 61t-24 47t-34 34.5t-40 22.5q18 7 35 20.5t30.5 33t22 44t8.5 53.5q0 91 -57.5 143t-157.5 52h-277v-712h288q47 0 86.5 13t68 38.5t44.5 63t16 86.5zM477 513q0 -50 -32 -76t-84 -26h-160v204h160q52 0 84 -26t32 -76zM488 206q0 -48 -30 -78.5
t-87 -30.5h-170v217h170q57 0 87 -30t30 -78z" />
    <glyph glyph-name="C" unicode="C" horiz-adv-x="574" 
d="M522 78l-72 73q-28 -28 -55.5 -44t-71.5 -16q-32 0 -59 11.5t-46 31.5q-13 14 -21.5 30.5t-13 41t-6 60.5t-1.5 90t1.5 90t6 60.5t13 41t21.5 30.5q19 20 46 31.5t59 11.5q44 0 71.5 -16t55.5 -44l72 73q-40 39 -86 61.5t-113 22.5q-56 0 -103 -19.5t-84 -56.5
q-26 -26 -40 -55t-20.5 -63t-7.5 -75.5t-1 -92.5t1 -92.5t7.5 -75.5t20.5 -63t40 -55q37 -37 84 -56.5t103 -19.5q67 0 113 22.5t86 61.5z" />
    <glyph glyph-name="D" unicode="D" horiz-adv-x="666" 
d="M599 361q0 39 -0.5 77t-6.5 74.5t-21 70t-44 62.5q-34 34 -81 50.5t-103 16.5h-250v-712h250q56 0 103 16.5t81 50.5q29 29 44 64t21 73t6.5 78t0.5 79zM491 361q0 -74 -5 -129.5t-33 -86.5q-44 -48 -121 -48h-131v518h131q77 0 121 -48q28 -31 33 -81.5t5 -124.5z" />
    <glyph glyph-name="E" unicode="E" horiz-adv-x="603" 
d="M548 0v97h-347v214h296v96h-296v208h347v97h-455v-712h455z" />
    <glyph glyph-name="F" unicode="F" horiz-adv-x="585" 
d="M548 615v97h-455v-712h108v301h296v97h-296v217h347z" />
    <glyph glyph-name="G" unicode="G" horiz-adv-x="641" 
d="M580 278v107h-257v-92h149v-39q0 -33 -7.5 -62t-27.5 -51q-21 -24 -50 -37t-64 -13q-32 0 -59.5 11.5t-46.5 31.5q-13 14 -21.5 30.5t-13 41t-6 60.5t-1.5 90t1.5 89.5t6 60t13 41t21.5 30.5q19 20 46.5 32t59.5 12q24 0 43 -4.5t35.5 -13.5t31.5 -22t32 -30l73 73
q-24 24 -47 41.5t-48 29.5t-54.5 17.5t-65.5 5.5q-57 0 -103.5 -19.5t-83.5 -56.5q-26 -26 -40 -55t-20.5 -63t-7.5 -75.5t-1 -92.5t1 -92.5t7.5 -75.5t20.5 -63t40 -55q37 -37 84 -56.5t103 -19.5q59 0 107.5 21t86.5 61q35 38 49 85.5t14 116.5z" />
    <glyph glyph-name="H" unicode="H" horiz-adv-x="691" 
d="M598 0v712h-108v-304h-289v304h-108v-712h108v311h289v-311h108z" />
    <glyph glyph-name="I" unicode="I" horiz-adv-x="294" 
d="M201 0v712h-108v-712h108z" />
    <glyph glyph-name="J" unicode="J" horiz-adv-x="506" 
d="M423 225v487h-108v-479q0 -70 -34.5 -106t-94.5 -36q-39 0 -60.5 12t-40.5 31l-72 -71q37 -37 77.5 -53t95.5 -16q49 0 92 15.5t75.5 44.5t51 72t18.5 99z" />
    <glyph glyph-name="K" unicode="K" horiz-adv-x="658" 
d="M648 0l-255 433l231 279h-132l-291 -358v358h-108v-712h108v207l120 144l200 -351h127z" />
    <glyph glyph-name="L" unicode="L" horiz-adv-x="574" 
d="M544 0v97h-343v615h-108v-712h451z" />
    <glyph glyph-name="M" unicode="M" horiz-adv-x="813" 
d="M721 0v712h-108l-204 -443l-208 443h-108v-712h108v476l168 -347h80l164 347v-476h108z" />
    <glyph glyph-name="N" unicode="N" horiz-adv-x="722" 
d="M629 0v712h-108v-500l-329 500h-99v-712h108v501l329 -501h99z" />
    <glyph glyph-name="O" unicode="O" horiz-adv-x="646" 
d="M579 356q0 51 -1 92.5t-7 75.5t-20 63t-40 55q-37 37 -84 56.5t-104 19.5t-103.5 -19.5t-83.5 -56.5q-26 -26 -40 -55t-20.5 -63t-7.5 -75.5t-1 -92.5t1 -92.5t7.5 -75.5t20.5 -63t40 -55q37 -37 83.5 -56.5t103.5 -19.5t104 19.5t84 56.5q26 26 40 55t20 63t7 75.5
t1 92.5zM471 356q0 -54 -1.5 -89.5t-6 -60t-13 -41t-21.5 -30.5q-19 -20 -46.5 -32t-59.5 -12t-59.5 12t-46.5 32q-13 14 -21.5 30.5t-13 41t-6 60t-1.5 89.5t1.5 89.5t6 60t13 41t21.5 30.5q19 20 46.5 32t59.5 12t59.5 -12t46.5 -32q13 -14 21.5 -30.5t13 -41t6 -60
t1.5 -89.5z" />
    <glyph glyph-name="P" unicode="P" horiz-adv-x="629" 
d="M591 496q0 46 -16 86t-46 68.5t-72 45t-94 16.5h-270v-712h108v280h162q52 0 94 16.5t72 45t46 68t16 86.5zM483 496q0 -57 -34.5 -87.5t-91.5 -30.5h-156v237h156q57 0 91.5 -31t34.5 -88z" />
    <glyph glyph-name="Q" unicode="Q" horiz-adv-x="646" 
d="M603 28l-70 69q18 24 27 50.5t13.5 57.5t5 68.5t0.5 82.5q0 51 -1 92.5t-7 75.5t-20 63t-40 55q-37 37 -84 56.5t-104 19.5t-103.5 -19.5t-83.5 -56.5q-26 -26 -40 -55t-20.5 -63t-7.5 -75.5t-1 -92.5t1 -92.5t7.5 -75.5t20.5 -63t40 -55q37 -37 83.5 -56.5t103.5 -19.5
q42 0 80 11.5t69 33.5l71 -71zM471 356q0 -69 -3.5 -109t-17.5 -67l-69 69l-60 -60l75 -75q-32 -23 -73 -23q-32 0 -59.5 12t-46.5 32q-13 14 -21.5 30.5t-13 41t-6 60t-1.5 89.5t1.5 89.5t6 60t13 41t21.5 30.5q19 20 46.5 32t59.5 12t59.5 -12t46.5 -32q13 -14 21.5 -30.5
t13 -41t6 -60t1.5 -89.5z" />
    <glyph glyph-name="R" unicode="R" horiz-adv-x="655" 
d="M612 0l-164 315q60 17 101 64.5t41 124.5q0 45 -15.5 83.5t-44.5 66t-69.5 43t-91.5 15.5h-276v-712h108v300h135l150 -300h126zM482 503q0 -53 -33.5 -82t-87.5 -29h-160v223h160q54 0 87.5 -29.5t33.5 -82.5z" />
    <glyph glyph-name="S" unicode="S" horiz-adv-x="590" 
d="M538 203q0 46 -14.5 83t-43.5 63q-23 20 -53 32.5t-80 20.5l-81 12q-52 8 -80 33q-14 13 -20.5 29.5t-6.5 36.5q0 48 33.5 79.5t96.5 31.5q45 0 83.5 -11.5t71.5 -43.5l69 68q-46 43 -98 62t-123 19q-56 0 -100 -15t-74.5 -43t-47 -66.5t-16.5 -84.5q0 -87 52 -136
q48 -45 135 -57l84 -12q32 -5 48 -11t30 -19q28 -25 28 -74q0 -52 -38.5 -80.5t-108.5 -28.5q-55 0 -99 14.5t-83 53.5l-72 -71q51 -52 111 -73t141 -21q56 0 103 14t81 41t53 66t19 88z" />
    <glyph glyph-name="T" unicode="T" horiz-adv-x="560" 
d="M530 615v97h-500v-97h196v-615h108v615h196z" />
    <glyph glyph-name="U" unicode="U" horiz-adv-x="675" 
d="M593 240v472h-108v-467q0 -72 -40.5 -113t-107.5 -41t-107 41t-40 113v467h-108v-472q0 -55 19.5 -100.5t53.5 -77.5t81 -50t101 -18t101 18t81.5 50t54 77.5t19.5 100.5z" />
    <glyph glyph-name="V" unicode="V" horiz-adv-x="564" 
d="M559 712h-114l-164 -518l-164 518h-112l234 -712h84z" />
    <glyph glyph-name="W" unicode="W" horiz-adv-x="871" 
d="M860 712h-114l-124 -509l-143 509h-87l-143 -509l-124 509h-114l186 -712h94l144 499l145 -499h94z" />
    <glyph glyph-name="X" unicode="X" horiz-adv-x="578" 
d="M568 0l-221 365l206 347h-124l-141 -255l-140 255h-124l206 -347l-220 -365h124l154 273l155 -273h125z" />
    <glyph glyph-name="Y" unicode="Y" horiz-adv-x="544" 
d="M539 712h-118l-149 -313l-149 313h-118l213 -419v-293h108v293z" />
    <glyph glyph-name="Z" unicode="Z" horiz-adv-x="552" 
d="M504 0v97h-331l331 527v88h-442v-97h315l-329 -522v-93h456z" />
    <glyph glyph-name="bracketleft" unicode="[" horiz-adv-x="347" 
d="M304 -74v91h-116v678h116v91h-218v-860h218z" />
    <glyph glyph-name="backslash" unicode="\" horiz-adv-x="380" 
d="M380 -74l-282 852h-98l282 -852h98z" />
    <glyph glyph-name="bracketright" unicode="]" horiz-adv-x="347" 
d="M261 -74v860h-218v-90h118v-680h-118v-90h218z" />
    <glyph glyph-name="asciicircum" unicode="^" horiz-adv-x="571" 
d="M503 401l-171 318h-93l-172 -318h106l112 207l112 -207h106z" />
    <glyph glyph-name="underscore" unicode="_" horiz-adv-x="571" 
d="M571 -172v70h-571v-70h571z" />
    <glyph glyph-name="grave" unicode="`" 
d="M302 599l-75 162h-113l111 -162h77z" />
    <glyph glyph-name="a" unicode="a" horiz-adv-x="530" 
d="M454 0v339q0 174 -209 174q-63 0 -104.5 -15.5t-77.5 -57.5l67 -63q21 27 45 38t66 11q60 0 85.5 -23.5t25.5 -71.5v-36h-134q-88 0 -131.5 -41t-43.5 -105q0 -67 40 -109q23 -23 55.5 -34.5t80.5 -11.5q47 0 77 12t58 40v-46h100zM352 183q0 -53 -22 -75
q-20 -20 -43 -24.5t-52 -4.5q-48 0 -70.5 18.5t-22.5 53.5t23 54t68 19h119v-41z" />
    <glyph glyph-name="b" unicode="b" horiz-adv-x="553" 
d="M496 254q0 29 -1.5 59t-7.5 58t-17.5 53t-30.5 44q-21 21 -53 33t-70 12q-41 0 -73 -12t-60 -45v256h-102v-712h100v54q29 -35 60.5 -47.5t73.5 -12.5q38 0 70.5 12t53.5 33q19 19 30.5 44t17.5 53.5t7.5 58.5t1.5 59zM394 254q0 -34 -3.5 -64.5t-14.5 -54t-32 -37
t-55 -13.5q-35 0 -55.5 13.5t-32 37t-15 54t-3.5 64.5t3.5 64.5t15 53.5t32 36.5t55.5 13.5q34 0 55 -13.5t32 -36.5t14.5 -53.5t3.5 -64.5z" />
    <glyph glyph-name="c" unicode="c" horiz-adv-x="485" 
d="M448 66l-70 67q-24 -26 -45.5 -37t-51.5 -11q-60 0 -94 45q-17 21 -23.5 50t-6.5 74t6.5 73.5t23.5 49.5q34 45 94 45q30 0 51.5 -11t45.5 -37l70 68q-36 38 -75 54.5t-92 16.5q-43 0 -83.5 -14t-72 -44.5t-51 -80t-19.5 -120.5t19.5 -120.5t51 -80.5t72 -45t83.5 -14
q53 0 92 17t75 55z" />
    <glyph glyph-name="d" unicode="d" horiz-adv-x="553" 
d="M472 0v712h-102v-256q-28 33 -60 45t-73 12q-38 0 -70 -12t-53 -33q-19 -19 -30.5 -44t-17.5 -53t-7.5 -58t-1.5 -59t1.5 -59t7.5 -58.5t17.5 -53.5t30.5 -44q21 -21 53.5 -33t70.5 -12q42 0 73.5 12.5t60.5 47.5v-54h100zM370 254q0 -34 -3.5 -64.5t-14.5 -54t-32 -37
t-55 -13.5q-35 0 -55.5 13.5t-32 37t-15 54t-3.5 64.5t3.5 64.5t15 53.5t32 36.5t55.5 13.5q34 0 55 -13.5t32 -36.5t14.5 -53.5t3.5 -64.5z" />
    <glyph glyph-name="e" unicode="e" horiz-adv-x="539" 
d="M485 224v45q0 54 -14.5 99t-42 77t-67.5 50t-91 18q-98 0 -156.5 -67.5t-58.5 -191.5q0 -72 18 -122t48.5 -80.5t72 -44t89.5 -13.5q33 0 59.5 5t49 15t42 24.5t39.5 34.5l-65 61q-27 -27 -53.5 -39.5t-69.5 -12.5q-63 0 -96 38t-33 104h329zM384 295h-228q1 23 3 37.5
t10 31.5q12 29 38.5 46.5t62.5 17.5t62 -17.5t38 -46.5q8 -17 10.5 -31.5t3.5 -37.5z" />
    <glyph glyph-name="f" unicode="f" horiz-adv-x="328" 
d="M300 420v78h-101v73q0 28 13.5 43.5t42.5 15.5h45v87h-64q-36 0 -62 -12t-43 -31.5t-25.5 -45t-8.5 -52.5v-78h-58v-78h58v-420h102v420h101z" />
    <glyph glyph-name="g" unicode="g" horiz-adv-x="549" 
d="M468 3v504h-99v-54q-29 35 -60.5 47.5t-72.5 12.5q-78 0 -122 -44q-37 -37 -47 -89t-10 -117t10 -117t47 -89q21 -21 52 -33t69 -12q39 0 71 12.5t60 45.5v-65q0 -26 -6.5 -49t-21 -41t-37 -28.5t-54.5 -10.5q-38 0 -62 11t-48 34l-65 -65q40 -37 80.5 -52t98.5 -15
q51 0 91 16t68 44.5t43 67.5t15 86zM366 263q0 -30 -3 -58.5t-14 -51t-31.5 -36t-54.5 -13.5q-35 0 -55.5 13.5t-31 36t-14 51t-3.5 58.5t3.5 58.5t14 51t31 36t55.5 13.5q34 0 54.5 -13.5t31.5 -36t14 -51t3 -58.5z" />
    <glyph glyph-name="h" unicode="h" horiz-adv-x="566" 
d="M490 0v327q0 41 -11.5 75.5t-34 59t-55.5 38t-75 13.5q-38 0 -71.5 -14t-59.5 -43v256h-102v-712h102v311q0 57 30 84t73 27t72.5 -26.5t29.5 -84.5v-311h102z" />
    <glyph glyph-name="i" unicode="i" horiz-adv-x="264" 
d="M198 672q0 27 -19.5 46.5t-46.5 19.5t-46.5 -19.5t-19.5 -46.5t19.5 -46.5t46.5 -19.5t46.5 19.5t19.5 46.5zM183 0v507h-102v-507h102z" />
    <glyph glyph-name="j" unicode="j" horiz-adv-x="264" 
d="M198 672q0 27 -19.5 46.5t-46.5 19.5t-46.5 -19.5t-19.5 -46.5t19.5 -46.5t46.5 -19.5t46.5 19.5t19.5 46.5zM183 -67v574h-102v-568q0 -29 -12 -44t-43 -15h-45v-87h63q36 0 62.5 11.5t43.5 30.5t25 44.5t8 53.5z" />
    <glyph glyph-name="k" unicode="k" horiz-adv-x="548" 
d="M526 0l-198 308l176 199h-124l-197 -234v439h-102v-712h102v149l75 85l142 -234h126z" />
    <glyph glyph-name="l" unicode="l" horiz-adv-x="311" 
d="M280 0v87h-45q-31 0 -43 15t-12 44v566h-102v-572q0 -28 8 -53.5t25.5 -44.5t43.5 -30.5t62 -11.5h63z" />
    <glyph glyph-name="m" unicode="m" horiz-adv-x="877" 
d="M801 0v324q0 43 -12.5 78.5t-41.5 64.5q-23 22 -56 34t-72 12q-98 0 -159 -74q-48 74 -144 74q-38 0 -73.5 -14.5t-61.5 -42.5v51h-100v-507h102v309q0 58 31 85.5t74 27.5t72.5 -27t29.5 -86v-309h102v314q0 27 8.5 47.5t23 34t33.5 20t40 6.5q43 0 72.5 -27t29.5 -86
v-309h102z" />
    <glyph glyph-name="n" unicode="n" horiz-adv-x="568" 
d="M492 0v324q0 43 -11 78.5t-40 64.5q-23 22 -54.5 34t-70.5 12q-38 0 -73.5 -14t-61.5 -43v51h-100v-507h102v309q0 58 31 85.5t74 27.5t72.5 -27t29.5 -86v-309h102z" />
    <glyph glyph-name="o" unicode="o" horiz-adv-x="537" 
d="M480 254q0 64 -12 112.5t-48 86.5q-25 26 -62.5 43t-89.5 17t-89 -17t-62 -43q-36 -38 -48 -86.5t-12 -112.5q0 -65 12 -113.5t48 -86.5q25 -26 62 -43t89 -17t89.5 17t62.5 43q36 38 48 86.5t12 113.5zM378 254q0 -42 -6 -79t-29 -60q-30 -30 -75 -30q-44 0 -74 30
q-23 23 -29 60t-6 79t6 79t29 60q29 29 74 29q46 0 75 -29q23 -23 29 -60t6 -79z" />
    <glyph glyph-name="p" unicode="p" horiz-adv-x="553" 
d="M496 254q0 29 -1.5 59t-7.5 58t-17.5 53t-30.5 44q-21 21 -53.5 33t-70.5 12q-42 0 -73.5 -12.5t-60.5 -47.5v54h-100v-712h102v257q28 -33 60 -45.5t73 -12.5q38 0 70 12t53 33q19 19 30.5 44t17.5 53.5t7.5 58.5t1.5 59zM394 254q0 -34 -3.5 -64.5t-14.5 -54t-32 -37
t-55 -13.5q-35 0 -55.5 13.5t-32 37t-15 54t-3.5 64.5t3.5 64.5t15 53.5t32 36.5t55.5 13.5q34 0 55 -13.5t32 -36.5t14.5 -53.5t3.5 -64.5z" />
    <glyph glyph-name="q" unicode="q" horiz-adv-x="553" 
d="M472 -205v712h-100v-54q-29 35 -60.5 47.5t-73.5 12.5q-38 0 -70.5 -12t-53.5 -33q-19 -19 -30.5 -44t-17.5 -53t-7.5 -58t-1.5 -59t1.5 -59t7.5 -58.5t17.5 -53.5t30.5 -44q21 -21 53 -33t70 -12q41 0 73 12.5t60 45.5v-257h102zM370 254q0 -34 -3.5 -64.5t-14.5 -54
t-32 -37t-55 -13.5q-35 0 -55.5 13.5t-32 37t-15 54t-3.5 64.5t3.5 64.5t15 53.5t32 36.5t55.5 13.5q34 0 55 -13.5t32 -36.5t14.5 -53.5t3.5 -64.5z" />
    <glyph glyph-name="r" unicode="r" horiz-adv-x="439" 
d="M437 465q-26 26 -55 37t-66 11q-43 0 -79 -17t-56 -44v55h-100v-507h102v308q0 53 29.5 83.5t71.5 30.5q26 0 42.5 -8.5t33.5 -25.5z" />
    <glyph glyph-name="s" unicode="s" horiz-adv-x="499" 
d="M456 155q0 68 -39.5 102.5t-111.5 40.5l-80 7q-41 4 -55.5 19.5t-14.5 38.5q0 29 23 47t69 18q36 0 68.5 -8.5t56.5 -28.5l64 65q-35 31 -83 44t-105 13q-40 0 -74.5 -10.5t-60.5 -30t-41 -48.5t-15 -66q0 -67 39 -100.5t111 -39.5l81 -7q37 -3 52.5 -18.5t15.5 -41.5
q0 -36 -32 -53t-79 -17q-38 0 -76.5 10.5t-69.5 42.5l-67 -67q45 -44 98 -58.5t115 -14.5q45 0 84 10t67 30.5t44 50.5t16 70z" />
    <glyph glyph-name="t" unicode="t" horiz-adv-x="342" 
d="M293 0v87h-42q-29 0 -42.5 15.5t-13.5 43.5v274h98v78h-98v154h-102v-154h-58v-78h58v-279q0 -27 8.5 -52.5t25.5 -45t43 -31.5t62 -12h61z" />
    <glyph glyph-name="u" unicode="u" horiz-adv-x="568" 
d="M487 0v507h-102v-309q0 -29 -8.5 -50.5t-22.5 -35.5t-33.5 -20.5t-40.5 -6.5q-43 0 -72.5 27t-29.5 86v309h-102v-324q0 -43 11 -78.5t40 -64.5q23 -22 54.5 -34t70.5 -12q38 0 73.5 14t61.5 43v-51h100z" />
    <glyph glyph-name="v" unicode="v" horiz-adv-x="471" 
d="M463 507h-108l-119 -357l-120 357h-108l186 -507h83z" />
    <glyph glyph-name="w" unicode="w" horiz-adv-x="743" 
d="M735 507h-109l-98 -357l-117 357h-79l-118 -357l-98 357h-108l157 -507h88l118 354l119 -354h87z" />
    <glyph glyph-name="x" unicode="x" horiz-adv-x="503" 
d="M481 0l-173 259l166 248h-123l-99 -165l-100 165h-123l167 -248l-174 -259h123l107 173l106 -173h123z" />
    <glyph glyph-name="y" unicode="y" horiz-adv-x="468" 
d="M464 507h-109l-118 -357l-121 357h-108l177 -483l-28 -79q-11 -31 -26 -42.5t-47 -11.5h-26v-92h41q29 0 56 8t48 29q23 23 37 63z" />
    <glyph glyph-name="z" unicode="z" horiz-adv-x="469" 
d="M421 0v91h-254l254 335v81h-364v-91h238l-252 -335v-81h378z" />
    <glyph glyph-name="braceleft" unicode="{" horiz-adv-x="407" 
d="M362 -74v91h-39q-24 0 -37 3t-21 11t-11.5 23t-3.5 41v161q0 24 -6 41t-15 28t-21 18.5t-24 12.5q12 5 24 12.5t21 18.5t15 28t6 41v161q0 26 3.5 41t11.5 23t21 11t37 3h39v91h-71q-38 0 -64 -8.5t-43 -25.5q-20 -20 -28 -44.5t-8 -60.5v-167q0 -42 -18 -60
q-8 -8 -19.5 -13.5t-28.5 -5.5h-37v-90h37q17 0 28.5 -5.5t19.5 -13.5q18 -18 18 -60v-167q0 -36 8 -60.5t28 -44.5q17 -17 43 -25.5t64 -8.5h71z" />
    <glyph glyph-name="bar" unicode="|" horiz-adv-x="338" 
d="M220 -74v860h-102v-860h102z" />
    <glyph glyph-name="braceright" unicode="}" horiz-adv-x="407" 
d="M362 311v90h-36q-17 0 -29 5.5t-20 13.5q-18 18 -18 60v167q0 36 -8 60.5t-28 44.5q-17 17 -43 25.5t-64 8.5h-71v-91h39q24 0 37 -3t21 -11t11.5 -23t3.5 -41v-161q0 -24 6 -41t15.5 -28t21.5 -18.5t24 -12.5q-12 -5 -24 -12.5t-21.5 -18.5t-15.5 -28t-6 -41v-161
q0 -26 -3.5 -41t-11.5 -23t-21 -11t-37 -3h-39v-91h71q38 0 64 8.5t43 25.5q20 20 28 44.5t8 60.5v167q0 42 18 60q8 8 20 13.5t29 5.5h36z" />
    <glyph glyph-name="asciitilde" unicode="~" horiz-adv-x="574" 
d="M531 280l-65 64q-14 -14 -25.5 -23t-21 -13.5t-19 -6t-19.5 -1.5q-21 0 -40 6.5t-40 17.5q-31 15 -56.5 24t-54.5 9q-20 0 -37 -4t-34 -13t-35.5 -24t-40.5 -37l64 -64q28 28 46 36t39 8t39.5 -6.5t39.5 -17.5q31 -15 57 -24t55 -9q20 0 37 4t34.5 13t36 24t40.5 37z" />
    <glyph glyph-name="nonbreakingspace" unicode="&#xa0;" horiz-adv-x="240" 
 />
    <glyph glyph-name="exclamdown" unicode="&#xa1;" horiz-adv-x="332" 
d="M232 445q0 27 -19 46t-46 19t-46 -19t-19 -46t19 -45.5t46 -18.5t46 18.5t19 45.5zM229 -205l-24 500h-77l-23 -500h124z" />
    <glyph glyph-name="cent" unicode="&#xa2;" horiz-adv-x="498" 
d="M459 184l-68 66q-20 -22 -38.5 -33t-43.5 -15v328q25 -4 43.5 -15t38.5 -33l68 66q-32 34 -65 51.5t-76 22.5v90h-80v-91q-40 -7 -73.5 -26.5t-58 -52t-38 -76.5t-13.5 -100t13.5 -100t38 -76.5t58 -52t73.5 -26.5v-111h80v110q43 5 76 22.5t65 51.5zM247 204
q-35 7 -59 39q-16 22 -23.5 50.5t-7.5 72.5q0 45 8 73t24 50q24 32 58 39v-324z" />
    <glyph glyph-name="sterling" unicode="&#xa3;" horiz-adv-x="564" 
d="M516 0v97h-302v216h129v78h-129v88q0 70 34.5 106t94.5 36q39 0 60.5 -12t40.5 -31l72 71q-37 37 -77.5 53t-95.5 16q-49 0 -92.5 -15.5t-75.5 -44.5t-51 -72.5t-19 -98.5v-96h-62v-78h62v-313h411z" />
    <glyph glyph-name="currency" unicode="&#xa4;" horiz-adv-x="665" 
d="M597 81l-74 74q18 26 28 57.5t10 66.5t-10 66.5t-28 57.5l74 73l-67 67l-74 -73q-54 37 -124 37t-124 -37l-73 73l-67 -67l73 -73q-18 -26 -28 -57.5t-10 -66.5t10 -66.5t28 -57.5l-73 -74l67 -67l73 74q26 -18 57.5 -28t66.5 -10t66.5 10t57.5 28l74 -74zM468 279
q0 -28 -10.5 -53t-29 -43.5t-43.5 -29t-53 -10.5t-53 10.5t-43.5 29t-29 43.5t-10.5 53t10.5 52.5t29 43t43.5 29t53 10.5t53 -10.5t43.5 -29t29 -43t10.5 -52.5z" />
    <glyph glyph-name="yen" unicode="&#xa5;" horiz-adv-x="544" 
d="M538 712h-117l-148 -314l-150 314h-118l147 -290h-87v-78h127l26 -51v-52h-153v-78h153v-163h108v163h153v78h-153v52l26 51h127v78h-87z" />
    <glyph glyph-name="brokenbar" unicode="&#xa6;" horiz-adv-x="344" 
d="M220 436v350h-102v-350h102zM220 -74v350h-102v-350h102z" />
    <glyph glyph-name="section" unicode="&#xa7;" horiz-adv-x="543" 
d="M472 264q0 74 -36.5 119.5t-105.5 66.5l-70 21q-35 11 -55 30.5t-20 50.5q0 37 23 57t65 20q38 0 62.5 -17.5t27.5 -58.5h98q-1 36 -14 66.5t-37 52t-58.5 34t-78.5 12.5t-78.5 -13.5t-58.5 -36.5t-36.5 -53.5t-12.5 -65.5q0 -55 23.5 -85.5t60.5 -48.5
q-17 -9 -34.5 -23.5t-31.5 -34t-22.5 -44.5t-8.5 -54q0 -75 36 -120t105 -66l70 -21q42 -13 60 -37t18 -51q0 -39 -24 -61.5t-67 -22.5q-42 0 -66.5 21t-27.5 58h-100q1 -44 18 -76t44 -53t61 -31t71 -10q38 0 72.5 12t61 34.5t42 55.5t15.5 76q0 57 -25 90.5t-63 50.5
q17 9 34 23.5t31 34t23 44.5t9 54zM372 261q0 -30 -8.5 -48t-20.5 -31q-26 -28 -70 -28q-45 0 -71 28q-12 13 -20 31.5t-8 47.5t7 47.5t21 32.5q26 28 71 28q23 0 39.5 -7.5t30.5 -20.5q29 -28 29 -80z" />
    <glyph glyph-name="dieresis" unicode="&#xa8;" 
d="M416 657q0 23 -16.5 39.5t-39.5 16.5t-40 -16.5t-17 -39.5t17 -40t40 -17t39.5 17t16.5 40zM197 657q0 23 -17 39.5t-40 16.5t-39.5 -16.5t-16.5 -39.5t16.5 -40t39.5 -17t40 17t17 40z" />
    <glyph glyph-name="copyright" unicode="&#xa9;" horiz-adv-x="862" 
d="M793 356q0 75 -28.5 141t-77.5 115t-115 77.5t-141 28.5t-141 -28.5t-115 -77.5t-77.5 -115t-28.5 -141t28.5 -141t77.5 -115t115 -77.5t141 -28.5t141 28.5t115 77.5t77.5 115t28.5 141zM720 356q0 -62 -22.5 -115.5t-61.5 -93.5t-92 -62.5t-113 -22.5t-113 22.5
t-92 62.5t-61.5 93.5t-22.5 115.5t22.5 115.5t61.5 93.5t92 62.5t113 22.5t113 -22.5t92 -62.5t61.5 -93.5t22.5 -115.5zM568 208l-46 47q-23 -20 -41 -27.5t-44 -7.5q-57 0 -82.5 38.5t-25.5 97.5t25.5 97.5t82.5 38.5q26 0 44 -7.5t41 -27.5l46 47q-29 26 -59 39t-72 13
q-41 0 -74 -14t-56 -40t-36 -63t-13 -83t13 -83t36 -63t56 -40t74 -14q42 0 72 13t59 39z" />
    <glyph glyph-name="ordfeminine" unicode="&#xaa;" horiz-adv-x="452" 
d="M379 307v270q0 139 -166 139q-51 0 -84 -12t-62 -46l55 -52q17 22 35.5 30.5t51.5 8.5q47 0 67 -18t20 -56v-28h-105q-69 0 -104 -33t-35 -84q0 -26 8 -48.5t24 -38.5q19 -19 44.5 -27.5t63.5 -8.5q37 0 60.5 9t45.5 31v-36h81zM296 453q0 -42 -17 -58
q-15 -15 -33.5 -18.5t-41.5 -3.5q-38 0 -54.5 14t-16.5 41t17.5 42t52.5 15h93v-32z" />
    <glyph glyph-name="guillemotleft" unicode="&#xab;" horiz-adv-x="592" 
d="M520 42v123l-108 107l108 106v123l-230 -229zM267 42v123l-107 107l107 106v123l-230 -229z" />
    <glyph glyph-name="logicalnot" unicode="&#xac;" horiz-adv-x="533" 
d="M484 98v236h-436v-95h341v-141h95z" />
    <glyph glyph-name="registered" unicode="&#xae;" horiz-adv-x="862" 
d="M793 356q0 75 -28.5 141t-77.5 115t-115 77.5t-141 28.5t-141 -28.5t-115 -77.5t-77.5 -115t-28.5 -141t28.5 -141t77.5 -115t115 -77.5t141 -28.5t141 28.5t115 77.5t77.5 115t28.5 141zM720 356q0 -62 -22.5 -116t-61.5 -93.5t-91.5 -62.5t-113.5 -23t-114 23t-92 62.5
t-61.5 93.5t-22.5 116t22.5 116t61.5 93.5t92 62.5t114 23t113.5 -23t91.5 -62.5t61.5 -93.5t22.5 -116zM588 161l-87 165q32 11 54.5 37.5t22.5 68.5q0 24 -9.5 46t-26 38.5t-39.5 26t-51 9.5h-147v-391h72v155h50l80 -155h81zM507 432q0 -25 -17.5 -42t-46.5 -17h-66v118
h66q29 0 46.5 -17t17.5 -42z" />
    <glyph glyph-name="macron" unicode="&#xaf;" 
d="M405 622v73h-310v-73h310z" />
    <glyph glyph-name="macron" unicode="&#x2c9;" 
d="M405 622v73h-310v-73h310z" />
    <glyph glyph-name="degree" unicode="&#xb0;" horiz-adv-x="471" 
d="M410 549q0 36 -14 68t-37.5 55.5t-55.5 37.5t-68 14t-67.5 -14t-55.5 -37.5t-37.5 -55.5t-13.5 -68t13.5 -67.5t37.5 -55.5t55.5 -37.5t67.5 -13.5t68 13.5t55.5 37.5t37.5 55.5t14 67.5zM326 549q0 -39 -26.5 -65.5t-64.5 -26.5t-64 26.5t-26 65.5t26 66t64 27
q19 0 35.5 -7t29 -20t19.5 -30t7 -36z" />
    <glyph glyph-name="plusminus" unicode="&#xb1;" horiz-adv-x="533" 
d="M482 316v95h-168v168h-95v-168h-168v-95h168v-169h95v169h168zM482 0v95h-431v-95h431z" />
    <glyph glyph-name="twosuperior" unicode="&#xb2;" horiz-adv-x="350" 
d="M305 285v69h-167l121 140q22 26 34 46.5t12 51.5q0 58 -36.5 91t-93.5 33q-56 0 -93 -33t-37 -91h77q0 32 16.5 43.5t36.5 11.5q26 0 39.5 -15t13.5 -40q0 -15 -5 -26.5t-17 -25.5l-161 -186v-69h260z" />
    <glyph glyph-name="threesuperior" unicode="&#xb3;" horiz-adv-x="362" 
d="M317 408q0 39 -16.5 62t-39.5 35q22 11 36 32.5t14 56.5q0 27 -10 49.5t-27 38.5t-41 25t-52 9q-54 0 -91 -32t-39 -89h76q2 25 16.5 38.5t37.5 13.5q22 0 38 -14t16 -42q0 -23 -13.5 -39t-42.5 -16h-11v-66h11q30 0 45.5 -16.5t15.5 -43.5q0 -29 -16 -45t-42 -16
q-23 0 -41 14t-19 43h-77q0 -33 12 -57t31 -39.5t43.5 -22.5t50.5 -7q27 0 51.5 8t43 24t29.5 40t11 56z" />
    <glyph glyph-name="acute" unicode="&#xb4;" 
d="M386 761h-113l-75 -162h77z" />
    <glyph glyph-name="mu" unicode="&#xb5;" horiz-adv-x="569" 
d="M487 0v507h-102v-309q0 -59 -30.5 -86t-73.5 -27t-73 27t-30 86v309h-102v-712h102v224q30 -25 75 -25q38 0 73 14t61 43v-51h100z" />
    <glyph glyph-name="mu" unicode="&#x3bc;" horiz-adv-x="569" 
d="M487 0v507h-102v-309q0 -59 -30.5 -86t-73.5 -27t-73 27t-30 86v309h-102v-712h102v224q30 -25 75 -25q38 0 73 14t61 43v-51h100z" />
    <glyph glyph-name="paragraph" unicode="&#xb6;" horiz-adv-x="637" 
d="M544 -205v917h-281q-51 0 -93 -14.5t-71 -40.5t-45 -62.5t-16 -81.5q0 -39 15 -74.5t41 -62.5t61.5 -43t76.5 -16v-522h102v820h108v-820h102z" />
    <glyph glyph-name="periodcentered" unicode="&#xb7;" horiz-adv-x="284" 
d="M215 276q0 30 -21.5 51t-51.5 21t-51.5 -21t-21.5 -51t21.5 -51.5t51.5 -21.5t51.5 21.5t21.5 51.5z" />
    <glyph glyph-name="cedilla" unicode="&#xb8;" 
d="M319 -64h-82l-70 -147h101z" />
    <glyph glyph-name="onesuperior" unicode="&#xb9;" horiz-adv-x="277" 
d="M204 285v427h-77l-87 -75v-87l87 76v-341h77z" />
    <glyph glyph-name="ordmasculine" unicode="&#xba;" horiz-adv-x="458" 
d="M398 510q0 51 -9.5 89.5t-38.5 68.5q-20 20 -49.5 34t-71.5 14t-71 -14t-49 -34q-29 -30 -38.5 -68.5t-9.5 -89.5q0 -52 9.5 -90.5t38.5 -68.5q20 -20 49 -34t71 -14t71.5 14t49.5 34q29 30 38.5 68.5t9.5 90.5zM314 510q0 -32 -3.5 -61.5t-22.5 -48.5q-23 -23 -59 -23
q-35 0 -58 23q-19 19 -23 48.5t-4 61.5t4 61t23 48q23 23 58 23q36 0 59 -23q19 -19 22.5 -48t3.5 -61z" />
    <glyph glyph-name="guillemotright" unicode="&#xbb;" horiz-adv-x="592" 
d="M556 272l-231 229v-123l107 -106l-107 -107v-123zM303 272l-231 229v-123l108 -106l-108 -107v-123z" />
    <glyph glyph-name="onequarter" unicode="&#xbc;" horiz-adv-x="808" 
d="M768 61v71h-40v83h-74v-83h-91l147 295h-83l-147 -295v-71h174v-61h74v61h40zM596 712h-81l-335 -712h81zM204 285v427h-77l-87 -75v-87l87 76v-341h77z" />
    <glyph glyph-name="onehalf" unicode="&#xbd;" horiz-adv-x="827" 
d="M782 0v69h-167l121 140q22 26 34 46.5t12 51.5q0 58 -36.5 91t-93.5 33q-56 0 -92.5 -33t-36.5 -91h76q0 32 16.5 43.5t36.5 11.5q26 0 39.5 -15t13.5 -40q0 -15 -5 -26.5t-17 -25.5l-160 -186v-69h259zM588 712h-81l-335 -712h81zM204 285v427h-77l-87 -75v-87l87 76
v-341h77z" />
    <glyph glyph-name="threequarters" unicode="&#xbe;" horiz-adv-x="844" 
d="M804 61v71h-40v83h-73v-83h-91l147 295h-84l-146 -295v-71h174v-61h73v61h40zM638 712h-81l-335 -712h81zM317 408q0 39 -16.5 62t-39.5 35q22 11 36 32.5t14 56.5q0 27 -10 49.5t-27 38.5t-41 25t-52 9q-54 0 -91 -32t-39 -89h76q2 25 16.5 38.5t37.5 13.5q22 0 38 -14
t16 -42q0 -23 -13.5 -39t-42.5 -16h-11v-66h11q30 0 45.5 -16.5t15.5 -43.5q0 -29 -16 -45t-42 -16q-23 0 -41 14t-19 43h-77q0 -33 12 -57t31 -39.5t43.5 -22.5t50.5 -7q27 0 51.5 8t43 24t29.5 40t11 56z" />
    <glyph glyph-name="questiondown" unicode="&#xbf;" horiz-adv-x="511" 
d="M314 445q0 27 -19 46t-46 19t-46 -19t-19 -46t19 -45.5t46 -18.5t46 18.5t19 45.5zM453 -19h-102q0 -41 -25 -70.5t-72 -29.5q-44 0 -70.5 28.5t-26.5 70.5q0 21 8 39.5t22 36.5l78 105q18 24 26 46t8 53v36h-102v-30q0 -12 -5 -27.5t-13 -26.5l-77 -108
q-20 -28 -33.5 -57.5t-13.5 -65.5q0 -44 16 -79.5t43 -60.5t63 -38.5t77 -13.5q42 0 78.5 14t63.5 39.5t42 61t15 77.5z" />
    <glyph glyph-name="Agrave" unicode="&#xc0;" horiz-adv-x="625" 
d="M617 0l-261 712h-87l-261 -712h115l49 143h281l49 -143h115zM423 235h-219l111 316zM361 781l-75 162h-113l111 -162h77z" />
    <glyph glyph-name="Aacute" unicode="&#xc1;" horiz-adv-x="625" 
d="M617 0l-261 712h-87l-261 -712h115l49 143h281l49 -143h115zM423 235h-219l111 316zM445 943h-113l-75 -162h77z" />
    <glyph glyph-name="Acircumflex" unicode="&#xc2;" horiz-adv-x="625" 
d="M617 0l-261 712h-87l-261 -712h115l49 143h281l49 -143h115zM423 235h-219l111 316zM481 781l-129 161h-86l-129 -161h85l87 97l87 -97h85z" />
    <glyph glyph-name="Atilde" unicode="&#xc3;" horiz-adv-x="625" 
d="M617 0l-261 712h-87l-261 -712h115l49 143h281l49 -143h115zM423 235h-219l111 316zM478 849l-48 47q-20 -20 -33.5 -25.5t-25.5 -5.5q-15 0 -27.5 5t-27.5 14q-20 12 -36.5 18t-38.5 6q-24 0 -47 -10.5t-57 -44.5l48 -47q21 21 33 25.5t25 4.5q15 0 28.5 -5.5
t27.5 -13.5q20 -11 36.5 -17t38.5 -6q23 0 46.5 10.5t57.5 44.5z" />
    <glyph glyph-name="Adieresis" unicode="&#xc4;" horiz-adv-x="625" 
d="M617 0l-261 712h-87l-261 -712h115l49 143h281l49 -143h115zM423 235h-219l111 316zM475 839q0 23 -16.5 39.5t-39.5 16.5t-40 -16.5t-17 -39.5t17 -40t40 -17t39.5 17t16.5 40zM256 839q0 23 -17 39.5t-40 16.5t-39.5 -16.5t-16.5 -39.5t16.5 -40t39.5 -17t40 17t17 40z
" />
    <glyph glyph-name="Aring" unicode="&#xc5;" horiz-adv-x="625" 
d="M617 0l-261 712h-87l-261 -712h115l49 143h281l49 -143h115zM423 235h-219l111 316zM434 875q0 26 -10 48.5t-27 39.5t-39.5 27t-48.5 10t-48.5 -10t-39.5 -27t-27 -39.5t-10 -48.5t10 -48.5t27 -39.5t39.5 -27t48.5 -10t48.5 10t39.5 27t27 39.5t10 48.5zM373 875
q0 -26 -19 -44.5t-45 -18.5t-45 18.5t-19 44.5t19 44.5t45 18.5t45 -18.5t19 -44.5z" />
    <glyph glyph-name="AE" unicode="&#xc6;" horiz-adv-x="952" 
d="M897 0v97h-347v212h296v97h-296v209h347v97h-518l-374 -712h118l84 162h235v-162h455zM442 254h-188l188 361v-361z" />
    <glyph glyph-name="Ccedilla" unicode="&#xc7;" horiz-adv-x="600" 
d="M522 78l-72 73q-28 -28 -55.5 -44t-71.5 -16q-32 0 -59 11.5t-46 31.5q-13 14 -21.5 30.5t-13 41t-6 60.5t-1.5 90t1.5 90t6 60.5t13 41t21.5 30.5q19 20 46 31.5t59 11.5q44 0 71.5 -16t55.5 -44l72 73q-40 39 -86 61.5t-113 22.5q-56 0 -103 -19.5t-84 -56.5
q-26 -26 -40 -55t-20.5 -63t-7.5 -75.5t-1 -92.5t1 -92.5t7.5 -75.5t20.5 -63t40 -55q37 -37 84 -56.5t103 -19.5q67 0 113 22.5t86 61.5zM374 -64h-82l-70 -147h101z" />
    <glyph glyph-name="Egrave" unicode="&#xc8;" horiz-adv-x="603" 
d="M548 0v97h-347v214h296v96h-296v208h347v97h-455v-712h455zM363 781l-75 162h-113l111 -162h77z" />
    <glyph glyph-name="Eacute" unicode="&#xc9;" horiz-adv-x="603" 
d="M548 0v97h-347v214h296v96h-296v208h347v97h-455v-712h455zM447 943h-113l-75 -162h77z" />
    <glyph glyph-name="Ecircumflex" unicode="&#xca;" horiz-adv-x="603" 
d="M548 0v97h-347v214h296v96h-296v208h347v97h-455v-712h455zM483 781l-129 161h-86l-129 -161h85l87 97l87 -97h85z" />
    <glyph glyph-name="Edieresis" unicode="&#xcb;" horiz-adv-x="603" 
d="M548 0v97h-347v214h296v96h-296v208h347v97h-455v-712h455zM477 839q0 23 -16.5 39.5t-39.5 16.5t-40 -16.5t-17 -39.5t17 -40t40 -17t39.5 17t16.5 40zM258 839q0 23 -17 39.5t-40 16.5t-39.5 -16.5t-16.5 -39.5t16.5 -40t39.5 -17t40 17t17 40z" />
    <glyph glyph-name="Igrave" unicode="&#xcc;" horiz-adv-x="294" 
d="M201 0v712h-108v-712h108zM282 781l-75 162h-113l111 -162h77z" />
    <glyph glyph-name="Iacute" unicode="&#xcd;" horiz-adv-x="294" 
d="M201 0v712h-108v-712h108zM282 943h-113l-75 -162h77z" />
    <glyph glyph-name="Icircumflex" unicode="&#xce;" horiz-adv-x="294" 
d="M201 0v712h-108v-712h108zM437 781l-129 161h-86l-129 -161h85l87 97l87 -97h85z" />
    <glyph glyph-name="Idieresis" unicode="&#xcf;" horiz-adv-x="294" 
d="M201 0v712h-108v-712h108zM425 839q0 23 -16.5 39.5t-39.5 16.5t-40 -16.5t-17 -39.5t17 -40t40 -17t39.5 17t16.5 40zM206 839q0 23 -17 39.5t-40 16.5t-39.5 -16.5t-16.5 -39.5t16.5 -40t39.5 -17t40 17t17 40z" />
    <glyph glyph-name="Eth" unicode="&#xd0;" horiz-adv-x="684" 
d="M617 356q0 52 -1 89.5t-6 67t-16 54t-31 50.5q-74 95 -201 95h-250v-311h-74v-83h74v-318h247q68 0 119 26t85 68q19 24 30 47.5t16.5 53t6.5 68t1 93.5zM509 353q0 -50 -1 -81.5t-3.5 -52t-8 -34t-14.5 -26.5q-43 -63 -133 -63h-129v222h138v83h-138v215h129
q45 0 75.5 -15t53.5 -47q10 -14 16.5 -29t9.5 -37t4 -54.5t1 -80.5z" />
    <glyph glyph-name="Ntilde" unicode="&#xd1;" horiz-adv-x="721" 
d="M629 0v712h-108v-500l-329 500h-99v-712h108v501l329 -501h99zM530 849l-48 47q-20 -20 -33.5 -25.5t-25.5 -5.5q-15 0 -27.5 5t-27.5 14q-20 12 -36.5 18t-38.5 6q-24 0 -47 -10.5t-57 -44.5l48 -47q21 21 33 25.5t25 4.5q15 0 28.5 -5.5t27.5 -13.5q20 -11 36.5 -17
t38.5 -6q23 0 46.5 10.5t57.5 44.5z" />
    <glyph glyph-name="Ograve" unicode="&#xd2;" horiz-adv-x="646" 
d="M579 356q0 51 -1 92.5t-7 75.5t-20 63t-40 55q-37 37 -84 56.5t-104 19.5t-103.5 -19.5t-83.5 -56.5q-26 -26 -40 -55t-20.5 -63t-7.5 -75.5t-1 -92.5t1 -92.5t7.5 -75.5t20.5 -63t40 -55q37 -37 83.5 -56.5t103.5 -19.5t104 19.5t84 56.5q26 26 40 55t20 63t7 75.5
t1 92.5zM471 356q0 -54 -1.5 -89.5t-6 -60t-13 -41t-21.5 -30.5q-19 -20 -46.5 -32t-59.5 -12t-59.5 12t-46.5 32q-13 14 -21.5 30.5t-13 41t-6 60t-1.5 89.5t1.5 89.5t6 60t13 41t21.5 30.5q19 20 46.5 32t59.5 12t59.5 -12t46.5 -32q13 -14 21.5 -30.5t13 -41t6 -60
t1.5 -89.5zM375 781l-75 162h-113l111 -162h77z" />
    <glyph glyph-name="Oacute" unicode="&#xd3;" horiz-adv-x="646" 
d="M579 356q0 51 -1 92.5t-7 75.5t-20 63t-40 55q-37 37 -84 56.5t-104 19.5t-103.5 -19.5t-83.5 -56.5q-26 -26 -40 -55t-20.5 -63t-7.5 -75.5t-1 -92.5t1 -92.5t7.5 -75.5t20.5 -63t40 -55q37 -37 83.5 -56.5t103.5 -19.5t104 19.5t84 56.5q26 26 40 55t20 63t7 75.5
t1 92.5zM471 356q0 -54 -1.5 -89.5t-6 -60t-13 -41t-21.5 -30.5q-19 -20 -46.5 -32t-59.5 -12t-59.5 12t-46.5 32q-13 14 -21.5 30.5t-13 41t-6 60t-1.5 89.5t1.5 89.5t6 60t13 41t21.5 30.5q19 20 46.5 32t59.5 12t59.5 -12t46.5 -32q13 -14 21.5 -30.5t13 -41t6 -60
t1.5 -89.5zM459 943h-113l-75 -162h77z" />
    <glyph glyph-name="Ocircumflex" unicode="&#xd4;" horiz-adv-x="646" 
d="M579 356q0 51 -1 92.5t-7 75.5t-20 63t-40 55q-37 37 -84 56.5t-104 19.5t-103.5 -19.5t-83.5 -56.5q-26 -26 -40 -55t-20.5 -63t-7.5 -75.5t-1 -92.5t1 -92.5t7.5 -75.5t20.5 -63t40 -55q37 -37 83.5 -56.5t103.5 -19.5t104 19.5t84 56.5q26 26 40 55t20 63t7 75.5
t1 92.5zM471 356q0 -54 -1.5 -89.5t-6 -60t-13 -41t-21.5 -30.5q-19 -20 -46.5 -32t-59.5 -12t-59.5 12t-46.5 32q-13 14 -21.5 30.5t-13 41t-6 60t-1.5 89.5t1.5 89.5t6 60t13 41t21.5 30.5q19 20 46.5 32t59.5 12t59.5 -12t46.5 -32q13 -14 21.5 -30.5t13 -41t6 -60
t1.5 -89.5zM495 781l-129 161h-86l-129 -161h85l87 97l87 -97h85z" />
    <glyph glyph-name="Otilde" unicode="&#xd5;" horiz-adv-x="646" 
d="M579 356q0 51 -1 92.5t-7 75.5t-20 63t-40 55q-37 37 -84 56.5t-104 19.5t-103.5 -19.5t-83.5 -56.5q-26 -26 -40 -55t-20.5 -63t-7.5 -75.5t-1 -92.5t1 -92.5t7.5 -75.5t20.5 -63t40 -55q37 -37 83.5 -56.5t103.5 -19.5t104 19.5t84 56.5q26 26 40 55t20 63t7 75.5
t1 92.5zM471 356q0 -54 -1.5 -89.5t-6 -60t-13 -41t-21.5 -30.5q-19 -20 -46.5 -32t-59.5 -12t-59.5 12t-46.5 32q-13 14 -21.5 30.5t-13 41t-6 60t-1.5 89.5t1.5 89.5t6 60t13 41t21.5 30.5q19 20 46.5 32t59.5 12t59.5 -12t46.5 -32q13 -14 21.5 -30.5t13 -41t6 -60
t1.5 -89.5zM492 849l-48 47q-20 -20 -33.5 -25.5t-25.5 -5.5q-15 0 -27.5 5t-27.5 14q-20 12 -36.5 18t-38.5 6q-24 0 -47 -10.5t-57 -44.5l48 -47q21 21 33 25.5t25 4.5q15 0 28.5 -5.5t27.5 -13.5q20 -11 36.5 -17t38.5 -6q23 0 46.5 10.5t57.5 44.5z" />
    <glyph glyph-name="Odieresis" unicode="&#xd6;" horiz-adv-x="646" 
d="M579 356q0 51 -1 92.5t-7 75.5t-20 63t-40 55q-37 37 -84 56.5t-104 19.5t-103.5 -19.5t-83.5 -56.5q-26 -26 -40 -55t-20.5 -63t-7.5 -75.5t-1 -92.5t1 -92.5t7.5 -75.5t20.5 -63t40 -55q37 -37 83.5 -56.5t103.5 -19.5t104 19.5t84 56.5q26 26 40 55t20 63t7 75.5
t1 92.5zM471 356q0 -54 -1.5 -89.5t-6 -60t-13 -41t-21.5 -30.5q-19 -20 -46.5 -32t-59.5 -12t-59.5 12t-46.5 32q-13 14 -21.5 30.5t-13 41t-6 60t-1.5 89.5t1.5 89.5t6 60t13 41t21.5 30.5q19 20 46.5 32t59.5 12t59.5 -12t46.5 -32q13 -14 21.5 -30.5t13 -41t6 -60
t1.5 -89.5zM489 839q0 23 -16.5 39.5t-39.5 16.5t-40 -16.5t-17 -39.5t17 -40t40 -17t39.5 17t16.5 40zM270 839q0 23 -17 39.5t-40 16.5t-39.5 -16.5t-16.5 -39.5t16.5 -40t39.5 -17t40 17t17 40z" />
    <glyph glyph-name="multiply" unicode="&#xd7;" horiz-adv-x="533" 
d="M476 132l-146 146l146 146l-64 64l-146 -146l-145 146l-64 -64l146 -146l-146 -146l64 -63l145 145l146 -145z" />
    <glyph glyph-name="Oslash" unicode="&#xd8;" horiz-adv-x="652" 
d="M579 356q0 51 -1 92.5t-7 75.5t-20 63t-40 55q-2 2 -3.5 3t-3.5 3l52 108h-83l-30 -65q-26 13 -56.5 20t-63.5 7q-57 0 -103.5 -19.5t-83.5 -56.5q-26 -26 -40 -55t-20.5 -63t-7.5 -75.5t-1 -92.5t1 -92.5t7.5 -75.5t20.5 -63t40 -55l6 -6l-51 -108h82l31 65
q26 -13 56 -20t63 -7q57 0 104 19.5t84 56.5q26 26 40 55t20 63t7 75.5t1 92.5zM403 599l-207 -433q-6 13 -10 29t-6 38.5t-3 52.5t-1 70q0 54 1.5 89.5t6 60t13 41t21.5 30.5q19 20 46 32t59 12q44 0 80 -22zM471 356q0 -54 -1.5 -89.5t-6 -60t-13 -41t-21.5 -30.5
q-19 -20 -46.5 -32t-59.5 -12q-44 0 -79 22l207 433q6 -13 10 -29.5t6.5 -39t3 -52t0.5 -69.5z" />
    <glyph glyph-name="Ugrave" unicode="&#xd9;" horiz-adv-x="675" 
d="M593 240v472h-108v-467q0 -72 -40.5 -113t-107.5 -41t-107 41t-40 113v467h-108v-472q0 -55 19.5 -100.5t53.5 -77.5t81 -50t101 -18t101 18t81.5 50t54 77.5t19.5 100.5zM390 781l-75 162h-113l111 -162h77z" />
    <glyph glyph-name="Uacute" unicode="&#xda;" horiz-adv-x="675" 
d="M593 240v472h-108v-467q0 -72 -40.5 -113t-107.5 -41t-107 41t-40 113v467h-108v-472q0 -55 19.5 -100.5t53.5 -77.5t81 -50t101 -18t101 18t81.5 50t54 77.5t19.5 100.5zM474 943h-113l-75 -162h77z" />
    <glyph glyph-name="Ucircumflex" unicode="&#xdb;" horiz-adv-x="675" 
d="M593 240v472h-108v-467q0 -72 -40.5 -113t-107.5 -41t-107 41t-40 113v467h-108v-472q0 -55 19.5 -100.5t53.5 -77.5t81 -50t101 -18t101 18t81.5 50t54 77.5t19.5 100.5zM510 781l-129 161h-86l-129 -161h85l87 97l87 -97h85z" />
    <glyph glyph-name="Udieresis" unicode="&#xdc;" horiz-adv-x="675" 
d="M593 240v472h-108v-467q0 -72 -40.5 -113t-107.5 -41t-107 41t-40 113v467h-108v-472q0 -55 19.5 -100.5t53.5 -77.5t81 -50t101 -18t101 18t81.5 50t54 77.5t19.5 100.5zM504 839q0 23 -16.5 39.5t-39.5 16.5t-40 -16.5t-17 -39.5t17 -40t40 -17t39.5 17t16.5 40z
M285 839q0 23 -17 39.5t-40 16.5t-39.5 -16.5t-16.5 -39.5t16.5 -40t39.5 -17t40 17t17 40z" />
    <glyph glyph-name="Yacute" unicode="&#xdd;" horiz-adv-x="544" 
d="M539 712h-118l-149 -313l-149 313h-118l213 -419v-293h108v293zM407 943h-113l-75 -162h77z" />
    <glyph glyph-name="Thorn" unicode="&#xde;" horiz-adv-x="637" 
d="M591 359q0 46 -16 86t-46 68.5t-72 45t-94 16.5h-162v137h-108v-712h108v144h162q52 0 94 16t72 45t46 68t16 86zM482 359q0 -57 -34.5 -87.5t-91.5 -30.5h-155v237h155q57 0 91.5 -31t34.5 -88z" />
    <glyph glyph-name="germandbls" unicode="&#xdf;" horiz-adv-x="565" 
d="M501 152v165q0 48 -15.5 73t-47.5 42q27 17 44.5 44t17.5 72q0 44 -15.5 76.5t-43.5 53.5t-65.5 31t-80.5 10q-47 0 -86.5 -12t-68 -37t-44 -62t-15.5 -86v-522h103v516q0 52 24 82.5t84 30.5q56 0 81 -24q11 -11 18 -26.5t7 -33.5q0 -37 -21 -56t-53 -19h-31v-81h35
q33 0 52 -19q18 -17 18 -53v-156q0 -41 -21 -57q-11 -9 -22 -13t-30 -4h-32v-87h53q39 0 66 9.5t48 29.5q20 19 30.5 48t10.5 65z" />
    <glyph glyph-name="agrave" unicode="&#xe0;" horiz-adv-x="530" 
d="M454 0v339q0 174 -209 174q-63 0 -104.5 -15.5t-77.5 -57.5l67 -63q21 27 45 38t66 11q60 0 85.5 -23.5t25.5 -71.5v-36h-134q-88 0 -131.5 -41t-43.5 -105q0 -67 40 -109q23 -23 55.5 -34.5t80.5 -11.5q47 0 77 12t58 40v-46h100zM352 183q0 -53 -22 -75
q-20 -20 -43 -24.5t-52 -4.5q-48 0 -70.5 18.5t-22.5 53.5t23 54t68 19h119v-41zM309 599l-75 162h-113l111 -162h77z" />
    <glyph glyph-name="aacute" unicode="&#xe1;" horiz-adv-x="530" 
d="M454 0v339q0 174 -209 174q-63 0 -104.5 -15.5t-77.5 -57.5l67 -63q21 27 45 38t66 11q60 0 85.5 -23.5t25.5 -71.5v-36h-134q-88 0 -131.5 -41t-43.5 -105q0 -67 40 -109q23 -23 55.5 -34.5t80.5 -11.5q47 0 77 12t58 40v-46h100zM352 183q0 -53 -22 -75
q-20 -20 -43 -24.5t-52 -4.5q-48 0 -70.5 18.5t-22.5 53.5t23 54t68 19h119v-41zM393 761h-113l-75 -162h77z" />
    <glyph glyph-name="acircumflex" unicode="&#xe2;" horiz-adv-x="530" 
d="M454 0v339q0 174 -209 174q-63 0 -104.5 -15.5t-77.5 -57.5l67 -63q21 27 45 38t66 11q60 0 85.5 -23.5t25.5 -71.5v-36h-134q-88 0 -131.5 -41t-43.5 -105q0 -67 40 -109q23 -23 55.5 -34.5t80.5 -11.5q47 0 77 12t58 40v-46h100zM352 183q0 -53 -22 -75
q-20 -20 -43 -24.5t-52 -4.5q-48 0 -70.5 18.5t-22.5 53.5t23 54t68 19h119v-41zM429 599l-129 161h-86l-129 -161h85l87 97l87 -97h85z" />
    <glyph glyph-name="atilde" unicode="&#xe3;" horiz-adv-x="530" 
d="M454 0v339q0 174 -209 174q-63 0 -104.5 -15.5t-77.5 -57.5l67 -63q21 27 45 38t66 11q60 0 85.5 -23.5t25.5 -71.5v-36h-134q-88 0 -131.5 -41t-43.5 -105q0 -67 40 -109q23 -23 55.5 -34.5t80.5 -11.5q47 0 77 12t58 40v-46h100zM352 183q0 -53 -22 -75
q-20 -20 -43 -24.5t-52 -4.5q-48 0 -70.5 18.5t-22.5 53.5t23 54t68 19h119v-41zM426 667l-48 47q-20 -20 -33.5 -25.5t-25.5 -5.5q-15 0 -27.5 5t-27.5 14q-20 12 -36.5 18t-38.5 6q-24 0 -47 -10.5t-57 -44.5l48 -47q21 21 33 25.5t25 4.5q15 0 28.5 -5.5t27.5 -13.5
q20 -11 36.5 -17t38.5 -6q23 0 46.5 10.5t57.5 44.5z" />
    <glyph glyph-name="adieresis" unicode="&#xe4;" horiz-adv-x="530" 
d="M454 0v339q0 174 -209 174q-63 0 -104.5 -15.5t-77.5 -57.5l67 -63q21 27 45 38t66 11q60 0 85.5 -23.5t25.5 -71.5v-36h-134q-88 0 -131.5 -41t-43.5 -105q0 -67 40 -109q23 -23 55.5 -34.5t80.5 -11.5q47 0 77 12t58 40v-46h100zM352 183q0 -53 -22 -75
q-20 -20 -43 -24.5t-52 -4.5q-48 0 -70.5 18.5t-22.5 53.5t23 54t68 19h119v-41zM423 657q0 23 -16.5 39.5t-39.5 16.5t-40 -16.5t-17 -39.5t17 -40t40 -17t39.5 17t16.5 40zM204 657q0 23 -17 39.5t-40 16.5t-39.5 -16.5t-16.5 -39.5t16.5 -40t39.5 -17t40 17t17 40z" />
    <glyph glyph-name="aring" unicode="&#xe5;" horiz-adv-x="530" 
d="M454 0v339q0 174 -209 174q-63 0 -104.5 -15.5t-77.5 -57.5l67 -63q21 27 45 38t66 11q60 0 85.5 -23.5t25.5 -71.5v-36h-134q-88 0 -131.5 -41t-43.5 -105q0 -67 40 -109q23 -23 55.5 -34.5t80.5 -11.5q47 0 77 12t58 40v-46h100zM352 183q0 -53 -22 -75
q-20 -20 -43 -24.5t-52 -4.5q-48 0 -70.5 18.5t-22.5 53.5t23 54t68 19h119v-41zM382 701q0 26 -10 48.5t-27 39.5t-39.5 27t-48.5 10t-48.5 -10t-39.5 -27t-27 -39.5t-10 -48.5t10 -48.5t27 -39.5t39.5 -27t48.5 -10t48.5 10t39.5 27t27 39.5t10 48.5zM321 701
q0 -26 -19 -44.5t-45 -18.5t-45 18.5t-19 44.5t19 44.5t45 18.5t45 -18.5t19 -44.5z" />
    <glyph glyph-name="ae" unicode="&#xe6;" horiz-adv-x="837" 
d="M782 224v45q0 54 -14.5 99t-42 77t-67.5 50t-91 18q-95 0 -150 -67q-47 67 -172 67q-63 0 -104.5 -15.5t-77.5 -57.5l67 -63q21 27 45 38t66 11q60 0 85.5 -23.5t25.5 -71.5v-36h-134q-88 0 -131.5 -41t-43.5 -105q0 -32 10 -60.5t30 -48.5q23 -23 55.5 -34.5t80.5 -11.5
q59 0 101.5 16t80.5 63q31 -42 77 -60.5t102 -18.5q33 0 59.5 5t49 15t42 24.5t39.5 34.5l-65 61q-27 -27 -53.5 -39.5t-69.5 -12.5q-63 0 -96 38t-33 104h329zM681 295h-228q1 23 3.5 37.5t10.5 31.5q12 29 38 46.5t62 17.5t62.5 -17.5t38.5 -46.5q8 -17 10 -31.5t3 -37.5z
M352 183q0 -53 -22 -75q-20 -20 -43 -24.5t-52 -4.5q-48 0 -70.5 18.5t-22.5 53.5t23 54t68 19h119v-41z" />
    <glyph glyph-name="ccedilla" unicode="&#xe7;" horiz-adv-x="488" 
d="M448 66l-70 67q-24 -26 -45.5 -37t-51.5 -11q-60 0 -94 45q-17 21 -23.5 50t-6.5 74t6.5 73.5t23.5 49.5q34 45 94 45q30 0 51.5 -11t45.5 -37l70 68q-36 38 -75 54.5t-92 16.5q-43 0 -83.5 -14t-72 -44.5t-51 -80t-19.5 -120.5t19.5 -120.5t51 -80.5t72 -45t83.5 -14
q53 0 92 17t75 55zM319 -64h-82l-70 -147h101z" />
    <glyph glyph-name="egrave" unicode="&#xe8;" horiz-adv-x="539" 
d="M485 224v45q0 54 -14.5 99t-42 77t-67.5 50t-91 18q-98 0 -156.5 -67.5t-58.5 -191.5q0 -72 18 -122t48.5 -80.5t72 -44t89.5 -13.5q33 0 59.5 5t49 15t42 24.5t39.5 34.5l-65 61q-27 -27 -53.5 -39.5t-69.5 -12.5q-63 0 -96 38t-33 104h329zM384 295h-228q1 23 3 37.5
t10 31.5q12 29 38.5 46.5t62.5 17.5t62 -17.5t38 -46.5q8 -17 10.5 -31.5t3.5 -37.5zM325 599l-75 162h-113l111 -162h77z" />
    <glyph glyph-name="eacute" unicode="&#xe9;" horiz-adv-x="539" 
d="M485 224v45q0 54 -14.5 99t-42 77t-67.5 50t-91 18q-98 0 -156.5 -67.5t-58.5 -191.5q0 -72 18 -122t48.5 -80.5t72 -44t89.5 -13.5q33 0 59.5 5t49 15t42 24.5t39.5 34.5l-65 61q-27 -27 -53.5 -39.5t-69.5 -12.5q-63 0 -96 38t-33 104h329zM384 295h-228q1 23 3 37.5
t10 31.5q12 29 38.5 46.5t62.5 17.5t62 -17.5t38 -46.5q8 -17 10.5 -31.5t3.5 -37.5zM409 761h-113l-75 -162h77z" />
    <glyph glyph-name="ecircumflex" unicode="&#xea;" horiz-adv-x="539" 
d="M485 224v45q0 54 -14.5 99t-42 77t-67.5 50t-91 18q-98 0 -156.5 -67.5t-58.5 -191.5q0 -72 18 -122t48.5 -80.5t72 -44t89.5 -13.5q33 0 59.5 5t49 15t42 24.5t39.5 34.5l-65 61q-27 -27 -53.5 -39.5t-69.5 -12.5q-63 0 -96 38t-33 104h329zM384 295h-228q1 23 3 37.5
t10 31.5q12 29 38.5 46.5t62.5 17.5t62 -17.5t38 -46.5q8 -17 10.5 -31.5t3.5 -37.5zM445 599l-129 161h-86l-129 -161h85l87 97l87 -97h85z" />
    <glyph glyph-name="edieresis" unicode="&#xeb;" horiz-adv-x="539" 
d="M485 224v45q0 54 -14.5 99t-42 77t-67.5 50t-91 18q-98 0 -156.5 -67.5t-58.5 -191.5q0 -72 18 -122t48.5 -80.5t72 -44t89.5 -13.5q33 0 59.5 5t49 15t42 24.5t39.5 34.5l-65 61q-27 -27 -53.5 -39.5t-69.5 -12.5q-63 0 -96 38t-33 104h329zM384 295h-228q1 23 3 37.5
t10 31.5q12 29 38.5 46.5t62.5 17.5t62 -17.5t38 -46.5q8 -17 10.5 -31.5t3.5 -37.5zM439 657q0 23 -16.5 39.5t-39.5 16.5t-40 -16.5t-17 -39.5t17 -40t40 -17t39.5 17t16.5 40zM220 657q0 23 -17 39.5t-40 16.5t-39.5 -16.5t-16.5 -39.5t16.5 -40t39.5 -17t40 17t17 40z
" />
    <glyph glyph-name="igrave" unicode="&#xec;" horiz-adv-x="264" 
d="M183 0v507h-102v-507h102zM270 599l-75 162h-113l111 -162h77z" />
    <glyph glyph-name="iacute" unicode="&#xed;" horiz-adv-x="264" 
d="M183 0v507h-102v-507h102zM270 761h-113l-75 -162h77z" />
    <glyph glyph-name="icircumflex" unicode="&#xee;" horiz-adv-x="264" 
d="M183 0v507h-102v-507h102zM425 599l-129 161h-86l-129 -161h85l87 97l87 -97h85z" />
    <glyph glyph-name="idieresis" unicode="&#xef;" horiz-adv-x="264" 
d="M183 0v507h-102v-507h102zM414 657q0 23 -16.5 39.5t-39.5 16.5t-40 -16.5t-17 -39.5t17 -40t40 -17t39.5 17t16.5 40zM195 657q0 23 -17 39.5t-40 16.5t-39.5 -16.5t-16.5 -39.5t16.5 -40t39.5 -17t40 17t17 40z" />
    <glyph glyph-name="eth" unicode="&#xf0;" horiz-adv-x="537" 
d="M476 249q0 35 -2.5 62.5t-9.5 53.5t-19.5 53.5t-31.5 62.5l-51 94h50v72h-87l-39 70h-108l39 -70h-78v-72h116l45 -81q-18 5 -38 5t-38 -3q-65 -11 -104 -51q-36 -37 -47.5 -85t-11.5 -111t11.5 -111t47.5 -85q24 -26 60.5 -42.5t87.5 -16.5t88 16.5t61 42.5
q36 37 47.5 85t11.5 111zM374 249q0 -40 -5 -76t-28 -59q-14 -14 -32.5 -21.5t-40.5 -7.5q-43 0 -72 29q-23 23 -28 59t-5 76t5 76t28 59q29 29 72 29q22 0 40.5 -7.5t32.5 -21.5q23 -23 28 -59t5 -76z" />
    <glyph glyph-name="ntilde" unicode="&#xf1;" horiz-adv-x="568" 
d="M492 0v324q0 43 -11 78.5t-40 64.5q-23 22 -54.5 34t-70.5 12q-38 0 -73.5 -14t-61.5 -43v51h-100v-507h102v309q0 58 31 85.5t74 27.5t72.5 -27t29.5 -86v-309h102zM456 667l-48 47q-20 -20 -33.5 -25.5t-25.5 -5.5q-15 0 -27.5 5t-27.5 14q-20 12 -36.5 18t-38.5 6
q-24 0 -47 -10.5t-57 -44.5l48 -47q21 21 33 25.5t25 4.5q15 0 28.5 -5.5t27.5 -13.5q20 -11 36.5 -17t38.5 -6q23 0 46.5 10.5t57.5 44.5z" />
    <glyph glyph-name="ograve" unicode="&#xf2;" horiz-adv-x="537" 
d="M480 254q0 64 -12 112.5t-48 86.5q-25 26 -62.5 43t-89.5 17t-89 -17t-62 -43q-36 -38 -48 -86.5t-12 -112.5q0 -65 12 -113.5t48 -86.5q25 -26 62 -43t89 -17t89.5 17t62.5 43q36 38 48 86.5t12 113.5zM378 254q0 -42 -6 -79t-29 -60q-30 -30 -75 -30q-44 0 -74 30
q-23 23 -29 60t-6 79t6 79t29 60q29 29 74 29q46 0 75 -29q23 -23 29 -60t6 -79zM313 599l-75 162h-113l111 -162h77z" />
    <glyph glyph-name="oacute" unicode="&#xf3;" horiz-adv-x="537" 
d="M480 254q0 64 -12 112.5t-48 86.5q-25 26 -62.5 43t-89.5 17t-89 -17t-62 -43q-36 -38 -48 -86.5t-12 -112.5q0 -65 12 -113.5t48 -86.5q25 -26 62 -43t89 -17t89.5 17t62.5 43q36 38 48 86.5t12 113.5zM378 254q0 -42 -6 -79t-29 -60q-30 -30 -75 -30q-44 0 -74 30
q-23 23 -29 60t-6 79t6 79t29 60q29 29 74 29q46 0 75 -29q23 -23 29 -60t6 -79zM404 761h-113l-75 -162h77z" />
    <glyph glyph-name="ocircumflex" unicode="&#xf4;" horiz-adv-x="537" 
d="M480 254q0 64 -12 112.5t-48 86.5q-25 26 -62.5 43t-89.5 17t-89 -17t-62 -43q-36 -38 -48 -86.5t-12 -112.5q0 -65 12 -113.5t48 -86.5q25 -26 62 -43t89 -17t89.5 17t62.5 43q36 38 48 86.5t12 113.5zM378 254q0 -42 -6 -79t-29 -60q-30 -30 -75 -30q-44 0 -74 30
q-23 23 -29 60t-6 79t6 79t29 60q29 29 74 29q46 0 75 -29q23 -23 29 -60t6 -79zM440 599l-129 161h-86l-129 -161h85l87 97l87 -97h85z" />
    <glyph glyph-name="otilde" unicode="&#xf5;" horiz-adv-x="537" 
d="M480 254q0 64 -12 112.5t-48 86.5q-25 26 -62.5 43t-89.5 17t-89 -17t-62 -43q-36 -38 -48 -86.5t-12 -112.5q0 -65 12 -113.5t48 -86.5q25 -26 62 -43t89 -17t89.5 17t62.5 43q36 38 48 86.5t12 113.5zM378 254q0 -42 -6 -79t-29 -60q-30 -30 -75 -30q-44 0 -74 30
q-23 23 -29 60t-6 79t6 79t29 60q29 29 74 29q46 0 75 -29q23 -23 29 -60t6 -79zM437 667l-48 47q-20 -20 -33.5 -25.5t-25.5 -5.5q-15 0 -27.5 5t-27.5 14q-20 12 -36.5 18t-38.5 6q-24 0 -47 -10.5t-57 -44.5l48 -47q21 21 33 25.5t25 4.5q15 0 28.5 -5.5t27.5 -13.5
q20 -11 36.5 -17t38.5 -6q23 0 46.5 10.5t57.5 44.5z" />
    <glyph glyph-name="odieresis" unicode="&#xf6;" horiz-adv-x="537" 
d="M480 254q0 64 -12 112.5t-48 86.5q-25 26 -62.5 43t-89.5 17t-89 -17t-62 -43q-36 -38 -48 -86.5t-12 -112.5q0 -65 12 -113.5t48 -86.5q25 -26 62 -43t89 -17t89.5 17t62.5 43q36 38 48 86.5t12 113.5zM378 254q0 -42 -6 -79t-29 -60q-30 -30 -75 -30q-44 0 -74 30
q-23 23 -29 60t-6 79t6 79t29 60q29 29 74 29q46 0 75 -29q23 -23 29 -60t6 -79zM434 657q0 23 -16.5 39.5t-39.5 16.5t-40 -16.5t-17 -39.5t17 -40t40 -17t39.5 17t16.5 40zM215 657q0 23 -17 39.5t-40 16.5t-39.5 -16.5t-16.5 -39.5t16.5 -40t39.5 -17t40 17t17 40z" />
    <glyph glyph-name="divide" unicode="&#xf7;" horiz-adv-x="533" 
d="M339 471q0 30 -21.5 51.5t-51.5 21.5t-51 -21.5t-21 -51.5t21 -51t51 -21t51.5 21t21.5 51zM484 230v95h-436v-95h436zM339 84q0 30 -21.5 51.5t-51.5 21.5t-51 -21.5t-21 -51.5t21 -51.5t51 -21.5t51.5 21.5t21.5 51.5z" />
    <glyph glyph-name="oslash" unicode="&#xf8;" horiz-adv-x="537" 
d="M480 254q0 64 -12 112.5t-48 86.5l59 98h-69l-37 -63q-21 11 -47 18t-58 7q-52 0 -89 -17t-62 -43q-36 -38 -48 -86.5t-12 -112.5t11.5 -112.5t47.5 -86.5l-58 -99h69l37 63q21 -11 46.5 -18t57.5 -7q52 0 89.5 17t62.5 43q36 38 48 86.5t12 113.5zM328 405l-154 -260
q-10 23 -12.5 51t-2.5 58q0 42 6 79t29 60q29 29 74 29q34 0 60 -17zM378 254q0 -42 -6 -79t-29 -60q-30 -30 -75 -30q-33 0 -59 18l154 260q10 -23 12.5 -51t2.5 -58z" />
    <glyph glyph-name="ugrave" unicode="&#xf9;" horiz-adv-x="568" 
d="M487 0v507h-102v-309q0 -29 -8.5 -50.5t-22.5 -35.5t-33.5 -20.5t-40.5 -6.5q-43 0 -72.5 27t-29.5 86v309h-102v-324q0 -43 11 -78.5t40 -64.5q23 -22 54.5 -34t70.5 -12q38 0 73.5 14t61.5 43v-51h100zM333 599l-75 162h-113l111 -162h77z" />
    <glyph glyph-name="uacute" unicode="&#xfa;" horiz-adv-x="568" 
d="M487 0v507h-102v-309q0 -29 -8.5 -50.5t-22.5 -35.5t-33.5 -20.5t-40.5 -6.5q-43 0 -72.5 27t-29.5 86v309h-102v-324q0 -43 11 -78.5t40 -64.5q23 -22 54.5 -34t70.5 -12q38 0 73.5 14t61.5 43v-51h100zM417 761h-113l-75 -162h77z" />
    <glyph glyph-name="ucircumflex" unicode="&#xfb;" horiz-adv-x="568" 
d="M487 0v507h-102v-309q0 -29 -8.5 -50.5t-22.5 -35.5t-33.5 -20.5t-40.5 -6.5q-43 0 -72.5 27t-29.5 86v309h-102v-324q0 -43 11 -78.5t40 -64.5q23 -22 54.5 -34t70.5 -12q38 0 73.5 14t61.5 43v-51h100zM453 599l-129 161h-86l-129 -161h85l87 97l87 -97h85z" />
    <glyph glyph-name="udieresis" unicode="&#xfc;" horiz-adv-x="568" 
d="M487 0v507h-102v-309q0 -29 -8.5 -50.5t-22.5 -35.5t-33.5 -20.5t-40.5 -6.5q-43 0 -72.5 27t-29.5 86v309h-102v-324q0 -43 11 -78.5t40 -64.5q23 -22 54.5 -34t70.5 -12q38 0 73.5 14t61.5 43v-51h100zM447 657q0 23 -16.5 39.5t-39.5 16.5t-40 -16.5t-17 -39.5t17 -40
t40 -17t39.5 17t16.5 40zM228 657q0 23 -17 39.5t-40 16.5t-39.5 -16.5t-16.5 -39.5t16.5 -40t39.5 -17t40 17t17 40z" />
    <glyph glyph-name="yacute" unicode="&#xfd;" horiz-adv-x="468" 
d="M464 507h-109l-118 -357l-121 357h-108l177 -483l-28 -79q-11 -31 -26 -42.5t-47 -11.5h-26v-92h41q29 0 56 8t48 29q23 23 37 63zM371 761h-113l-75 -162h77z" />
    <glyph glyph-name="thorn" unicode="&#xfe;" horiz-adv-x="554" 
d="M496 254q0 29 -1.5 59t-7.5 58t-17.5 53t-30.5 44q-21 21 -53 33t-70 12q-41 0 -73 -12t-60 -45v256h-102v-917h102v257q28 -33 60 -45.5t73 -12.5q38 0 70 12t53 33q19 19 30.5 44t17.5 53.5t7.5 58.5t1.5 59zM394 254q0 -34 -3.5 -64.5t-14.5 -54t-32 -37t-55 -13.5
q-35 0 -55.5 13.5t-32 37t-15 54t-3.5 64.5t3.5 64.5t15 53.5t32 36.5t55.5 13.5q34 0 55 -13.5t32 -36.5t14.5 -53.5t3.5 -64.5z" />
    <glyph glyph-name="ydieresis" unicode="&#xff;" horiz-adv-x="468" 
d="M464 507h-109l-118 -357l-121 357h-108l177 -483l-28 -79q-11 -31 -26 -42.5t-47 -11.5h-26v-92h41q29 0 56 8t48 29q23 23 37 63zM401 657q0 23 -16.5 39.5t-39.5 16.5t-40 -16.5t-17 -39.5t17 -40t40 -17t39.5 17t16.5 40zM182 657q0 23 -17 39.5t-40 16.5t-39.5 -16.5
t-16.5 -39.5t16.5 -40t39.5 -17t40 17t17 40z" />
    <glyph glyph-name="dotlessi" unicode="&#x131;" horiz-adv-x="264" 
d="M183 0v507h-102v-507h102z" />
    <glyph glyph-name="Lslash" unicode="&#x141;" horiz-adv-x="587" 
d="M557 0v97h-342v238l141 89v91l-141 -89v286h-108v-354l-69 -43v-93l69 44v-266h450z" />
    <glyph glyph-name="lslash" unicode="&#x142;" horiz-adv-x="326" 
d="M294 0v87h-45q-31 0 -43 15t-12 44v237l70 44v86l-70 -43v242h-102v-304l-59 -36v-87l59 36v-181q0 -28 8 -53.5t25 -44.5t43.5 -30.5t62.5 -11.5h63z" />
    <glyph glyph-name="OE" unicode="&#x152;" horiz-adv-x="977" 
d="M922 0v96h-343v216h291v94h-291v210h342v96h-450v-58q-29 34 -68 49t-82 15q-57 0 -102.5 -18.5t-82.5 -55.5q-26 -26 -40 -55t-20.5 -63.5t-7.5 -76.5t-1 -93t1 -93t7.5 -76.5t20.5 -63.5t40 -55q37 -37 82.5 -55.5t102.5 -18.5q40 0 80.5 15t69.5 49v-58h451zM471 356
q0 -54 -1.5 -89.5t-6 -60t-13 -41t-21.5 -30.5q-19 -20 -46.5 -32t-59.5 -12t-59 12t-46 32q-13 14 -21.5 30.5t-13 41t-6 60t-1.5 89.5t1.5 89.5t6 60t13 41t21.5 30.5q19 20 46 32t59 12t59.5 -12t46.5 -32q13 -14 21.5 -30.5t13 -41t6 -60t1.5 -89.5z" />
    <glyph glyph-name="oe" unicode="&#x153;" horiz-adv-x="862" 
d="M807 224v45q0 54 -14.5 99t-42 77t-67.5 50t-91 18q-107 0 -160 -81q-24 38 -66 59.5t-98 21.5q-52 0 -89 -17t-62 -43q-36 -38 -48 -86.5t-12 -112.5q0 -65 12 -113.5t48 -86.5q25 -26 62 -43t89 -17q55 0 97 21.5t66 58.5q29 -42 74 -61t101 -19q33 0 59.5 5t49 15
t41.5 24.5t39 34.5l-65 61q-27 -27 -53.5 -39.5t-69.5 -12.5q-63 0 -96 38t-33 104h329zM706 295h-228q1 23 3.5 37.5t10.5 31.5q12 29 38 46.5t62 17.5t62.5 -17.5t38.5 -46.5q8 -17 10 -31.5t3 -37.5zM378 254q0 -42 -6 -79t-29 -60q-30 -30 -75 -30q-44 0 -74 30
q-23 23 -29 60t-6 79t6 79t29 60q29 29 74 29q46 0 75 -29q23 -23 29 -60t6 -79z" />
    <glyph glyph-name="Scaron" unicode="&#x160;" horiz-adv-x="590" 
d="M538 203q0 46 -14.5 83t-43.5 63q-23 20 -53 32.5t-80 20.5l-81 12q-52 8 -80 33q-14 13 -20.5 29.5t-6.5 36.5q0 48 33.5 79.5t96.5 31.5q45 0 83.5 -11.5t71.5 -43.5l69 68q-46 43 -98 62t-123 19q-56 0 -100 -15t-74.5 -43t-47 -66.5t-16.5 -84.5q0 -87 52 -136
q48 -45 135 -57l84 -12q32 -5 48 -11t30 -19q28 -25 28 -74q0 -52 -38.5 -80.5t-108.5 -28.5q-55 0 -99 14.5t-83 53.5l-72 -71q51 -52 111 -73t141 -21q56 0 103 14t81 41t53 66t19 88zM463 942h-85l-87 -97l-87 97h-85l129 -161h86z" />
    <glyph glyph-name="scaron" unicode="&#x161;" horiz-adv-x="499" 
d="M456 155q0 68 -39.5 102.5t-111.5 40.5l-80 7q-41 4 -55.5 19.5t-14.5 38.5q0 29 23 47t69 18q36 0 68.5 -8.5t56.5 -28.5l64 65q-35 31 -83 44t-105 13q-40 0 -74.5 -10.5t-60.5 -30t-41 -48.5t-15 -66q0 -67 39 -100.5t111 -39.5l81 -7q37 -3 52.5 -18.5t15.5 -41.5
q0 -36 -32 -53t-79 -17q-38 0 -76.5 10.5t-69.5 42.5l-67 -67q45 -44 98 -58.5t115 -14.5q45 0 84 10t67 30.5t44 50.5t16 70zM421 760h-85l-87 -97l-87 97h-85l129 -161h86z" />
    <glyph glyph-name="Ydieresis" unicode="&#x178;" horiz-adv-x="544" 
d="M539 712h-118l-149 -313l-149 313h-118l213 -419v-293h108v293zM437 839q0 23 -16.5 39.5t-39.5 16.5t-40 -16.5t-17 -39.5t17 -40t40 -17t39.5 17t16.5 40zM218 839q0 23 -17 39.5t-40 16.5t-39.5 -16.5t-16.5 -39.5t16.5 -40t39.5 -17t40 17t17 40z" />
    <glyph glyph-name="Zcaron" unicode="&#x17d;" horiz-adv-x="552" 
d="M504 0v97h-331l331 527v88h-442v-97h315l-329 -522v-93h456zM453 942h-85l-87 -97l-87 97h-85l129 -161h86z" />
    <glyph glyph-name="zcaron" unicode="&#x17e;" horiz-adv-x="469" 
d="M421 0v91h-254l254 335v81h-364v-91h238l-252 -335v-81h378zM412 760h-85l-87 -97l-87 97h-85l129 -161h86z" />
    <glyph glyph-name="florin" unicode="&#x192;" horiz-adv-x="415" 
d="M385 630v87h-63q-36 0 -64 -12t-48.5 -31.5t-33 -45t-17.5 -52.5l-33 -185h-96v-78h82l-91 -518h102l91 518h115v78h-101l32 180q5 28 21 43.5t45 15.5h59z" />
    <glyph glyph-name="circumflex" unicode="&#x2c6;" 
d="M422 599l-129 161h-86l-129 -161h85l87 97l87 -97h85z" />
    <glyph glyph-name="caron" unicode="&#x2c7;" 
d="M422 760h-85l-87 -97l-87 97h-85l129 -161h86z" />
    <glyph glyph-name="breve" unicode="&#x2d8;" 
d="M415 735h-72q-5 -35 -30 -53t-62 -18t-62 18t-30 53h-74q5 -75 50 -110t116 -35t115 35t49 110z" />
    <glyph glyph-name="dotaccent" unicode="&#x2d9;" 
d="M304 620v91h-108v-91h108z" />
    <glyph glyph-name="ring" unicode="&#x2da;" 
d="M375 701q0 26 -10 48.5t-27 39.5t-39.5 27t-48.5 10t-48.5 -10t-39.5 -27t-27 -39.5t-10 -48.5t10 -48.5t27 -39.5t39.5 -27t48.5 -10t48.5 10t39.5 27t27 39.5t10 48.5zM314 701q0 -26 -19 -44.5t-45 -18.5t-45 18.5t-19 44.5t19 44.5t45 18.5t45 -18.5t19 -44.5z" />
    <glyph glyph-name="ogonek" unicode="&#x2db;" 
d="M329 -211l-70 147h-82l51 -147h101z" />
    <glyph glyph-name="tilde" unicode="&#x2dc;" 
d="M419 667l-48 47q-20 -20 -33.5 -25.5t-25.5 -5.5q-15 0 -27.5 5t-27.5 14q-20 12 -36.5 18t-38.5 6q-24 0 -47 -10.5t-57 -44.5l48 -47q21 21 33 25.5t25 4.5q15 0 28.5 -5.5t27.5 -13.5q20 -11 36.5 -17t38.5 -6q23 0 46.5 10.5t57.5 44.5z" />
    <glyph glyph-name="hungarumlaut" unicode="&#x2dd;" 
d="M456 761h-112l-76 -162h76zM271 761h-113l-75 -162h77z" />
    <glyph glyph-name="Delta" unicode="&#x394;" horiz-adv-x="619" 
d="M613 0l-260 712h-87l-261 -712h608zM472 92h-323l162 459z" />
    <glyph glyph-name="Omega" unicode="&#x3a9;" horiz-adv-x="647" 
d="M579 0v96h-70q17 15 27.5 30t18.5 31q18 40 21 91.5t3 107.5q0 51 -1 92.5t-7 75.5t-20 63t-40 55q-37 37 -84 56.5t-104 19.5t-103.5 -19.5t-83.5 -56.5q-26 -26 -40 -55t-20.5 -63t-7.5 -75.5t-1 -92.5q0 -56 3.5 -107.5t21.5 -91.5q8 -16 18 -31t27 -30h-70v-96h207
v87q-23 11 -40.5 25t-31.5 35q-8 12 -13 29t-8 41t-4 57t-1 77q0 54 1.5 90.5t6 61.5t13 42t21.5 31q20 20 46.5 32.5t58.5 12.5t59 -12.5t47 -32.5q13 -14 21.5 -31t13 -42t6 -61.5t1.5 -90.5q0 -44 -1.5 -77t-4.5 -57t-8 -41t-13 -29q-14 -21 -31.5 -35t-40.5 -25v-87h207
z" />
    <glyph glyph-name="pi" unicode="&#x3c0;" horiz-adv-x="591" 
d="M503 0v507h-415v-507h101v412h214v-412h100z" />
    <glyph glyph-name="endash" unicode="&#x2013;" horiz-adv-x="533" 
d="M482 230v95h-431v-95h431z" />
    <glyph glyph-name="emdash" unicode="&#x2014;" horiz-adv-x="972" 
d="M905 231v97h-838v-97h838z" />
    <glyph glyph-name="quoteleft" unicode="&#x2018;" horiz-adv-x="268" 
d="M190 608v197l-112 -93v-104h112z" />
    <glyph glyph-name="quoteright" unicode="&#x2019;" horiz-adv-x="268" 
d="M190 607v105h-112v-196z" />
    <glyph glyph-name="quotesinglbase" unicode="&#x201a;" horiz-adv-x="267" 
d="M190 0v105h-112v-197z" />
    <glyph glyph-name="quotedblleft" unicode="&#x201c;" horiz-adv-x="459" 
d="M381 608v197l-112 -93v-104h112zM190 608v197l-112 -93v-104h112z" />
    <glyph glyph-name="quotedblright" unicode="&#x201d;" horiz-adv-x="459" 
d="M381 607v105h-112v-196zM190 607v105h-112v-196z" />
    <glyph glyph-name="quotedblbase" unicode="&#x201e;" horiz-adv-x="460" 
d="M381 0v105h-112v-197zM190 0v105h-112v-197z" />
    <glyph glyph-name="dagger" unicode="&#x2020;" horiz-adv-x="591" 
d="M526 427v91h-180v194h-102v-194h-179v-91h179v-427h102v427h180z" />
    <glyph glyph-name="daggerdbl" unicode="&#x2021;" horiz-adv-x="591" 
d="M526 -11v92h-180v346h180v91h-180v194h-102v-194h-179v-91h179v-346h-179v-92h179v-194h102v194h180z" />
    <glyph glyph-name="bullet" unicode="&#x2022;" horiz-adv-x="512" 
d="M419 334q0 34 -13 63.5t-35 51.5t-51.5 35t-63.5 13t-63.5 -13t-51.5 -35t-35 -51.5t-13 -63.5t13 -63.5t35 -51.5t51.5 -35t63.5 -13t63.5 13t51.5 35t35 51.5t13 63.5z" />
    <glyph glyph-name="ellipsis" unicode="&#x2026;" horiz-adv-x="803" 
d="M734 70q0 30 -21.5 51t-51.5 21t-51.5 -21t-21.5 -51t21.5 -51.5t51.5 -21.5t51.5 21.5t21.5 51.5zM474 70q0 30 -21.5 51t-51.5 21t-51 -21t-21 -51t21 -51.5t51 -21.5t51.5 21.5t21.5 51.5zM215 70q0 30 -21.5 51t-51.5 21t-51.5 -21t-21.5 -51t21.5 -51.5t51.5 -21.5
t51.5 21.5t21.5 51.5z" />
    <glyph glyph-name="perthousand" unicode="&#x2030;" horiz-adv-x="1196" 
d="M784 130v101q0 32 -11 57.5t-30 43t-44.5 27t-54.5 9.5t-54.5 -9.5t-44.5 -27t-30 -43t-11 -57.5v-101q0 -32 11 -57.5t30 -43t44.5 -27t54.5 -9.5t54.5 9.5t44.5 27t30 43t11 57.5zM629 712h-81l-336 -712h82zM338 481v101q0 32 -11 57.5t-30 43t-44.5 27t-54.5 9.5
t-54.5 -9.5t-44.5 -27t-30 -43t-11 -57.5v-101q0 -32 11 -57.5t30 -43t44.5 -26.5t54.5 -9t54.5 9t44.5 26.5t30 43t11 57.5zM707 133q0 -34 -15.5 -53t-47.5 -19t-47.5 18.5t-15.5 53.5v95q0 35 15.5 53.5t47.5 18.5t47.5 -19t15.5 -53v-95zM261 484q0 -34 -15.5 -52.5
t-47.5 -18.5q-63 0 -63 71v95q0 35 15.5 53.5t47.5 18.5t47.5 -19t15.5 -53v-95zM1138 130v101q0 32 -11 57.5t-30 43t-44.5 27t-54.5 9.5t-54.5 -9.5t-44.5 -27t-30 -43t-11 -57.5v-101q0 -32 11 -57.5t30 -43t44.5 -27t54.5 -9.5t54.5 9.5t44.5 27t30 43t11 57.5z
M1061 133q0 -34 -15.5 -53t-47.5 -19t-47.5 18.5t-15.5 53.5v95q0 35 15.5 53.5t47.5 18.5t47.5 -19t15.5 -53v-95z" />
    <glyph glyph-name="guilsinglleft" unicode="&#x2039;" horiz-adv-x="339" 
d="M267 42v123l-107 107l107 106v123l-230 -229z" />
    <glyph glyph-name="guilsinglright" unicode="&#x203a;" horiz-adv-x="339" 
d="M303 272l-231 229v-123l108 -106l-108 -107v-123z" />
    <glyph glyph-name="trademark" unicode="&#x2122;" horiz-adv-x="883" 
d="M822 285v427h-77l-126 -243l-125 243h-77v-427h77v279l90 -179h71l90 179v-279h77zM346 643v69h-305v-69h114v-358h76v358h115z" />
    <glyph glyph-name="partialdiff" unicode="&#x2202;" horiz-adv-x="549" 
d="M468 249v242q0 50 -13.5 91.5t-41 71.5t-68 47t-94.5 17q-58 0 -98 -15t-80 -52l64 -64q24 23 48 33.5t62 10.5q33 0 55.5 -11t37 -28.5t20.5 -39.5t6 -43v-47q-23 26 -50.5 34t-56.5 8q-50 0 -84.5 -17t-56.5 -40q-35 -36 -46 -84t-11 -114q0 -63 11 -111t46 -85
q24 -26 60.5 -42.5t86.5 -16.5t86 16.5t60 42.5q35 37 46 85t11 111zM366 249q0 -40 -5 -76t-27 -59q-14 -14 -31 -21.5t-38 -7.5q-41 0 -70 29q-22 23 -27 59t-5 76t5 76t27 59q29 29 70 29q21 0 38 -7.5t31 -21.5q22 -23 27 -59t5 -76z" />
    <glyph glyph-name="product" unicode="&#x220f;" horiz-adv-x="690" 
d="M598 -205v965h-505v-965h108v869h288v-869h109z" />
    <glyph glyph-name="summation" unicode="&#x2211;" horiz-adv-x="552" 
d="M508 -205v97h-335l164 346v100l-161 325h329v97h-455v-88l193 -383l-195 -406v-88h460z" />
    <glyph glyph-name="minus" unicode="&#x2212;" horiz-adv-x="533" 
d="M482 230v95h-431v-95h431z" />
    <glyph glyph-name="fraction" unicode="&#x2215;" horiz-adv-x="197" 
d="M307 712h-82l-335 -712h82z" />
    <glyph glyph-name="radical" unicode="&#x221a;" horiz-adv-x="580" 
d="M550 615v97h-172l-163 -518l-99 313h-111l168 -507h84l202 615h91z" />
    <glyph glyph-name="infinity" unicode="&#x221e;" horiz-adv-x="830" 
d="M769 276q0 37 -11.5 69t-34 55.5t-55 37t-74.5 13.5q-54 0 -95.5 -25.5t-83.5 -74.5q-42 49 -85 74.5t-94 25.5q-42 0 -74.5 -13.5t-55 -37t-34 -55.5t-11.5 -69t11.5 -69t34 -55.5t55 -37t74.5 -13.5q52 0 94.5 25.5t84.5 74.5q42 -49 84 -74t95 -25q42 0 74.5 13.5
t55 37t34 55t11.5 68.5zM671 274q0 -36 -23 -57.5t-56 -21.5q-32 0 -56 22.5t-53 56.5q29 34 53 56t56 22q33 0 56 -21t23 -57zM347 274q-29 -34 -53.5 -56.5t-56.5 -22.5q-33 0 -55.5 21.5t-22.5 57.5t22.5 57.5t55.5 21.5q32 0 56.5 -22.5t53.5 -56.5z" />
    <glyph glyph-name="integral" unicode="&#x222b;" horiz-adv-x="433" 
d="M385 633v87h-57q-75 0 -120 -43t-45 -119v-599q0 -74 -71 -74h-44v-87h57q75 0 119.5 43t44.5 119v599q0 74 72 74h44z" />
    <glyph glyph-name="approxequal" unicode="&#x2248;" horiz-adv-x="574" 
d="M531 380l-65 64q-14 -14 -25.5 -22.5t-21 -13t-19 -6t-19.5 -1.5q-21 0 -40 6.5t-40 17.5q-31 15 -56.5 23.5t-54.5 8.5q-20 0 -37 -3.5t-34 -12.5t-35.5 -24t-40.5 -37l64 -64q28 28 46 35.5t39 7.5t39.5 -6.5t39.5 -17.5q31 -15 57 -23.5t55 -8.5q20 0 37 3.5
t34.5 12.5t36 24t40.5 37zM531 178l-64 64q-14 -14 -25.5 -23t-21 -13.5t-19 -6t-19.5 -1.5q-21 0 -40 6.5t-40 17.5q-31 15 -56.5 24t-54.5 9q-20 0 -37.5 -4t-34.5 -13t-35.5 -24t-40.5 -37l64 -64q28 28 46.5 36t39.5 8t39.5 -6.5t39.5 -17.5q31 -15 57 -24t55 -9
q20 0 37 4t34 13t35.5 24t40.5 37z" />
    <glyph glyph-name="notequal" unicode="&#x2260;" horiz-adv-x="571" 
d="M520 133v95h-226l88 99h138v95h-61l61 69l-63 51l-104 -120h-302v-95h226l-88 -99h-138v-95h61l-61 -69l63 -51l103 120h303z" />
    <glyph glyph-name="lessequal" unicode="&#x2264;" horiz-adv-x="1027" 
d="M873 535l-68 69l-527 -527l1 487l-92 -92v-554h555l92 91l-487 -1z" />
    <glyph glyph-name="greaterequal" unicode="&#x2265;" horiz-adv-x="1027" 
d="M839 -82v553l-92 93l2 -487l-527 527l-69 -69l527 -527l-487 1l92 -91h554z" />
    <glyph glyph-name="lozenge" unicode="&#x25ca;" horiz-adv-x="642" 
d="M582 346l-261 365l-260 -365l260 -365zM467 346l-146 -208l-146 208l146 207z" />
    <glyph glyph-name="fi" unicode="&#xfb01;" horiz-adv-x="582" 
d="M515 672q0 27 -19.5 46.5t-46.5 19.5t-46 -19.5t-19 -46.5t19 -46.5t46 -19.5t46.5 19.5t19.5 46.5zM500 0v498h-102v-498h102zM296 420v78h-100v73q0 28 13 43.5t42 15.5h45v87h-63q-36 0 -62 -12t-43 -31.5t-25.5 -45t-8.5 -52.5v-78h-59v-78h59v-420h102v420h100z" />
    <glyph glyph-name="fl" unicode="&#xfb02;" horiz-adv-x="626" 
d="M599 0v87h-45q-31 0 -43 15t-12 44v566h-102v-572q0 -28 8 -53.5t25 -44.5t43.5 -30.5t62.5 -11.5h63zM297 420v78h-100v73q0 28 13 43.5t42 15.5h45v87h-63q-36 0 -62 -12t-43 -31.5t-25.5 -45t-8.5 -52.5v-78h-58v-78h58v-420h102v420h100z" />
    </font>
</defs>
</svg>
