<?xml version="1.0" standalone="no"?>
<!DOCTYPE svg PUBLIC "-//W3C//DTD SVG 1.1//EN" "http://www.w3.org/Graphics/SVG/1.1/DTD/svg11.dtd" >
<svg xmlns="http://www.w3.org/2000/svg" xmlns:xlink="http://www.w3.org/1999/xlink" version="1.1">
<metadata>
Created by FontForge 20170731 at Fri Mar  4 13:27:39 2005
 By Aleksey,,,
\251 Dutch Design: Albert-Jan Pool, 1995. Published by FontShop International FontFont release 15
</metadata>
<defs>
<font id="DIN-Regular" horiz-adv-x="522" >
  <font-face 
    font-family="DIN"
    font-weight="400"
    font-stretch="normal"
    units-per-em="1000"
    panose-1="2 0 5 3 4 0 0 2 0 3"
    ascent="800"
    descent="-200"
    x-height="492"
    cap-height="712"
    bbox="-104 -226 1115 985"
    underline-thickness="51"
    underline-position="-214"
    unicode-range="U+0020-FB02"
  />
<missing-glyph horiz-adv-x="1000" 
 />
    <glyph glyph-name=".notdef" horiz-adv-x="1000" 
 />
    <glyph glyph-name=".null" horiz-adv-x="0" 
 />
    <glyph glyph-name="nonmarkingreturn" horiz-adv-x="249" 
 />
    <glyph glyph-name="space" unicode=" " horiz-adv-x="249" 
 />
    <glyph glyph-name="exclam" unicode="!" horiz-adv-x="316" 
d="M215 712h-83l10 -512h62zM216 0v84h-86v-84h86z" />
    <glyph glyph-name="quotedbl" unicode="&#x22;" horiz-adv-x="423" 
d="M335 542v170h-79v-170h79zM167 542v170h-79v-170h79z" />
    <glyph glyph-name="numbersign" unicode="#" horiz-adv-x="653" 
d="M602 432v66h-87l34 215h-73l-34 -215h-159l35 215h-75l-34 -215h-101v-66h92l-23 -141h-100v-64h89l-36 -227h74l35 227h160l-36 -227h74l36 227h99v64h-89l23 141h96zM432 432l-23 -141h-159l23 141h159z" />
    <glyph glyph-name="dollar" unicode="$" horiz-adv-x="596" 
d="M540 196q0 45 -16 80.5t-45 60.5q-11 10 -23.5 17.5t-27.5 13.5t-34 10.5t-44 8.5l-31 5v259q46 -3 78.5 -18.5t61.5 -41.5l49 49q-42 37 -85 55.5t-101 21.5v89h-60v-89q-94 -8 -147.5 -61.5t-53.5 -138.5q0 -84 55 -133q21 -18 55 -34t75 -20l20 -2v-265
q-51 2 -91.5 19.5t-80.5 57.5l-52 -52q47 -47 98 -69t122 -25v-108h60v110q49 3 89.5 18.5t69 41.5t44 61t15.5 79zM266 399q-26 4 -51.5 13t-46.5 26q-32 28 -32 82q0 56 33.5 91t96.5 40v-252zM464 194q0 -58 -38.5 -92t-106.5 -39v257q32 -5 58.5 -10t51.5 -27
q17 -15 26 -38t9 -51z" />
    <glyph glyph-name="percent" unicode="%" horiz-adv-x="833" 
d="M769 128v105q0 62 -38.5 98.5t-96.5 36.5q-59 0 -97 -36.5t-38 -98.5v-105q0 -62 38 -98.5t97 -36.5q58 0 96.5 36.5t38.5 98.5zM614 712h-60l-334 -712h60zM335 479v105q0 62 -38.5 98.5t-96.5 36.5q-59 0 -97 -36.5t-38 -98.5v-105q0 -61 38 -97.5t97 -36.5
q58 0 96.5 36.5t38.5 97.5zM712 130q0 -40 -18.5 -63.5t-59.5 -23.5q-42 0 -60 23t-18 64v101q0 41 18 64t60 23q41 0 59.5 -23.5t18.5 -63.5v-101zM278 481q0 -40 -18.5 -63t-59.5 -23t-59.5 22.5t-18.5 63.5v101q0 41 18 64t60 23q41 0 59.5 -23.5t18.5 -63.5v-101z" />
    <glyph glyph-name="ampersand" unicode="&#x26;" horiz-adv-x="739" 
d="M671 0l-109 131q35 42 50 96t16 122h-72q0 -30 -2.5 -53t-7 -42t-12 -35.5t-18.5 -32.5l-182 219q8 6 21 15t22 14.5t10 6.5q34 23 56.5 53.5t22.5 73.5q0 32 -11.5 59.5t-32.5 47.5t-49.5 31.5t-61.5 11.5q-34 0 -63 -11.5t-50 -31.5t-32.5 -47t-11.5 -59q0 -24 7 -45.5
t18.5 -40.5t25 -36t26.5 -33q-29 -20 -57 -40.5t-49.5 -45.5t-34.5 -56t-13 -71q0 -47 15.5 -85t45 -65t71 -42t93.5 -15q43 0 77 9.5t60 22.5t44 27.5t29 24.5l64 -78h95zM395 568q0 -31 -19.5 -51.5t-44.5 -37.5q-1 -1 -7 -5t-15.5 -10.5t-15.5 -10.5q-35 43 -49.5 67.5
t-14.5 49.5q0 36 22.5 59.5t59.5 23.5q36 0 60 -24.5t24 -60.5zM469 130q-46 -41 -87 -55t-81 -14q-33 0 -60.5 10t-47.5 29t-31 45t-11 58q0 30 10.5 53.5t27.5 42.5t39 35t45 32z" />
    <glyph glyph-name="quotesingle" unicode="'" horiz-adv-x="255" 
d="M167 542v170h-79v-170h79z" />
    <glyph glyph-name="parenleft" unicode="(" horiz-adv-x="298" 
d="M234 -45q-17 17 -30.5 31t-23.5 34q-16 32 -16 81v510q0 49 16 81q10 20 23.5 34t30.5 31l-49 49q-24 -24 -41 -42.5t-31 -43.5t-17.5 -51t-3.5 -52v-522q0 -26 3.5 -52t17.5 -51t31 -43.5t41 -42.5z" />
    <glyph glyph-name="parenright" unicode=")" horiz-adv-x="298" 
d="M205 95v522q0 26 -3 52t-17 51t-31 43.5t-41 42.5l-51 -51l31 -31t24 -34q8 -15 11 -35t3 -44v-510q0 -24 -3 -44t-11 -35q-10 -20 -24 -34l-31 -31l51 -51q24 24 41 42.5t31 43.5t17 51t3 52z" />
    <glyph glyph-name="asterisk" unicode="*" horiz-adv-x="474" 
d="M407 472l-120 65l120 66l-28 48l-117 -71l4 137h-58l4 -137l-116 71l-29 -48l120 -66l-120 -65l29 -49l116 71l-4 -137h58l-4 137l117 -71z" />
    <glyph glyph-name="plus" unicode="+" 
d="M470 234v67h-175v174h-67v-174h-176v-67h176v-176h67v176h175z" />
    <glyph glyph-name="comma" unicode="," horiz-adv-x="264" 
d="M176 -65v153h-88v-232z" />
    <glyph glyph-name="hyphen" unicode="-" horiz-adv-x="426" 
d="M350 236v67h-274v-67h274z" />
    <glyph glyph-name="period" unicode="." horiz-adv-x="270" 
d="M182 0v94h-94v-94h94z" />
    <glyph glyph-name="slash" unicode="/" horiz-adv-x="355" 
d="M356 786h-71l-285 -860h71z" />
    <glyph glyph-name="zero" unicode="0" 
d="M456 190v332q0 44 -15 80.5t-41 62t-61.5 39.5t-77.5 14t-77.5 -14t-61.5 -39.5t-41 -62t-15 -80.5v-332q0 -44 15 -80.5t41 -62t61.5 -39.5t77.5 -14t77.5 14t61.5 39.5t41 62t15 80.5zM384 194q0 -59 -31.5 -97.5t-91.5 -38.5t-91.5 38.5t-31.5 97.5v324
q0 59 31.5 97.5t91.5 38.5t91.5 -38.5t31.5 -97.5v-324z" />
    <glyph glyph-name="one" unicode="1" 
d="M330 0v712h-72l-133 -115v-82l133 117v-632h72z" />
    <glyph glyph-name="two" unicode="2" 
d="M461 0v64h-306l249 318q29 38 43 69.5t14 74.5q0 44 -14 79.5t-40 60.5t-62 38.5t-80 13.5q-45 0 -81 -14.5t-61.5 -40t-39.5 -61t-14 -77.5h72q0 34 10 58.5t27 40.5t39.5 23t47.5 7q59 0 91.5 -35t32.5 -93q0 -29 -10 -54t-30 -51l-281 -357v-64h393z" />
    <glyph glyph-name="three" unicode="3" 
d="M460 194q0 133 -109 174q96 43 96 158q0 43 -14.5 79t-40 61t-62 39t-79.5 14q-41 0 -76 -12.5t-61.5 -36t-43 -57.5t-19.5 -77h72q5 55 38 87t90 32q52 0 88 -33t36 -97q0 -60 -30.5 -94.5t-96.5 -34.5h-15v-63h15q73 0 106.5 -36.5t33.5 -101.5q0 -66 -39.5 -102
t-97.5 -36q-26 0 -49.5 7t-42.5 22t-31 38.5t-14 56.5h-72q2 -48 19.5 -83.5t45.5 -59t65 -34.5t79 -11q43 0 81.5 13t66.5 38.5t44.5 63t16.5 86.5z" />
    <glyph glyph-name="four" unicode="4" 
d="M482 113v65h-87v202h-71v-202h-207l257 534h-77l-257 -534v-65h284v-113h71v113h87z" />
    <glyph glyph-name="five" unicode="5" 
d="M462 235q0 25 -2 50.5t-8 50.5t-18 47.5t-31 42.5q-21 21 -52 33t-71 12q-42 0 -74.5 -13t-53.5 -36v226h295v64h-360v-374h65q11 32 41 51t77 19q39 0 62.5 -15t36 -39t17 -55t4.5 -64q0 -19 -1 -39t-4.5 -39t-11.5 -36t-22 -31q-33 -33 -88 -33q-57 0 -85.5 28.5
t-35.5 82.5h-72q3 -38 15 -69t35 -55q23 -23 59.5 -37t83.5 -14q48 0 82.5 14t59.5 39q38 38 47.5 86.5t9.5 102.5z" />
    <glyph glyph-name="six" unicode="6" 
d="M460 205q0 44 -13.5 81t-37.5 64t-58 42t-76 15t-75 -15l159 320h-74l-175 -353q-23 -45 -34 -83.5t-11 -76.5q0 -46 14 -84t39.5 -65t62.5 -41.5t82 -14.5t81.5 16t62 44t39.5 67t14 84zM388 202q0 -66 -34.5 -105t-91.5 -39t-91 39t-34 105t34 105t91 39
q31 0 54.5 -11.5t39.5 -31t24 -45.5t8 -56z" />
    <glyph glyph-name="seven" unicode="7" 
d="M471 648v64h-395v-176h71v112h248l-247 -648h76z" />
    <glyph glyph-name="eight" unicode="8" 
d="M471 196q0 63 -30.5 105t-75.5 68q42 24 67 63t25 95q0 42 -14.5 77t-41 60.5t-62.5 39.5t-78 14t-78 -14t-62.5 -39.5t-41 -60.5t-14.5 -77q0 -56 25.5 -95t67.5 -63q-45 -26 -76 -68t-31 -105q0 -45 16 -82t44.5 -64t67 -41.5t82.5 -14.5t82.5 14.5t67 41.5t44.5 64
t16 82zM385 526q0 -57 -34.5 -92t-89.5 -35t-89.5 35t-34.5 92q0 56 34.5 92t89.5 36t89.5 -36t34.5 -92zM399 197q0 -30 -10.5 -55t-29 -44t-44 -29.5t-54.5 -10.5t-54.5 10.5t-44 29.5t-29 44t-10.5 55t10.5 55t29 44t44 29.5t54.5 10.5t54.5 -10.5t44 -29.5t29 -44
t10.5 -55z" />
    <glyph glyph-name="nine" unicode="9" 
d="M457 513q0 46 -14 84t-39.5 65t-62.5 41.5t-82 14.5t-81.5 -16t-62 -44t-39.5 -67t-14 -84q0 -44 13 -81t37 -64t58 -42t76 -15q43 0 76 15l-160 -320h75l175 353q23 45 34 83.5t11 76.5zM385 510q0 -66 -34.5 -105t-91.5 -39q-31 0 -54.5 11.5t-39 31t-23.5 45.5t-8 56
q0 66 34 105t91 39t91.5 -39t34.5 -105z" />
    <glyph glyph-name="colon" unicode=":" horiz-adv-x="297" 
d="M209 301v94h-94v-94h94zM209 0v94h-94v-94h94z" />
    <glyph glyph-name="semicolon" unicode=";" horiz-adv-x="297" 
d="M209 301v94h-94v-94h94zM205 -65v153h-88v-232z" />
    <glyph glyph-name="less" unicode="&#x3c;" horiz-adv-x="1027" 
d="M972 234v70h-789l365 364h-94l-399 -399l399 -399h94l-365 364h789z" />
    <glyph glyph-name="equal" unicode="=" 
d="M470 320v67h-418v-67h418zM470 151v66h-418v-66h418z" />
    <glyph glyph-name="greater" unicode="&#x3e;" horiz-adv-x="1027" 
d="M972 269l-399 399h-94l365 -364h-789v-70h789l-365 -364h94z" />
    <glyph glyph-name="question" unicode="?" horiz-adv-x="497" 
d="M451 536q0 40 -14.5 73.5t-39.5 57.5t-59.5 37.5t-73.5 13.5q-41 0 -75 -14.5t-59.5 -39t-39.5 -58t-14 -71.5h72q0 24 8 45.5t23 38t36.5 26t48.5 9.5q51 0 83 -33.5t32 -84.5q0 -26 -9.5 -45t-23.5 -40l-81 -117q-16 -23 -23.5 -44t-7.5 -50v-40h72v39q0 12 4.5 28
t13.5 30l82 118q20 29 32.5 57.5t12.5 63.5zM313 0v84h-86v-84h86z" />
    <glyph glyph-name="at" unicode="@" horiz-adv-x="713" 
d="M641 -1v497q0 104 -57 161q-56 56 -154 56h-148q-99 0 -154 -56q-56 -57 -56 -161v-336q0 -33 3.5 -57.5t12.5 -43.5t24 -35t38 -33l49 49q-17 13 -28 24.5t-17.5 25t-9 30.5t-2.5 41v337q0 42 8.5 66.5t31.5 47.5q22 22 48 31t61 9h130q35 0 62.5 -9.5t48.5 -30.5
q22 -23 30.5 -48.5t8.5 -65.5v-78q-26 32 -58 47.5t-76 15.5t-80 -16.5t-58 -45.5q-23 -31 -32 -74t-9 -109q0 -68 9 -110.5t35 -73.5q23 -29 58.5 -45t77.5 -16q46 0 77.5 15t56.5 47v-55zM571 238q0 -35 -4 -68t-17 -58.5t-37 -41t-63 -15.5t-63 15.5t-37 41t-17 58.5
t-4 68t4 68t17 58.5t37 41t63 15.5t63 -15.5t37 -41t17 -58.5t4 -68z" />
    <glyph glyph-name="A" unicode="A" horiz-adv-x="611" 
d="M599 0l-261 712h-64l-262 -712h81l57 161h311l57 -161h81zM439 227h-266l134 376z" />
    <glyph glyph-name="B" unicode="B" horiz-adv-x="668" 
d="M592 197q0 64 -32.5 107t-83.5 62q45 17 75 58t30 98q0 45 -15.5 80t-43 59.5t-66.5 37.5t-85 13h-268v-712h277q47 0 86 12.5t67 37.5t43.5 62t15.5 85zM505 521q0 -32 -11 -55.5t-29.5 -38.5t-44 -22.5t-55.5 -7.5h-186v247h186q30 0 55.5 -7.5t44 -22.5t29.5 -38
t11 -55zM516 199q0 -60 -38.5 -95.5t-104.5 -35.5h-194v261h194q66 0 104.5 -35t38.5 -95z" />
    <glyph glyph-name="C" unicode="C" horiz-adv-x="637" 
d="M572 206h-76q-14 -66 -59 -105t-112 -39q-35 0 -67.5 13t-55.5 37q-17 17 -27 36.5t-15 47t-6.5 66t-1.5 94.5t1.5 94.5t6.5 66t15 47t27 36.5q23 24 55.5 37t67.5 13q67 0 111 -39t58 -105h78q-9 50 -30.5 89.5t-54 66.5t-73.5 41.5t-89 14.5q-53 0 -99.5 -19t-82.5 -55
q-25 -25 -38.5 -52t-20 -60.5t-7.5 -76t-1 -99.5t1 -99.5t7.5 -76t20 -60.5t38.5 -52q36 -36 82.5 -55t99.5 -19q48 0 89 14.5t73.5 41.5t54 66.5t30.5 89.5z" />
    <glyph glyph-name="D" unicode="D" horiz-adv-x="673" 
d="M597 364q0 37 -0.5 75.5t-6.5 75t-20.5 70t-42.5 61.5q-32 32 -78 49t-102 17h-244v-712h244q56 0 102 17t78 49q28 28 42.5 64t20.5 75.5t6.5 80.5t0.5 78zM521 364q0 -33 -0.5 -68t-4.5 -67.5t-14 -61t-28 -47.5q-28 -29 -63 -40.5t-77 -11.5h-155v576h155
q42 0 77 -11.5t63 -40.5q18 -19 28 -45t14 -55.5t4.5 -62t0.5 -65.5z" />
    <glyph glyph-name="E" unicode="E" horiz-adv-x="600" 
d="M545 0v68h-366v257h312v68h-312v251h366v68h-442v-712h442z" />
    <glyph glyph-name="F" unicode="F" horiz-adv-x="580" 
d="M545 644v68h-442v-712h76v314h312v68h-312v262h366z" />
    <glyph glyph-name="G" unicode="G" horiz-adv-x="650" 
d="M576 260v113h-251v-67h175v-54q0 -42 -9 -72.5t-31 -56.5q-25 -30 -60.5 -45.5t-74.5 -15.5q-35 0 -67.5 13t-55.5 37q-17 17 -27 36.5t-15 47t-6.5 66t-1.5 94.5t1.5 94.5t6.5 65.5t15 46.5t27 36.5q23 24 55.5 37.5t67.5 13.5q67 0 112.5 -38.5t60.5 -106.5h76
q-8 47 -28.5 86t-52.5 67.5t-74.5 44t-93.5 15.5q-108 0 -182 -74q-25 -25 -38.5 -52t-20 -60.5t-7.5 -76t-1 -99.5t1 -99.5t7.5 -76t20 -60.5t38.5 -52q36 -36 82.5 -55t99.5 -19q55 0 103.5 20.5t86.5 61.5q33 35 47 78.5t14 105.5z" />
    <glyph glyph-name="H" unicode="H" horiz-adv-x="696" 
d="M593 0v712h-76v-319h-338v319h-76v-712h76v325h338v-325h76z" />
    <glyph glyph-name="I" unicode="I" horiz-adv-x="282" 
d="M179 0v712h-76v-712h76z" />
    <glyph glyph-name="J" unicode="J" horiz-adv-x="501" 
d="M408 216v496h-76v-486q0 -79 -38 -121.5t-108 -42.5q-44 0 -68.5 13.5t-43.5 33.5l-51 -51q33 -33 72.5 -48.5t90.5 -15.5q49 0 89.5 15.5t70 44t46 70t16.5 92.5z" />
    <glyph glyph-name="K" unicode="K" horiz-adv-x="650" 
d="M636 0l-256 437l224 275h-93l-332 -409v409h-76v-712h76v199l150 180l217 -379h90z" />
    <glyph glyph-name="L" unicode="L" horiz-adv-x="573" 
d="M543 0v68h-364v644h-76v-712h440z" />
    <glyph glyph-name="M" unicode="M" horiz-adv-x="816" 
d="M713 0v712h-76l-226 -505l-232 505h-76v-712h76v541l198 -429h65l195 429v-541h76z" />
    <glyph glyph-name="N" unicode="N" horiz-adv-x="732" 
d="M629 0v712h-76v-569l-378 569h-72v-712h76v571l378 -571h72z" />
    <glyph glyph-name="O" unicode="O" horiz-adv-x="650" 
d="M574 356q0 57 -1 99.5t-7.5 76t-20 60.5t-38.5 52q-74 74 -182 74t-182 -74q-25 -25 -38.5 -52t-20 -60.5t-7.5 -76t-1 -99.5t1 -99.5t7.5 -76t20 -60.5t38.5 -52q74 -74 182 -74q54 0 100 19t82 55q25 25 38.5 52t20 60.5t7.5 76t1 99.5zM498 356q0 -56 -1.5 -94.5
t-6.5 -65.5t-15 -46.5t-27 -36.5q-23 -24 -55.5 -37.5t-67.5 -13.5t-67.5 13.5t-55.5 37.5q-17 17 -27 36.5t-15 46.5t-6.5 65.5t-1.5 94.5t1.5 94.5t6.5 65.5t15 46.5t27 36.5q23 24 55.5 37.5t67.5 13.5t67.5 -13.5t55.5 -37.5q17 -17 27 -36.5t15 -46.5t6.5 -65.5
t1.5 -94.5z" />
    <glyph glyph-name="P" unicode="P" horiz-adv-x="630" 
d="M588 503q0 48 -16 86.5t-45 66t-69.5 42t-89.5 14.5h-265v-712h76v293h189q49 0 89.5 15t69.5 42t45 66t16 87zM512 503q0 -71 -42 -106.5t-109 -35.5h-182v283h182q67 0 109 -35t42 -106z" />
    <glyph glyph-name="Q" unicode="Q" horiz-adv-x="649" 
d="M603 11l-78 78q18 23 28 48.5t14.5 57t5.5 71t1 90.5q0 57 -1 99.5t-7.5 76t-20 60.5t-38.5 52q-74 74 -182 74t-182 -74q-25 -25 -38.5 -52t-20 -60.5t-7.5 -76t-1 -99.5t1 -99.5t7.5 -76t20 -60.5t38.5 -52q74 -74 182 -74q88 0 153 50l79 -79zM498 356q0 -43 -1 -75.5
t-4 -57t-8.5 -43.5t-15.5 -35l-87 87l-46 -46l90 -90q-45 -34 -101 -34q-35 0 -67.5 13.5t-55.5 37.5q-17 17 -27 36.5t-15 46.5t-6.5 65.5t-1.5 94.5t1.5 94.5t6.5 65.5t15 46.5t27 36.5q23 24 55.5 37.5t67.5 13.5t67.5 -13.5t55.5 -37.5q17 -17 27 -36.5t15 -46.5
t6.5 -65.5t1.5 -94.5z" />
    <glyph glyph-name="R" unicode="R" horiz-adv-x="656" 
d="M601 0l-169 323q69 14 112 63.5t43 127.5q0 46 -15.5 83t-43.5 62.5t-67 39t-85 13.5h-273v-712h76v316h171l162 -316h89zM511 513q0 -66 -39.5 -98t-102.5 -32h-190v261h190q63 0 102.5 -32.5t39.5 -98.5z" />
    <glyph glyph-name="S" unicode="S" horiz-adv-x="588" 
d="M532 196q0 90 -60 141q-11 10 -23.5 17.5t-27.5 13.5t-34.5 10.5t-44.5 8.5l-78 12q-28 5 -53.5 15t-42.5 24q-32 28 -32 82q0 60 39 96t111 36q57 0 95 -15.5t71 -45.5l49 49q-46 41 -95 59.5t-117 18.5q-53 0 -95 -14.5t-71.5 -40.5t-45.5 -63.5t-16 -82.5
q0 -85 54 -133q46 -40 131 -54l83 -13q39 -6 57.5 -12.5t35.5 -21.5t25.5 -38t8.5 -51q0 -63 -45 -97.5t-123 -34.5q-60 0 -105 17t-89 61l-52 -52q50 -50 107 -72t137 -22q55 0 100.5 14t78 40t50 63.5t17.5 84.5z" />
    <glyph glyph-name="T" unicode="T" horiz-adv-x="548" 
d="M518 644v68h-488v-68h206v-644h76v644h206z" />
    <glyph glyph-name="U" unicode="U" horiz-adv-x="683" 
d="M590 235v477h-76v-471q0 -41 -12.5 -74t-35 -56t-54.5 -36t-71 -13t-71 13t-54.5 36t-34.5 56t-12 74v471h-76v-477q0 -53 18.5 -97.5t51.5 -76.5t78.5 -49.5t99.5 -17.5t99.5 17.5t79 49.5t52 76.5t18.5 97.5z" />
    <glyph glyph-name="V" unicode="V" horiz-adv-x="546" 
d="M538 712h-80l-185 -576l-185 576h-80l234 -712h62z" />
    <glyph glyph-name="W" unicode="W" horiz-adv-x="854" 
d="M838 712h-81l-139 -574l-157 574h-68l-157 -574l-139 574h-81l182 -712h71l158 570l158 -570h71z" />
    <glyph glyph-name="X" unicode="X" horiz-adv-x="551" 
d="M536 0l-220 365l205 347h-88l-158 -281l-158 281h-88l204 -347l-218 -365h86l174 299l173 -299h88z" />
    <glyph glyph-name="Y" unicode="Y" horiz-adv-x="514" 
d="M506 712h-82l-166 -341l-168 341h-82l212 -418v-294h76v294z" />
    <glyph glyph-name="Z" unicode="Z" horiz-adv-x="556" 
d="M499 0v68h-359l359 580v64h-428v-68h342l-356 -572v-72h442z" />
    <glyph glyph-name="bracketleft" unicode="[" horiz-adv-x="313" 
d="M269 -74v64h-105v732h105v64h-177v-860h177z" />
    <glyph glyph-name="backslash" unicode="\" horiz-adv-x="355" 
d="M355 -74l-284 857h-71l284 -857h71z" />
    <glyph glyph-name="bracketright" unicode="]" horiz-adv-x="313" 
d="M221 -74v860h-177v-62h108v-736h-108v-62h177z" />
    <glyph glyph-name="asciicircum" unicode="^" horiz-adv-x="537" 
d="M465 413l-163 305h-66l-164 -305h74l123 228l122 -228h74z" />
    <glyph glyph-name="underscore" unicode="_" horiz-adv-x="537" 
d="M537 -165v51h-537v-51h537z" />
    <glyph glyph-name="grave" unicode="`" horiz-adv-x="500" 
d="M299 594l-88 153h-86l108 -153h66z" />
    <glyph glyph-name="a" unicode="a" horiz-adv-x="526" 
d="M441 0v334q0 81 -48.5 122.5t-148.5 41.5q-60 0 -100.5 -15t-73.5 -58l49 -45q22 31 49 43.5t75 12.5q68 0 97 -27t29 -81v-47h-148q-83 0 -126.5 -38.5t-43.5 -103.5q0 -29 9.5 -55.5t27.5 -44.5q23 -24 55.5 -34.5t83.5 -10.5q49 0 80.5 11.5t61.5 41.5v-47h72z
M369 174q0 -61 -25 -85q-23 -23 -50.5 -28t-59.5 -5q-59 0 -86 20.5t-27 63.5q0 87 110 87h138v-53z" />
    <glyph glyph-name="b" unicode="b" horiz-adv-x="545" 
d="M481 246q0 29 -2.5 58t-9 56.5t-18 51.5t-30.5 43q-20 20 -51 31.5t-69 11.5q-41 0 -75 -12.5t-64 -50.5v277h-72v-712h72v59q30 -39 64 -52t75 -13q38 0 69 11.5t51 31.5q19 19 30.5 43t18 51.5t9 56.5t2.5 58zM409 246q0 -36 -4 -70t-17 -60t-37.5 -42t-64.5 -16
t-64.5 16t-37.5 42t-17.5 60t-4.5 70t4.5 70t17.5 60t37.5 42t64.5 16t64.5 -16t37.5 -42t17 -60t4 -70z" />
    <glyph glyph-name="c" unicode="c" horiz-adv-x="490" 
d="M443 67l-49 47q-28 -31 -53 -43.5t-60 -12.5q-36 0 -65 14t-49 42q-17 24 -24.5 54.5t-7.5 77.5t7.5 77.5t24.5 54.5q20 28 49 42t65 14q35 0 60 -12t53 -43l49 46q-38 41 -74.5 57t-87.5 16q-47 0 -86.5 -16t-69 -47.5t-46 -78.5t-16.5 -110t16.5 -110.5t46 -79t69 -47
t86.5 -15.5q51 0 87.5 16t74.5 57z" />
    <glyph glyph-name="d" unicode="d" horiz-adv-x="545" 
d="M455 0v712h-72v-277q-30 38 -64 50.5t-75 12.5q-38 0 -69 -11.5t-51 -31.5q-19 -19 -30.5 -43t-18 -51.5t-9 -56.5t-2.5 -58t2.5 -58t9 -56.5t18 -51.5t30.5 -43q20 -20 51 -31.5t69 -11.5q41 0 75.5 13t64.5 52v-59h71zM383 246q0 -36 -4 -70t-17 -60t-37.5 -42
t-64.5 -16t-64.5 16t-37.5 42t-17.5 60t-4.5 70t4.5 70t17.5 60t37.5 42t64.5 16t64.5 -16t37.5 -42t17 -60t4 -70z" />
    <glyph glyph-name="e" unicode="e" horiz-adv-x="530" 
d="M467 227v33q0 110 -53 174t-149 64q-94 0 -148 -66t-54 -186q0 -65 15.5 -112.5t43.5 -78.5t67.5 -46t88.5 -15q31 0 56.5 5t46.5 14.5t39.5 23.5t37.5 33l-49 43q-29 -29 -57.5 -42.5t-71.5 -13.5q-71 0 -108 44.5t-37 125.5h332zM395 281h-260q1 30 4 46t11 36
q14 34 45 54t70 20t70 -20t45 -54q4 -10 6.5 -18.5t4 -17.5t2.5 -20t2 -26z" />
    <glyph glyph-name="f" unicode="f" horiz-adv-x="314" 
d="M283 434v55h-105v91q0 34 15.5 53t50.5 19h39v62h-52q-32 0 -55 -10.5t-39 -28.5t-23.5 -42t-7.5 -51v-93h-63v-55h63v-434h72v434h105z" />
    <glyph glyph-name="g" unicode="g" horiz-adv-x="543" 
d="M453 -15v507h-71v-58q-30 39 -63.5 51.5t-74.5 12.5q-38 0 -69 -11.5t-51 -31.5q-37 -37 -48.5 -91t-11.5 -114t11.5 -114t48.5 -91q20 -20 50.5 -32t68.5 -12q40 0 74 13t64 51v-77q0 -32 -7.5 -59.5t-24 -47.5t-42 -32t-61.5 -12q-21 0 -37 3t-29.5 9.5t-26 15.5
t-25.5 21l-47 -46q19 -18 37.5 -30.5t38 -20.5t41.5 -11.5t50 -3.5q48 0 86.5 16t64.5 44t40 66.5t14 84.5zM381 250q0 -35 -4 -68t-17 -58.5t-37 -41.5t-64 -16t-64.5 16t-37.5 41.5t-17 58.5t-4 68q0 34 4 67.5t17 59t37.5 41.5t64.5 16t64 -16t37 -41.5t17 -59t4 -67.5z
" />
    <glyph glyph-name="h" unicode="h" horiz-adv-x="562" 
d="M477 0v316q0 84 -46.5 133t-130.5 49q-85 0 -138 -60v274h-72v-712h72v304q0 64 33.5 97t89.5 33t88 -32.5t32 -97.5v-304h72z" />
    <glyph glyph-name="i" unicode="i" horiz-adv-x="253" 
d="M167 632v81h-81v-81h81zM162 0v492h-72v-492h72z" />
    <glyph glyph-name="j" unicode="j" horiz-adv-x="253" 
d="M167 632v81h-81v-81h81zM162 -89v578h-72v-575q0 -36 -14 -54t-52 -18h-39v-63h52q32 0 55.5 10t39 28t23 42t7.5 52z" />
    <glyph glyph-name="k" unicode="k" horiz-adv-x="536" 
d="M503 0l-196 304l167 188h-90l-222 -256v476h-72v-712h72v142l96 110l156 -252h89z" />
    <glyph glyph-name="l" unicode="l" horiz-adv-x="297" 
d="M265 0v62h-39q-38 0 -52 18t-14 54v578h-72v-581q0 -56 30 -93.5t95 -37.5h52z" />
    <glyph glyph-name="m" unicode="m" horiz-adv-x="879" 
d="M794 0v315q0 86 -53 137q-23 22 -55 34t-72 12q-104 0 -162 -82q-23 41 -61.5 61.5t-89.5 20.5q-42 0 -77.5 -15t-61.5 -45v54h-72v-492h72v303q0 65 33.5 98t89.5 33t88.5 -32.5t32.5 -98.5v-303h72v311q0 59 34.5 91t88.5 32q56 0 88.5 -32.5t32.5 -98.5v-303h72z" />
    <glyph glyph-name="n" unicode="n" horiz-adv-x="562" 
d="M477 0v315q0 87 -51 137q-46 46 -126 46q-42 0 -77 -15t-61 -45v54h-72v-492h72v303q0 65 33 98t89 33t88.5 -32.5t32.5 -98.5v-303h72z" />
    <glyph glyph-name="o" unicode="o" horiz-adv-x="530" 
d="M466 246q0 57 -11.5 107.5t-48.5 88.5q-26 26 -61 41t-80 15t-80 -15t-61 -41q-19 -19 -30.5 -41.5t-18 -47t-9 -52t-2.5 -55.5q0 -29 2.5 -56t9 -51.5t18 -47t30.5 -41.5q26 -26 61 -41t80 -15t80 15t61 41q37 38 48.5 88.5t11.5 107.5zM394 246q0 -21 -1 -42t-5 -41
t-12 -38t-21 -31q-36 -36 -90 -36q-53 0 -89 36q-14 13 -21.5 31t-12 38t-5.5 41t-1 42t1 42t5.5 41t12 37.5t21.5 31.5q36 36 89 36q54 0 90 -36q13 -14 21 -31.5t12 -37.5t5 -41t1 -42z" />
    <glyph glyph-name="p" unicode="p" horiz-adv-x="545" 
d="M481 246q0 29 -2.5 58t-9 56.5t-18 51.5t-30.5 43q-20 20 -51 31.5t-69 11.5q-41 0 -75 -12.5t-64 -51.5v58h-72v-712h72v278q30 -38 64 -51t75 -13q38 0 69 11.5t51 31.5q19 19 30.5 43t18 51.5t9 56.5t2.5 58zM409 246q0 -36 -4 -70t-17 -60t-37.5 -42t-64.5 -16
t-64.5 16t-37.5 42t-17.5 60t-4.5 70t4.5 70t17.5 60t37.5 42t64.5 16t64.5 -16t37.5 -42t17 -60t4 -70z" />
    <glyph glyph-name="q" unicode="q" horiz-adv-x="545" 
d="M455 -220v712h-71v-58q-30 39 -64.5 51.5t-75.5 12.5q-38 0 -69 -11.5t-51 -31.5q-19 -19 -30.5 -43t-18 -51.5t-9 -56.5t-2.5 -58t2.5 -58t9 -56.5t18 -51.5t30.5 -43q20 -20 51 -31.5t69 -11.5q41 0 75 13t64 51v-278h72zM383 246q0 -36 -4 -70t-17 -60t-37.5 -42
t-64.5 -16t-64.5 16t-37.5 42t-17.5 60t-4.5 70t4.5 70t17.5 60t37.5 42t64.5 16t64.5 -16t37.5 -42t17 -60t4 -70z" />
    <glyph glyph-name="r" unicode="r" horiz-adv-x="421" 
d="M418 452q-26 26 -54.5 36t-63.5 10q-43 0 -80.5 -17.5t-57.5 -48.5v60h-72v-492h72v302q0 28 8.5 52t23.5 42t37 28t49 10q29 0 47 -8t38 -28z" />
    <glyph glyph-name="s" unicode="s" horiz-adv-x="496" 
d="M445 144q0 34 -10.5 58t-29.5 40t-46 24t-59 11l-79 7q-47 4 -66.5 22t-19.5 50q0 38 28 59.5t82 21.5q38 0 71.5 -9.5t59.5 -29.5l47 47q-33 27 -78.5 40t-98.5 13q-39 0 -72.5 -10t-57.5 -28.5t-37.5 -45t-13.5 -60.5q0 -61 37.5 -93.5t109.5 -38.5l81 -7
q43 -4 62.5 -22t19.5 -50q0 -44 -35 -65.5t-96 -21.5q-46 0 -85 13t-68 44l-48 -48q41 -39 90 -55t112 -16q45 0 81.5 10t63 29.5t41 47t14.5 63.5z" />
    <glyph glyph-name="t" unicode="t" horiz-adv-x="332" 
d="M279 0v62h-38q-35 0 -51 19t-16 53v300h105v55h-105v154h-72v-154h-62v-55h62v-302q0 -27 8 -51t23.5 -42t39 -28.5t55.5 -10.5h51z" />
    <glyph glyph-name="u" unicode="u" horiz-adv-x="562" 
d="M472 0v492h-72v-303q0 -65 -33.5 -98t-89.5 -33t-88 32.5t-32 98.5v303h-72v-314q0 -43 12 -77.5t38 -60.5q46 -46 127 -46q42 0 77.5 15.5t61.5 45.5v-55h71z" />
    <glyph glyph-name="v" unicode="v" horiz-adv-x="447" 
d="M436 492h-78l-135 -395l-134 395h-78l180 -492h64z" />
    <glyph glyph-name="w" unicode="w" horiz-adv-x="724" 
d="M713 492h-78l-112 -395l-130 395h-62l-129 -395l-113 395h-78l156 -492h67l128 382l129 -382h67z" />
    <glyph glyph-name="x" unicode="x" horiz-adv-x="478" 
d="M445 0l-167 251l160 241h-87l-111 -182l-113 182h-87l160 -241l-167 -251h87l120 191l118 -191h87z" />
    <glyph glyph-name="y" unicode="y" horiz-adv-x="447" 
d="M436 492h-78l-134 -395l-135 395h-78l177 -482l-35 -96q-12 -34 -28 -47.5t-53 -13.5h-22v-64h31q26 0 51 7.5t45 26.5q21 19 35 58z" />
    <glyph glyph-name="z" unicode="z" horiz-adv-x="459" 
d="M407 0v64h-275l275 367v61h-342v-64h259l-274 -366v-62h357z" />
    <glyph glyph-name="braceleft" unicode="{" horiz-adv-x="354" 
d="M305 -74v64h-23q-26 0 -38.5 2.5t-20.5 10.5t-11 23t-3 42v188q0 43 -17 64.5t-46 35.5q29 14 46 35.5t17 64.5v188q0 27 3 42t11 23t20.5 10.5t38.5 2.5h23v64h-37q-38 0 -61.5 -7t-39.5 -23q-17 -17 -23.5 -38.5t-6.5 -60.5v-191q0 -42 -18 -60q-8 -8 -19.5 -13
t-25.5 -5h-26v-64h26q14 0 25.5 -5t19.5 -13q18 -18 18 -60v-191q0 -39 6.5 -60.5t23.5 -38.5q16 -16 39.5 -23t61.5 -7h37z" />
    <glyph glyph-name="bar" unicode="|" horiz-adv-x="326" 
d="M199 -74v860h-72v-860h72z" />
    <glyph glyph-name="braceright" unicode="}" horiz-adv-x="354" 
d="M305 324v64h-25q-14 0 -25.5 5t-19.5 13q-18 18 -18 60v191q0 39 -6.5 60.5t-23.5 38.5q-16 16 -39.5 23t-61.5 7h-38v-64h24q26 0 38 -2.5t20 -10.5t11.5 -23t3.5 -42v-188q0 -43 17 -64.5t46 -35.5q-29 -14 -46 -35.5t-17 -64.5v-188q0 -27 -3.5 -42t-11.5 -23
t-20 -10.5t-38 -2.5h-24v-64h38q38 0 61.5 7t39.5 23q17 17 23.5 38.5t6.5 60.5v191q0 42 18 60q8 8 19.5 13t25.5 5h25z" />
    <glyph glyph-name="asciitilde" unicode="~" horiz-adv-x="539" 
d="M490 278l-45 45q-15 -15 -26 -23.5t-20.5 -13.5t-18.5 -6.5t-19 -1.5q-20 0 -38.5 7t-39.5 17q-29 13 -54 22t-51 9q-17 0 -31.5 -3t-29 -10.5t-31 -20.5t-37.5 -34l44 -45q15 15 26 23.5t20.5 13.5t18 6.5t19.5 1.5q20 0 38.5 -7t39.5 -17q29 -13 54.5 -22t51.5 -9
q17 0 31.5 2.5t29 10t31 21t37.5 34.5z" />
    <glyph glyph-name="nonbreakingspace" unicode="&#xa0;" horiz-adv-x="249" 
 />
    <glyph glyph-name="exclamdown" unicode="&#xa1;" horiz-adv-x="316" 
d="M185 408v84h-86v-84h86zM184 -220l-11 512h-62l-10 -512h83z" />
    <glyph glyph-name="cent" unicode="&#xa2;" horiz-adv-x="498" 
d="M448 189l-49 46q-25 -28 -47.5 -40.5t-52.5 -14.5v372q30 -2 52.5 -14.5t47.5 -40.5l49 46q-35 38 -67.5 54.5t-77.5 19.5v95h-59v-97q-83 -12 -132 -76t-49 -173t49 -173t132 -76v-117h59v115q45 3 77.5 19.5t67.5 54.5zM248 182q-49 9 -80 52q-17 24 -25 54.5t-8 77.5
t8 77.5t25 54.5q31 43 80 52v-368z" />
    <glyph glyph-name="sterling" unicode="&#xa3;" horiz-adv-x="548" 
d="M496 0v68h-309v262h146v54h-146v102q0 79 38 121.5t108 42.5q22 0 38.5 -3.5t29.5 -10t23 -15t20 -18.5l52 51q-33 33 -72.5 48.5t-90.5 15.5q-49 0 -90 -15.5t-70.5 -44t-46 -70t-16.5 -92.5v-112h-63v-54h63v-330h386z" />
    <glyph glyph-name="currency" unicode="&#xa4;" horiz-adv-x="660" 
d="M582 65l-74 74q20 27 32 60.5t12 71.5t-12 71.5t-32 60.5l74 73l-46 46l-75 -73q-27 20 -60 31.5t-71 11.5t-71.5 -11.5t-60.5 -31.5l-74 73l-46 -46l74 -73q-20 -27 -32 -60.5t-12 -71.5t12 -71.5t32 -60.5l-74 -74l46 -46l74 74q27 -20 60.5 -32t71.5 -12t71 12t60 32
l75 -74zM485 271q0 -32 -12 -60.5t-33 -49.5t-49.5 -33.5t-60.5 -12.5t-60.5 12.5t-49.5 33.5t-33.5 49.5t-12.5 60.5t12.5 60.5t33.5 49.5t49.5 33t60.5 12t60.5 -12t49.5 -33t33 -49.5t12 -60.5z" />
    <glyph glyph-name="yen" unicode="&#xa5;" horiz-adv-x="514" 
d="M506 712h-81l-167 -341l-168 341h-82l157 -311h-100v-54h128l26 -53v-52h-154v-55h154v-187h77v187h153v55h-153v52l26 53h127v54h-100z" />
    <glyph glyph-name="brokenbar" unicode="&#xa6;" horiz-adv-x="335" 
d="M199 436v350h-72v-350h72zM199 -74v350h-72v-350h72z" />
    <glyph glyph-name="section" unicode="&#xa7;" horiz-adv-x="557" 
d="M470 254q0 68 -35.5 116t-101.5 67l-78 22q-38 11 -61 33.5t-23 62.5q0 49 28.5 74t79.5 25q48 0 77 -21.5t33 -71.5h72q-2 36 -16 65.5t-38 49.5t-56.5 31t-71.5 11t-72 -12t-57 -33.5t-37.5 -52t-13.5 -66.5q0 -55 25 -86.5t68 -51.5q-20 -10 -39 -25t-33.5 -36
t-23.5 -46.5t-9 -56.5q0 -69 35.5 -116.5t101.5 -66.5l78 -22q42 -12 65 -39.5t23 -62.5q0 -51 -30 -78t-81 -27t-81 24t-35 71h-73q2 -40 18 -70t41.5 -50.5t59 -30.5t70.5 -10q39 0 72.5 12t58 34.5t39 54.5t14.5 71q0 55 -27 91.5t-70 52.5q20 10 38.5 25t33 36
t23.5 46.5t9 56.5zM397 253q0 -32 -8.5 -53.5t-23.5 -38.5q-33 -36 -86 -36t-86 36q-14 16 -23.5 38t-9.5 54q0 31 8 52t25 40q33 36 86 36q50 0 86 -36q19 -19 25.5 -41t6.5 -51z" />
    <glyph glyph-name="dieresis" unicode="&#xa8;" horiz-adv-x="500" 
d="M392 602v89h-72v-89h72zM180 602v89h-72v-89h72z" />
    <glyph glyph-name="copyright" unicode="&#xa9;" horiz-adv-x="881" 
d="M802 356q0 75 -28.5 141t-77.5 115t-115 77.5t-141 28.5t-141 -28.5t-115 -77.5t-77.5 -115t-28.5 -141t28.5 -141t77.5 -115t115 -77.5t141 -28.5t141 28.5t115 77.5t77.5 115t28.5 141zM744 356q0 -63 -24 -119t-65 -98t-96.5 -66.5t-118.5 -24.5t-118 24.5t-96.5 66.5
t-65 98t-23.5 119t23.5 119t65 98t96.5 66.5t118 24.5t118.5 -24.5t96.5 -66.5t65 -98t24 -119zM576 205l-36 36q-25 -22 -46 -30t-49 -8q-34 0 -57.5 12t-37.5 33t-20.5 48.5t-6.5 59.5q0 31 6.5 59t20.5 49t37.5 33.5t57.5 12.5q28 0 49 -8.5t46 -30.5l36 36
q-31 27 -60 40t-71 13q-44 0 -77 -15.5t-55.5 -42.5t-34 -64.5t-11.5 -81.5t11.5 -81t34 -64t55.5 -42.5t77 -15.5q42 0 72 13t59 39z" />
    <glyph glyph-name="ordfeminine" unicode="&#xaa;" horiz-adv-x="449" 
d="M365 319v265q0 64 -38 98t-117 34q-48 0 -80.5 -12.5t-59.5 -47.5l41 -37q18 25 39.5 34.5t58.5 9.5q54 0 75.5 -21t21.5 -63v-36h-115q-66 0 -100.5 -31t-34.5 -83q0 -47 30 -79q19 -19 44 -27.5t66 -8.5q38 0 63 9t48 32v-36h58zM306 458q0 -49 -19 -67
q-18 -17 -39.5 -21t-46.5 -4q-45 0 -65.5 16t-20.5 49q0 67 84 67h107v-40z" />
    <glyph glyph-name="guillemotleft" unicode="&#xab;" horiz-adv-x="554" 
d="M476 58v89l-121 121l121 120v90l-210 -210zM250 58v89l-120 121l120 120v90l-210 -210z" />
    <glyph glyph-name="logicalnot" unicode="&#xac;" 
d="M471 103v204h-420v-67h353v-137h67z" />
    <glyph glyph-name="registered" unicode="&#xae;" horiz-adv-x="881" 
d="M802 356q0 75 -28.5 141t-77.5 115t-115 77.5t-141 28.5t-141 -28.5t-115 -77.5t-77.5 -115t-28.5 -141t28.5 -141t77.5 -115t115 -77.5t141 -28.5t141 28.5t115 77.5t77.5 115t28.5 141zM745 356q0 -64 -24 -120t-65.5 -98t-97 -66.5t-118.5 -24.5t-118.5 24.5
t-96.5 66.5t-65 98t-24 120t24 120t65 98t96.5 66.5t118.5 24.5t118.5 -24.5t97 -66.5t65.5 -98t24 -120zM592 158l-95 169q37 11 61 38t24 71q0 25 -10 47t-27 38t-39.5 25t-48.5 9h-135v-397h55v162h60l91 -162h64zM526 436q0 -30 -21 -49.5t-54 -19.5h-74v139h74
q33 0 54 -20t21 -50z" />
    <glyph glyph-name="macron" unicode="&#xaf;" horiz-adv-x="500" 
d="M401 614v57h-302v-57h302z" />
    <glyph glyph-name="macron" unicode="&#x2c9;" horiz-adv-x="500" 
d="M401 614v57h-302v-57h302z" />
    <glyph glyph-name="degree" unicode="&#xb0;" horiz-adv-x="463" 
d="M396 557q0 34 -13 64t-35 52t-52 35t-64 13t-64 -13t-52.5 -35t-35.5 -52t-13 -64t13 -64t35.5 -52t52.5 -35t64 -13t64 13t52 35t35 52t13 64zM335 557q0 -23 -8 -42t-21.5 -33.5t-32.5 -22.5t-41 -8t-41 8t-33 22.5t-22 33.5t-8 42q0 22 8 41.5t21.5 34t32.5 22.5t41 8
t41 -8t33 -22.5t22 -34t8 -41.5z" />
    <glyph glyph-name="plusminus" unicode="&#xb1;" 
d="M470 289v67h-175v175h-67v-175h-176v-67h176v-177h67v177h175zM470 0v67h-418v-67h418z" />
    <glyph glyph-name="twosuperior" unicode="&#xb2;" horiz-adv-x="342" 
d="M294 285v52h-177l138 168q20 24 29.5 44t9.5 48q0 55 -34.5 87t-88.5 32t-88.5 -32.5t-34.5 -86.5h58q0 37 19.5 52t45.5 15q31 0 48 -18.5t17 -48.5q0 -17 -5.5 -30t-17.5 -28l-165 -202v-52h246z" />
    <glyph glyph-name="threesuperior" unicode="&#xb3;" horiz-adv-x="356" 
d="M308 405q0 40 -16 64t-45 36q26 12 40 34.5t14 57.5q0 54 -34.5 86.5t-88.5 32.5q-51 0 -86 -30.5t-38 -84.5h57q2 29 20 46t47 17q27 0 46.5 -17t19.5 -51q0 -31 -16.5 -49.5t-51.5 -18.5h-9v-50h9q38 0 56.5 -19.5t18.5 -53.5q0 -35 -20.5 -54t-51.5 -19
q-28 0 -49.5 16t-23.5 51h-58q1 -31 12 -53.5t29 -37t41 -21.5t49 -7q27 0 50.5 8t41 23.5t27.5 39t10 54.5z" />
    <glyph glyph-name="acute" unicode="&#xb4;" horiz-adv-x="500" 
d="M375 747h-86l-88 -153h66z" />
    <glyph glyph-name="mu" unicode="&#xb5;" horiz-adv-x="561" 
d="M471 0v492h-72v-303q0 -65 -33.5 -98t-89.5 -33t-88.5 32.5t-32.5 98.5v303h-72v-712h72v251q40 -37 106 -37q85 0 138 61v-55h72z" />
    <glyph glyph-name="mu" unicode="&#x3bc;" horiz-adv-x="561" 
d="M471 0v492h-72v-303q0 -65 -33.5 -98t-89.5 -33t-88.5 32.5t-32.5 98.5v303h-72v-712h72v251q40 -37 106 -37q85 0 138 61v-55h72z" />
    <glyph glyph-name="paragraph" unicode="&#xb6;" horiz-adv-x="603" 
d="M500 -220v932h-241q-51 0 -91.5 -15.5t-68.5 -41.5t-42.5 -61.5t-14.5 -75.5q0 -37 14 -71.5t39.5 -61.5t62 -43t81.5 -16v-546h72v864h117v-864h72z" />
    <glyph glyph-name="periodcentered" unicode="&#xb7;" horiz-adv-x="270" 
d="M182 223v94h-94v-94h94z" />
    <glyph glyph-name="cedilla" unicode="&#xb8;" horiz-adv-x="500" 
d="M313 -67h-67l-71 -149h79z" />
    <glyph glyph-name="onesuperior" unicode="&#xb9;" horiz-adv-x="261" 
d="M183 285v427h-57l-83 -71v-66l83 73v-363h57z" />
    <glyph glyph-name="ordmasculine" unicode="&#xba;" horiz-adv-x="455" 
d="M387 515q0 45 -9 85t-39 71q-20 20 -48 32.5t-64 12.5t-64 -12.5t-48 -32.5q-30 -31 -39 -71t-9 -85q0 -46 9 -85.5t39 -70.5q20 -20 48 -32t64 -12t64 12t48 32q30 31 39 70.5t9 85.5zM328 515q0 -32 -5 -64.5t-26 -53.5q-14 -14 -32 -21.5t-38 -7.5t-38 7.5t-32 21.5
q-21 21 -25.5 53.5t-4.5 64.5t4.5 65t25.5 54q28 28 70 28t70 -28q21 -21 26 -54t5 -65z" />
    <glyph glyph-name="guillemotright" unicode="&#xbb;" horiz-adv-x="554" 
d="M514 268l-210 210v-90l120 -120l-120 -121v-89zM288 268l-210 210v-90l121 -120l-121 -121v-89z" />
    <glyph glyph-name="onequarter" unicode="&#xbc;" horiz-adv-x="777" 
d="M737 64v53h-47v105h-56v-105h-109l150 310h-62l-151 -310v-53h172v-64h56v64h47zM566 712h-60l-333 -712h60zM183 285v427h-57l-83 -71v-66l83 73v-363h57z" />
    <glyph glyph-name="onehalf" unicode="&#xbd;" horiz-adv-x="790" 
d="M742 0v52h-176l137 168q20 24 29.5 44t9.5 48q0 55 -34.5 87t-88.5 32t-88.5 -32.5t-34.5 -86.5h58q0 37 19.5 52t45.5 15q31 0 48 -18.5t17 -48.5q0 -17 -5.5 -30t-17.5 -28l-165 -202v-52h246zM554 712h-60l-333 -712h60zM183 285v427h-57l-83 -71v-66l83 73v-363h57z
" />
    <glyph glyph-name="threequarters" unicode="&#xbe;" horiz-adv-x="822" 
d="M782 64v53h-47v105h-56v-105h-110l151 310h-62l-151 -310v-53h172v-64h56v64h47zM619 712h-60l-334 -712h60zM308 405q0 40 -16 64t-45 36q26 12 40 34.5t14 57.5q0 54 -34.5 86.5t-88.5 32.5q-51 0 -86 -30.5t-38 -84.5h57q2 29 20 46t47 17q27 0 46.5 -17t19.5 -51
q0 -31 -16.5 -49.5t-51.5 -18.5h-9v-50h9q38 0 56.5 -19.5t18.5 -53.5q0 -35 -20.5 -54t-51.5 -19q-28 0 -49.5 16t-23.5 51h-58q1 -31 12 -53.5t29 -37t41 -21.5t49 -7q27 0 50.5 8t41 23.5t27.5 39t10 54.5z" />
    <glyph glyph-name="questiondown" unicode="&#xbf;" horiz-adv-x="497" 
d="M270 408v84h-85v-84h85zM421 -43h-72q0 -24 -8 -45t-23 -37.5t-36 -26t-48 -9.5q-51 0 -83.5 33.5t-32.5 84.5q0 26 9.5 45t23.5 40l81 116q16 23 24 44t8 50v41h-72v-40q0 -12 -4.5 -28t-13.5 -30l-82 -118q-20 -29 -33 -57t-13 -63q0 -40 14.5 -73.5t40 -58t60 -38
t73.5 -13.5q40 0 74.5 14t59.5 39t39 58.5t14 71.5z" />
    <glyph glyph-name="Agrave" unicode="&#xc0;" horiz-adv-x="611" 
d="M599 0l-261 712h-64l-262 -712h81l57 161h311l57 -161h81zM439 227h-266l134 376zM351 781l-88 153h-86l108 -153h66z" />
    <glyph glyph-name="Aacute" unicode="&#xc1;" horiz-adv-x="611" 
d="M599 0l-261 712h-64l-262 -712h81l57 161h311l57 -161h81zM439 227h-266l134 376zM427 934h-86l-88 -153h66z" />
    <glyph glyph-name="Acircumflex" unicode="&#xc2;" horiz-adv-x="611" 
d="M599 0l-261 712h-64l-262 -712h81l57 161h311l57 -161h81zM439 227h-266l134 376zM461 781l-125 153h-68l-125 -153h69l90 104l90 -104h69z" />
    <glyph glyph-name="Atilde" unicode="&#xc3;" horiz-adv-x="611" 
d="M599 0l-261 712h-64l-262 -712h81l57 161h311l57 -161h81zM439 227h-266l134 376zM459 846l-37 36q-22 -22 -35 -27t-24 -5q-15 0 -27.5 5t-28.5 15q-19 11 -34 17.5t-37 6.5q-9 0 -19 -1.5t-21 -7t-24.5 -15.5t-30.5 -27l37 -36q22 22 34.5 27t24.5 5q15 0 28.5 -6.5
t27.5 -14.5q18 -11 34 -17t37 -6q17 0 39 8.5t56 42.5z" />
    <glyph glyph-name="Adieresis" unicode="&#xc4;" horiz-adv-x="611" 
d="M599 0l-261 712h-64l-262 -712h81l57 161h311l57 -161h81zM439 227h-266l134 376zM444 789v89h-72v-89h72zM232 789v89h-72v-89h72z" />
    <glyph glyph-name="Aring" unicode="&#xc5;" horiz-adv-x="611" 
d="M599 0l-261 712h-64l-262 -712h81l57 161h311l57 -161h81zM439 227h-266l134 376zM420 867q0 25 -9.5 46.5t-25.5 37.5t-37.5 25t-45.5 9t-45.5 -9.5t-37.5 -25.5t-25.5 -37.5t-9.5 -45.5t9.5 -46t25.5 -38t37.5 -25.5t45.5 -9.5t45.5 9.5t37.5 25.5t25.5 38t9.5 46z
M371 867q0 -29 -20 -49t-49 -20t-49 20t-20 49t20 48.5t49 19.5t49 -19.5t20 -48.5z" />
    <glyph glyph-name="AE" unicode="&#xc6;" horiz-adv-x="922" 
d="M867 0v68h-366v255h312v68h-312v253h366v68h-483l-376 -712h83l88 169h247v-169h441zM426 235h-214l214 409v-409z" />
    <glyph glyph-name="Ccedilla" unicode="&#xc7;" horiz-adv-x="637" 
d="M572 206h-76q-14 -66 -59 -105t-112 -39q-35 0 -67.5 13t-55.5 37q-17 17 -27 36.5t-15 47t-6.5 66t-1.5 94.5t1.5 94.5t6.5 66t15 47t27 36.5q23 24 55.5 37t67.5 13q67 0 111 -39t58 -105h78q-9 50 -30.5 89.5t-54 66.5t-73.5 41.5t-89 14.5q-53 0 -99.5 -19t-82.5 -55
q-25 -25 -38.5 -52t-20 -60.5t-7.5 -76t-1 -99.5t1 -99.5t7.5 -76t20 -60.5t38.5 -52q36 -36 82.5 -55t99.5 -19q48 0 89 14.5t73.5 41.5t54 66.5t30.5 89.5zM370 -67h-67l-71 -149h79z" />
    <glyph glyph-name="Egrave" unicode="&#xc8;" horiz-adv-x="600" 
d="M545 0v68h-366v257h312v68h-312v251h366v68h-442v-712h442zM362 781l-88 153h-86l108 -153h66z" />
    <glyph glyph-name="Eacute" unicode="&#xc9;" horiz-adv-x="600" 
d="M545 0v68h-366v257h312v68h-312v251h366v68h-442v-712h442zM438 934h-86l-88 -153h66z" />
    <glyph glyph-name="Ecircumflex" unicode="&#xca;" horiz-adv-x="600" 
d="M545 0v68h-366v257h312v68h-312v251h366v68h-442v-712h442zM472 781l-125 153h-68l-125 -153h69l90 104l90 -104h69z" />
    <glyph glyph-name="Edieresis" unicode="&#xcb;" horiz-adv-x="600" 
d="M545 0v68h-366v257h312v68h-312v251h366v68h-442v-712h442zM455 789v89h-72v-89h72zM243 789v89h-72v-89h72z" />
    <glyph glyph-name="Igrave" unicode="&#xcc;" horiz-adv-x="282" 
d="M179 0v712h-76v-712h76zM278 781l-88 153h-86l108 -153h66z" />
    <glyph glyph-name="Iacute" unicode="&#xcd;" horiz-adv-x="282" 
d="M179 0v712h-76v-712h76zM278 934h-86l-88 -153h66z" />
    <glyph glyph-name="Icircumflex" unicode="&#xce;" horiz-adv-x="282" 
d="M179 0v712h-76v-712h76zM421 781l-125 153h-68l-125 -153h69l90 104l90 -104h69z" />
    <glyph glyph-name="Idieresis" unicode="&#xcf;" horiz-adv-x="282" 
d="M179 0v712h-76v-712h76zM388 789v89h-72v-89h72zM176 789v89h-72v-89h72z" />
    <glyph glyph-name="Eth" unicode="&#xd0;" horiz-adv-x="687" 
d="M611 356q0 58 -1 95t-5.5 63.5t-13.5 46.5t-24 44q-70 107 -205 107h-245v-323h-78v-59h78v-330h239q74 0 126.5 30t84.5 75q14 20 23 39t13.5 46t6 66t1.5 100zM535 352q0 -52 -1 -85t-4 -55.5t-9 -38.5t-17 -32q-50 -74 -156 -74h-154v263h161v59h-161v256h154
q51 0 86.5 -16.5t64.5 -55.5q13 -18 20 -35.5t10.5 -42t4.5 -59t1 -84.5z" />
    <glyph glyph-name="Ntilde" unicode="&#xd1;" horiz-adv-x="732" 
d="M629 0v712h-76v-569l-378 569h-72v-712h76v571l378 -571h72zM523 846l-37 36q-22 -22 -35 -27t-24 -5q-15 0 -27.5 5t-28.5 15q-19 11 -34 17.5t-37 6.5q-9 0 -19 -1.5t-21 -7t-24.5 -15.5t-30.5 -27l37 -36q22 22 34.5 27t24.5 5q15 0 28.5 -6.5t27.5 -14.5
q18 -11 34 -17t37 -6q17 0 39 8.5t56 42.5z" />
    <glyph glyph-name="Ograve" unicode="&#xd2;" horiz-adv-x="650" 
d="M574 356q0 57 -1 99.5t-7.5 76t-20 60.5t-38.5 52q-74 74 -182 74t-182 -74q-25 -25 -38.5 -52t-20 -60.5t-7.5 -76t-1 -99.5t1 -99.5t7.5 -76t20 -60.5t38.5 -52q74 -74 182 -74q54 0 100 19t82 55q25 25 38.5 52t20 60.5t7.5 76t1 99.5zM498 356q0 -56 -1.5 -94.5
t-6.5 -65.5t-15 -46.5t-27 -36.5q-23 -24 -55.5 -37.5t-67.5 -13.5t-67.5 13.5t-55.5 37.5q-17 17 -27 36.5t-15 46.5t-6.5 65.5t-1.5 94.5t1.5 94.5t6.5 65.5t15 46.5t27 36.5q23 24 55.5 37.5t67.5 13.5t67.5 -13.5t55.5 -37.5q17 -17 27 -36.5t15 -46.5t6.5 -65.5
t1.5 -94.5zM374 781l-88 153h-86l108 -153h66z" />
    <glyph glyph-name="Oacute" unicode="&#xd3;" horiz-adv-x="650" 
d="M574 356q0 57 -1 99.5t-7.5 76t-20 60.5t-38.5 52q-74 74 -182 74t-182 -74q-25 -25 -38.5 -52t-20 -60.5t-7.5 -76t-1 -99.5t1 -99.5t7.5 -76t20 -60.5t38.5 -52q74 -74 182 -74q54 0 100 19t82 55q25 25 38.5 52t20 60.5t7.5 76t1 99.5zM498 356q0 -56 -1.5 -94.5
t-6.5 -65.5t-15 -46.5t-27 -36.5q-23 -24 -55.5 -37.5t-67.5 -13.5t-67.5 13.5t-55.5 37.5q-17 17 -27 36.5t-15 46.5t-6.5 65.5t-1.5 94.5t1.5 94.5t6.5 65.5t15 46.5t27 36.5q23 24 55.5 37.5t67.5 13.5t67.5 -13.5t55.5 -37.5q17 -17 27 -36.5t15 -46.5t6.5 -65.5
t1.5 -94.5zM450 934h-86l-88 -153h66z" />
    <glyph glyph-name="Ocircumflex" unicode="&#xd4;" horiz-adv-x="650" 
d="M574 356q0 57 -1 99.5t-7.5 76t-20 60.5t-38.5 52q-74 74 -182 74t-182 -74q-25 -25 -38.5 -52t-20 -60.5t-7.5 -76t-1 -99.5t1 -99.5t7.5 -76t20 -60.5t38.5 -52q74 -74 182 -74q54 0 100 19t82 55q25 25 38.5 52t20 60.5t7.5 76t1 99.5zM498 356q0 -56 -1.5 -94.5
t-6.5 -65.5t-15 -46.5t-27 -36.5q-23 -24 -55.5 -37.5t-67.5 -13.5t-67.5 13.5t-55.5 37.5q-17 17 -27 36.5t-15 46.5t-6.5 65.5t-1.5 94.5t1.5 94.5t6.5 65.5t15 46.5t27 36.5q23 24 55.5 37.5t67.5 13.5t67.5 -13.5t55.5 -37.5q17 -17 27 -36.5t15 -46.5t6.5 -65.5
t1.5 -94.5zM484 781l-125 153h-68l-125 -153h69l90 104l90 -104h69z" />
    <glyph glyph-name="Otilde" unicode="&#xd5;" horiz-adv-x="650" 
d="M574 356q0 57 -1 99.5t-7.5 76t-20 60.5t-38.5 52q-74 74 -182 74t-182 -74q-25 -25 -38.5 -52t-20 -60.5t-7.5 -76t-1 -99.5t1 -99.5t7.5 -76t20 -60.5t38.5 -52q74 -74 182 -74q54 0 100 19t82 55q25 25 38.5 52t20 60.5t7.5 76t1 99.5zM498 356q0 -56 -1.5 -94.5
t-6.5 -65.5t-15 -46.5t-27 -36.5q-23 -24 -55.5 -37.5t-67.5 -13.5t-67.5 13.5t-55.5 37.5q-17 17 -27 36.5t-15 46.5t-6.5 65.5t-1.5 94.5t1.5 94.5t6.5 65.5t15 46.5t27 36.5q23 24 55.5 37.5t67.5 13.5t67.5 -13.5t55.5 -37.5q17 -17 27 -36.5t15 -46.5t6.5 -65.5
t1.5 -94.5zM482 846l-37 36q-22 -22 -35 -27t-24 -5q-15 0 -27.5 5t-28.5 15q-19 11 -34 17.5t-37 6.5q-9 0 -19 -1.5t-21 -7t-24.5 -15.5t-30.5 -27l37 -36q22 22 34.5 27t24.5 5q15 0 28.5 -6.5t27.5 -14.5q18 -11 34 -17t37 -6q17 0 39 8.5t56 42.5z" />
    <glyph glyph-name="Odieresis" unicode="&#xd6;" horiz-adv-x="650" 
d="M574 356q0 57 -1 99.5t-7.5 76t-20 60.5t-38.5 52q-74 74 -182 74t-182 -74q-25 -25 -38.5 -52t-20 -60.5t-7.5 -76t-1 -99.5t1 -99.5t7.5 -76t20 -60.5t38.5 -52q74 -74 182 -74q54 0 100 19t82 55q25 25 38.5 52t20 60.5t7.5 76t1 99.5zM498 356q0 -56 -1.5 -94.5
t-6.5 -65.5t-15 -46.5t-27 -36.5q-23 -24 -55.5 -37.5t-67.5 -13.5t-67.5 13.5t-55.5 37.5q-17 17 -27 36.5t-15 46.5t-6.5 65.5t-1.5 94.5t1.5 94.5t6.5 65.5t15 46.5t27 36.5q23 24 55.5 37.5t67.5 13.5t67.5 -13.5t55.5 -37.5q17 -17 27 -36.5t15 -46.5t6.5 -65.5
t1.5 -94.5zM467 789v89h-72v-89h72zM255 789v89h-72v-89h72z" />
    <glyph glyph-name="multiply" unicode="&#xd7;" 
d="M457 119l-152 151l152 151l-45 45l-151 -152l-151 152l-45 -45l151 -151l-151 -151l45 -45l151 151l151 -151z" />
    <glyph glyph-name="Oslash" unicode="&#xd8;" horiz-adv-x="652" 
d="M574 356q0 57 -1 99.5t-7.5 76t-20 60.5t-38.5 52l-4 4l-4 4l50 104h-65l-34 -69q-55 31 -125 31q-108 0 -182 -74q-25 -25 -38.5 -52t-20 -60.5t-7.5 -76t-1 -99.5t1 -99.5t7.5 -76t20 -60.5t38.5 -52l8 -8l-50 -104h65l33 70q56 -32 126 -32q54 0 100 19t82 55
q25 25 38.5 52t20 60.5t7.5 76t1 99.5zM497 356q0 -56 -1.5 -94.5t-6.5 -65.5t-14.5 -46.5t-26.5 -36.5q-23 -24 -55.5 -37.5t-67.5 -13.5q-26 0 -50.5 7.5t-45.5 21.5l234 490q12 -16 18.5 -34.5t10 -45t4.5 -61.5t1 -84zM421 621l-234 -490q-12 16 -18.5 34.5t-10.5 45
t-5 61.5t-1 84q0 56 1.5 94.5t6.5 65.5t15 46.5t27 36.5q23 24 55.5 37.5t67.5 13.5q26 0 50.5 -7.5t45.5 -21.5z" />
    <glyph glyph-name="Ugrave" unicode="&#xd9;" horiz-adv-x="682" 
d="M590 235v477h-76v-471q0 -41 -12.5 -74t-35 -56t-54.5 -36t-71 -13t-71 13t-54.5 36t-34.5 56t-12 74v471h-76v-477q0 -53 18.5 -97.5t51.5 -76.5t78.5 -49.5t99.5 -17.5t99.5 17.5t79 49.5t52 76.5t18.5 97.5zM390 781l-88 153h-86l108 -153h66z" />
    <glyph glyph-name="Uacute" unicode="&#xda;" horiz-adv-x="682" 
d="M590 235v477h-76v-471q0 -41 -12.5 -74t-35 -56t-54.5 -36t-71 -13t-71 13t-54.5 36t-34.5 56t-12 74v471h-76v-477q0 -53 18.5 -97.5t51.5 -76.5t78.5 -49.5t99.5 -17.5t99.5 17.5t79 49.5t52 76.5t18.5 97.5zM466 934h-86l-88 -153h66z" />
    <glyph glyph-name="Ucircumflex" unicode="&#xdb;" horiz-adv-x="682" 
d="M590 235v477h-76v-471q0 -41 -12.5 -74t-35 -56t-54.5 -36t-71 -13t-71 13t-54.5 36t-34.5 56t-12 74v471h-76v-477q0 -53 18.5 -97.5t51.5 -76.5t78.5 -49.5t99.5 -17.5t99.5 17.5t79 49.5t52 76.5t18.5 97.5zM500 781l-125 153h-68l-125 -153h69l90 104l90 -104h69z
" />
    <glyph glyph-name="Udieresis" unicode="&#xdc;" horiz-adv-x="682" 
d="M590 235v477h-76v-471q0 -41 -12.5 -74t-35 -56t-54.5 -36t-71 -13t-71 13t-54.5 36t-34.5 56t-12 74v471h-76v-477q0 -53 18.5 -97.5t51.5 -76.5t78.5 -49.5t99.5 -17.5t99.5 17.5t79 49.5t52 76.5t18.5 97.5zM483 789v89h-72v-89h72zM271 789v89h-72v-89h72z" />
    <glyph glyph-name="Yacute" unicode="&#xdd;" horiz-adv-x="515" 
d="M506 712h-82l-166 -341l-168 341h-82l212 -418v-294h76v294zM382 934h-86l-88 -153h66z" />
    <glyph glyph-name="Thorn" unicode="&#xde;" horiz-adv-x="642" 
d="M588 359q0 48 -16 87t-45 66t-69.5 42t-89.5 15h-189v143h-76v-712h76v150h189q49 0 89.5 14.5t69.5 42t45 66t16 86.5zM512 359q0 -71 -42 -106t-109 -35h-182v282h182q67 0 109 -35t42 -106z" />
    <glyph glyph-name="germandbls" unicode="&#xdf;" horiz-adv-x="556" 
d="M484 141v173q0 24 -3 42t-10.5 32t-19.5 25t-30 21q30 20 46.5 48.5t16.5 70.5q0 43 -15.5 74.5t-41.5 51.5t-61 30t-75 10q-93 0 -147 -50.5t-54 -144.5v-524h73v521q0 60 28.5 97.5t95.5 37.5q64 0 94 -29q14 -14 22.5 -33.5t8.5 -41.5q0 -42 -24.5 -66.5t-63.5 -24.5
h-36v-60h44q38 0 59 -21t21 -62v-169q0 -47 -25 -67q-13 -11 -25 -15.5t-34 -4.5h-40v-62h54q35 0 59 8.5t44 27.5q39 36 39 105z" />
    <glyph glyph-name="agrave" unicode="&#xe0;" horiz-adv-x="526" 
d="M441 0v334q0 81 -48.5 122.5t-148.5 41.5q-60 0 -100.5 -15t-73.5 -58l49 -45q22 31 49 43.5t75 12.5q68 0 97 -27t29 -81v-47h-148q-83 0 -126.5 -38.5t-43.5 -103.5q0 -29 9.5 -55.5t27.5 -44.5q23 -24 55.5 -34.5t83.5 -10.5q49 0 80.5 11.5t61.5 41.5v-47h72z
M369 174q0 -61 -25 -85q-23 -23 -50.5 -28t-59.5 -5q-59 0 -86 20.5t-27 63.5q0 87 110 87h138v-53zM301 594l-88 153h-86l108 -153h66z" />
    <glyph glyph-name="aacute" unicode="&#xe1;" horiz-adv-x="526" 
d="M441 0v334q0 81 -48.5 122.5t-148.5 41.5q-60 0 -100.5 -15t-73.5 -58l49 -45q22 31 49 43.5t75 12.5q68 0 97 -27t29 -81v-47h-148q-83 0 -126.5 -38.5t-43.5 -103.5q0 -29 9.5 -55.5t27.5 -44.5q23 -24 55.5 -34.5t83.5 -10.5q49 0 80.5 11.5t61.5 41.5v-47h72z
M369 174q0 -61 -25 -85q-23 -23 -50.5 -28t-59.5 -5q-59 0 -86 20.5t-27 63.5q0 87 110 87h138v-53zM377 747h-86l-88 -153h66z" />
    <glyph glyph-name="acircumflex" unicode="&#xe2;" horiz-adv-x="526" 
d="M441 0v334q0 81 -48.5 122.5t-148.5 41.5q-60 0 -100.5 -15t-73.5 -58l49 -45q22 31 49 43.5t75 12.5q68 0 97 -27t29 -81v-47h-148q-83 0 -126.5 -38.5t-43.5 -103.5q0 -29 9.5 -55.5t27.5 -44.5q23 -24 55.5 -34.5t83.5 -10.5q49 0 80.5 11.5t61.5 41.5v-47h72z
M369 174q0 -61 -25 -85q-23 -23 -50.5 -28t-59.5 -5q-59 0 -86 20.5t-27 63.5q0 87 110 87h138v-53zM411 594l-125 153h-68l-125 -153h69l90 104l90 -104h69z" />
    <glyph glyph-name="atilde" unicode="&#xe3;" horiz-adv-x="526" 
d="M441 0v334q0 81 -48.5 122.5t-148.5 41.5q-60 0 -100.5 -15t-73.5 -58l49 -45q22 31 49 43.5t75 12.5q68 0 97 -27t29 -81v-47h-148q-83 0 -126.5 -38.5t-43.5 -103.5q0 -29 9.5 -55.5t27.5 -44.5q23 -24 55.5 -34.5t83.5 -10.5q49 0 80.5 11.5t61.5 41.5v-47h72z
M369 174q0 -61 -25 -85q-23 -23 -50.5 -28t-59.5 -5q-59 0 -86 20.5t-27 63.5q0 87 110 87h138v-53zM409 659l-37 36q-22 -22 -35 -27t-24 -5q-15 0 -27.5 5t-28.5 15q-19 11 -34 17.5t-37 6.5q-9 0 -19 -1.5t-21 -7t-24.5 -15.5t-30.5 -27l37 -36q22 22 34.5 27t24.5 5
q15 0 28.5 -6.5t27.5 -14.5q18 -11 34 -17t37 -6q17 0 39 8.5t56 42.5z" />
    <glyph glyph-name="adieresis" unicode="&#xe4;" horiz-adv-x="526" 
d="M441 0v334q0 81 -48.5 122.5t-148.5 41.5q-60 0 -100.5 -15t-73.5 -58l49 -45q22 31 49 43.5t75 12.5q68 0 97 -27t29 -81v-47h-148q-83 0 -126.5 -38.5t-43.5 -103.5q0 -29 9.5 -55.5t27.5 -44.5q23 -24 55.5 -34.5t83.5 -10.5q49 0 80.5 11.5t61.5 41.5v-47h72z
M369 174q0 -61 -25 -85q-23 -23 -50.5 -28t-59.5 -5q-59 0 -86 20.5t-27 63.5q0 87 110 87h138v-53zM394 602v89h-72v-89h72zM182 602v89h-72v-89h72z" />
    <glyph glyph-name="aring" unicode="&#xe5;" horiz-adv-x="526" 
d="M441 0v334q0 81 -48.5 122.5t-148.5 41.5q-60 0 -100.5 -15t-73.5 -58l49 -45q22 31 49 43.5t75 12.5q68 0 97 -27t29 -81v-47h-148q-83 0 -126.5 -38.5t-43.5 -103.5q0 -29 9.5 -55.5t27.5 -44.5q23 -24 55.5 -34.5t83.5 -10.5q49 0 80.5 11.5t61.5 41.5v-47h72z
M369 174q0 -61 -25 -85q-23 -23 -50.5 -28t-59.5 -5q-59 0 -86 20.5t-27 63.5q0 87 110 87h138v-53zM370 687q0 25 -9.5 46.5t-25.5 37.5t-37.5 25t-45.5 9t-45.5 -9.5t-37.5 -25.5t-25.5 -37.5t-9.5 -45.5t9.5 -46t25.5 -38t37.5 -25.5t45.5 -9.5t45.5 9.5t37.5 25.5
t25.5 38t9.5 46zM321 687q0 -29 -20 -49t-49 -20t-49 20t-20 49t20 48.5t49 19.5t49 -19.5t20 -48.5z" />
    <glyph glyph-name="ae" unicode="&#xe6;" horiz-adv-x="835" 
d="M773 227v33q0 110 -53 174t-149 64q-102 0 -154 -77q-41 77 -173 77q-60 0 -100.5 -15t-73.5 -58l49 -45q22 31 49 43.5t75 12.5q68 0 97 -27t29 -81v-47h-148q-83 0 -126.5 -38.5t-43.5 -103.5q0 -29 9.5 -55.5t27.5 -44.5q23 -24 55.5 -34.5t83.5 -10.5q64 0 105 18.5
t75 66.5q27 -44 72 -64.5t103 -20.5q31 0 56.5 5t47 14.5t40.5 23.5t38 33l-50 43q-29 -29 -57 -42.5t-71 -13.5q-71 0 -108.5 44.5t-37.5 125.5h333zM701 281h-261q2 30 5 46t11 36q14 34 45 54t70 20t70 -20t45 -54q4 -10 6.5 -18.5t4 -17.5t2.5 -20t2 -26zM369 174
q0 -61 -25 -85q-23 -23 -50.5 -28t-59.5 -5q-59 0 -86 20.5t-27 63.5q0 87 110 87h138v-53z" />
    <glyph glyph-name="ccedilla" unicode="&#xe7;" horiz-adv-x="494" 
d="M443 67l-49 47q-28 -31 -53 -43.5t-60 -12.5q-36 0 -65 14t-49 42q-17 24 -24.5 54.5t-7.5 77.5t7.5 77.5t24.5 54.5q20 28 49 42t65 14q35 0 60 -12t53 -43l49 46q-38 41 -74.5 57t-87.5 16q-47 0 -86.5 -16t-69 -47.5t-46 -78.5t-16.5 -110t16.5 -110.5t46 -79t69 -47
t86.5 -15.5q51 0 87.5 16t74.5 57zM313 -67h-67l-71 -149h79z" />
    <glyph glyph-name="egrave" unicode="&#xe8;" horiz-adv-x="530" 
d="M467 227v33q0 110 -53 174t-149 64q-94 0 -148 -66t-54 -186q0 -65 15.5 -112.5t43.5 -78.5t67.5 -46t88.5 -15q31 0 56.5 5t46.5 14.5t39.5 23.5t37.5 33l-49 43q-29 -29 -57.5 -42.5t-71.5 -13.5q-71 0 -108 44.5t-37 125.5h332zM395 281h-260q1 30 4 46t11 36
q14 34 45 54t70 20t70 -20t45 -54q4 -10 6.5 -18.5t4 -17.5t2.5 -20t2 -26zM317 594l-88 153h-86l108 -153h66z" />
    <glyph glyph-name="eacute" unicode="&#xe9;" horiz-adv-x="530" 
d="M467 227v33q0 110 -53 174t-149 64q-94 0 -148 -66t-54 -186q0 -65 15.5 -112.5t43.5 -78.5t67.5 -46t88.5 -15q31 0 56.5 5t46.5 14.5t39.5 23.5t37.5 33l-49 43q-29 -29 -57.5 -42.5t-71.5 -13.5q-71 0 -108 44.5t-37 125.5h332zM395 281h-260q1 30 4 46t11 36
q14 34 45 54t70 20t70 -20t45 -54q4 -10 6.5 -18.5t4 -17.5t2.5 -20t2 -26zM393 747h-86l-88 -153h66z" />
    <glyph glyph-name="ecircumflex" unicode="&#xea;" horiz-adv-x="530" 
d="M467 227v33q0 110 -53 174t-149 64q-94 0 -148 -66t-54 -186q0 -65 15.5 -112.5t43.5 -78.5t67.5 -46t88.5 -15q31 0 56.5 5t46.5 14.5t39.5 23.5t37.5 33l-49 43q-29 -29 -57.5 -42.5t-71.5 -13.5q-71 0 -108 44.5t-37 125.5h332zM395 281h-260q1 30 4 46t11 36
q14 34 45 54t70 20t70 -20t45 -54q4 -10 6.5 -18.5t4 -17.5t2.5 -20t2 -26zM427 594l-125 153h-68l-125 -153h69l90 104l90 -104h69z" />
    <glyph glyph-name="edieresis" unicode="&#xeb;" horiz-adv-x="530" 
d="M467 227v33q0 110 -53 174t-149 64q-94 0 -148 -66t-54 -186q0 -65 15.5 -112.5t43.5 -78.5t67.5 -46t88.5 -15q31 0 56.5 5t46.5 14.5t39.5 23.5t37.5 33l-49 43q-29 -29 -57.5 -42.5t-71.5 -13.5q-71 0 -108 44.5t-37 125.5h332zM395 281h-260q1 30 4 46t11 36
q14 34 45 54t70 20t70 -20t45 -54q4 -10 6.5 -18.5t4 -17.5t2.5 -20t2 -26zM410 602v89h-72v-89h72zM198 602v89h-72v-89h72z" />
    <glyph glyph-name="igrave" unicode="&#xec;" horiz-adv-x="253" 
d="M162 0v492h-72v-492h72zM265 594l-88 153h-86l108 -153h66z" />
    <glyph glyph-name="iacute" unicode="&#xed;" horiz-adv-x="253" 
d="M162 0v492h-72v-492h72zM265 747h-86l-88 -153h66z" />
    <glyph glyph-name="icircumflex" unicode="&#xee;" horiz-adv-x="253" 
d="M162 0v492h-72v-492h72zM409 594l-125 153h-68l-125 -153h69l90 104l90 -104h69z" />
    <glyph glyph-name="idieresis" unicode="&#xef;" horiz-adv-x="253" 
d="M162 0v492h-72v-492h72zM375 602v89h-72v-89h72zM163 602v89h-72v-89h72z" />
    <glyph glyph-name="eth" unicode="&#xf0;" horiz-adv-x="530" 
d="M465 244q0 33 -2.5 59t-9 51.5t-19 52.5t-32.5 62l-63 111h54v52h-82l-47 82h-75l47 -82h-88v-52h116l58 -99q-17 8 -36.5 9.5t-38.5 0.5q-76 -5 -122 -52q-38 -38 -48.5 -88t-10.5 -107t10.5 -107t48.5 -88q25 -26 60 -40.5t80 -14.5t80 14.5t60 40.5q38 38 49 88
t11 107zM393 244q0 -42 -6 -82.5t-33 -67.5q-36 -36 -89 -36q-52 0 -88 36q-27 27 -33 67.5t-6 82.5q0 21 1 42t5 40.5t11.5 37t21.5 31.5q36 36 88 36q53 0 89 -36q13 -14 21 -31.5t12 -37t5 -40.5t1 -42z" />
    <glyph glyph-name="ntilde" unicode="&#xf1;" horiz-adv-x="562" 
d="M477 0v315q0 87 -51 137q-46 46 -126 46q-42 0 -77 -15t-61 -45v54h-72v-492h72v303q0 65 33 98t89 33t88.5 -32.5t32.5 -98.5v-303h72zM442 659l-37 36q-22 -22 -35 -27t-24 -5q-15 0 -27.5 5t-28.5 15q-19 11 -34 17.5t-37 6.5q-9 0 -19 -1.5t-21 -7t-24.5 -15.5
t-30.5 -27l37 -36q22 22 34.5 27t24.5 5q15 0 28.5 -6.5t27.5 -14.5q18 -11 34 -17t37 -6q17 0 39 8.5t56 42.5z" />
    <glyph glyph-name="ograve" unicode="&#xf2;" horiz-adv-x="530" 
d="M466 246q0 57 -11.5 107.5t-48.5 88.5q-26 26 -61 41t-80 15t-80 -15t-61 -41q-19 -19 -30.5 -41.5t-18 -47t-9 -52t-2.5 -55.5q0 -29 2.5 -56t9 -51.5t18 -47t30.5 -41.5q26 -26 61 -41t80 -15t80 15t61 41q37 38 48.5 88.5t11.5 107.5zM394 246q0 -21 -1 -42t-5 -41
t-12 -38t-21 -31q-36 -36 -90 -36q-53 0 -89 36q-14 13 -21.5 31t-12 38t-5.5 41t-1 42t1 42t5.5 41t12 37.5t21.5 31.5q36 36 89 36q54 0 90 -36q13 -14 21 -31.5t12 -37.5t5 -41t1 -42zM304 594l-88 153h-86l108 -153h66z" />
    <glyph glyph-name="oacute" unicode="&#xf3;" horiz-adv-x="530" 
d="M466 246q0 57 -11.5 107.5t-48.5 88.5q-26 26 -61 41t-80 15t-80 -15t-61 -41q-19 -19 -30.5 -41.5t-18 -47t-9 -52t-2.5 -55.5q0 -29 2.5 -56t9 -51.5t18 -47t30.5 -41.5q26 -26 61 -41t80 -15t80 15t61 41q37 38 48.5 88.5t11.5 107.5zM394 246q0 -21 -1 -42t-5 -41
t-12 -38t-21 -31q-36 -36 -90 -36q-53 0 -89 36q-14 13 -21.5 31t-12 38t-5.5 41t-1 42t1 42t5.5 41t12 37.5t21.5 31.5q36 36 89 36q54 0 90 -36q13 -14 21 -31.5t12 -37.5t5 -41t1 -42zM390 747h-86l-88 -153h66z" />
    <glyph glyph-name="ocircumflex" unicode="&#xf4;" horiz-adv-x="530" 
d="M466 246q0 57 -11.5 107.5t-48.5 88.5q-26 26 -61 41t-80 15t-80 -15t-61 -41q-19 -19 -30.5 -41.5t-18 -47t-9 -52t-2.5 -55.5q0 -29 2.5 -56t9 -51.5t18 -47t30.5 -41.5q26 -26 61 -41t80 -15t80 15t61 41q37 38 48.5 88.5t11.5 107.5zM394 246q0 -21 -1 -42t-5 -41
t-12 -38t-21 -31q-36 -36 -90 -36q-53 0 -89 36q-14 13 -21.5 31t-12 38t-5.5 41t-1 42t1 42t5.5 41t12 37.5t21.5 31.5q36 36 89 36q54 0 90 -36q13 -14 21 -31.5t12 -37.5t5 -41t1 -42zM424 594l-125 153h-68l-125 -153h69l90 104l90 -104h69z" />
    <glyph glyph-name="otilde" unicode="&#xf5;" horiz-adv-x="530" 
d="M466 246q0 57 -11.5 107.5t-48.5 88.5q-26 26 -61 41t-80 15t-80 -15t-61 -41q-19 -19 -30.5 -41.5t-18 -47t-9 -52t-2.5 -55.5q0 -29 2.5 -56t9 -51.5t18 -47t30.5 -41.5q26 -26 61 -41t80 -15t80 15t61 41q37 38 48.5 88.5t11.5 107.5zM394 246q0 -21 -1 -42t-5 -41
t-12 -38t-21 -31q-36 -36 -90 -36q-53 0 -89 36q-14 13 -21.5 31t-12 38t-5.5 41t-1 42t1 42t5.5 41t12 37.5t21.5 31.5q36 36 89 36q54 0 90 -36q13 -14 21 -31.5t12 -37.5t5 -41t1 -42zM422 659l-37 36q-22 -22 -35 -27t-24 -5q-15 0 -27.5 5t-28.5 15q-19 11 -34 17.5
t-37 6.5q-9 0 -19 -1.5t-21 -7t-24.5 -15.5t-30.5 -27l37 -36q22 22 34.5 27t24.5 5q15 0 28.5 -6.5t27.5 -14.5q18 -11 34 -17t37 -6q17 0 39 8.5t56 42.5z" />
    <glyph glyph-name="odieresis" unicode="&#xf6;" horiz-adv-x="530" 
d="M466 246q0 57 -11.5 107.5t-48.5 88.5q-26 26 -61 41t-80 15t-80 -15t-61 -41q-19 -19 -30.5 -41.5t-18 -47t-9 -52t-2.5 -55.5q0 -29 2.5 -56t9 -51.5t18 -47t30.5 -41.5q26 -26 61 -41t80 -15t80 15t61 41q37 38 48.5 88.5t11.5 107.5zM394 246q0 -21 -1 -42t-5 -41
t-12 -38t-21 -31q-36 -36 -90 -36q-53 0 -89 36q-14 13 -21.5 31t-12 38t-5.5 41t-1 42t1 42t5.5 41t12 37.5t21.5 31.5q36 36 89 36q54 0 90 -36q13 -14 21 -31.5t12 -37.5t5 -41t1 -42zM407 602v89h-72v-89h72zM195 602v89h-72v-89h72z" />
    <glyph glyph-name="divide" unicode="&#xf7;" 
d="M304 404v86h-86v-86h86zM471 236v67h-420v-67h420zM304 49v86h-86v-86h86z" />
    <glyph glyph-name="oslash" unicode="&#xf8;" horiz-adv-x="530" 
d="M466 246q0 57 -11 106.5t-47 87.5l57 96h-56l-39 -65q-22 13 -48 20t-57 7q-45 0 -80 -15t-61 -41q-19 -19 -30.5 -41.5t-18 -47t-9 -52t-2.5 -55.5q0 -57 11 -106.5t47 -87.5l-57 -96h57l38 65q22 -13 48 -20t57 -7q45 0 80 15t61 41q37 38 48.5 88.5t11.5 107.5z
M394 246q0 -21 -1 -42t-5 -41t-12 -38t-21 -31q-36 -36 -90 -36q-41 0 -72 22l177 299q17 -27 20.5 -62.5t3.5 -70.5zM337 413l-176 -300q-17 27 -21 62.5t-4 70.5q0 21 1 42t5.5 41t12 37.5t21.5 31.5q36 36 89 36q42 0 72 -21z" />
    <glyph glyph-name="ugrave" unicode="&#xf9;" horiz-adv-x="563" 
d="M472 0v492h-72v-303q0 -65 -33.5 -98t-89.5 -33t-88 32.5t-32 98.5v303h-72v-314q0 -43 12 -77.5t38 -60.5q46 -46 127 -46q42 0 77.5 15.5t61.5 45.5v-55h71zM327 594l-88 153h-86l108 -153h66z" />
    <glyph glyph-name="uacute" unicode="&#xfa;" horiz-adv-x="563" 
d="M472 0v492h-72v-303q0 -65 -33.5 -98t-89.5 -33t-88 32.5t-32 98.5v303h-72v-314q0 -43 12 -77.5t38 -60.5q46 -46 127 -46q42 0 77.5 15.5t61.5 45.5v-55h71zM403 747h-86l-88 -153h66z" />
    <glyph glyph-name="ucircumflex" unicode="&#xfb;" horiz-adv-x="563" 
d="M472 0v492h-72v-303q0 -65 -33.5 -98t-89.5 -33t-88 32.5t-32 98.5v303h-72v-314q0 -43 12 -77.5t38 -60.5q46 -46 127 -46q42 0 77.5 15.5t61.5 45.5v-55h71zM437 594l-125 153h-68l-125 -153h69l90 104l90 -104h69z" />
    <glyph glyph-name="udieresis" unicode="&#xfc;" horiz-adv-x="563" 
d="M472 0v492h-72v-303q0 -65 -33.5 -98t-89.5 -33t-88 32.5t-32 98.5v303h-72v-314q0 -43 12 -77.5t38 -60.5q46 -46 127 -46q42 0 77.5 15.5t61.5 45.5v-55h71zM420 602v89h-72v-89h72zM208 602v89h-72v-89h72z" />
    <glyph glyph-name="yacute" unicode="&#xfd;" horiz-adv-x="446" 
d="M436 492h-78l-134 -395l-135 395h-78l177 -482l-35 -96q-12 -34 -28 -47.5t-53 -13.5h-22v-64h31q26 0 51 7.5t45 26.5q21 19 35 58zM348 747h-86l-88 -153h66z" />
    <glyph glyph-name="thorn" unicode="&#xfe;" horiz-adv-x="546" 
d="M481 246q0 29 -2.5 58t-9 56.5t-18 51.5t-30.5 43q-20 20 -51 31.5t-69 11.5q-41 0 -75 -12.5t-64 -50.5v277h-72v-932h72v278q30 -38 64 -51t75 -13q38 0 69 11.5t51 31.5q19 19 30.5 43t18 51.5t9 56.5t2.5 58zM409 246q0 -36 -4 -70t-17 -60t-37.5 -42t-64.5 -16
t-64.5 16t-37.5 42t-17.5 60t-4.5 70t4.5 70t17.5 60t37.5 42t64.5 16t64.5 -16t37.5 -42t17 -60t4 -70z" />
    <glyph glyph-name="ydieresis" unicode="&#xff;" horiz-adv-x="446" 
d="M436 492h-78l-134 -395l-135 395h-78l177 -482l-35 -96q-12 -34 -28 -47.5t-53 -13.5h-22v-64h31q26 0 51 7.5t45 26.5q21 19 35 58zM365 602v89h-72v-89h72zM153 602v89h-72v-89h72z" />
    <glyph glyph-name="dotlessi" unicode="&#x131;" horiz-adv-x="253" 
d="M162 0v492h-72v-492h72z" />
    <glyph glyph-name="Lslash" unicode="&#x141;" horiz-adv-x="582" 
d="M552 0v68h-363v270l154 98v66l-154 -98v308h-77v-356l-73 -46v-67l73 46v-289h440z" />
    <glyph glyph-name="lslash" unicode="&#x142;" horiz-adv-x="315" 
d="M278 0v62h-40q-38 0 -52 18t-14 54v252l81 50v62l-81 -50v264h-72v-308l-63 -39v-62l63 39v-211q0 -56 30.5 -93.5t95.5 -37.5h52z" />
    <glyph glyph-name="OE" unicode="&#x152;" horiz-adv-x="989" 
d="M933 0v67h-360q0 60 0.5 130t0.5 130h304v64h-304q0 58 -0.5 126.5t-0.5 127.5h358v67h-434v-74q-33 41 -76.5 60.5t-96.5 19.5q-107 0 -181 -74q-25 -25 -38.5 -51.5t-20 -60.5t-7.5 -76.5t-1 -99.5t1 -99.5t7.5 -76.5t20 -60.5t38.5 -51.5q74 -74 181 -74
q49 0 94.5 19.5t78.5 60.5v-74h436zM497 356q0 -56 -1.5 -94.5t-6.5 -65.5t-14.5 -46.5t-26.5 -36.5q-23 -24 -55.5 -37.5t-67.5 -13.5t-67.5 13.5t-55.5 37.5q-17 17 -27 36.5t-15 46.5t-6.5 65.5t-1.5 94.5t1.5 94.5t6.5 65.5t15 46.5t27 36.5q23 24 55.5 37.5t67.5 13.5
t67.5 -13.5t55.5 -37.5q17 -17 26.5 -36.5t14.5 -46.5t6.5 -65.5t1.5 -94.5z" />
    <glyph glyph-name="oe" unicode="&#x153;" horiz-adv-x="861" 
d="M798 227v33q0 110 -53 174t-149 64q-112 0 -163 -95q-23 45 -67.5 70t-100.5 25q-45 0 -80 -15t-61 -41q-19 -19 -30.5 -41.5t-18 -47t-9 -52t-2.5 -55.5q0 -29 2.5 -56t9 -51.5t18 -47t30.5 -41.5q26 -26 61 -41t80 -15q56 0 100 25t67 70q53 -95 177 -95q31 0 56.5 5
t46.5 14.5t39.5 23.5t37.5 33l-49 43q-29 -29 -57.5 -42.5t-71.5 -13.5q-71 0 -108 44.5t-37 125.5h332zM727 281h-261q1 30 4 46t11 36q14 34 45 54t70 20t70 -20t45 -54q8 -20 11 -36t5 -46zM394 246q0 -21 -1 -42t-5 -41t-12 -38t-21 -31q-36 -36 -90 -36q-53 0 -89 36
q-14 13 -21.5 31t-12 38t-5.5 41t-1 42t1 42t5.5 41t12 37.5t21.5 31.5q36 36 89 36q54 0 90 -36q13 -14 21 -31.5t12 -37.5t5 -41t1 -42z" />
    <glyph glyph-name="Scaron" unicode="&#x160;" horiz-adv-x="588" 
d="M532 196q0 90 -60 141q-11 10 -23.5 17.5t-27.5 13.5t-34.5 10.5t-44.5 8.5l-78 12q-28 5 -53.5 15t-42.5 24q-32 28 -32 82q0 60 39 96t111 36q57 0 95 -15.5t71 -45.5l49 49q-46 41 -95 59.5t-117 18.5q-53 0 -95 -14.5t-71.5 -40.5t-45.5 -63.5t-16 -82.5
q0 -85 54 -133q46 -40 131 -54l83 -13q39 -6 57.5 -12.5t35.5 -21.5t25.5 -38t8.5 -51q0 -63 -45 -97.5t-123 -34.5q-60 0 -105 17t-89 61l-52 -52q50 -50 107 -72t137 -22q55 0 100.5 14t78 40t50 63.5t17.5 84.5zM448 934h-69l-90 -105l-90 105h-69l125 -153h68z" />
    <glyph glyph-name="scaron" unicode="&#x161;" horiz-adv-x="496" 
d="M445 144q0 34 -10.5 58t-29.5 40t-46 24t-59 11l-79 7q-47 4 -66.5 22t-19.5 50q0 38 28 59.5t82 21.5q38 0 71.5 -9.5t59.5 -29.5l47 47q-33 27 -78.5 40t-98.5 13q-39 0 -72.5 -10t-57.5 -28.5t-37.5 -45t-13.5 -60.5q0 -61 37.5 -93.5t109.5 -38.5l81 -7
q43 -4 62.5 -22t19.5 -50q0 -44 -35 -65.5t-96 -21.5q-46 0 -85 13t-68 44l-48 -48q41 -39 90 -55t112 -16q45 0 81.5 10t63 29.5t41 47t14.5 63.5zM406 747h-69l-90 -105l-90 105h-69l125 -153h68z" />
    <glyph glyph-name="Ydieresis" unicode="&#x178;" horiz-adv-x="515" 
d="M506 712h-82l-166 -341l-168 341h-82l212 -418v-294h76v294zM399 789v89h-72v-89h72zM187 789v89h-72v-89h72z" />
    <glyph glyph-name="Zcaron" unicode="&#x17d;" horiz-adv-x="556" 
d="M499 0v68h-359l359 580v64h-428v-68h342l-356 -572v-72h442zM443 934h-69l-90 -105l-90 105h-69l125 -153h68z" />
    <glyph glyph-name="zcaron" unicode="&#x17e;" horiz-adv-x="459" 
d="M407 0v64h-275l275 367v61h-342v-64h259l-274 -366v-62h357zM396 747h-69l-90 -105l-90 105h-69l125 -153h68z" />
    <glyph glyph-name="florin" unicode="&#x192;" horiz-adv-x="403" 
d="M373 652v62h-52q-32 0 -57 -10.5t-44 -28.5t-31 -42t-17 -51l-34 -198h-108v-54h98l-97 -550h72l97 550h115v54h-105l34 196q6 34 25 53t54 19h50z" />
    <glyph glyph-name="circumflex" unicode="&#x2c6;" horiz-adv-x="500" 
d="M409 594l-125 153h-68l-125 -153h69l90 104l90 -104h69z" />
    <glyph glyph-name="caron" unicode="&#x2c7;" horiz-adv-x="500" 
d="M409 747h-69l-90 -105l-90 105h-69l125 -153h68z" />
    <glyph glyph-name="breve" unicode="&#x2d8;" horiz-adv-x="500" 
d="M415 727h-55q-5 -39 -33.5 -60.5t-74.5 -21.5t-75 21.5t-34 60.5h-58q12 -139 167 -139q151 0 163 139z" />
    <glyph glyph-name="dotaccent" unicode="&#x2d9;" horiz-adv-x="500" 
d="M290 634v74h-80v-74h80z" />
    <glyph glyph-name="ring" unicode="&#x2da;" horiz-adv-x="500" 
d="M368 687q0 25 -9.5 46.5t-25.5 37.5t-37.5 25t-45.5 9t-45.5 -9.5t-37.5 -25.5t-25.5 -37.5t-9.5 -45.5t9.5 -46t25.5 -38t37.5 -25.5t45.5 -9.5t45.5 9.5t37.5 25.5t25.5 38t9.5 46zM319 687q0 -29 -20 -49t-49 -20t-49 20t-20 49t20 48.5t49 19.5t49 -19.5t20 -48.5z
" />
    <glyph glyph-name="ogonek" unicode="&#x2db;" horiz-adv-x="500" 
d="M323 -216l-71 149h-66l59 -149h78z" />
    <glyph glyph-name="tilde" unicode="&#x2dc;" horiz-adv-x="500" 
d="M407 659l-37 36q-22 -22 -35 -27t-24 -5q-15 0 -27.5 5t-28.5 15q-19 11 -34 17.5t-37 6.5q-9 0 -19 -1.5t-21 -7t-24.5 -15.5t-30.5 -27l37 -36q22 22 34.5 27t24.5 5q15 0 28.5 -6.5t27.5 -14.5q18 -11 34 -17t37 -6q17 0 39 8.5t56 42.5z" />
    <glyph glyph-name="hungarumlaut" unicode="&#x2dd;" horiz-adv-x="500" 
d="M447 747h-85l-89 -153h65zM284 747h-85l-89 -153h66z" />
    <glyph glyph-name="Delta" unicode="&#x394;" horiz-adv-x="603" 
d="M594 0l-261 712h-63l-262 -712h586zM495 66h-387l194 537z" />
    <glyph glyph-name="Omega" unicode="&#x3a9;" horiz-adv-x="650" 
d="M574 0v67h-83q20 17 33.5 33t22.5 34q11 21 16.5 47t8 54.5t2.5 58.5v62q0 57 -1 99.5t-7.5 76t-20 60.5t-38.5 52q-74 74 -182 74t-182 -74q-25 -25 -38.5 -52t-20 -60.5t-7.5 -76t-1 -99.5v-62q0 -30 2.5 -58.5t8 -54.5t16.5 -47q9 -18 22 -34t33 -33h-82v-67h195v64
q-30 14 -52.5 31t-39.5 45t-22 79t-5 135q0 56 1.5 95t7 66.5t15 47t26.5 36.5q24 24 56 37.5t67 13.5t67 -13.5t56 -37.5q16 -17 26 -36.5t15 -47t6.5 -66.5t1.5 -95q0 -84 -4.5 -135t-21.5 -79t-39.5 -45t-52.5 -31v-64h195z" />
    <glyph glyph-name="pi" unicode="&#x3c0;" horiz-adv-x="591" 
d="M490 0v492h-389v-492h70v427h250v-427h69z" />
    <glyph glyph-name="endash" unicode="&#x2013;" 
d="M470 236v67h-418v-67h418z" />
    <glyph glyph-name="emdash" unicode="&#x2014;" horiz-adv-x="914" 
d="M838 236v68h-762v-68h762z" />
    <glyph glyph-name="quoteleft" unicode="&#x2018;" horiz-adv-x="263" 
d="M175 628v163l-87 -79v-84h87z" />
    <glyph glyph-name="quoteright" unicode="&#x2019;" horiz-adv-x="263" 
d="M175 628v84h-87v-163z" />
    <glyph glyph-name="quotesinglbase" unicode="&#x201a;" horiz-adv-x="263" 
d="M175 0v84h-87v-163z" />
    <glyph glyph-name="quotedblleft" unicode="&#x201c;" horiz-adv-x="434" 
d="M346 628v163l-88 -79v-84h88zM175 628v163l-87 -79v-84h87z" />
    <glyph glyph-name="quotedblright" unicode="&#x201d;" horiz-adv-x="434" 
d="M346 628v84h-88v-163zM175 628v84h-87v-163z" />
    <glyph glyph-name="quotedblbase" unicode="&#x201e;" horiz-adv-x="434" 
d="M346 0v84h-88v-163zM175 0v84h-87v-163z" />
    <glyph glyph-name="dagger" unicode="&#x2020;" horiz-adv-x="605" 
d="M531 445v64h-194v203h-72v-203h-191v-64h191v-445h72v445h194z" />
    <glyph glyph-name="daggerdbl" unicode="&#x2021;" horiz-adv-x="605" 
d="M531 -16v64h-194v397h194v64h-194v203h-72v-203h-191v-64h191v-397h-191v-64h191v-204h72v204h194z" />
    <glyph glyph-name="bullet" unicode="&#x2022;" horiz-adv-x="532" 
d="M429 334q0 34 -13 63.5t-35 51.5t-51.5 35t-63.5 13t-63.5 -13t-51.5 -35t-35 -51.5t-13 -63.5t13 -63.5t35 -51.5t51.5 -35t63.5 -13t63.5 13t51.5 35t35 51.5t13 63.5z" />
    <glyph glyph-name="ellipsis" unicode="&#x2026;" horiz-adv-x="757" 
d="M669 0v92h-92v-92h92zM424 0v92h-92v-92h92zM180 0v92h-92v-92h92z" />
    <glyph glyph-name="perthousand" unicode="&#x2030;" horiz-adv-x="1179" 
d="M1115 128v105q0 62 -38.5 98.5t-96.5 36.5q-59 0 -97 -36.5t-38 -98.5v-105q0 -62 38 -98.5t97 -36.5q58 0 96.5 36.5t38.5 98.5zM769 128v105q0 62 -38.5 98.5t-96.5 36.5q-59 0 -97 -36.5t-38 -98.5v-105q0 -62 38 -98.5t97 -36.5q58 0 96.5 36.5t38.5 98.5zM614 712
h-60l-334 -712h60zM335 479v105q0 62 -38.5 98.5t-96.5 36.5q-59 0 -97 -36.5t-38 -98.5v-105q0 -61 38 -97.5t97 -36.5q58 0 96.5 36.5t38.5 97.5zM1058 130q0 -40 -18.5 -63.5t-59.5 -23.5q-42 0 -60 23t-18 64v101q0 41 18 64t60 23q41 0 59.5 -23.5t18.5 -63.5v-101z
M712 130q0 -40 -18.5 -63.5t-59.5 -23.5q-42 0 -60 23t-18 64v101q0 41 18 64t60 23q41 0 59.5 -23.5t18.5 -63.5v-101zM278 481q0 -40 -18.5 -63t-59.5 -23t-59.5 22.5t-18.5 63.5v101q0 41 18 64t60 23q41 0 59.5 -23.5t18.5 -63.5v-101z" />
    <glyph glyph-name="guilsinglleft" unicode="&#x2039;" horiz-adv-x="328" 
d="M250 58v89l-120 121l120 120v90l-210 -210z" />
    <glyph glyph-name="guilsinglright" unicode="&#x203a;" horiz-adv-x="328" 
d="M288 268l-210 210v-90l121 -120l-121 -121v-89z" />
    <glyph glyph-name="trademark" unicode="&#x2122;" horiz-adv-x="839" 
d="M781 285v427h-57l-130 -259l-130 259h-58v-427h58v308l102 -202h56l102 202v-308h57zM331 659v53h-295v-53h118v-374h58v374h119z" />
    <glyph glyph-name="partialdiff" unicode="&#x2202;" horiz-adv-x="544" 
d="M453 244v258q0 48 -13 87.5t-39 68t-64.5 44.5t-88.5 16q-28 0 -50 -3.5t-41.5 -11.5t-37.5 -20.5t-37 -30.5l46 -46q13 12 25.5 21.5t26 15.5t29.5 9.5t37 3.5q36 0 61.5 -12t42 -32.5t24 -47.5t7.5 -57v-70q-29 35 -60.5 46.5t-67.5 11.5q-44 0 -77 -16t-53 -37
q-36 -37 -46.5 -87t-10.5 -111q0 -57 10.5 -107t46.5 -88q24 -26 58.5 -40.5t78.5 -14.5t78 14.5t58 40.5q36 38 46.5 88t10.5 107zM381 244q0 -21 -1 -42t-5 -40.5t-11 -37t-20 -30.5q-34 -36 -84 -36q-51 0 -85 36q-13 13 -20.5 30.5t-11 37t-4.5 40.5t-1 42t1 42
t4.5 40.5t11 37t20.5 31.5q34 36 85 36q50 0 84 -36q13 -14 20 -31.5t11 -37t5 -40.5t1 -42z" />
    <glyph glyph-name="product" unicode="&#x220f;" horiz-adv-x="696" 
d="M593 -220v980h-490v-980h76v912h338v-912h76z" />
    <glyph glyph-name="summation" unicode="&#x2211;" horiz-adv-x="551" 
d="M500 -220v68h-356l182 400v69l-180 375h353v68h-441v-64l201 -413l-202 -438v-65h443z" />
    <glyph glyph-name="minus" unicode="&#x2212;" 
d="M470 236v67h-418v-67h418z" />
    <glyph glyph-name="fraction" unicode="&#x2215;" horiz-adv-x="185" 
d="M289 712h-60l-333 -712h60z" />
    <glyph glyph-name="radical" unicode="&#x221a;" horiz-adv-x="562" 
d="M532 644v68h-146l-184 -576l-115 356h-79l163 -492h61l211 644h89z" />
    <glyph glyph-name="infinity" unicode="&#x221e;" horiz-adv-x="808" 
d="M740 267q0 34 -11 63t-32 50.5t-50 34t-65 12.5q-53 0 -93 -26t-85 -80q-45 54 -86 80t-91 26q-36 0 -65.5 -12.5t-50.5 -34t-32.5 -50.5t-11.5 -63t11.5 -63t32.5 -50.5t50.5 -34t65.5 -12.5q51 0 92 25.5t85 79.5q22 -27 43 -46.5t42 -32.5t44 -19t49 -6q36 0 65 12
t50 33.5t32 50.5t11 63zM671 266q0 -42 -25.5 -67.5t-66.5 -25.5q-37 0 -66 25.5t-64 67.5q35 42 64 67.5t66 25.5q41 0 66.5 -25.5t25.5 -67.5zM358 266q-35 -42 -63.5 -67.5t-65.5 -25.5q-41 0 -67 25.5t-26 67.5t26 68t67 26q37 0 65.5 -26t63.5 -68z" />
    <glyph glyph-name="integral" unicode="&#x222b;" horiz-adv-x="372" 
d="M334 653v62h-49q-65 0 -100.5 -38t-35.5 -102v-654q0 -37 -18 -57t-55 -20h-39v-62h50q65 0 100.5 38t35.5 102v654q0 37 18 57t55 20h38z" />
    <glyph glyph-name="approxequal" unicode="&#x2248;" horiz-adv-x="539" 
d="M490 366l-45 45q-15 -15 -26 -23.5t-20.5 -13t-18.5 -6t-19 -1.5q-20 0 -38.5 6.5t-39.5 16.5q-29 13 -54 22.5t-51 9.5q-17 0 -31.5 -3t-29 -10.5t-31 -21t-37.5 -34.5l44 -44q15 15 26 23.5t20.5 13t18 6t19.5 1.5q20 0 38.5 -6.5t39.5 -16.5q29 -13 54.5 -22.5
t51.5 -9.5q17 0 31.5 2.5t29 10t31 21t37.5 34.5zM490 189l-45 45q-15 -15 -26 -23.5t-20.5 -13.5t-18.5 -6.5t-19 -1.5q-20 0 -38 7t-39 17q-29 13 -54.5 22t-51.5 9q-17 0 -31.5 -3t-29 -10.5t-31 -20.5t-37.5 -34l45 -45q15 15 26 23.5t20.5 13.5t18 6.5t19.5 1.5
q20 0 38 -7t39 -17q29 -13 54.5 -22t51.5 -9q17 0 31.5 2.5t29 10t31 21t37.5 34.5z" />
    <glyph glyph-name="notequal" unicode="&#x2260;" horiz-adv-x="537" 
d="M485 151v66h-224l98 103h126v67h-67l67 70l-45 41l-104 -111h-284v-67h225l-99 -103h-126v-66h67l-67 -71l46 -40l103 111h284z" />
    <glyph glyph-name="lessequal" unicode="&#x2264;" horiz-adv-x="1027" 
d="M862 -31l-557 558l515 -1l-66 67h-565v-564l67 -67v516l557 -558z" />
    <glyph glyph-name="greaterequal" unicode="&#x2265;" horiz-adv-x="1027" 
d="M838 29v564h-565l-66 -67l515 1l-557 -558l49 -49l557 558v-516z" />
    <glyph glyph-name="lozenge" unicode="&#x25ca;" horiz-adv-x="649" 
d="M582 352l-257 364l-258 -364l258 -364zM501 352l-176 -255l-177 255l177 253z" />
    <glyph glyph-name="fi" unicode="&#xfb01;" horiz-adv-x="562" 
d="M476 639v74h-82v-74h82zM471 0v489h-72v-489h72zM282 434v55h-105v91q0 34 15.5 53t50.5 19h39v62h-52q-32 0 -55 -10.5t-39 -28.5t-23.5 -42t-7.5 -51v-93h-63v-55h63v-434h72v434h105z" />
    <glyph glyph-name="fl" unicode="&#xfb02;" horiz-adv-x="602" 
d="M573 0v62h-40q-38 0 -52 18t-14 54v578h-72v-581q0 -56 30.5 -93.5t95.5 -37.5h52zM282 434v55h-105v91q0 34 15.5 53t50.5 19h39v62h-52q-32 0 -55 -10.5t-39 -28.5t-23.5 -42t-7.5 -51v-93h-63v-55h63v-434h72v434h105z" />
    </font>
</defs>
</svg>
