<?xml version="1.0" standalone="no"?>
<!DOCTYPE svg PUBLIC "-//W3C//DTD SVG 1.1//EN" "http://www.w3.org/Graphics/SVG/1.1/DTD/svg11.dtd" >
<svg xmlns="http://www.w3.org/2000/svg" xmlns:xlink="http://www.w3.org/1999/xlink" version="1.1">
<metadata>
Created by FontForge 20170731 at Tue Jul 19 10:11:07 2016
 By Aleksey,,,
Copyright (c) 1988, 1991, 2003 Linotype Library GmbH, www.linotype.com. All rights reserved.
</metadata>
<defs>
<font id="DINAlternate-Bold" horiz-adv-x="1024" >
  <font-face 
    font-family="DIN Alternate"
    font-weight="700"
    font-stretch="normal"
    units-per-em="2048"
    panose-1="2 11 5 0 0 0 0 0 0 0"
    ascent="1638"
    descent="-410"
    x-height="1038"
    cap-height="1458"
    bbox="-1054 -562 2570 2279"
    underline-thickness="102"
    underline-position="-460"
    unicode-range="U+000D-FE48"
  />
<missing-glyph horiz-adv-x="1372" 
d="M154 0v1458h1019v-1458h-1019zM1081 101v1256h-836v-1256h836z" />
    <glyph glyph-name=".notdef" horiz-adv-x="1372" 
d="M154 0v1458h1019v-1458h-1019zM1081 101v1256h-836v-1256h836z" />
    <glyph glyph-name=".null" horiz-adv-x="0" 
 />
    <glyph glyph-name=".null" horiz-adv-x="0" 
 />
    <glyph glyph-name="nonmarkingreturn" unicode="&#xd;" horiz-adv-x="491" 
 />
    <glyph glyph-name="space" unicode=" " horiz-adv-x="491" 
 />
    <glyph glyph-name="space" unicode="&#xa0;" horiz-adv-x="491" 
 />
    <glyph glyph-name="exclam" unicode="!" horiz-adv-x="528" 
d="M211 360h104l80 1098h-262zM160 0h209v209h-209v-209z" />
    <glyph glyph-name="quotedbl" unicode="&#x22;" horiz-adv-x="682" 
d="M127 1098h160v360h-160v-360zM395 1098h160v360h-160v-360z" />
    <glyph glyph-name="numbersign" unicode="#" horiz-adv-x="983" 
d="M569 582h-200l45 294h200zM491 0h160l64 446h202v136h-188l45 294h203v136h-189l64 446h-160l-63 -446h-201l63 446h-159l-64 -446h-202v-136h188l-45 -294h-203v-136h189l-64 -446h160l63 446h201z" />
    <glyph glyph-name="dollar" unicode="$" horiz-adv-x="983" 
d="M160 334l-144 -152q86 -84 195 -139q108 -53 227 -55v-221h105v221q172 26 272 143q100 113 102 285q5 331 -374 422v436q127 -10 227 -96v0l119 155q-154 135 -346 137v144h-105v-144q-350 -51 -356 -419q-8 -318 356 -410v-457q-94 11 -159 52q-68 38 -119 98v0z
M438 862v0q-82 27 -114 76q-33 47 -33 117q0 55 14 94q12 39 31 65q43 52 102 60v-412zM543 616q98 -20 133 -73q33 -54 33 -125q0 -88 -35 -148q-37 -61 -131 -86v432z" />
    <glyph glyph-name="percent" unicode="%" horiz-adv-x="1063" 
d="M690 315q0 101 76 101t76 -101v-110q0 -101 -76 -101t-76 101v110zM573 190q2 -106 62 -153q55 -49 131 -49q78 0 135 49q29 24 43 63q14 37 14 90v140q-2 106 -57 155q-57 47 -135 47q-76 0 -131 -47q-60 -49 -62 -155v-140zM104 1128q2 -106 62 -153q55 -49 131 -49
q78 0 135 49q29 24 43 63q14 37 14 90v140q-2 106 -57 155q-57 47 -135 47q-76 0 -131 -47q-60 -49 -62 -155v-140zM221 1253q0 101 76 101t76 -101v-110q0 -101 -76 -101t-76 101v110zM119 0h135l690 1458h-135z" />
    <glyph glyph-name="ampersand" unicode="&#x26;" horiz-adv-x="1327" 
d="M422 1147q0 59 43 100q39 39 100 39q64 0 105 -39q39 -41 39 -100q0 -55 -37 -101q-41 -45 -142 -86v0q-47 45 -75 95q-33 47 -33 92v0zM948 147l135 -147h246l-246 293q62 67 111 151q49 82 80 164l-187 74v0q-41 -131 -127 -244v0l-311 375q248 123 244 326
q-2 137 -90 233t-238 98q-149 -2 -237 -98q-90 -96 -90 -233q0 -74 36 -144q31 -71 84 -133q-276 -153 -278 -426q2 -184 129 -313q123 -131 332 -135q116 2 217 47q102 45 190 112v0zM475 723l352 -422q-151 -131 -293 -129q-110 0 -188 78q-80 74 -82 188q-2 160 211 285
v0z" />
    <glyph glyph-name="quotesingle" unicode="'" horiz-adv-x="491" 
d="M166 1098h160v360h-160v-360z" />
    <glyph glyph-name="parenleft" unicode="(" horiz-adv-x="569" 
d="M528 -209q-194 387 -196 834q2 446 196 833h-82q-323 -385 -323 -833q0 -447 323 -834h82z" />
    <glyph glyph-name="parenright" unicode=")" horiz-adv-x="569" 
d="M41 1458q192 -387 197 -833q-5 -447 -197 -834h82q323 387 323 834q0 448 -323 833h-82z" />
    <glyph glyph-name="asterisk" unicode="*" horiz-adv-x="721" 
d="M299 1051v-199h123v199v0l164 -95v0l61 95l-170 104l170 104l-61 95v0l-164 -95v0v199h-123v-199v0l-164 95v0l-61 -95l170 -104l-170 -104l61 -95v0l164 95v0z" />
    <glyph glyph-name="plus" unicode="+" horiz-adv-x="1229" 
d="M534 598h-438v-160h438v-438h160v438h438v160h-438v438h-160v-438z" />
    <glyph glyph-name="comma" unicode="," horiz-adv-x="491" 
d="M141 -152v0l209 152v209h-209v-361z" />
    <glyph glyph-name="hyphen" unicode="-" horiz-adv-x="833" 
d="M109 463h616v209h-616v-209z" />
    <glyph glyph-name="period" unicode="." horiz-adv-x="491" 
d="M141 0h209v209h-209v-209z" />
    <glyph glyph-name="slash" unicode="/" horiz-adv-x="682" 
d="M16 -12h160l490 1482h-160z" />
    <glyph glyph-name="zero" unicode="0" horiz-adv-x="983" 
d="M696 420q-6 -221 -205 -223q-200 2 -204 223v618q4 219 204 223q199 -4 205 -223v-618zM78 408q2 -201 129 -310q119 -108 284 -110q170 2 289 110q121 109 125 310v643q-4 202 -125 311q-119 108 -289 108q-165 0 -284 -108q-127 -109 -129 -311v-643z" />
    <glyph glyph-name="one" unicode="1" horiz-adv-x="983" 
d="M397 1237v-1237h209v1458h-209l-207 -151v-222v0l207 152v0z" />
    <glyph glyph-name="two" unicode="2" horiz-adv-x="983" 
d="M66 0h831v209h-557l469 588q88 112 88 256q-2 180 -121 297q-117 118 -305 120q-168 -2 -283 -118q-114 -119 -122 -301h208q11 100 70 155q57 55 143 55q97 -2 150 -63q51 -61 51 -143q0 -31 -8 -66q-12 -37 -45 -80l-569 -712v-197z" />
    <glyph glyph-name="three" unicode="3" horiz-adv-x="983" 
d="M360 659h88q97 0 160 -59q64 -61 66 -172q-2 -109 -66 -168q-63 -63 -155 -63q-86 0 -138 47q-51 45 -79 118h-209q34 -182 149 -278t264 -96q193 2 316 123q125 118 127 323q0 92 -39 176q-41 84 -133 144q90 61 125 139q30 78 30 162q-2 166 -114 288
q-117 125 -316 127q-157 -2 -270 -112q-115 -111 -131 -273h209q20 90 78 133q55 43 122 43q93 -2 152 -59q59 -59 61 -151q0 -91 -59 -148q-59 -59 -166 -59h-72v-185z" />
    <glyph glyph-name="four" unicode="4" horiz-adv-x="983" 
d="M25 217h608v-217h209v217h116v197h-116v419h-209v-419h-381l493 1044h-233l-487 -1044v-197z" />
    <glyph glyph-name="five" unicode="5" horiz-adv-x="983" 
d="M102 670h197q37 67 84 94q47 26 104 26q64 0 107 -18q43 -22 65 -59q41 -78 39 -203q0 -51 -2 -105q-4 -55 -22 -102q-17 -47 -60 -76q-45 -30 -120 -30q-175 2 -209 170h-209q30 -201 155 -291q123 -88 271 -88q110 2 190 51q82 47 125 104q49 58 70 133q20 76 20 218
q0 92 -6 155q-6 62 -20 105q-27 79 -88 139q-41 45 -107 76q-70 28 -154 30q-131 0 -233 -80v0v330h580v209h-777v-788z" />
    <glyph glyph-name="six" unicode="6" horiz-adv-x="983" 
d="M78 408q2 -201 129 -310q119 -108 284 -110q170 2 289 110q121 109 125 310v133q2 211 -96 309q-100 96 -244 96q-129 2 -278 -45v0v137q4 219 204 223q142 -2 191 -122h215q-31 161 -143 247q-115 84 -263 84q-165 0 -284 -108q-127 -109 -129 -311v-643zM287 539
q4 219 204 223q199 -4 205 -223v-119q-6 -221 -205 -223q-200 2 -204 223v119z" />
    <glyph glyph-name="seven" unicode="7" horiz-adv-x="983" 
d="M104 1038h209v211h387l-493 -1249h233l494 1249v209h-830v-420z" />
    <glyph glyph-name="eight" unicode="8" horiz-adv-x="983" 
d="M283 1053q2 104 65 157q62 51 143 51q84 0 146 -51q61 -53 63 -157q-2 -101 -63 -154q-62 -55 -146 -55q-81 0 -143 55q-63 53 -65 154v0zM47 426q2 -197 133 -315q125 -121 311 -123q187 2 316 123q127 118 129 315q-2 211 -172 328q65 57 106 131q39 69 39 164
q-2 182 -119 301q-116 118 -299 120q-180 -2 -294 -120q-121 -119 -123 -301q0 -95 43 -164q37 -74 102 -131q-170 -117 -172 -328v0zM256 428q2 102 72 166q67 63 163 65q99 -2 166 -65q68 -64 70 -166q-2 -100 -70 -164q-67 -67 -166 -67q-96 0 -163 67q-70 64 -72 164v0z
" />
    <glyph glyph-name="nine" unicode="9" horiz-adv-x="983" 
d="M78 917q-2 -210 98 -307q100 -100 242 -98q129 -2 278 45v0v-137q-6 -221 -205 -223q-141 0 -190 122h-215q33 -159 147 -243q113 -86 258 -88q170 2 289 110q121 109 125 310v643q-4 202 -125 311q-119 108 -289 108q-165 0 -284 -108q-127 -109 -129 -311v-134z
M287 1038q4 219 204 223q199 -4 205 -223v-119q-6 -221 -205 -223q-200 2 -204 223v119z" />
    <glyph glyph-name="colon" unicode=":" horiz-adv-x="491" 
d="M141 465h209v209h-209v-209zM141 0h209v209h-209v-209z" />
    <glyph glyph-name="semicolon" unicode=";" horiz-adv-x="491" 
d="M141 -152v0l209 152v209h-209v-361zM141 465h209v209h-209v-209z" />
    <glyph glyph-name="less" unicode="&#x3c;" horiz-adv-x="1229" 
d="M96 444l1036 -460v0v172l-851 362l851 363v172v0l-1036 -461v-148z" />
    <glyph glyph-name="equal" unicode="=" horiz-adv-x="1229" 
d="M96 643h1036v160h-1036v-160zM96 233h1036v160h-1036v-160z" />
    <glyph glyph-name="greater" unicode="&#x3e;" horiz-adv-x="1229" 
d="M96 -16v0l1036 460v148l-1036 461v0v-172l852 -363l-852 -362v-172z" />
    <glyph glyph-name="question" unicode="?" horiz-adv-x="948" 
d="M346 360h209v117q-2 76 35 129l186 256q64 86 66 215q-2 182 -121 289q-115 102 -275 104q-157 -2 -270 -112q-115 -109 -117 -279v-41h209q0 123 58 174q51 49 131 49q65 0 120 -47q54 -49 56 -135q0 -63 -51 -135l-183 -254q-32 -45 -43 -90q-10 -47 -10 -106v-134z
M346 0h209v209h-209v-209z" />
    <glyph glyph-name="at" unicode="@" horiz-adv-x="1638" 
d="M537 610q0 137 94 271q43 63 104 102q60 39 131 39q74 -2 121 -55q45 -54 45 -127q-2 -131 -92 -269q-43 -65 -100 -106q-60 -45 -127 -45q-78 0 -125 55q-51 51 -51 135v0zM1102 997h-4q-78 162 -232 160q-221 -4 -354 -178q-133 -170 -135 -383q0 -129 84 -217
q80 -92 207 -94q102 0 161 41q60 39 97 90h4q24 -131 164 -131q145 2 301 159q159 156 165 414q-4 274 -208 442q-205 168 -508 170q-332 -4 -545 -204q-217 -199 -221 -529q2 -334 219 -538q211 -207 543 -211q450 6 675 350h-135q-84 -92 -209 -139q-125 -52 -307 -52
q-289 2 -454 172q-170 162 -172 414q0 238 163 406q160 168 453 172q248 -2 395 -129q150 -127 152 -334q-4 -156 -92 -293q-41 -66 -88 -104q-50 -43 -97 -43q-49 2 -47 59q0 47 21 104l163 531h-135z" />
    <glyph glyph-name="A" unicode="A" horiz-adv-x="1249" 
d="M412 522l211 637h4l211 -637h-426zM1014 0h233l-530 1458h-185l-530 -1458h234l112 326h553z" />
    <glyph glyph-name="B" unicode="B" horiz-adv-x="1249" 
d="M154 0h614q172 0 287 115q116 110 118 299q0 114 -57 211q-61 94 -180 125v4q63 30 106 67q43 35 66 74q45 82 43 172q0 176 -109 283q-108 106 -323 108h-565v-1458zM715 647q123 -2 180 -65q57 -64 57 -154q0 -88 -57 -152q-57 -65 -180 -67h-340v438h340zM694 1261
q121 -2 178 -59q58 -61 58 -149t-58 -146q-57 -63 -178 -63h-319v417h319z" />
    <glyph glyph-name="C" unicode="C" horiz-adv-x="1139" 
d="M903 408q-92 -199 -278 -199q-78 0 -134 33q-57 28 -92 73q-43 47 -57 123q-16 76 -16 291t16 293q14 74 57 121q35 45 92 75q56 29 134 31q106 -2 180 -61q71 -62 98 -150h234q-35 183 -168 307q-133 123 -344 125q-172 -2 -287 -82q-117 -79 -170 -180
q-33 -53 -49 -139q-15 -86 -15 -340q0 -250 15 -338q8 -47 20 -78q13 -30 29 -63q53 -101 170 -178q115 -80 287 -84q190 0 329 108q135 109 183 312h-234z" />
    <glyph glyph-name="D" unicode="D" horiz-adv-x="1290" 
d="M154 0h495q164 0 277 72q114 67 178 170q24 39 41 75q16 37 24 84q17 93 17 328q0 221 -11 311q-14 90 -67 172q-148 244 -444 246h-510v-1458zM375 1249h264q168 4 260 -123q45 -51 57 -133q9 -82 9 -272q0 -195 -9 -266q-10 -72 -47 -119q-84 -127 -270 -127h-264v1040
z" />
    <glyph glyph-name="E" unicode="E" horiz-adv-x="1139" 
d="M154 0h931v209h-710v428h606v196h-606v416h710v209h-931v-1458z" />
    <glyph glyph-name="F" unicode="F" horiz-adv-x="1100" 
d="M154 0h221v623h606v196h-606v430h710v209h-931v-1458z" />
    <glyph glyph-name="G" unicode="G" horiz-adv-x="1249" 
d="M627 594h297v-76q-2 -137 -86 -221q-84 -88 -213 -88q-78 0 -134 33q-57 28 -92 73q-43 47 -57 123q-16 76 -16 291t16 293q14 74 57 121q35 45 92 75q56 29 134 31q106 -2 180 -61q71 -62 98 -150h234q-35 183 -168 307q-133 123 -344 125q-172 -2 -287 -82
q-117 -79 -170 -180q-33 -53 -49 -139q-15 -86 -15 -340q0 -250 15 -338q8 -47 20 -78q13 -30 29 -63q53 -101 170 -178q115 -80 287 -84q223 4 370 151q146 148 150 367v297h-518v-209z" />
    <glyph glyph-name="H" unicode="H" horiz-adv-x="1327" 
d="M952 0h221v1458h-221v-625h-577v625h-221v-1458h221v637h577v-637z" />
    <glyph glyph-name="I" unicode="I" horiz-adv-x="528" 
d="M154 0h221v1458h-221v-1458z" />
    <glyph glyph-name="J" unicode="J" horiz-adv-x="985" 
d="M180 307l-178 -129q125 -184 379 -190q184 2 323 125q140 120 144 340v1005h-221v-983q0 -74 -23 -123q-22 -51 -61 -82q-80 -63 -168 -61q-66 0 -115 31q-49 26 -80 67v0z" />
    <glyph glyph-name="K" unicode="K" horiz-adv-x="1290" 
d="M154 0h221v444l256 269v0l397 -713h262l-516 883l467 575h-262l-600 -751h-4v751h-221v-1458z" />
    <glyph glyph-name="L" unicode="L" horiz-adv-x="1139" 
d="M154 0h931v209h-710v1249h-221v-1458z" />
    <glyph glyph-name="M" unicode="M" horiz-adv-x="1552" 
d="M154 0h221v909h4l305 -700h184l305 700h5v-909h221v1458h-209l-410 -950v0l-418 950h-208v-1458z" />
    <glyph glyph-name="N" unicode="N" horiz-adv-x="1401" 
d="M154 0h221v1036h4l659 -1036h209v1458h-221v-1036h-4l-660 1036h-208v-1458z" />
    <glyph glyph-name="O" unicode="O" horiz-adv-x="1249" 
d="M104 729q0 -250 15 -338q8 -47 20 -78q13 -30 29 -63q53 -101 170 -178q115 -80 287 -84q174 4 290 84q115 77 166 178q37 53 51 141q13 88 13 338q0 254 -13 340q-14 86 -51 139q-51 101 -166 180q-116 80 -290 82q-172 -2 -287 -82q-117 -79 -170 -180
q-33 -53 -49 -139q-15 -86 -15 -340v0zM326 729q0 215 16 293q14 74 57 121q35 45 92 75q56 29 134 31q79 -2 137 -31q55 -30 88 -75q43 -47 59 -121q15 -78 15 -293t-15 -291q-16 -76 -59 -123q-33 -45 -88 -73q-58 -33 -137 -33q-78 0 -134 33q-57 28 -92 73
q-43 47 -57 123q-16 76 -16 291v0z" />
    <glyph glyph-name="P" unicode="P" horiz-adv-x="1214" 
d="M375 1249h319q90 2 158 -41q45 -26 70 -71q24 -50 24 -123q0 -88 -59 -160q-62 -74 -185 -76h-327v471zM154 0h221v569h336q225 4 342 144q114 133 114 295q0 120 -45 208q-43 91 -112 140q-82 65 -162 86q-80 16 -166 16h-528v-1458z" />
    <glyph glyph-name="Q" unicode="Q" horiz-adv-x="1249" 
d="M788 260q-61 -51 -163 -51q-78 0 -134 33q-57 28 -92 73q-43 47 -57 123q-16 76 -16 291t16 293q14 74 57 121q35 45 92 75q56 29 134 31q79 -2 137 -31q55 -30 88 -75q43 -47 59 -121q15 -78 15 -293q0 -231 -21 -305v0l-170 135v0l-131 -151zM969 115l184 -148v0
l131 152l-192 153q30 50 43 140q10 90 10 317q0 254 -13 340q-14 86 -51 139q-51 101 -166 180q-116 80 -290 82q-172 -2 -287 -82q-117 -79 -170 -180q-33 -53 -49 -139q-15 -86 -15 -340q0 -250 15 -338q8 -47 20 -78q13 -30 29 -63q53 -101 170 -178q115 -80 287 -84
q215 4 344 127v0z" />
    <glyph glyph-name="R" unicode="R" horiz-adv-x="1249" 
d="M375 1261h346q106 0 162 -45q71 -51 73 -165q0 -95 -61 -160q-62 -70 -186 -72h-334v442zM154 0h221v623h282l301 -623h263l-338 647q278 107 282 404q-6 202 -145 311q-115 96 -297 96h-569v-1458z" />
    <glyph glyph-name="S" unicode="S" horiz-adv-x="1175" 
d="M172 354l-145 -166q233 -200 557 -200q501 6 512 424q0 155 -97 272q-98 119 -303 147q-104 13 -164 23q-108 20 -157 72q-49 51 -49 114q2 105 73 158q68 51 170 51q197 -4 361 -112v0l123 182q-201 145 -473 151q-226 -2 -349 -118q-127 -117 -127 -308
q0 -159 101 -270q98 -108 286 -139q105 -15 193 -27q192 -33 190 -196q-4 -199 -288 -203q-240 2 -414 145v0z" />
    <glyph glyph-name="T" unicode="T" 
d="M401 0h222v1261h399v197h-1020v-197h399v-1261z" />
    <glyph glyph-name="U" unicode="U" horiz-adv-x="1290" 
d="M127 494q2 -230 152 -365q147 -139 366 -141q223 2 369 141q145 135 149 365v964h-221v-940q-2 -149 -84 -227q-84 -82 -213 -82t-211 82q-84 78 -86 227v940h-221v-964z" />
    <glyph glyph-name="V" unicode="V" horiz-adv-x="1139" 
d="M483 0h172l482 1458h-234l-332 -1110h-4l-331 1110h-234z" />
    <glyph glyph-name="W" unicode="W" horiz-adv-x="1704" 
d="M387 0h184l279 1051h4l278 -1051h185l364 1458h-233l-230 -1036h-4l-282 1036h-160l-283 -1036h-4l-229 1036h-233z" />
    <glyph glyph-name="X" unicode="X" horiz-adv-x="1098" 
d="M549 543l319 -543h250l-446 747l417 711h-249l-291 -506v0l-291 506h-250l418 -711l-446 -747h249l320 543v0z" />
    <glyph glyph-name="Y" unicode="Y" 
d="M408 0h208v600l439 858h-234l-309 -647v0l-309 647h-234l439 -858v-600z" />
    <glyph glyph-name="Z" unicode="Z" horiz-adv-x="1063" 
d="M66 0h931v209h-663l663 1083v166h-905v-197h635l-661 -1077v-184z" />
    <glyph glyph-name="bracketleft" unicode="[" horiz-adv-x="569" 
d="M147 -209h379v135h-194v1397h194v135h-379v-1667z" />
    <glyph glyph-name="backslash" unicode="\" horiz-adv-x="682" 
d="M506 -12h160l-490 1482h-160z" />
    <glyph glyph-name="bracketright" unicode="]" horiz-adv-x="569" 
d="M238 -74h-195v-135h379v1667h-379v-135h195v-1397z" />
    <glyph glyph-name="asciicircum" unicode="^" horiz-adv-x="1229" 
d="M102 580h172l340 706v0l340 -706h172l-444 878h-135z" />
    <glyph glyph-name="underscore" unicode="_" 
d="M0 -256h1024v102h-1024v-102z" />
    <glyph glyph-name="grave" unicode="`" horiz-adv-x="491" 
d="M231 1171h172l-188 299h-274z" />
    <glyph glyph-name="a" unicode="a" 
d="M680 0h209v709q-2 190 -119 268q-117 76 -313 74q-232 4 -351 -152l164 -125v0q27 45 74 64q45 16 123 16q215 4 213 -133v-109h-289q-166 -2 -252 -90q-86 -86 -86 -217q0 -137 99 -225q94 -90 268 -92q106 0 166 26q61 25 90 78h4v-92zM680 365q0 -117 -49 -150
q-54 -33 -185 -31q-104 0 -149 41q-47 37 -47 90q-2 121 180 125h250v-75z" />
    <glyph glyph-name="b" unicode="b" horiz-adv-x="1063" 
d="M135 0h209v109v0q104 -117 268 -121q97 2 166 39q70 36 113 96q43 49 59 133q15 80 15 264q0 187 -15 266q-16 80 -59 129q-88 131 -279 136q-80 0 -143 -33q-68 -35 -125 -90v0v530h-209v-1458zM549 842q74 0 117 -25q43 -27 61 -74q20 -47 27 -102q2 -59 2 -121
q0 -59 -2 -115q-7 -59 -27 -106q-18 -45 -61 -74q-43 -28 -117 -28q-70 0 -111 30q-43 29 -63 76q-19 47 -25 105q-6 57 -6 112q0 60 6 115t25 102q20 47 63 76q41 29 111 29v0z" />
    <glyph glyph-name="c" unicode="c" horiz-adv-x="909" 
d="M745 305v0q-79 -106 -211 -108q-266 -5 -270 321q4 328 270 324q132 -4 211 -109v0l154 137q-68 82 -160 131q-92 48 -213 50q-184 2 -323 -123q-144 -127 -148 -410q4 -280 148 -405q139 -125 323 -125q121 2 213 53q92 49 160 127z" />
    <glyph glyph-name="d" unicode="d" horiz-adv-x="1063" 
d="M756 109v-109h209v1458h-209v-530v0q-58 55 -121 90q-68 33 -148 33q-190 -5 -278 -136q-43 -49 -57 -129q-17 -79 -17 -266q0 -184 17 -264q14 -84 57 -133q47 -60 117 -96q67 -37 161 -39q166 4 269 121v0zM551 842q74 0 117 -29t59 -76q20 -47 27 -102q2 -55 2 -115
q0 -55 -2 -112q-7 -58 -27 -105q-16 -47 -59 -76q-43 -30 -117 -30t-113 28q-43 29 -63 74q-19 47 -25 106q-6 56 -6 115q0 62 6 121q6 55 25 102q20 47 63 74q39 25 113 25v0z" />
    <glyph glyph-name="e" unicode="e" 
d="M940 440v172q-2 205 -127 322q-123 115 -301 117q-74 0 -150 -27q-77 -27 -139 -88q-61 -60 -100 -164q-39 -102 -39 -256q0 -160 45 -260q41 -104 107 -162q34 -28 73 -47q37 -22 76 -35q78 -24 160 -24q215 -2 374 168l-151 129v0q-100 -101 -227 -101q-109 0 -176 66
q-72 65 -72 190h647zM293 612q6 121 65 183q60 59 154 59t154 -59q61 -62 65 -183h-438z" />
    <glyph glyph-name="f" unicode="f" horiz-adv-x="569" 
d="M168 0h209v879h209v159h-209v137q-4 89 90 86h119v197h-135q-121 0 -201 -65q-82 -70 -82 -218v-137h-105v-159h105v-879z" />
    <glyph glyph-name="g" unicode="g" horiz-adv-x="1063" 
d="M719 109v-107q-2 -106 -66 -166q-65 -59 -172 -59q-57 2 -110 31q-52 26 -92 63v0l-162 -129q149 -170 360 -174q184 0 316 113q131 110 135 344v1013h-209v-110v0q-113 123 -268 123q-101 -2 -168 -39q-70 -39 -107 -88q-41 -50 -59 -123q-19 -74 -19 -283
q0 -205 19 -278q18 -74 59 -125q37 -45 107 -84q67 -41 168 -43q165 4 268 121v0zM307 518q0 121 8 168q7 47 33 76q21 28 64 55q41 23 102 25q61 -2 102 -25q41 -27 62 -55q26 -29 35 -76q6 -47 6 -168q0 -119 -6 -164q-9 -47 -35 -78q-21 -28 -62 -51q-41 -28 -102 -28
t-102 28q-43 23 -64 51q-26 31 -33 78q-8 45 -8 164v0z" />
    <glyph glyph-name="h" unicode="h" horiz-adv-x="1100" 
d="M135 0h209v618q0 109 59 166q58 58 148 58t147 -58q58 -57 58 -166v-618h209v690q-5 178 -111 270q-107 91 -236 91q-167 0 -270 -123h-4v530h-209v-1458z" />
    <glyph glyph-name="i" unicode="i" horiz-adv-x="491" 
d="M141 0h209v1038h-209v-1038zM141 1249h209v209h-209v-209z" />
    <glyph glyph-name="j" unicode="j" horiz-adv-x="528" 
d="M162 -113q-2 -110 -117 -110h-59v-197h82q135 2 219 82q82 78 84 209v1167h-209v-1151zM162 1249h209v209h-209v-209z" />
    <glyph glyph-name="k" unicode="k" horiz-adv-x="1063" 
d="M135 0h209v299l164 186v0l276 -485h262l-407 633l358 405h-250l-399 -487h-4v907h-209v-1458z" />
    <glyph glyph-name="l" unicode="l" horiz-adv-x="528" 
d="M135 252q0 -137 78 -195q74 -57 188 -57h93v197h-72q-78 0 -78 71v1190h-209v-1206z" />
    <glyph glyph-name="m" unicode="m" horiz-adv-x="1745" 
d="M147 0h209v618q0 109 60 166q57 58 147 58t148 -58q57 -57 57 -166v-618h209v618q0 109 59 166q58 58 148 58t147 -58q57 -57 57 -166v-618h209v690q-4 178 -110 270q-107 91 -236 91q-205 2 -327 -136v0q-54 60 -119 99q-66 35 -174 37q-168 0 -271 -123h-4v110h-209
v-1038z" />
    <glyph glyph-name="n" unicode="n" horiz-adv-x="1100" 
d="M135 0h209v618q0 109 59 166q58 58 148 58t147 -58q58 -57 58 -166v-618h209v690q-5 178 -111 270q-107 91 -236 91q-167 0 -270 -123h-4v110h-209v-1038z" />
    <glyph glyph-name="o" unicode="o" 
d="M84 520q0 -164 27 -250q28 -86 86 -149q43 -49 120 -88q76 -43 195 -45q123 2 199 45q41 18 67 43q29 22 49 45q62 63 88 149q25 86 25 250t-25 252q-26 86 -88 145q-41 52 -116 93q-76 39 -199 41q-119 -2 -195 -41q-77 -41 -120 -93q-58 -59 -86 -145q-27 -88 -27 -252
v0zM731 518q0 -106 -10 -156q-10 -51 -41 -90q-23 -30 -68 -53q-43 -22 -100 -22q-53 0 -98 22q-43 23 -70 53q-27 39 -39 90q-12 50 -12 158q0 109 12 160q12 49 39 86q27 35 70 55q45 21 98 21q57 0 100 -21q45 -20 68 -55q31 -37 41 -86q10 -51 10 -162v0z" />
    <glyph glyph-name="p" unicode="p" horiz-adv-x="1063" 
d="M135 -420h209v531v0q57 -56 125 -88q63 -35 143 -35q97 2 166 39q70 36 113 96q43 51 59 131q15 80 15 264q0 189 -15 268q-16 80 -59 129q-88 131 -279 136q-164 -5 -268 -121v0v108h-209v-1458zM549 197q-70 0 -111 30q-43 29 -63 76q-19 47 -25 105q-6 55 -6 110
q0 59 6 117q6 55 25 102q20 47 63 76q41 29 111 29q74 0 117 -25q43 -27 61 -74q20 -45 27 -104q2 -59 2 -121q0 -59 -2 -115q-7 -57 -27 -104q-18 -45 -61 -74q-43 -28 -117 -28v0z" />
    <glyph glyph-name="q" unicode="q" horiz-adv-x="1063" 
d="M719 111v-531h209v1458h-209v-108v0q-103 116 -268 121q-191 -5 -279 -136q-43 -49 -57 -129q-17 -79 -17 -268q0 -184 17 -264q14 -80 57 -131q47 -60 117 -96q67 -37 162 -39q79 0 147 35q63 32 121 88v0zM514 197q-74 0 -113 28q-43 29 -63 74q-19 47 -25 104
q-6 56 -6 115q0 62 6 121t25 104q20 47 63 74q39 25 113 25t117 -29t59 -76q21 -47 27 -102q2 -58 2 -117q0 -55 -2 -110q-6 -58 -27 -105q-16 -47 -59 -76q-43 -30 -117 -30v0z" />
    <glyph glyph-name="r" unicode="r" horiz-adv-x="797" 
d="M135 0h209v625q2 114 66 165q57 52 137 52q71 0 137 -52v0l152 181q-93 78 -218 80q-167 0 -270 -123h-4v110h-209v-1038z" />
    <glyph glyph-name="s" unicode="s" horiz-adv-x="983" 
d="M166 317l-146 -143q203 -186 457 -186q187 2 307 86q121 82 123 233q0 129 -67 213q-72 86 -234 98l-172 13q-76 8 -106 37q-33 26 -31 61q0 55 41 90q39 35 137 35q86 0 152 -25q67 -28 127 -71v0l129 151q-76 66 -172 105q-50 18 -107 28q-57 9 -129 9q-166 0 -274 -80
q-111 -80 -113 -240q2 -133 86 -207q82 -76 213 -88l184 -16q58 -2 93 -25q34 -22 34 -78q0 -63 -57 -98t-147 -35q-201 0 -328 133v0z" />
    <glyph glyph-name="t" unicode="t" horiz-adv-x="569" 
d="M147 1038h-104v-159h104v-623q0 -123 72 -188q70 -68 180 -68h109v197h-78q-76 -2 -74 77v605h152v159h-152v316h-209v-316z" />
    <glyph glyph-name="u" unicode="u" horiz-adv-x="1100" 
d="M135 348q2 -176 115 -266q104 -92 233 -94q166 0 269 123h4v-111h209v1038h-209v-618q0 -105 -58 -164q-57 -59 -147 -59t-148 59q-59 59 -59 164v618h-209v-690z" />
    <glyph glyph-name="v" unicode="v" horiz-adv-x="909" 
d="M369 0h172l381 1038h-222l-243 -727h-4l-244 727h-221z" />
    <glyph glyph-name="w" unicode="w" horiz-adv-x="1479" 
d="M958 0h185l331 1038h-221l-198 -727h-4l-236 727h-151l-236 -727h-4l-199 727h-221l332 -1038h184l217 727h4z" />
    <glyph glyph-name="x" unicode="x" horiz-adv-x="983" 
d="M375 530l-355 -530h250l221 346v0l222 -346h249l-354 530l340 508h-250l-207 -336v0l-206 336h-250z" />
    <glyph glyph-name="y" unicode="y" horiz-adv-x="909" 
d="M358 41l-57 -174q-14 -45 -49 -68q-35 -22 -76 -22h-61v-197h69q97 0 174 43q76 45 119 162l447 1253h-222l-245 -727h-4l-246 727h-221z" />
    <glyph glyph-name="z" unicode="z" horiz-adv-x="909" 
d="M68 0h774v197h-520l520 675v166h-746v-184h492l-520 -688v-166z" />
    <glyph glyph-name="braceleft" unicode="{" horiz-adv-x="569" 
d="M29 557q80 -2 120 -74q39 -69 39 -176v-289q2 -106 62 -165q57 -60 139 -62h174v135h-100q-49 2 -70 56q-20 49 -20 114v262q0 72 -19 121q-18 49 -47 80q-24 31 -51 47q-27 14 -43 17v4q35 8 94 69q29 31 47 80q19 45 19 113v264q0 68 20 119q21 49 70 51h100v135h-174
q-82 0 -139 -59q-60 -60 -62 -168v-293q0 -100 -39 -172q-18 -35 -49 -53q-30 -21 -71 -21v-135z" />
    <glyph glyph-name="bar" unicode="|" horiz-adv-x="455" 
d="M147 -12h160v1482h-160v-1482z" />
    <glyph glyph-name="braceright" unicode="}" horiz-adv-x="569" 
d="M6 -209h174q86 2 144 62q55 59 57 165v293q0 105 43 174q41 70 117 72v135q-76 6 -117 76q-43 70 -43 174v289q-2 108 -57 168q-58 59 -144 59h-174v-135h100q50 -2 70 -51q21 -51 21 -119v-262q0 -70 22 -119q19 -49 47 -80q29 -31 53 -45q25 -14 37 -20v-4
q-30 -5 -90 -66q-28 -31 -47 -80q-22 -49 -22 -117v-264q0 -65 -21 -114q-20 -54 -70 -56h-100v-135z" />
    <glyph glyph-name="asciitilde" unicode="~" horiz-adv-x="1229" 
d="M215 362v0q37 56 78 101q43 43 102 45q43 -2 99 -25q53 -22 110 -49q62 -24 119 -45q55 -22 108 -22q105 2 164 59q60 51 92 119l-73 129v0q-33 -56 -76 -99q-43 -47 -105 -49q-40 0 -96 25q-55 22 -112 49q-60 29 -115 49q-59 19 -113 19q-100 -2 -161 -56
q-62 -55 -95 -123z" />
    <glyph glyph-name="exclamdown" unicode="&#xa1;" horiz-adv-x="528" 
d="M133 -420h262l-78 1098h-104zM160 829h209v209h-209v-209z" />
    <glyph glyph-name="cent" unicode="&#xa2;" horiz-adv-x="983" 
d="M498 197q-217 24 -219 321q2 301 219 324v-645zM498 -199h82v187q217 32 333 180l-153 137v0q-62 -82 -180 -108v645q118 -27 180 -109v0l153 137q-116 150 -333 181v186h-82v-186q-172 -11 -295 -138q-131 -127 -133 -395q2 -264 133 -391q123 -127 295 -139v-187z" />
    <glyph glyph-name="sterling" unicode="&#xa3;" horiz-adv-x="983" 
d="M59 614h164q19 -59 35 -114q14 -56 14 -101q-2 -84 -36 -174q-80 -2 -150 -41v-196q98 41 180 41q80 -2 207 -21q125 -18 193 -20q69 0 147 22q78 23 149 80l-129 162v0q-47 -37 -98 -51q-53 -17 -100 -17q-51 0 -117 15q-67 10 -113 14q62 109 64 221q-2 86 -37 180h279
v136h-330q-70 137 -72 303q4 217 187 221q170 0 182 -223h209q0 188 -99 303q-100 114 -307 116q-166 -2 -270 -108q-109 -109 -111 -305q-2 -144 72 -307h-113v-136z" />
    <glyph glyph-name="currency" unicode="&#xa4;" horiz-adv-x="983" 
d="M31 375l108 -107v0l101 101v0q45 -33 112 -56q66 -24 142 -24q155 2 251 80v0l101 -101v0l106 107l-98 100q76 94 80 254q-4 158 -80 254l98 100l-106 107v0l-101 -98v0q-96 75 -251 77q-160 -4 -254 -80v0l-101 101v0l-108 -107l100 -100q-76 -96 -78 -254
q2 -160 78 -252zM213 729q6 287 281 293q272 -6 280 -293q0 -135 -76 -213q-75 -80 -204 -80q-127 0 -203 80q-78 78 -78 213v0z" />
    <glyph glyph-name="yen" unicode="&#xa5;" horiz-adv-x="983" 
d="M393 0h197v328h307v135h-307v137l28 55h279v135h-213l328 668h-222l-299 -647v0l-299 647h-221l328 -668h-213v-135h279l28 -55v-137h-307v-135h307v-328z" />
    <glyph glyph-name="brokenbar" unicode="&#xa6;" horiz-adv-x="455" 
d="M147 -12h160v555h-160v-555zM147 915h160v555h-160v-555z" />
    <glyph glyph-name="logicalnot.001" unicode="&#xa7;" horiz-adv-x="983" 
d="M135 -20q2 -175 105 -271q100 -100 241 -102q158 2 264 100q107 98 109 268q0 88 -31 156q-35 70 -127 107q125 65 162 141q33 78 31 196q0 201 -82 283q-82 84 -252 129q-117 37 -164 72q-47 30 -47 96q0 49 37 88q35 39 110 41q78 0 117 -45q39 -47 39 -123h184
q-2 180 -100 268q-96 84 -240 84q-141 -2 -233 -90q-96 -92 -98 -239q-4 -162 135 -244q-123 -51 -162 -129q-41 -80 -39 -215q-2 -154 55 -236q58 -86 224 -141l78 -27q129 -38 169 -73q39 -37 37 -111q0 -76 -45 -117q-45 -43 -116 -43q-82 2 -125 52q-45 47 -52 125h-184
zM491 334q-57 0 -94 24q-41 23 -59 50q-37 53 -35 159q0 72 10 107q9 35 33 61q41 58 145 62q54 0 91 -17q36 -18 55 -45q24 -26 35 -61q8 -35 8 -107q2 -106 -35 -159q-37 -70 -154 -74v0z" />
    <glyph glyph-name="dieresis" unicode="&#xa8;" horiz-adv-x="491" 
d="M315 1200h222v221h-222v-221zM-45 1200h221v221h-221v-221z" />
    <glyph glyph-name="copyright" unicode="&#xa9;" horiz-adv-x="1638" 
d="M1073 600q-14 -88 -74 -141q-63 -56 -153 -56q-133 2 -211 103q-80 96 -80 227q0 137 76 229q76 91 211 93q90 0 153 -52q62 -51 78 -135h148q-21 170 -125 252q-103 82 -256 82q-213 -2 -328 -131q-117 -129 -117 -342q0 -207 121 -336q119 -135 330 -137q305 4 375 344
h-148zM78 729q4 -315 219 -522q207 -215 522 -219q316 4 526 219q211 207 215 522q-4 315 -215 526q-210 211 -526 215q-315 -4 -522 -215q-215 -211 -219 -526v0zM238 729q2 266 167 428q160 164 414 166q256 -2 418 -166q162 -162 164 -428q-2 -262 -164 -424
q-162 -168 -418 -170q-254 2 -414 170q-165 162 -167 424v0z" />
    <glyph glyph-name="ordfeminine" unicode="&#xaa;" horiz-adv-x="666" 
d="M453 840h159v426q-6 211 -305 204q-92 0 -149 -16q-60 -21 -103 -76l107 -90v0q16 27 47 39q31 8 104 8q52 0 95 -10q43 -12 45 -70v-37h-230q-100 0 -153 -57q-58 -57 -58 -145q0 -72 64 -127q63 -58 209 -58q123 0 163 68h5v-59zM453 1059q2 -51 -25 -72
q-31 -20 -129 -20q-45 0 -84 14q-18 8 -29 20q-14 13 -14 27q2 70 117 68h164v-37z" />
    <glyph glyph-name="Acircumflex.001" unicode="&#xab;" horiz-adv-x="983" 
d="M514 981l-418 -414l418 -413v0v208l-209 205l209 205v209v0zM887 981l-418 -414l418 -413v0v208l-209 205l209 205v209v0z" />
    <glyph glyph-name="logicalnot" unicode="&#xac;" horiz-adv-x="1229" 
d="M973 221h159v582h-1036v-160h877v-422z" />
    <glyph glyph-name="uni00AD" unicode="&#xad;" horiz-adv-x="833" 
d="M109 463h616v209h-616v-209z" />
    <glyph glyph-name="registered" unicode="&#xae;" horiz-adv-x="1638" 
d="M686 1046h135q78 0 135 -22q58 -25 60 -100q-2 -80 -68 -103q-67 -20 -160 -18h-102v243zM539 317h147v351h84l248 -351h172l-248 355q94 10 158 67q61 58 63 185q0 260 -297 258h-327v-865zM78 729q4 -315 219 -522q207 -215 522 -219q316 4 526 219q211 207 215 522
q-4 315 -215 526q-210 211 -526 215q-315 -4 -522 -215q-215 -211 -219 -526v0zM238 729q2 266 167 428q160 164 414 166q256 -2 418 -166q162 -162 164 -428q-2 -262 -164 -424q-162 -168 -418 -170q-254 2 -414 170q-165 162 -167 424v0z" />
    <glyph glyph-name="macron" unicode="&#xaf;" horiz-adv-x="491" 
d="M-49 1243h590v135h-590v-135z" />
    <glyph glyph-name="degree" unicode="&#xb0;" horiz-adv-x="819" 
d="M117 1178q2 -123 86 -207t207 -86q127 2 208 86q82 84 84 207q-2 126 -84 208q-81 82 -208 84q-123 -2 -207 -84t-86 -208v0zM221 1178q0 81 58 135q51 51 131 53q81 -2 135 -53q51 -54 53 -135q-2 -80 -53 -132q-54 -57 -135 -57q-80 0 -131 57q-58 52 -58 132v0z" />
    <glyph glyph-name="oe.001" unicode="&#xb1;" horiz-adv-x="1229" 
d="M534 283h160v297h438v159h-438v297h-160v-297h-438v-159h438v-297zM96 0h1036v160h-1036v-160z" />
    <glyph glyph-name="twosuperior" unicode="&#xb2;" horiz-adv-x="639" 
d="M31 588h577v147h-368l303 320q39 43 53 82q12 38 12 81q-2 107 -80 181q-80 69 -211 71q-122 -2 -198 -73q-82 -76 -82 -201h172q10 125 115 127q53 0 84 -29q28 -28 28 -76q0 -55 -45 -98l-360 -385v-147z" />
    <glyph glyph-name="threesuperior.001" unicode="&#xb3;" horiz-adv-x="639" 
d="M233 971h76q64 0 105 -33q41 -35 43 -94q-2 -54 -37 -84q-39 -33 -98 -33q-109 2 -140 98h-172q51 -248 301 -245q148 0 232 73q84 74 86 195q0 57 -25 106q-27 51 -90 86q61 37 84 84q20 47 20 97q0 100 -79 174q-80 73 -232 75q-125 -2 -201 -71q-77 -70 -90 -183h172
q15 56 52 82q39 25 86 25q53 0 88 -29q32 -30 32 -76q0 -51 -38 -79q-41 -33 -109 -33h-66v-135z" />
    <glyph glyph-name="acute" unicode="&#xb4;" horiz-adv-x="491" 
d="M88 1171h172l291 299h-275z" />
    <glyph glyph-name="mu" unicode="&#xb5;" horiz-adv-x="1100" 
d="M135 -420h209v438q68 -30 139 -30q166 0 269 123h4v-111h209v1038h-209v-618q0 -105 -58 -164q-57 -59 -147 -59t-148 59q-59 59 -59 164v618h-209v-1458z" />
    <glyph glyph-name="florin.001" unicode="&#xb6;" horiz-adv-x="1229" 
d="M528 -379h160v1702h148v-1702h159v1837h-430q-459 2 -467 -393q2 -164 123 -268q117 -111 307 -113v-1063z" />
    <glyph glyph-name="cedilla" unicode="&#xb8;" horiz-adv-x="491" 
d="M215 0l-129 -180l45 -39q39 24 78 22q43 0 72 -18q28 -18 28 -57q-4 -86 -119 -86q-73 2 -143 30l-37 -86q107 -47 207 -49q105 0 178 49q72 45 74 144q0 65 -47 110t-133 45q-33 0 -56 -8h-4l90 123h-104z" />
    <glyph glyph-name="onesuperior" unicode="&#xb9;" horiz-adv-x="639" 
d="M240 1290v-702h172v874h-172l-136 -90v-172v0l136 90v0z" />
    <glyph glyph-name="ordmasculine" unicode="&#xba;" horiz-adv-x="666" 
d="M31 1151q0 -92 14 -139q12 -50 51 -90q88 -91 236 -91q149 0 237 91q39 40 54 90q12 47 12 139t-12 141q-15 49 -54 88q-88 90 -235 90q-150 0 -238 -90q-39 -39 -51 -88q-14 -49 -14 -141v0zM190 1151q0 55 7 84q4 29 24 51q37 47 113 49q74 -2 110 -49q33 -39 31 -135
q0 -53 -4 -80q-6 -29 -27 -55q-36 -49 -112 -49q-74 0 -111 49q-35 39 -31 135v0z" />
    <glyph glyph-name="Ecircumflex.001" unicode="&#xbb;" horiz-adv-x="983" 
d="M469 154v0l418 413l-418 414v0v-209l209 -205l-209 -205v-208zM96 154v0l418 413l-418 414v0v-209l209 -205l-209 -205v-208z" />
    <glyph glyph-name="onequarter" unicode="&#xbc;" horiz-adv-x="1477" 
d="M199 -35h135l882 1528h-135zM770 127h401v-127h172v127h68v147h-68v226h-172v-226h-223l311 596h-172l-317 -596v-147zM240 1290v-702h172v874h-172l-136 -90v-172v0l136 90v0z" />
    <glyph glyph-name="onehalf" unicode="&#xbd;" horiz-adv-x="1477" 
d="M147 -35h136l882 1528h-135zM833 0h578v147h-369l303 320q39 43 54 82q12 39 12 82q-2 106 -80 180q-80 70 -211 72q-123 -2 -198 -74q-82 -76 -82 -201h172q10 125 114 127q54 0 84 -28q29 -29 29 -76q0 -56 -45 -99l-361 -385v-147zM240 1290v-702h172v874h-172
l-136 -90v-172v0l136 90v0z" />
    <glyph glyph-name="threequarters" unicode="&#xbe;" horiz-adv-x="1477" 
d="M260 -35h135l883 1528h-135zM770 127h401v-127h172v127h68v147h-68v226h-172v-226h-223l311 596h-172l-317 -596v-147zM233 971h76q64 0 105 -33q41 -35 43 -94q-2 -54 -37 -84q-39 -33 -98 -33q-109 2 -140 98h-172q51 -248 301 -245q148 0 232 73q84 74 86 195
q0 57 -25 106q-27 51 -90 86q61 37 84 84q20 47 20 97q0 100 -79 174q-80 73 -232 75q-125 -2 -201 -71q-77 -70 -90 -183h172q15 56 52 82q39 25 86 25q53 0 88 -29q32 -30 32 -76q0 -51 -38 -79q-41 -33 -109 -33h-66v-135z" />
    <glyph glyph-name="questiondown" unicode="&#xbf;" horiz-adv-x="948" 
d="M393 561q2 -76 -35 -129l-186 -256q-66 -86 -66 -215q3 -180 123 -285q117 -106 273 -108q162 2 272 115q113 108 115 276v41h-209q-2 -121 -55 -172q-54 -51 -134 -51q-61 2 -116 51q-58 47 -60 131q0 66 52 135l182 254q33 47 45 94q8 45 8 103v133h-209v-117zM393 829
h209v209h-209v-209z" />
    <glyph glyph-name="Agrave" unicode="&#xc0;" horiz-adv-x="1249" 
d="M412 522l211 637h4l211 -637h-426zM1014 0h233l-530 1458h-185l-530 -1458h234l112 326h553zM618 1529h172l-188 299h-274z" />
    <glyph glyph-name="Aacute" unicode="&#xc1;" horiz-adv-x="1249" 
d="M412 522l211 637h4l211 -637h-426zM1014 0h233l-530 1458h-185l-530 -1458h234l112 326h553zM482 1529h172l291 299h-275z" />
    <glyph glyph-name="Acircumflex" unicode="&#xc2;" horiz-adv-x="1249" 
d="M412 522l211 637h4l211 -637h-426zM1014 0h233l-530 1458h-185l-530 -1458h234l112 326h553zM634 1705l137 -176h197l-218 299h-233l-217 -299h197l137 176v0z" />
    <glyph glyph-name="Atilde" unicode="&#xc3;" horiz-adv-x="1249" 
d="M412 522l211 637h4l211 -637h-426zM1014 0h233l-530 1458h-185l-530 -1458h234l112 326h553zM391 1550q0 51 33 72q31 16 53 16q64 -2 141 -37q37 -14 78 -25q39 -14 76 -14q104 2 158 74q53 67 67 164h-123q-10 -54 -36 -72q-29 -20 -60 -18q-31 0 -61 14q-33 10 -70 27
q-35 16 -72 26q-36 10 -75 10q-95 0 -154 -63q-61 -66 -78 -174h123z" />
    <glyph glyph-name="Adieresis" unicode="&#xc4;" horiz-adv-x="1249" 
d="M412 522l211 637h4l211 -637h-426zM1014 0h233l-530 1458h-185l-530 -1458h234l112 326h553zM705 1558h222v221h-222v-221zM345 1558h221v221h-221v-221z" />
    <glyph glyph-name="Aring" unicode="&#xc5;" horiz-adv-x="1249" 
d="M412 522l211 637h4l211 -637h-426zM1014 0h233l-530 1458h-185l-530 -1458h234l112 326h553zM427 1710q0 -88 63 -148q60 -63 148 -63q92 0 151 63q58 60 60 148q-2 92 -60 151q-59 57 -151 60q-88 -3 -148 -60q-63 -59 -63 -151v0zM509 1710q0 57 39 92q36 35 90 37
q57 -2 92 -37t37 -92q-2 -54 -37 -91q-35 -38 -92 -38q-54 0 -90 38q-39 37 -39 91v0z" />
    <glyph glyph-name="Atilde.001" unicode="&#xc6;" horiz-adv-x="1857" 
d="M872 0h932v209h-710v428h606v196h-606v416h710v209h-1034l-793 -1458h234l176 326h485v-326zM491 522l377 739h4v-739h-381z" />
    <glyph glyph-name="Ccedilla" unicode="&#xc7;" horiz-adv-x="1139" 
d="M471 -180l45 -39q39 24 78 22q43 0 72 -18q28 -18 28 -57q-4 -86 -119 -86q-73 2 -143 30l-37 -86q107 -47 207 -49q105 0 178 49q72 45 74 144q0 65 -47 110t-133 45q-33 0 -56 -8h-4l86 115q342 47 437 416h-234q-92 -199 -278 -199q-78 0 -134 33q-57 28 -92 73
q-43 47 -57 123q-16 76 -16 291t16 293q14 74 57 121q35 45 92 75q56 29 134 31q106 -2 180 -61q71 -62 98 -150h234q-35 183 -168 307q-133 123 -344 125q-172 -2 -287 -82q-117 -79 -170 -180q-33 -53 -49 -139q-15 -86 -15 -340q0 -250 15 -338q8 -47 20 -78
q13 -30 29 -63q53 -92 160 -170q106 -78 266 -92z" />
    <glyph glyph-name="Egrave" unicode="&#xc8;" horiz-adv-x="1139" 
d="M154 0h931v209h-710v428h606v196h-606v416h710v209h-931v-1458zM621 1529h172l-188 299h-274z" />
    <glyph glyph-name="Eacute" unicode="&#xc9;" horiz-adv-x="1139" 
d="M154 0h931v209h-710v428h606v196h-606v416h710v209h-931v-1458zM482 1529h172l291 299h-275z" />
    <glyph glyph-name="Ecircumflex" unicode="&#xca;" horiz-adv-x="1139" 
d="M154 0h931v209h-710v428h606v196h-606v416h710v209h-931v-1458zM635 1705l137 -176h197l-218 299h-233l-217 -299h197l137 176v0z" />
    <glyph glyph-name="Edieresis" unicode="&#xcb;" horiz-adv-x="1139" 
d="M154 0h931v209h-710v428h606v196h-606v416h710v209h-931v-1458zM705 1558h222v221h-222v-221zM345 1558h221v221h-221v-221z" />
    <glyph glyph-name="Igrave" unicode="&#xcc;" horiz-adv-x="528" 
d="M154 0h221v1458h-221v-1458zM243 1529h172l-188 299h-274z" />
    <glyph glyph-name="Iacute" unicode="&#xcd;" horiz-adv-x="528" 
d="M154 0h221v1458h-221v-1458zM106 1529h172l291 299h-275z" />
    <glyph glyph-name="Icircumflex" unicode="&#xce;" horiz-adv-x="528" 
d="M154 0h221v1458h-221v-1458zM258 1705l137 -176h197l-218 299h-233l-217 -299h197l137 176v0z" />
    <glyph glyph-name="Idieresis" unicode="&#xcf;" horiz-adv-x="528" 
d="M154 0h221v1458h-221v-1458zM329 1558h222v221h-222v-221zM-31 1558h221v221h-221v-221z" />
    <glyph glyph-name="Eth" unicode="&#xd0;" horiz-adv-x="1290" 
d="M154 0h495q164 0 277 72q114 67 178 170q24 39 41 75q16 37 24 84q17 93 17 328q0 221 -11 311q-14 90 -67 172q-148 244 -444 246h-510v-625h-154v-196h154v-637zM375 833v416h264q168 4 260 -123q45 -51 57 -133q9 -82 9 -272q0 -195 -9 -266q-10 -72 -47 -119
q-84 -127 -270 -127h-264v428h278v196h-278z" />
    <glyph glyph-name="Ntilde" unicode="&#xd1;" horiz-adv-x="1401" 
d="M154 0h221v1036h4l659 -1036h209v1458h-221v-1036h-4l-660 1036h-208v-1458zM464 1550q0 51 33 72q31 16 53 16q64 -2 141 -37q37 -14 78 -25q39 -14 76 -14q104 2 158 74q53 67 67 164h-123q-10 -54 -36 -72q-29 -20 -60 -18q-31 0 -61 14q-33 10 -70 27q-35 16 -72 26
q-36 10 -75 10q-95 0 -154 -63q-61 -66 -78 -174h123z" />
    <glyph glyph-name="Ograve" unicode="&#xd2;" horiz-adv-x="1249" 
d="M104 729q0 -250 15 -338q8 -47 20 -78q13 -30 29 -63q53 -101 170 -178q115 -80 287 -84q174 4 290 84q115 77 166 178q37 53 51 141q13 88 13 338q0 254 -13 340q-14 86 -51 139q-51 101 -166 180q-116 80 -290 82q-172 -2 -287 -82q-117 -79 -170 -180
q-33 -53 -49 -139q-15 -86 -15 -340v0zM326 729q0 215 16 293q14 74 57 121q35 45 92 75q56 29 134 31q79 -2 137 -31q55 -30 88 -75q43 -47 59 -121q15 -78 15 -293t-15 -291q-16 -76 -59 -123q-33 -45 -88 -73q-58 -33 -137 -33q-78 0 -134 33q-57 28 -92 73
q-43 47 -57 123q-16 76 -16 291v0zM616 1529h172l-188 299h-274z" />
    <glyph glyph-name="Oacute" unicode="&#xd3;" horiz-adv-x="1249" 
d="M104 729q0 -250 15 -338q8 -47 20 -78q13 -30 29 -63q53 -101 170 -178q115 -80 287 -84q174 4 290 84q115 77 166 178q37 53 51 141q13 88 13 338q0 254 -13 340q-14 86 -51 139q-51 101 -166 180q-116 80 -290 82q-172 -2 -287 -82q-117 -79 -170 -180
q-33 -53 -49 -139q-15 -86 -15 -340v0zM326 729q0 215 16 293q14 74 57 121q35 45 92 75q56 29 134 31q79 -2 137 -31q55 -30 88 -75q43 -47 59 -121q15 -78 15 -293t-15 -291q-16 -76 -59 -123q-33 -45 -88 -73q-58 -33 -137 -33q-78 0 -134 33q-57 28 -92 73
q-43 47 -57 123q-16 76 -16 291v0zM477 1529h172l291 299h-275z" />
    <glyph glyph-name="Ocircumflex" unicode="&#xd4;" horiz-adv-x="1249" 
d="M104 729q0 -250 15 -338q8 -47 20 -78q13 -30 29 -63q53 -101 170 -178q115 -80 287 -84q174 4 290 84q115 77 166 178q37 53 51 141q13 88 13 338q0 254 -13 340q-14 86 -51 139q-51 101 -166 180q-116 80 -290 82q-172 -2 -287 -82q-117 -79 -170 -180
q-33 -53 -49 -139q-15 -86 -15 -340v0zM326 729q0 215 16 293q14 74 57 121q35 45 92 75q56 29 134 31q79 -2 137 -31q55 -30 88 -75q43 -47 59 -121q15 -78 15 -293t-15 -291q-16 -76 -59 -123q-33 -45 -88 -73q-58 -33 -137 -33q-78 0 -134 33q-57 28 -92 73
q-43 47 -57 123q-16 76 -16 291v0zM629 1705l137 -176h197l-218 299h-233l-217 -299h197l137 176v0z" />
    <glyph glyph-name="Otilde" unicode="&#xd5;" horiz-adv-x="1249" 
d="M104 729q0 -250 15 -338q8 -47 20 -78q13 -30 29 -63q53 -101 170 -178q115 -80 287 -84q174 4 290 84q115 77 166 178q37 53 51 141q13 88 13 338q0 254 -13 340q-14 86 -51 139q-51 101 -166 180q-116 80 -290 82q-172 -2 -287 -82q-117 -79 -170 -180
q-33 -53 -49 -139q-15 -86 -15 -340v0zM326 729q0 215 16 293q14 74 57 121q35 45 92 75q56 29 134 31q79 -2 137 -31q55 -30 88 -75q43 -47 59 -121q15 -78 15 -293t-15 -291q-16 -76 -59 -123q-33 -45 -88 -73q-58 -33 -137 -33q-78 0 -134 33q-57 28 -92 73
q-43 47 -57 123q-16 76 -16 291v0zM388 1550q0 51 33 72q31 16 53 16q64 -2 141 -37q37 -14 78 -25q39 -14 76 -14q104 2 158 74q53 67 67 164h-123q-10 -54 -36 -72q-29 -20 -60 -18q-31 0 -61 14q-33 10 -70 27q-35 16 -72 26q-36 10 -75 10q-95 0 -154 -63
q-61 -66 -78 -174h123z" />
    <glyph glyph-name="Odieresis" unicode="&#xd6;" horiz-adv-x="1249" 
d="M104 729q0 -250 15 -338q8 -47 20 -78q13 -30 29 -63q53 -101 170 -178q115 -80 287 -84q174 4 290 84q115 77 166 178q37 53 51 141q13 88 13 338q0 254 -13 340q-14 86 -51 139q-51 101 -166 180q-116 80 -290 82q-172 -2 -287 -82q-117 -79 -170 -180
q-33 -53 -49 -139q-15 -86 -15 -340v0zM326 729q0 215 16 293q14 74 57 121q35 45 92 75q56 29 134 31q79 -2 137 -31q55 -30 88 -75q43 -47 59 -121q15 -78 15 -293t-15 -291q-16 -76 -59 -123q-33 -45 -88 -73q-58 -33 -137 -33q-78 0 -134 33q-57 28 -92 73
q-43 47 -57 123q-16 76 -16 291v0zM700 1558h222v221h-222v-221zM340 1558h221v221h-221v-221z" />
    <glyph glyph-name="multiply" unicode="&#xd7;" horiz-adv-x="1229" 
d="M137 156l113 -113v0l364 367v0l363 -367v0l115 113l-367 362l367 365l-115 114v0l-363 -366v0l-364 366v0l-113 -114l367 -365z" />
    <glyph glyph-name="Oslash" unicode="&#xd8;" horiz-adv-x="1249" 
d="M127 -51l94 -51v0l103 184v0q120 -92 301 -94q174 4 290 84q115 77 166 178q37 53 51 141q13 88 13 338q0 254 -13 340q-14 86 -51 139q-26 51 -73 101l110 200l-94 51v0l-100 -180v0q-121 88 -299 90q-172 -2 -287 -82q-117 -79 -170 -180q-33 -53 -49 -139
q-15 -86 -15 -340q0 -250 15 -338q8 -47 20 -78q13 -30 29 -63q27 -45 72 -98zM362 373v0q-20 39 -28 118q-8 78 -8 238q0 215 16 293q14 74 57 121q35 45 92 75q56 29 134 31q116 -2 188 -67zM885 1089v0q24 -38 32 -116q7 -78 7 -244q0 -215 -15 -291q-16 -76 -59 -123
q-33 -45 -88 -73q-58 -33 -137 -33q-123 2 -191 72z" />
    <glyph glyph-name="Ugrave" unicode="&#xd9;" horiz-adv-x="1290" 
d="M127 494q2 -230 152 -365q147 -139 366 -141q223 2 369 141q145 135 149 365v964h-221v-940q-2 -149 -84 -227q-84 -82 -213 -82t-211 82q-84 78 -86 227v940h-221v-964zM637 1529h172l-188 299h-274z" />
    <glyph glyph-name="Uacute" unicode="&#xda;" horiz-adv-x="1290" 
d="M127 494q2 -230 152 -365q147 -139 366 -141q223 2 369 141q145 135 149 365v964h-221v-940q-2 -149 -84 -227q-84 -82 -213 -82t-211 82q-84 78 -86 227v940h-221v-964zM498 1529h172l291 299h-275z" />
    <glyph glyph-name="Ucircumflex" unicode="&#xdb;" horiz-adv-x="1290" 
d="M127 494q2 -230 152 -365q147 -139 366 -141q223 2 369 141q145 135 149 365v964h-221v-940q-2 -149 -84 -227q-84 -82 -213 -82t-211 82q-84 78 -86 227v940h-221v-964zM650 1705l137 -176h197l-218 299h-233l-217 -299h197l137 176v0z" />
    <glyph glyph-name="Udieresis" unicode="&#xdc;" horiz-adv-x="1290" 
d="M127 494q2 -230 152 -365q147 -139 366 -141q223 2 369 141q145 135 149 365v964h-221v-940q-2 -149 -84 -227q-84 -82 -213 -82t-211 82q-84 78 -86 227v940h-221v-964zM721 1558h222v221h-222v-221zM361 1558h221v221h-221v-221z" />
    <glyph glyph-name="Yacute" unicode="&#xdd;" 
d="M408 0h208v600l439 858h-234l-309 -647v0l-309 647h-234l439 -858v-600zM366 1529h172l291 299h-275z" />
    <glyph glyph-name="Thorn" unicode="&#xde;" horiz-adv-x="1214" 
d="M375 995h329q115 -2 179 -76q63 -71 63 -159q0 -86 -63 -158q-31 -33 -74 -55q-43 -23 -102 -23h-332v471zM154 0h221v315h336q225 4 342 144q114 133 114 301t-114 303q-117 137 -342 141h-336v254h-221v-1458z" />
    <glyph glyph-name="germandbls" unicode="&#xdf;" horiz-adv-x="1100" 
d="M524 987h125q49 0 80 26.5t31 94.5q0 87 -46.5 120t-145.5 33q-63 0 -106 -7.5t-70 -23.5t-39 -41t-13 -59v-1130h-209v1130q1 86 33.5 150t90.5 106t137.5 63t174.5 21q89 -1 162.5 -24.5t126.5 -67.5t82.5 -108t30.5 -146q-2 -170 -150 -231q150 -62 150 -227v-371
q-1 -62 -21.5 -115.5t-58 -93t-90.5 -62.5t-119 -24h-129v197h74q74 0 104.5 23.5t30.5 84.5v365q0 60 -27.5 90t-87.5 30h-121v197z" />
    <glyph glyph-name="agrave" unicode="&#xe0;" 
d="M680 0h209v709q-2 190 -119 268q-117 76 -313 74q-232 4 -351 -152l164 -125v0q27 45 74 64q45 16 123 16q215 4 213 -133v-109h-289q-166 -2 -252 -90q-86 -86 -86 -217q0 -137 99 -225q94 -90 268 -92q106 0 166 26q61 25 90 78h4v-92zM680 365q0 -117 -49 -150
q-54 -33 -185 -31q-104 0 -149 41q-47 37 -47 90q-2 121 180 125h250v-75zM502 1171h172l-188 299h-274z" />
    <glyph glyph-name="aacute" unicode="&#xe1;" 
d="M680 0h209v709q-2 190 -119 268q-117 76 -313 74q-232 4 -351 -152l164 -125v0q27 45 74 64q45 16 123 16q215 4 213 -133v-109h-289q-166 -2 -252 -90q-86 -86 -86 -217q0 -137 99 -225q94 -90 268 -92q106 0 166 26q61 25 90 78h4v-92zM680 365q0 -117 -49 -150
q-54 -33 -185 -31q-104 0 -149 41q-47 37 -47 90q-2 121 180 125h250v-75zM363 1171h172l291 299h-275z" />
    <glyph glyph-name="acircumflex" unicode="&#xe2;" 
d="M680 0h209v709q-2 190 -119 268q-117 76 -313 74q-232 4 -351 -152l164 -125v0q27 45 74 64q45 16 123 16q215 4 213 -133v-109h-289q-166 -2 -252 -90q-86 -86 -86 -217q0 -137 99 -225q94 -90 268 -92q106 0 166 26q61 25 90 78h4v-92zM680 365q0 -117 -49 -150
q-54 -33 -185 -31q-104 0 -149 41q-47 37 -47 90q-2 121 180 125h250v-75zM516 1347l137 -176h197l-218 299h-233l-217 -299h197l137 176v0z" />
    <glyph glyph-name="atilde" unicode="&#xe3;" 
d="M680 0h209v709q-2 190 -119 268q-117 76 -313 74q-232 4 -351 -152l164 -125v0q27 45 74 64q45 16 123 16q215 4 213 -133v-109h-289q-166 -2 -252 -90q-86 -86 -86 -217q0 -137 99 -225q94 -90 268 -92q106 0 166 26q61 25 90 78h4v-92zM680 365q0 -117 -49 -150
q-54 -33 -185 -31q-104 0 -149 41q-47 37 -47 90q-2 121 180 125h250v-75zM273 1192q0 51 33 72q31 16 53 16q64 -2 141 -37q37 -14 78 -25q39 -14 76 -14q104 2 158 74q53 67 67 164h-123q-10 -54 -36 -72q-29 -20 -60 -18q-31 0 -61 14q-33 10 -70 27q-35 16 -72 26
q-36 10 -75 10q-95 0 -154 -63q-61 -66 -78 -174h123z" />
    <glyph glyph-name="adieresis" unicode="&#xe4;" 
d="M680 0h209v709q-2 190 -119 268q-117 76 -313 74q-232 4 -351 -152l164 -125v0q27 45 74 64q45 16 123 16q215 4 213 -133v-109h-289q-166 -2 -252 -90q-86 -86 -86 -217q0 -137 99 -225q94 -90 268 -92q106 0 166 26q61 25 90 78h4v-92zM680 365q0 -117 -49 -150
q-54 -33 -185 -31q-104 0 -149 41q-47 37 -47 90q-2 121 180 125h250v-75zM586 1200h222v221h-222v-221zM226 1200h221v221h-221v-221z" />
    <glyph glyph-name="aring" unicode="&#xe5;" 
d="M680 0h209v709q-2 190 -119 268q-117 76 -313 74q-232 4 -351 -152l164 -125v0q27 45 74 64q45 16 123 16q215 4 213 -133v-109h-289q-166 -2 -252 -90q-86 -86 -86 -217q0 -137 99 -225q94 -90 268 -92q106 0 166 26q61 25 90 78h4v-92zM680 365q0 -117 -49 -150
q-54 -33 -185 -31q-104 0 -149 41q-47 37 -47 90q-2 121 180 125h250v-75zM309 1352q0 -88 63 -148q60 -63 148 -63q92 0 151 63q58 60 60 148q-2 92 -60 151q-59 57 -151 60q-88 -3 -148 -60q-63 -59 -63 -151v0zM391 1352q0 57 39 92q36 35 90 37q57 -2 92 -37t37 -92
q-2 -54 -37 -91q-35 -38 -92 -38q-54 0 -90 38q-39 37 -39 91v0z" />
    <glyph glyph-name="ae" unicode="&#xe6;" horiz-adv-x="1593" 
d="M256 774v0q27 45 74 64q45 16 123 16q215 4 213 -133v-109h-316q-151 -2 -229 -94q-82 -90 -82 -213q2 -153 110 -235q107 -80 273 -82q92 0 182 37q88 34 148 122v0q73 -90 163 -124q88 -35 199 -35q215 -2 375 168l-152 129v0q-100 -101 -227 -101q-109 0 -176 66
q-72 65 -72 190h647v172q-2 205 -127 322q-123 115 -301 117q-86 0 -168 -35q-84 -35 -133 -97v0q-94 134 -338 132q-231 4 -350 -152zM666 440v-75q0 -117 -50 -150q-53 -33 -184 -31q-104 0 -149 41q-47 37 -47 90q-3 121 180 125h250zM862 612q6 121 66 183q59 59 153 59
t154 -59q61 -62 65 -183h-438z" />
    <glyph glyph-name="ccedilla" unicode="&#xe7;" horiz-adv-x="909" 
d="M367 -180l45 -39q39 24 77 22q43 0 72 -18t29 -57q-4 -86 -119 -86q-74 2 -143 30l-37 -86q106 -47 207 -49q104 0 178 49q71 45 74 144q0 65 -48 110q-47 45 -133 45q-32 0 -55 -8h-4l86 113q188 39 303 178l-154 137v0q-79 -106 -211 -108q-266 -5 -270 321
q4 328 270 324q132 -4 211 -109v0l154 137q-68 82 -160 131q-92 48 -213 50q-184 2 -323 -123q-144 -127 -148 -410q2 -266 133 -393q127 -127 301 -137z" />
    <glyph glyph-name="egrave" unicode="&#xe8;" 
d="M940 440v172q-2 205 -127 322q-123 115 -301 117q-74 0 -150 -27q-77 -27 -139 -88q-61 -60 -100 -164q-39 -102 -39 -256q0 -160 45 -260q41 -104 107 -162q34 -28 73 -47q37 -22 76 -35q78 -24 160 -24q215 -2 374 168l-151 129v0q-100 -101 -227 -101q-109 0 -176 66
q-72 65 -72 190h647zM293 612q6 121 65 183q60 59 154 59t154 -59q61 -62 65 -183h-438zM501 1171h172l-188 299h-274z" />
    <glyph glyph-name="eacute" unicode="&#xe9;" 
d="M940 440v172q-2 205 -127 322q-123 115 -301 117q-74 0 -150 -27q-77 -27 -139 -88q-61 -60 -100 -164q-39 -102 -39 -256q0 -160 45 -260q41 -104 107 -162q34 -28 73 -47q37 -22 76 -35q78 -24 160 -24q215 -2 374 168l-151 129v0q-100 -101 -227 -101q-109 0 -176 66
q-72 65 -72 190h647zM293 612q6 121 65 183q60 59 154 59t154 -59q61 -62 65 -183h-438zM362 1171h172l291 299h-275z" />
    <glyph glyph-name="ecircumflex" unicode="&#xea;" 
d="M940 440v172q-2 205 -127 322q-123 115 -301 117q-74 0 -150 -27q-77 -27 -139 -88q-61 -60 -100 -164q-39 -102 -39 -256q0 -160 45 -260q41 -104 107 -162q34 -28 73 -47q37 -22 76 -35q78 -24 160 -24q215 -2 374 168l-151 129v0q-100 -101 -227 -101q-109 0 -176 66
q-72 65 -72 190h647zM293 612q6 121 65 183q60 59 154 59t154 -59q61 -62 65 -183h-438zM515 1347l137 -176h197l-218 299h-233l-217 -299h197l137 176v0z" />
    <glyph glyph-name="edieresis" unicode="&#xeb;" 
d="M940 440v172q-2 205 -127 322q-123 115 -301 117q-74 0 -150 -27q-77 -27 -139 -88q-61 -60 -100 -164q-39 -102 -39 -256q0 -160 45 -260q41 -104 107 -162q34 -28 73 -47q37 -22 76 -35q78 -24 160 -24q215 -2 374 168l-151 129v0q-100 -101 -227 -101q-109 0 -176 66
q-72 65 -72 190h647zM293 612q6 121 65 183q60 59 154 59t154 -59q61 -62 65 -183h-438zM585 1200h222v221h-222v-221zM225 1200h221v221h-221v-221z" />
    <glyph glyph-name="igrave" unicode="&#xec;" horiz-adv-x="491" 
d="M141 0h209v1038h-209v-1038zM224 1171h172l-188 299h-274z" />
    <glyph glyph-name="iacute" unicode="&#xed;" horiz-adv-x="491" 
d="M141 0h209v1038h-209v-1038zM88 1171h172l291 299h-275z" />
    <glyph glyph-name="icircumflex" unicode="&#xee;" horiz-adv-x="491" 
d="M141 0h209v1038h-209v-1038zM240 1347l137 -176h197l-218 299h-233l-217 -299h197l137 176v0z" />
    <glyph glyph-name="idieresis" unicode="&#xef;" horiz-adv-x="491" 
d="M141 0h209v1038h-209v-1038zM311 1200h222v221h-222v-221zM-49 1200h221v221h-221v-221z" />
    <glyph glyph-name="eth" unicode="&#xf0;" 
d="M731 518q0 -106 -10 -156q-10 -51 -41 -90q-23 -30 -68 -53q-43 -22 -100 -22q-53 0 -98 22q-43 23 -70 53q-27 39 -39 90q-12 50 -12 158q0 109 12 160q12 49 39 86q27 35 70 55q45 21 98 21q57 0 100 -21q45 -20 68 -55q31 -37 41 -86q10 -51 10 -162v0zM385 1106v0
l207 106v0q96 -94 129 -250l-4 -4q-47 54 -103 74q-59 19 -120 19q-107 -2 -181 -41q-73 -41 -116 -93q-58 -59 -86 -145q-27 -88 -27 -252t27 -250q28 -86 86 -149q43 -49 120 -88q76 -43 195 -45q123 2 199 45q41 18 67 43q29 22 49 45q72 76 95 164q20 86 18 268
q2 305 -25 461q-32 155 -149 288l184 97l-78 112v0l-213 -110v0q-114 88 -299 143v0l-65 -154q106 -34 182 -83l-170 -89z" />
    <glyph glyph-name="ntilde" unicode="&#xf1;" horiz-adv-x="1100" 
d="M135 0h209v618q0 109 59 166q58 58 148 58t147 -58q58 -57 58 -166v-618h209v690q-5 178 -111 270q-107 91 -236 91q-167 0 -270 -123h-4v110h-209v-1038zM310 1192q0 51 33 72q31 16 53 16q64 -2 141 -37q37 -14 78 -25q39 -14 76 -14q104 2 158 74q53 67 67 164h-123
q-10 -54 -36 -72q-29 -20 -60 -18q-31 0 -61 14q-33 10 -70 27q-35 16 -72 26q-36 10 -75 10q-95 0 -154 -63q-61 -66 -78 -174h123z" />
    <glyph glyph-name="ograve" unicode="&#xf2;" 
d="M84 520q0 -164 27 -250q28 -86 86 -149q43 -49 120 -88q76 -43 195 -45q123 2 199 45q41 18 67 43q29 22 49 45q62 63 88 149q25 86 25 250t-25 252q-26 86 -88 145q-41 52 -116 93q-76 39 -199 41q-119 -2 -195 -41q-77 -41 -120 -93q-58 -59 -86 -145q-27 -88 -27 -252
v0zM731 518q0 -106 -10 -156q-10 -51 -41 -90q-23 -30 -68 -53q-43 -22 -100 -22q-53 0 -98 22q-43 23 -70 53q-27 39 -39 90q-12 50 -12 158q0 109 12 160q12 49 39 86q27 35 70 55q45 21 98 21q57 0 100 -21q45 -20 68 -55q31 -37 41 -86q10 -51 10 -162v0zM501 1171h172
l-188 299h-274z" />
    <glyph glyph-name="oacute" unicode="&#xf3;" 
d="M84 520q0 -164 27 -250q28 -86 86 -149q43 -49 120 -88q76 -43 195 -45q123 2 199 45q41 18 67 43q29 22 49 45q62 63 88 149q25 86 25 250t-25 252q-26 86 -88 145q-41 52 -116 93q-76 39 -199 41q-119 -2 -195 -41q-77 -41 -120 -93q-58 -59 -86 -145q-27 -88 -27 -252
v0zM731 518q0 -106 -10 -156q-10 -51 -41 -90q-23 -30 -68 -53q-43 -22 -100 -22q-53 0 -98 22q-43 23 -70 53q-27 39 -39 90q-12 50 -12 158q0 109 12 160q12 49 39 86q27 35 70 55q45 21 98 21q57 0 100 -21q45 -20 68 -55q31 -37 41 -86q10 -51 10 -162v0zM362 1171h172
l291 299h-275z" />
    <glyph glyph-name="ocircumflex" unicode="&#xf4;" 
d="M84 520q0 -164 27 -250q28 -86 86 -149q43 -49 120 -88q76 -43 195 -45q123 2 199 45q41 18 67 43q29 22 49 45q62 63 88 149q25 86 25 250t-25 252q-26 86 -88 145q-41 52 -116 93q-76 39 -199 41q-119 -2 -195 -41q-77 -41 -120 -93q-58 -59 -86 -145q-27 -88 -27 -252
v0zM731 518q0 -106 -10 -156q-10 -51 -41 -90q-23 -30 -68 -53q-43 -22 -100 -22q-53 0 -98 22q-43 23 -70 53q-27 39 -39 90q-12 50 -12 158q0 109 12 160q12 49 39 86q27 35 70 55q45 21 98 21q57 0 100 -21q45 -20 68 -55q31 -37 41 -86q10 -51 10 -162v0zM515 1347
l137 -176h197l-218 299h-233l-217 -299h197l137 176v0z" />
    <glyph glyph-name="otilde" unicode="&#xf5;" 
d="M84 520q0 -164 27 -250q28 -86 86 -149q43 -49 120 -88q76 -43 195 -45q123 2 199 45q41 18 67 43q29 22 49 45q62 63 88 149q25 86 25 250t-25 252q-26 86 -88 145q-41 52 -116 93q-76 39 -199 41q-119 -2 -195 -41q-77 -41 -120 -93q-58 -59 -86 -145q-27 -88 -27 -252
v0zM731 518q0 -106 -10 -156q-10 -51 -41 -90q-23 -30 -68 -53q-43 -22 -100 -22q-53 0 -98 22q-43 23 -70 53q-27 39 -39 90q-12 50 -12 158q0 109 12 160q12 49 39 86q27 35 70 55q45 21 98 21q57 0 100 -21q45 -20 68 -55q31 -37 41 -86q10 -51 10 -162v0zM271 1192
q0 51 33 72q31 16 53 16q64 -2 141 -37q37 -14 78 -25q39 -14 76 -14q104 2 158 74q53 67 67 164h-123q-10 -54 -36 -72q-29 -20 -60 -18q-31 0 -61 14q-33 10 -70 27q-35 16 -72 26q-36 10 -75 10q-95 0 -154 -63q-61 -66 -78 -174h123z" />
    <glyph glyph-name="odieresis" unicode="&#xf6;" 
d="M84 520q0 -164 27 -250q28 -86 86 -149q43 -49 120 -88q76 -43 195 -45q123 2 199 45q41 18 67 43q29 22 49 45q62 63 88 149q25 86 25 250t-25 252q-26 86 -88 145q-41 52 -116 93q-76 39 -199 41q-119 -2 -195 -41q-77 -41 -120 -93q-58 -59 -86 -145q-27 -88 -27 -252
v0zM731 518q0 -106 -10 -156q-10 -51 -41 -90q-23 -30 -68 -53q-43 -22 -100 -22q-53 0 -98 22q-43 23 -70 53q-27 39 -39 90q-12 50 -12 158q0 109 12 160q12 49 39 86q27 35 70 55q45 21 98 21q57 0 100 -21q45 -20 68 -55q31 -37 41 -86q10 -51 10 -162v0zM585 1200h222
v221h-222v-221zM225 1200h221v221h-221v-221z" />
    <glyph glyph-name="divide" unicode="&#xf7;" horiz-adv-x="1229" 
d="M96 438h1036v160h-1036v-160zM477 942q0 -57 41 -96q39 -41 96 -41q60 0 99 41q39 39 39 96q0 59 -39 98t-99 39q-57 0 -96 -39q-41 -39 -41 -98v0zM477 94q0 -57 41 -96q39 -39 96 -41q60 2 99 41t39 96q0 60 -39 98q-39 39 -99 39q-57 0 -96 -39q-41 -38 -41 -98v0z
" />
    <glyph glyph-name="oslash" unicode="&#xf8;" 
d="M326 303v0q-19 31 -25 80q-8 47 -8 137q0 109 12 160q12 49 39 86q27 35 70 55q45 21 98 21q61 0 108 -27zM117 -61l90 -54v0l92 158v0q80 -53 213 -55q123 2 199 45q41 18 67 43q29 22 49 45q62 63 88 149q25 86 25 250q0 88 -6 152q-6 65 -23 110q-30 88 -100 152
l96 166l-90 53v0l-90 -156q-82 52 -215 54q-119 -2 -195 -41q-77 -41 -120 -93q-58 -59 -86 -145q-27 -88 -27 -252q-2 -141 25 -241q26 -101 104 -173zM698 737v0q19 -30 27 -78q6 -49 6 -141q0 -106 -10 -156q-10 -51 -41 -90q-23 -30 -68 -53q-43 -22 -100 -22
q-59 0 -109 28z" />
    <glyph glyph-name="ugrave" unicode="&#xf9;" horiz-adv-x="1100" 
d="M135 348q2 -176 115 -266q104 -92 233 -94q166 0 269 123h4v-111h209v1038h-209v-618q0 -105 -58 -164q-57 -59 -147 -59t-148 59q-59 59 -59 164v618h-209v-690zM526 1171h172l-188 299h-274z" />
    <glyph glyph-name="uacute" unicode="&#xfa;" horiz-adv-x="1100" 
d="M135 348q2 -176 115 -266q104 -92 233 -94q166 0 269 123h4v-111h209v1038h-209v-618q0 -105 -58 -164q-57 -59 -147 -59t-148 59q-59 59 -59 164v618h-209v-690zM389 1171h172l291 299h-275z" />
    <glyph glyph-name="ucircumflex" unicode="&#xfb;" horiz-adv-x="1100" 
d="M135 348q2 -176 115 -266q104 -92 233 -94q166 0 269 123h4v-111h209v1038h-209v-618q0 -105 -58 -164q-57 -59 -147 -59t-148 59q-59 59 -59 164v618h-209v-690zM542 1347l137 -176h197l-218 299h-233l-217 -299h197l137 176v0z" />
    <glyph glyph-name="udieresis" unicode="&#xfc;" horiz-adv-x="1100" 
d="M135 348q2 -176 115 -266q104 -92 233 -94q166 0 269 123h4v-111h209v1038h-209v-618q0 -105 -58 -164q-57 -59 -147 -59t-148 59q-59 59 -59 164v618h-209v-690zM612 1200h222v221h-222v-221zM252 1200h221v221h-221v-221z" />
    <glyph glyph-name="yacute.001" unicode="&#xfd;" horiz-adv-x="909" 
d="M358 41l-57 -174q-14 -45 -49 -68q-35 -22 -76 -22h-61v-197h69q97 0 174 43q76 45 119 162l447 1253h-222l-245 -727h-4l-246 727h-221zM306 1171h172l291 299h-275z" />
    <glyph glyph-name="thorn" unicode="&#xfe;" horiz-adv-x="1063" 
d="M135 -420h209v531v0q57 -56 125 -88q63 -35 143 -35q97 2 166 39q70 36 113 96q43 51 59 131q15 80 15 264q0 189 -15 268q-16 80 -59 129q-88 131 -279 136q-164 -5 -268 -121v0v528h-209v-1878zM549 197q-70 0 -111 30q-43 29 -63 76q-19 47 -25 105q-6 55 -6 110
q0 59 6 117q6 55 25 102q20 47 63 76q41 29 111 29q74 0 117 -25q43 -27 61 -74q20 -45 27 -104q2 -59 2 -121q0 -59 -2 -115q-7 -57 -27 -104q-18 -45 -61 -74q-43 -28 -117 -28v0z" />
    <glyph glyph-name="ydieresis" unicode="&#xff;" horiz-adv-x="909" 
d="M358 41l-57 -174q-14 -45 -49 -68q-35 -22 -76 -22h-61v-197h69q97 0 174 43q76 45 119 162l447 1253h-222l-245 -727h-4l-246 727h-221zM529 1200h222v221h-222v-221zM169 1200h221v221h-221v-221z" />
    <glyph glyph-name="Amacron" unicode="&#x100;" horiz-adv-x="1249" 
d="M412 522l211 637h4l211 -637h-426zM1014 0h233l-530 1458h-185l-530 -1458h234l112 326h553zM328 1736h590v-135h-590v135z" />
    <glyph glyph-name="amacron" unicode="&#x101;" 
d="M680 0h209v709q-2 190 -119 268q-117 76 -313 74q-232 4 -351 -152l164 -125v0q27 45 74 64q45 16 123 16q215 4 213 -133v-109h-289q-166 -2 -252 -90q-86 -86 -86 -217q0 -137 99 -225q94 -90 268 -92q106 0 166 26q61 25 90 78h4v-92zM680 365q0 -117 -49 -150
q-54 -33 -185 -31q-104 0 -149 41q-47 37 -47 90q-2 121 180 125h250v-75zM222 1378h590v-135h-590v135z" />
    <glyph glyph-name="Abreve" unicode="&#x102;" horiz-adv-x="1249" 
d="M412 522l211 637h4l211 -637h-426zM1014 0h233l-530 1458h-185l-530 -1458h234l112 326h553zM416 1828q21 -82 72 -116q53 -35 135 -35q76 -2 131 33q57 32 76 118h123q-11 -129 -95 -204q-84 -82 -235 -82q-148 0 -231 82q-86 75 -99 204h123z" />
    <glyph glyph-name="abreve" unicode="&#x103;" 
d="M680 0h209v709q-2 190 -119 268q-117 76 -313 74q-232 4 -351 -152l164 -125v0q27 45 74 64q45 16 123 16q215 4 213 -133v-109h-289q-166 -2 -252 -90q-86 -86 -86 -217q0 -137 99 -225q94 -90 268 -92q106 0 166 26q61 25 90 78h4v-92zM680 365q0 -117 -49 -150
q-54 -33 -185 -31q-104 0 -149 41q-47 37 -47 90q-2 121 180 125h250v-75zM310 1470q21 -82 72 -116q53 -35 135 -35q76 -2 131 33q57 32 76 118h123q-11 -129 -95 -204q-84 -82 -235 -82q-148 0 -231 82q-86 75 -99 204h123z" />
    <glyph glyph-name="Aogonek" unicode="&#x104;" horiz-adv-x="1249" 
d="M1225 -414q-27 -16 -80 -32q-53 -17 -119 -17q-86 4 -139 51q-60 50 -60 140q0 47 17 90q14 35 41 69q26 29 58 57.5t71 55.5l-113 326h-553l-112 -326h-234l530 1458h185l530 -1458h-129q-127 -125 -131 -258q0 -45 31 -72q29 -28 69 -28q68 0 109 30zM838 522l-211 637
h-4l-211 -637h426z" />
    <glyph glyph-name="aogonek" unicode="&#x105;" 
d="M891 -414q-27 -16 -80 -32q-53 -17 -119 -17q-86 4 -139 51q-59 50 -59 140q0 47 16 90q14 35 41 69q27 29 58.5 57.5t70.5 55.5v92h-4q-29 -53 -90 -78q-56 -26 -166 -26q-172 2 -268 92q-99 88 -99 225q0 131 86 217q84 86 252 90h289v109q2 137 -213 133
q-74 0 -123 -16q-47 -19 -74 -64l-164 125q119 156 351 152q196 2 313 -74q115 -76 119 -268v-709h-105q-127 -125 -131 -258q0 -45 31 -72q29 -28 70 -28q67 0 108 30zM680 440h-250q-184 -4 -180 -125q0 -53 47 -90q47 -41 149 -41q132 -4 185 31q49 33 49 150v75z" />
    <glyph glyph-name="Cacute" unicode="&#x106;" horiz-adv-x="1139" 
d="M903 408q-92 -199 -278 -199q-78 0 -134 33q-57 28 -92 73q-43 47 -57 123q-16 76 -16 291t16 293q14 74 57 121q35 45 92 75q56 29 134 31q106 -2 180 -61q71 -62 98 -150h234q-35 183 -168 307q-133 123 -344 125q-172 -2 -287 -82q-117 -79 -170 -180
q-33 -53 -49 -139q-15 -86 -15 -340q0 -250 15 -338q8 -47 20 -78q13 -30 29 -63q53 -101 170 -178q115 -80 287 -84q190 0 329 108q135 109 183 312h-234zM672 1828h275l-291 -299h-172z" />
    <glyph glyph-name="cacute" unicode="&#x107;" horiz-adv-x="909" 
d="M745 305v0q-79 -106 -211 -108q-266 -5 -270 321q4 328 270 324q132 -4 211 -109v0l154 137q-68 82 -160 131q-92 48 -213 50q-184 2 -323 -123q-144 -127 -148 -410q4 -280 148 -405q139 -125 323 -125q121 2 213 53q92 49 160 127zM553 1470h275l-291 -299h-172z" />
    <glyph glyph-name="Ccircumflex" unicode="&#x108;" horiz-adv-x="1139" 
d="M903 408q-92 -199 -278 -199q-78 0 -134 33q-57 28 -92 73q-43 47 -57 123q-16 76 -16 291t16 293q14 74 57 121q35 45 92 75q56 29 134 31q106 -2 180 -61q71 -62 98 -150h234q-35 183 -168 307q-133 123 -344 125q-172 -2 -287 -82q-117 -79 -170 -180
q-33 -53 -49 -139q-15 -86 -15 -340q0 -250 15 -338q8 -47 20 -78q13 -30 29 -63q53 -101 170 -178q115 -80 287 -84q190 0 329 108q135 109 183 312h-234zM482 1529h-197l217 299h233l218 -299h-197l-137 176z" />
    <glyph glyph-name="ccircumflex" unicode="&#x109;" horiz-adv-x="909" 
d="M745 305v0q-79 -106 -211 -108q-266 -5 -270 321q4 328 270 324q132 -4 211 -109v0l154 137q-68 82 -160 131q-92 48 -213 50q-184 2 -323 -123q-144 -127 -148 -410q4 -280 148 -405q139 -125 323 -125q121 2 213 53q92 49 160 127zM388 1171h-197l217 299h233l218 -299
h-197l-137 176z" />
    <glyph glyph-name="Cdotaccent" unicode="&#x10a;" horiz-adv-x="1139" 
d="M903 408q-92 -199 -278 -199q-78 0 -134 33q-57 28 -92 73q-43 47 -57 123q-16 76 -16 291t16 293q14 74 57 121q35 45 92 75q56 29 134 31q106 -2 180 -61q71 -62 98 -150h234q-35 183 -168 307q-133 123 -344 125q-172 -2 -287 -82q-117 -79 -170 -180
q-33 -53 -49 -139q-15 -86 -15 -340q0 -250 15 -338q8 -47 20 -78q13 -30 29 -63q53 -101 170 -178q115 -80 287 -84q190 0 329 108q135 109 183 312h-234zM508 1779h221v-221h-221v221z" />
    <glyph glyph-name="cdotaccent" unicode="&#x10b;" horiz-adv-x="909" 
d="M745 305v0q-79 -106 -211 -108q-266 -5 -270 321q4 328 270 324q132 -4 211 -109v0l154 137q-68 82 -160 131q-92 48 -213 50q-184 2 -323 -123q-144 -127 -148 -410q4 -280 148 -405q139 -125 323 -125q121 2 213 53q92 49 160 127zM414 1421h221v-221h-221v221z" />
    <glyph glyph-name="Ccaron" unicode="&#x10c;" horiz-adv-x="1139" 
d="M903 408q-92 -199 -278 -199q-78 0 -134 33q-57 28 -92 73q-43 47 -57 123q-16 76 -16 291t16 293q14 74 57 121q35 45 92 75q56 29 134 31q106 -2 180 -61q71 -62 98 -150h234q-35 183 -168 307q-133 123 -344 125q-172 -2 -287 -82q-117 -79 -170 -180
q-33 -53 -49 -139q-15 -86 -15 -340q0 -250 15 -338q8 -47 20 -78q13 -30 29 -63q53 -101 170 -178q115 -80 287 -84q190 0 329 108q135 109 183 312h-234zM285 1828h197l137 -176v0l137 176h197l-218 -299h-233z" />
    <glyph glyph-name="ccaron" unicode="&#x10d;" horiz-adv-x="909" 
d="M745 305v0q-79 -106 -211 -108q-266 -5 -270 321q4 328 270 324q132 -4 211 -109v0l154 137q-68 82 -160 131q-92 48 -213 50q-184 2 -323 -123q-144 -127 -148 -410q4 -280 148 -405q139 -125 323 -125q121 2 213 53q92 49 160 127zM191 1470h197l137 -176v0l137 176
h197l-218 -299h-233z" />
    <glyph glyph-name="Dcaron" unicode="&#x10e;" horiz-adv-x="1290" 
d="M154 0h495q164 0 277 72q114 67 178 170q24 39 41 75q16 37 24 84q17 93 17 328q0 221 -11 311q-14 90 -67 172q-148 244 -444 246h-510v-1458zM375 1249h264q168 4 260 -123q45 -51 57 -133q9 -82 9 -272q0 -195 -9 -266q-10 -72 -47 -119q-84 -127 -270 -127h-264v1040
zM285 1828h197l137 -176v0l137 176h197l-218 -299h-233z" />
    <glyph glyph-name="dcaron" unicode="&#x10f;" horiz-adv-x="1372" 
d="M756 109v-109h209v1458h-209v-530v0q-58 55 -121 90q-68 33 -148 33q-190 -5 -278 -136q-43 -49 -57 -129q-17 -79 -17 -266q0 -184 17 -264q14 -84 57 -133q47 -60 117 -96q67 -37 161 -39q166 4 269 121v0zM551 842q74 0 117 -29t59 -76q20 -47 27 -102q2 -55 2 -115
q0 -55 -2 -112q-7 -58 -27 -105q-16 -47 -59 -76q-43 -30 -117 -30t-113 28q-43 29 -63 74q-19 47 -25 106q-6 56 -6 115q0 62 6 121q6 55 25 102q20 47 63 74q39 25 113 25v0zM1163 1098v0l209 151v209h-209v-360z" />
    <glyph glyph-name="Dcroat" unicode="&#x110;" horiz-adv-x="1290" 
d="M154 0h495q164 0 277 72q114 67 178 170q24 39 41 75q16 37 24 84q17 93 17 328q0 221 -11 311q-14 90 -67 172q-148 244 -444 246h-510v-625h-154v-196h154v-637zM375 833v416h264q168 4 260 -123q45 -51 57 -133q9 -82 9 -272q0 -195 -9 -266q-10 -72 -47 -119
q-84 -127 -270 -127h-264v428h278v196h-278z" />
    <glyph glyph-name="Emacron" unicode="&#x112;" horiz-adv-x="1139" 
d="M154 0h931v209h-710v428h606v196h-606v416h710v209h-931v-1458zM340 1736h590v-135h-590v135z" />
    <glyph glyph-name="emacron" unicode="&#x113;" 
d="M940 440v172q-2 205 -127 322q-123 115 -301 117q-74 0 -150 -27q-77 -27 -139 -88q-61 -60 -100 -164q-39 -102 -39 -256q0 -160 45 -260q41 -104 107 -162q34 -28 73 -47q37 -22 76 -35q78 -24 160 -24q215 -2 374 168l-151 129v0q-100 -101 -227 -101q-109 0 -176 66
q-72 65 -72 190h647zM293 612q6 121 65 183q60 59 154 59t154 -59q61 -62 65 -183h-438zM218 1378h590v-135h-590v135z" />
    <glyph glyph-name="Ebreve" unicode="&#x114;" horiz-adv-x="1139" 
d="M154 0h931v209h-710v428h606v196h-606v416h710v209h-931v-1458zM429 1828q21 -82 72 -116q53 -35 135 -35q76 -2 131 33q57 32 76 118h123q-11 -129 -95 -204q-84 -82 -235 -82q-148 0 -231 82q-86 75 -99 204h123z" />
    <glyph glyph-name="ebreve" unicode="&#x115;" 
d="M940 440v172q-2 205 -127 322q-123 115 -301 117q-74 0 -150 -27q-77 -27 -139 -88q-61 -60 -100 -164q-39 -102 -39 -256q0 -160 45 -260q41 -104 107 -162q34 -28 73 -47q37 -22 76 -35q78 -24 160 -24q215 -2 374 168l-151 129v0q-100 -101 -227 -101q-109 0 -176 66
q-72 65 -72 190h647zM293 612q6 121 65 183q60 59 154 59t154 -59q61 -62 65 -183h-438zM306 1470q21 -82 72 -116q53 -35 135 -35q76 -2 131 33q57 32 76 118h123q-11 -129 -95 -204q-84 -82 -235 -82q-148 0 -231 82q-86 75 -99 204h123z" />
    <glyph glyph-name="Edotaccent" unicode="&#x116;" horiz-adv-x="1139" 
d="M154 0h931v209h-710v428h606v196h-606v416h710v209h-931v-1458zM525 1781h221v-221h-221v221z" />
    <glyph glyph-name="edotaccent" unicode="&#x117;" 
d="M940 440v172q-2 205 -127 322q-123 115 -301 117q-74 0 -150 -27q-77 -27 -139 -88q-61 -60 -100 -164q-39 -102 -39 -256q0 -160 45 -260q41 -104 107 -162q34 -28 73 -47q37 -22 76 -35q78 -24 160 -24q215 -2 374 168l-151 129v0q-100 -101 -227 -101q-109 0 -176 66
q-72 65 -72 190h647zM293 612q6 121 65 183q60 59 154 59t154 -59q61 -62 65 -183h-438zM404 1421h221v-221h-221v221z" />
    <glyph glyph-name="Eogonek" unicode="&#x118;" horiz-adv-x="1139" 
d="M154 1458h931v-209h-710v-415h606v-197h-606v-428h710v-209q-127 -125 -131 -258q0 -45 31 -72q29 -28 70 -28q67 0 108 30l29 -86q-27 -16 -80 -32q-53 -17 -119 -17q-86 4 -139 51q-59 50 -59 140q0 47 16 90q14 35 41 69q27 29 58.5 57.5t70.5 55.5h-827v1458z" />
    <glyph glyph-name="eogonek" unicode="&#x119;" 
d="M752 -414q-27 -16 -80 -32q-54 -17 -119 -17q-86 4 -139 51q-60 50 -60 140q0 47 17 90q14 35 41 69q22 27 49.5 52.5t60.5 48.5q-73 4 -137 24q-35 11 -76 35q-37 16 -73 47q-68 62 -107 162q-45 98 -45 260q0 158 39 256q41 109 100 164q60 59 139 88q74 27 150 27
q178 -4 301 -117q123 -115 127 -322v-172h-647q0 -125 72 -190q69 -66 176 -66q127 0 227 101l152 -129q-123 -131 -281 -160q-121 -121 -125 -254q0 -45 31 -72q28 -28 69 -28q68 0 109 30zM731 612q-4 119 -65 183q-60 59 -154 59t-154 -59q-59 -64 -65 -183h438z" />
    <glyph glyph-name="Ecaron" unicode="&#x11a;" horiz-adv-x="1139" 
d="M154 0h931v209h-710v428h606v196h-606v416h710v209h-931v-1458zM302 1828h197l137 -176v0l137 176h197l-218 -299h-233z" />
    <glyph glyph-name="ecaron" unicode="&#x11b;" 
d="M940 440v172q-2 205 -127 322q-123 115 -301 117q-74 0 -150 -27q-77 -27 -139 -88q-61 -60 -100 -164q-39 -102 -39 -256q0 -160 45 -260q41 -104 107 -162q34 -28 73 -47q37 -22 76 -35q78 -24 160 -24q215 -2 374 168l-151 129v0q-100 -101 -227 -101q-109 0 -176 66
q-72 65 -72 190h647zM293 612q6 121 65 183q60 59 154 59t154 -59q61 -62 65 -183h-438zM179 1470h197l137 -176v0l137 176h197l-218 -299h-233z" />
    <glyph glyph-name="Gcircumflex" unicode="&#x11c;" horiz-adv-x="1249" 
d="M627 594h297v-76q-2 -137 -86 -221q-84 -88 -213 -88q-78 0 -134 33q-57 28 -92 73q-43 47 -57 123q-16 76 -16 291t16 293q14 74 57 121q35 45 92 75q56 29 134 31q106 -2 180 -61q71 -62 98 -150h234q-35 183 -168 307q-133 123 -344 125q-172 -2 -287 -82
q-117 -79 -170 -180q-33 -53 -49 -139q-15 -86 -15 -340q0 -250 15 -338q8 -47 20 -78q13 -30 29 -63q53 -101 170 -178q115 -80 287 -84q223 4 370 151q146 148 150 367v297h-518v-209zM486 1529h-197l217 299h233l218 -299h-197l-137 176z" />
    <glyph glyph-name="gcircumflex" unicode="&#x11d;" horiz-adv-x="1063" 
d="M719 109v-107q-2 -106 -66 -166q-65 -59 -172 -59q-57 2 -110 31q-52 26 -92 63v0l-162 -129q149 -170 360 -174q184 0 316 113q131 110 135 344v1013h-209v-110v0q-113 123 -268 123q-101 -2 -168 -39q-70 -39 -107 -88q-41 -50 -59 -123q-19 -74 -19 -283
q0 -205 19 -278q18 -74 59 -125q37 -45 107 -84q67 -41 168 -43q165 4 268 121v0zM307 518q0 121 8 168q7 47 33 76q21 28 64 55q41 23 102 25q61 -2 102 -25q41 -27 62 -55q26 -29 35 -76q6 -47 6 -168q0 -119 -6 -164q-9 -47 -35 -78q-21 -28 -62 -51q-41 -28 -102 -28
t-102 28q-43 23 -64 51q-26 31 -33 78q-8 45 -8 164v0zM376 1171h-197l217 299h233l218 -299h-197l-137 176z" />
    <glyph glyph-name="Gbreve" unicode="&#x11e;" horiz-adv-x="1249" 
d="M627 594h297v-76q-2 -137 -86 -221q-84 -88 -213 -88q-78 0 -134 33q-57 28 -92 73q-43 47 -57 123q-16 76 -16 291t16 293q14 74 57 121q35 45 92 75q56 29 134 31q106 -2 180 -61q71 -62 98 -150h234q-35 183 -168 307q-133 123 -344 125q-172 -2 -287 -82
q-117 -79 -170 -180q-33 -53 -49 -139q-15 -86 -15 -340q0 -250 15 -338q8 -47 20 -78q13 -30 29 -63q53 -101 170 -178q115 -80 287 -84q223 4 370 151q146 148 150 367v297h-518v-209zM416 1828q21 -82 72 -116q53 -35 135 -35q76 -2 131 33q57 32 76 118h123
q-11 -129 -95 -204q-84 -82 -235 -82q-148 0 -231 82q-86 75 -99 204h123z" />
    <glyph glyph-name="gbreve" unicode="&#x11f;" horiz-adv-x="1063" 
d="M719 109v-107q-2 -106 -66 -166q-65 -59 -172 -59q-57 2 -110 31q-52 26 -92 63v0l-162 -129q149 -170 360 -174q184 0 316 113q131 110 135 344v1013h-209v-110v0q-113 123 -268 123q-101 -2 -168 -39q-70 -39 -107 -88q-41 -50 -59 -123q-19 -74 -19 -283
q0 -205 19 -278q18 -74 59 -125q37 -45 107 -84q67 -41 168 -43q165 4 268 121v0zM307 518q0 121 8 168q7 47 33 76q21 28 64 55q41 23 102 25q61 -2 102 -25q41 -27 62 -55q26 -29 35 -76q6 -47 6 -168q0 -119 -6 -164q-9 -47 -35 -78q-21 -28 -62 -51q-41 -28 -102 -28
t-102 28q-43 23 -64 51q-26 31 -33 78q-8 45 -8 164v0zM306 1470q21 -82 72 -116q53 -35 135 -35q76 -2 131 33q57 32 76 118h123q-11 -129 -95 -204q-84 -82 -235 -82q-148 0 -231 82q-86 75 -99 204h123z" />
    <glyph glyph-name="Gdotaccent" unicode="&#x120;" horiz-adv-x="1249" 
d="M627 594h297v-76q-2 -137 -86 -221q-84 -88 -213 -88q-78 0 -134 33q-57 28 -92 73q-43 47 -57 123q-16 76 -16 291t16 293q14 74 57 121q35 45 92 75q56 29 134 31q106 -2 180 -61q71 -62 98 -150h234q-35 183 -168 307q-133 123 -344 125q-172 -2 -287 -82
q-117 -79 -170 -180q-33 -53 -49 -139q-15 -86 -15 -340q0 -250 15 -338q8 -47 20 -78q13 -30 29 -63q53 -101 170 -178q115 -80 287 -84q223 4 370 151q146 148 150 367v297h-518v-209zM515 1779h221v-221h-221v221z" />
    <glyph glyph-name="gdotaccent" unicode="&#x121;" horiz-adv-x="1063" 
d="M719 109v-107q-2 -106 -66 -166q-65 -59 -172 -59q-57 2 -110 31q-52 26 -92 63v0l-162 -129q149 -170 360 -174q184 0 316 113q131 110 135 344v1013h-209v-110v0q-113 123 -268 123q-101 -2 -168 -39q-70 -39 -107 -88q-41 -50 -59 -123q-19 -74 -19 -283
q0 -205 19 -278q18 -74 59 -125q37 -45 107 -84q67 -41 168 -43q165 4 268 121v0zM307 518q0 121 8 168q7 47 33 76q21 28 64 55q41 23 102 25q61 -2 102 -25q41 -27 62 -55q26 -29 35 -76q6 -47 6 -168q0 -119 -6 -164q-9 -47 -35 -78q-21 -28 -62 -51q-41 -28 -102 -28
t-102 28q-43 23 -64 51q-26 31 -33 78q-8 45 -8 164v0zM404 1421h221v-221h-221v221z" />
    <glyph glyph-name="Gcedilla" unicode="&#x122;" horiz-adv-x="1249" 
d="M627 594h297v-76q-2 -137 -86 -221q-84 -88 -213 -88q-78 0 -134 33q-57 28 -92 73q-43 47 -57 123q-16 76 -16 291t16 293q14 74 57 121q35 45 92 75q56 29 134 31q106 -2 180 -61q71 -62 98 -150h234q-35 183 -168 307q-133 123 -344 125q-172 -2 -287 -82
q-117 -79 -170 -180q-33 -53 -49 -139q-15 -86 -15 -340q0 -250 15 -338q8 -47 20 -78q13 -30 29 -63q53 -101 170 -178q115 -80 287 -84q223 4 370 151q146 148 150 367v297h-518v-209zM519 -76h209v-250l-209 -151v401z" />
    <glyph glyph-name="Hcircumflex" unicode="&#x124;" horiz-adv-x="1327" 
d="M952 0h221v1458h-221v-625h-577v625h-221v-1458h221v637h577v-637zM525 1529h-197l217 299h233l218 -299h-197l-137 176z" />
    <glyph glyph-name="hcircumflex" unicode="&#x125;" horiz-adv-x="1100" 
d="M135 0h209v618q0 109 59 166q58 58 148 58t147 -58q58 -57 58 -166v-618h209v690q-5 178 -111 270q-107 91 -236 91q-167 0 -270 -123h-4v530h-209v-1458zM413 1529h-197l217 299h233l218 -299h-197l-137 176z" />
    <glyph glyph-name="Itilde" unicode="&#x128;" horiz-adv-x="528" 
d="M154 0h221v1458h-221v-1458zM22 1550q0 51 33 72q31 16 53 16q64 -2 141 -37q37 -14 78 -25q39 -14 76 -14q104 2 158 74q53 67 67 164h-123q-10 -54 -36 -72q-29 -20 -60 -18q-31 0 -61 14q-33 10 -70 27q-35 16 -72 26q-36 10 -75 10q-95 0 -154 -63q-61 -66 -78 -174
h123z" />
    <glyph glyph-name="itilde" unicode="&#x129;" horiz-adv-x="492" 
d="M141 0h209v1038h-209v-1038zM4 1192q0 51 33 72q31 16 53 16q64 -2 141 -37q37 -14 78 -25q39 -14 76 -14q104 2 158 74q53 67 67 164h-123q-10 -54 -36 -72q-29 -20 -60 -18q-31 0 -61 14q-33 10 -70 27q-35 16 -72 26q-36 10 -75 10q-95 0 -154 -63q-61 -66 -78 -174
h123z" />
    <glyph glyph-name="Imacron" unicode="&#x12a;" horiz-adv-x="528" 
d="M154 0h221v1458h-221v-1458zM-30 1736h590v-135h-590v135z" />
    <glyph glyph-name="imacron" unicode="&#x12b;" horiz-adv-x="492" 
d="M141 0h209v1038h-209v-1038zM-49 1378h590v-135h-590v135z" />
    <glyph glyph-name="Ibreve" unicode="&#x12c;" horiz-adv-x="528" 
d="M154 0h221v1458h-221v-1458zM-66 1828q13 -129 99 -204q83 -82 231 -82q151 0 235 82q84 75 95 204h-123q-19 -86 -76 -118q-55 -35 -131 -33q-82 0 -135 35q-51 34 -72 116h-123z" />
    <glyph glyph-name="ibreve" unicode="&#x12d;" horiz-adv-x="492" 
d="M141 0h209v1038h-209v-1038zM-83 1470q13 -129 99 -204q83 -82 231 -82q151 0 235 82q84 75 95 204h-123q-19 -86 -76 -118q-55 -35 -131 -33q-82 0 -135 35q-51 34 -72 116h-123z" />
    <glyph glyph-name="Iogonek" unicode="&#x12e;" horiz-adv-x="528" 
d="M154 1458h221v-1458h-82q-127 -125 -131 -258q0 -45 31 -72q28 -28 69 -28q68 0 109 30l28 -86q-26 -16 -80 -32q-53 -17 -118 -17q-86 4 -140 51q-59 50 -59 140q0 47 16 90q15 35 41 69q27 29 59 57.5t70 55.5h-34v1458z" />
    <glyph glyph-name="iogonek" unicode="&#x12f;" horiz-adv-x="492" 
d="M141 1038h209v-1038h-53q-127 -125 -131 -258q0 -45 31 -72q28 -28 69 -28q68 0 109 30l28 -86q-26 -16 -79 -32q-54 -17 -119 -17q-86 4 -139 51q-60 50 -60 140q0 47 17 90q14 35 40 69q27 29 59 57.5t71 55.5h-52v1038zM141 1458h209v-209h-209v209z" />
    <glyph glyph-name="Idotaccent" unicode="&#x130;" horiz-adv-x="528" 
d="M154 0h221v1458h-221v-1458zM153 1558h221v221h-221v-221z" />
    <glyph glyph-name="dotlessi" unicode="&#x131;" horiz-adv-x="491" 
d="M141 0h209v1038h-209v-1038z" />
    <glyph glyph-name="IJ" unicode="&#x132;" horiz-adv-x="1513" 
d="M154 0h221v1458h-221v-1458zM708 307l-178 -129q125 -184 379 -190q184 2 323 125q140 120 144 340v1005h-221v-983q0 -74 -23 -123q-22 -51 -61 -82q-80 -63 -168 -61q-66 0 -115 31q-49 26 -80 67v0z" />
    <glyph glyph-name="ij" unicode="&#x133;" horiz-adv-x="1019" 
d="M141 0h209v1038h-209v-1038zM141 1249h209v209h-209v-209zM653 -113q-2 -110 -117 -110h-59v-197h82q135 2 219 82q82 78 84 209v1167h-209v-1151zM653 1249h209v209h-209v-209z" />
    <glyph glyph-name="Jcircumflex" unicode="&#x134;" horiz-adv-x="985" 
d="M180 307l-178 -129q125 -184 379 -190q184 2 323 125q140 120 144 340v1005h-221v-983q0 -74 -23 -123q-22 -51 -61 -82q-80 -63 -168 -61q-66 0 -115 31q-49 26 -80 67v0zM735 1705l137 -176h197l-218 299h-233l-217 -299h197l137 176v0z" />
    <glyph glyph-name="Kcedilla" unicode="&#x136;" horiz-adv-x="1290" 
d="M154 0h221v444l256 269v0l397 -713h262l-516 883l467 575h-262l-600 -751h-4v751h-221v-1458zM557 -76h209v-250l-209 -151v401z" />
    <glyph glyph-name="kcedilla" unicode="&#x137;" horiz-adv-x="1063" 
d="M135 0h209v299l164 186v0l276 -485h262l-407 633l358 405h-250l-399 -487h-4v907h-209v-1458zM446 -76h209v-250l-209 -151v401z" />
    <glyph glyph-name="Lacute" unicode="&#x139;" horiz-adv-x="1139" 
d="M154 0h931v209h-710v1249h-221v-1458zM371 1828h275l-291 -299h-172z" />
    <glyph glyph-name="lacute" unicode="&#x13a;" horiz-adv-x="528" 
d="M135 252q0 -137 78 -195q74 -57 188 -57h93v197h-72q-78 0 -78 71v1190h-209v-1206zM334 1828h275l-291 -299h-172z" />
    <glyph glyph-name="Lcedilla" unicode="&#x13b;" horiz-adv-x="1139" 
d="M154 0h931v209h-710v1249h-221v-1458zM512 -76h209v-250l-209 -151v401z" />
    <glyph glyph-name="lcedilla" unicode="&#x13c;" horiz-adv-x="528" 
d="M135 252q0 -137 78 -195q74 -57 188 -57h93v197h-72q-78 0 -78 71v1190h-209v-1206zM207 -76h209v-250l-209 -151v401z" />
    <glyph glyph-name="Lcaron" unicode="&#x13d;" horiz-adv-x="1139" 
d="M154 0h931v209h-710v1249h-221v-1458zM-69 1828h197l137 -176v0l137 176h197l-218 -299h-233z" />
    <glyph glyph-name="lcaron" unicode="&#x13e;" horiz-adv-x="528" 
d="M135 252q0 -137 78 -195q74 -57 188 -57h93v197h-72q-78 0 -78 71v1190h-209v-1206zM-98 1828h197l137 -176v0l137 176h197l-218 -299h-233z" />
    <glyph glyph-name="Lslash" unicode="&#x141;" horiz-adv-x="1139" 
d="M154 500v-500h931v209h-710v446l317 230v184v0l-317 -229v0v618h-221v-774l-150 -113v-184v0l150 113v0z" />
    <glyph glyph-name="lslash" unicode="&#x142;" horiz-adv-x="528" 
d="M135 633v-381q0 -137 78 -195q74 -57 188 -57h93v197h-82q-66 0 -68 71v525l135 106v152v0l-135 -107v0v514h-209v-674l-135 -106v-152v0l135 107v0z" />
    <glyph glyph-name="Nacute" unicode="&#x143;" horiz-adv-x="1401" 
d="M154 0h221v1036h4l659 -1036h209v1458h-221v-1036h-4l-660 1036h-208v-1458zM760 1828h275l-291 -299h-172z" />
    <glyph glyph-name="nacute" unicode="&#x144;" horiz-adv-x="1100" 
d="M135 0h209v618q0 109 59 166q58 58 148 58t147 -58q58 -57 58 -166v-618h209v690q-5 178 -111 270q-107 91 -236 91q-167 0 -270 -123h-4v110h-209v-1038zM588 1470h275l-291 -299h-172z" />
    <glyph glyph-name="Ncedilla" unicode="&#x145;" horiz-adv-x="1401" 
d="M154 0h221v1036h4l659 -1036h209v1458h-221v-1036h-4l-660 1036h-208v-1458zM598 -76h209v-250l-209 -151v401z" />
    <glyph glyph-name="ncedilla" unicode="&#x146;" horiz-adv-x="1100" 
d="M135 0h209v618q0 109 59 166q58 58 148 58t147 -58q58 -57 58 -166v-618h209v690q-5 178 -111 270q-107 91 -236 91q-167 0 -270 -123h-4v110h-209v-1038zM448 -76h209v-250l-209 -151v401z" />
    <glyph glyph-name="Ncaron" unicode="&#x147;" horiz-adv-x="1401" 
d="M154 0h221v1036h4l659 -1036h209v1458h-221v-1036h-4l-660 1036h-208v-1458zM367 1828h197l137 -176v0l137 176h197l-218 -299h-233z" />
    <glyph glyph-name="ncaron" unicode="&#x148;" horiz-adv-x="1100" 
d="M135 0h209v618q0 109 59 166q58 58 148 58t147 -58q58 -57 58 -166v-618h209v690q-5 178 -111 270q-107 91 -236 91q-167 0 -270 -123h-4v110h-209v-1038zM216 1470h197l137 -176v0l137 176h197l-218 -299h-233z" />
    <glyph glyph-name="napostrophe" unicode="&#x149;" horiz-adv-x="1343" 
d="M1 1098v0l209 151v209h-209v-360zM317 0h209v618q0 109 59 166q58 58 148 58t147 -58q58 -57 58 -166v-618h209v690q-5 178 -111 270q-107 91 -236 91q-167 0 -270 -123h-4v110h-209v-1038z" />
    <glyph glyph-name="Omacron" unicode="&#x14c;" horiz-adv-x="1249" 
d="M104 729q0 -250 15 -338q8 -47 20 -78q13 -30 29 -63q53 -101 170 -178q115 -80 287 -84q174 4 290 84q115 77 166 178q37 53 51 141q13 88 13 338q0 254 -13 340q-14 86 -51 139q-51 101 -166 180q-116 80 -290 82q-172 -2 -287 -82q-117 -79 -170 -180
q-33 -53 -49 -139q-15 -86 -15 -340v0zM326 729q0 215 16 293q14 74 57 121q35 45 92 75q56 29 134 31q79 -2 137 -31q55 -30 88 -75q43 -47 59 -121q15 -78 15 -293t-15 -291q-16 -76 -59 -123q-33 -45 -88 -73q-58 -33 -137 -33q-78 0 -134 33q-57 28 -92 73
q-43 47 -57 123q-16 76 -16 291v0zM334 1736h590v-135h-590v135z" />
    <glyph glyph-name="omacron" unicode="&#x14d;" 
d="M84 520q0 -164 27 -250q28 -86 86 -149q43 -49 120 -88q76 -43 195 -45q123 2 199 45q41 18 67 43q29 22 49 45q62 63 88 149q25 86 25 250t-25 252q-26 86 -88 145q-41 52 -116 93q-76 39 -199 41q-119 -2 -195 -41q-77 -41 -120 -93q-58 -59 -86 -145q-27 -88 -27 -252
v0zM731 518q0 -106 -10 -156q-10 -51 -41 -90q-23 -30 -68 -53q-43 -22 -100 -22q-53 0 -98 22q-43 23 -70 53q-27 39 -39 90q-12 50 -12 158q0 109 12 160q12 49 39 86q27 35 70 55q45 21 98 21q57 0 100 -21q45 -20 68 -55q31 -37 41 -86q10 -51 10 -162v0zM218 1378h590
v-135h-590v135z" />
    <glyph glyph-name="Obreve" unicode="&#x14e;" horiz-adv-x="1249" 
d="M104 729q0 -250 15 -338q8 -47 20 -78q13 -30 29 -63q53 -101 170 -178q115 -80 287 -84q174 4 290 84q115 77 166 178q37 53 51 141q13 88 13 338q0 254 -13 340q-14 86 -51 139q-51 101 -166 180q-116 80 -290 82q-172 -2 -287 -82q-117 -79 -170 -180
q-33 -53 -49 -139q-15 -86 -15 -340v0zM326 729q0 215 16 293q14 74 57 121q35 45 92 75q56 29 134 31q79 -2 137 -31q55 -30 88 -75q43 -47 59 -121q15 -78 15 -293t-15 -291q-16 -76 -59 -123q-33 -45 -88 -73q-58 -33 -137 -33q-78 0 -134 33q-57 28 -92 73
q-43 47 -57 123q-16 76 -16 291v0zM423 1828q21 -82 72 -116q53 -35 135 -35q76 -2 131 33q57 32 76 118h123q-11 -129 -95 -204q-84 -82 -235 -82q-148 0 -231 82q-86 75 -99 204h123z" />
    <glyph glyph-name="obreve" unicode="&#x14f;" 
d="M84 520q0 -164 27 -250q28 -86 86 -149q43 -49 120 -88q76 -43 195 -45q123 2 199 45q41 18 67 43q29 22 49 45q62 63 88 149q25 86 25 250t-25 252q-26 86 -88 145q-41 52 -116 93q-76 39 -199 41q-119 -2 -195 -41q-77 -41 -120 -93q-58 -59 -86 -145q-27 -88 -27 -252
v0zM731 518q0 -106 -10 -156q-10 -51 -41 -90q-23 -30 -68 -53q-43 -22 -100 -22q-53 0 -98 22q-43 23 -70 53q-27 39 -39 90q-12 50 -12 158q0 109 12 160q12 49 39 86q27 35 70 55q45 21 98 21q57 0 100 -21q45 -20 68 -55q31 -37 41 -86q10 -51 10 -162v0zM306 1470
q21 -82 72 -116q53 -35 135 -35q76 -2 131 33q57 32 76 118h123q-11 -129 -95 -204q-84 -82 -235 -82q-148 0 -231 82q-86 75 -99 204h123z" />
    <glyph glyph-name="Ohungarumlaut" unicode="&#x150;" horiz-adv-x="1249" 
d="M104 729q0 -250 15 -338q8 -47 20 -78q13 -30 29 -63q53 -101 170 -178q115 -80 287 -84q174 4 290 84q115 77 166 178q37 53 51 141q13 88 13 338q0 254 -13 340q-14 86 -51 139q-51 101 -166 180q-116 80 -290 82q-172 -2 -287 -82q-117 -79 -170 -180
q-33 -53 -49 -139q-15 -86 -15 -340v0zM326 729q0 215 16 293q14 74 57 121q35 45 92 75q56 29 134 31q79 -2 137 -31q55 -30 88 -75q43 -47 59 -121q15 -78 15 -293t-15 -291q-16 -76 -59 -123q-33 -45 -88 -73q-58 -33 -137 -33q-78 0 -134 33q-57 28 -92 73
q-43 47 -57 123q-16 76 -16 291v0zM464 1529h-172l188 299h275zM836 1529h-172l189 299h274z" />
    <glyph glyph-name="ohungarumlaut" unicode="&#x151;" 
d="M84 520q0 -164 27 -250q28 -86 86 -149q43 -49 120 -88q76 -43 195 -45q123 2 199 45q41 18 67 43q29 22 49 45q62 63 88 149q25 86 25 250t-25 252q-26 86 -88 145q-41 52 -116 93q-76 39 -199 41q-119 -2 -195 -41q-77 -41 -120 -93q-58 -59 -86 -145q-27 -88 -27 -252
v0zM731 518q0 -106 -10 -156q-10 -51 -41 -90q-23 -30 -68 -53q-43 -22 -100 -22q-53 0 -98 22q-43 23 -70 53q-27 39 -39 90q-12 50 -12 158q0 109 12 160q12 49 39 86q27 35 70 55q45 21 98 21q57 0 100 -21q45 -20 68 -55q31 -37 41 -86q10 -51 10 -162v0zM351 1171h-172
l188 299h275zM723 1171h-172l189 299h274z" />
    <glyph glyph-name="OE" unicode="&#x152;" horiz-adv-x="1896" 
d="M326 729q0 215 16 293q14 74 57 121q35 45 92 75q56 29 134 31q79 -2 137 -31q55 -30 88 -75q43 -47 59 -121q15 -78 15 -293t-15 -291q-16 -76 -59 -123q-33 -45 -88 -73q-58 -33 -137 -33q-78 0 -134 33q-57 28 -92 73q-43 47 -57 123q-16 76 -16 291v0zM924 115v-115
h919v209h-698v428h590v196h-590v416h694v209h-915v-113v0q-58 68 -136 97q-77 28 -163 28q-172 -2 -287 -82q-117 -79 -170 -180q-33 -53 -49 -139q-15 -86 -15 -340q0 -250 15 -338q8 -47 20 -78q13 -30 29 -63q53 -101 170 -178q115 -80 287 -84q79 0 163 35q84 34 136 92
v0z" />
    <glyph glyph-name="oe" unicode="&#x153;" horiz-adv-x="1671" 
d="M1587 612q-2 205 -127 322q-123 115 -301 117q-194 -2 -321 -162v0q-129 160 -326 162q-119 -2 -195 -41q-77 -41 -120 -93q-58 -59 -86 -145q-27 -88 -27 -252t27 -250q28 -86 86 -149q43 -49 120 -88q76 -43 195 -45q211 4 326 166v0q100 -160 354 -166q215 -2 375 168
l-152 129v0q-100 -101 -227 -101q-109 0 -176 66q-72 65 -72 190h647v172zM731 518q0 -117 -10 -168t-41 -90q-23 -31 -68 -53q-43 -23 -100 -23q-53 0 -98 23q-43 22 -70 53q-27 39 -39 90t-12 170t12 170t39 88q27 35 70 55q45 21 98 21q57 0 100 -21q45 -20 68 -55
q31 -37 41 -88q10 -53 10 -172v0zM940 612q6 121 65 183q60 59 154 59t154 -59q61 -62 65 -183h-438z" />
    <glyph glyph-name="Racute" unicode="&#x154;" horiz-adv-x="1249" 
d="M375 1261h346q106 0 162 -45q71 -51 73 -165q0 -95 -61 -160q-62 -70 -186 -72h-334v442zM154 0h221v623h282l301 -623h263l-338 647q278 107 282 404q-6 202 -145 311q-115 96 -297 96h-569v-1458zM637 1828h275l-291 -299h-172z" />
    <glyph glyph-name="racute" unicode="&#x155;" horiz-adv-x="797" 
d="M135 0h209v625q2 114 66 165q57 52 137 52q71 0 137 -52v0l152 181q-93 78 -218 80q-167 0 -270 -123h-4v110h-209v-1038zM524 1470h275l-291 -299h-172z" />
    <glyph glyph-name="Rcedilla" unicode="&#x156;" horiz-adv-x="1249" 
d="M375 1261h346q106 0 162 -45q71 -51 73 -165q0 -95 -61 -160q-62 -70 -186 -72h-334v442zM154 0h221v623h282l301 -623h263l-338 647q278 107 282 404q-6 202 -145 311q-115 96 -297 96h-569v-1458zM546 -76h209v-250l-209 -151v401z" />
    <glyph glyph-name="rcedilla" unicode="&#x157;" horiz-adv-x="797" 
d="M135 0h209v625q2 114 66 165q57 52 137 52q71 0 137 -52v0l152 181q-93 78 -218 80q-167 0 -270 -123h-4v110h-209v-1038zM140 -76h209v-250l-209 -151v401z" />
    <glyph glyph-name="Rcaron" unicode="&#x158;" horiz-adv-x="1249" 
d="M375 1261h346q106 0 162 -45q71 -51 73 -165q0 -95 -61 -160q-62 -70 -186 -72h-334v442zM154 0h221v623h282l301 -623h263l-338 647q278 107 282 404q-6 202 -145 311q-115 96 -297 96h-569v-1458zM257 1828h197l137 -176v0l137 176h197l-218 -299h-233z" />
    <glyph glyph-name="rcaron" unicode="&#x159;" horiz-adv-x="797" 
d="M135 0h209v625q2 114 66 165q57 52 137 52q71 0 137 -52v0l152 181q-93 78 -218 80q-167 0 -270 -123h-4v110h-209v-1038zM152 1470h197l137 -176v0l137 176h197l-218 -299h-233z" />
    <glyph glyph-name="Sacute" unicode="&#x15a;" horiz-adv-x="1176" 
d="M172 354l-145 -166q233 -200 557 -200q501 6 512 424q0 155 -97 272q-98 119 -303 147q-104 13 -164 23q-108 20 -157 72q-49 51 -49 114q2 105 73 158q68 51 170 51q197 -4 361 -112v0l123 182q-201 145 -473 151q-226 -2 -349 -118q-127 -117 -127 -308
q0 -159 101 -270q98 -108 286 -139q105 -15 193 -27q192 -33 190 -196q-4 -199 -288 -203q-240 2 -414 145v0zM633 1828h275l-291 -299h-172z" />
    <glyph glyph-name="sacute" unicode="&#x15b;" horiz-adv-x="983" 
d="M166 317l-146 -143q203 -186 457 -186q187 2 307 86q121 82 123 233q0 129 -67 213q-72 86 -234 98l-172 13q-76 8 -106 37q-33 26 -31 61q0 55 41 90q39 35 137 35q86 0 152 -25q67 -28 127 -71v0l129 151q-76 66 -172 105q-50 18 -107 28q-57 9 -129 9q-166 0 -274 -80
q-111 -80 -113 -240q2 -133 86 -207q82 -76 213 -88l184 -16q58 -2 93 -25q34 -22 34 -78q0 -63 -57 -98t-147 -35q-201 0 -328 133v0zM535 1470h275l-291 -299h-172z" />
    <glyph glyph-name="Scircumflex" unicode="&#x15c;" horiz-adv-x="1176" 
d="M172 354l-145 -166q233 -200 557 -200q501 6 512 424q0 155 -97 272q-98 119 -303 147q-104 13 -164 23q-108 20 -157 72q-49 51 -49 114q2 105 73 158q68 51 170 51q197 -4 361 -112v0l123 182q-201 145 -473 151q-226 -2 -349 -118q-127 -117 -127 -308
q0 -159 101 -270q98 -108 286 -139q105 -15 193 -27q192 -33 190 -196q-4 -199 -288 -203q-240 2 -414 145v0zM437 1529h-197l217 299h233l218 -299h-197l-137 176z" />
    <glyph glyph-name="scircumflex" unicode="&#x15d;" horiz-adv-x="983" 
d="M166 317l-146 -143q203 -186 457 -186q187 2 307 86q121 82 123 233q0 129 -67 213q-72 86 -234 98l-172 13q-76 8 -106 37q-33 26 -31 61q0 55 41 90q39 35 137 35q86 0 152 -25q67 -28 127 -71v0l129 151q-76 66 -172 105q-50 18 -107 28q-57 9 -129 9q-166 0 -274 -80
q-111 -80 -113 -240q2 -133 86 -207q82 -76 213 -88l184 -16q58 -2 93 -25q34 -22 34 -78q0 -63 -57 -98t-147 -35q-201 0 -328 133v0zM359 1171h-197l217 299h233l218 -299h-197l-137 176z" />
    <glyph glyph-name="Scedilla" unicode="&#x15e;" horiz-adv-x="1176" 
d="M172 354q172 -141 414 -145q284 2 288 203q3 161 -190 196l-192 27q-189 31 -287 139q-101 109 -101 270q0 191 127 308q121 114 349 118q272 -6 473 -151l-123 -182q-166 110 -361 112q-104 0 -170 -51q-69 -51 -73 -158q0 -63 49 -114q47 -49 157 -72q29 -4 70 -10
t94 -13q205 -26 303 -147q97 -119 97 -272q-9 -392 -451 -420l-82 -115h4q19 8 56 8q88 0 133 -45q47 -47 47 -110q-2 -97 -74 -144q-72 -49 -178 -49q-98 2 -207 49l37 86q72 -28 143 -30q115 0 119 86q0 39 -27 57q-30 18 -73 18q-37 2 -78 -22l-45 39l121 170
q-297 12 -514 198l145 166v0z" />
    <glyph glyph-name="scedilla" unicode="&#x15f;" horiz-adv-x="983" 
d="M166 317q127 -133 328 -133q88 0 147 35q57 33 57 98q0 56 -34 78q-35 21 -93 25l-184 16q-131 13 -213 88q-82 74 -86 207q4 160 113 240q106 80 274 80q35 0 67.5 -2t61.5 -7q29 -4 55.5 -11t51.5 -17q94 -41 172 -105l-129 -151q-60 45 -127 71q-66 25 -152 25
q-96 0 -137 -35t-41 -90q-4 -35 31 -61q30 -29 106 -37l172 -13q162 -12 234 -98q67 -84 67 -213q-4 -151 -123 -233q-100 -70 -249 -82l-82 -115h4q18 8 55 8q88 0 133 -45q47 -47 47 -110q-2 -97 -74 -144q-71 -49 -178 -49q-98 2 -207 49l37 86q72 -28 144 -30
q114 0 118 86q0 39 -26 57q-31 18 -74 18q-37 2 -78 -22l-45 39l121 170q-115 8 -216 53t-194 131l146 143v0z" />
    <glyph glyph-name="Scaron" unicode="&#x160;" horiz-adv-x="1175" 
d="M172 354l-145 -166q233 -200 557 -200q501 6 512 424q0 155 -97 272q-98 119 -303 147q-104 13 -164 23q-108 20 -157 72q-49 51 -49 114q2 105 73 158q68 51 170 51q197 -4 361 -112v0l123 182q-201 145 -473 151q-226 -2 -349 -118q-127 -117 -127 -308
q0 -159 101 -270q98 -108 286 -139q105 -15 193 -27q192 -33 190 -196q-4 -199 -288 -203q-240 2 -414 145v0zM478 1529h233l218 299h-197l-137 -176v0l-137 176h-197z" />
    <glyph glyph-name="scaron.001" unicode="&#x161;" horiz-adv-x="983" 
d="M166 317l-146 -143q203 -186 457 -186q187 2 307 86q121 82 123 233q0 129 -67 213q-72 86 -234 98l-172 13q-76 8 -106 37q-33 26 -31 61q0 55 41 90q39 35 137 35q86 0 152 -25q67 -28 127 -71v0l129 151q-76 66 -172 105q-50 18 -107 28q-57 9 -129 9q-166 0 -274 -80
q-111 -80 -113 -240q2 -133 86 -207q82 -76 213 -88l184 -16q58 -2 93 -25q34 -22 34 -78q0 -63 -57 -98t-147 -35q-201 0 -328 133v0zM378 1171h233l218 299h-197l-137 -176v0l-137 176h-197z" />
    <glyph glyph-name="Tcedilla" unicode="&#x162;" 
d="M401 1262h-399v196h1020v-196h-399v-1262h-31l-90 -123h4q18 8 55 8q88 0 133 -45q47 -47 47 -110q-2 -97 -73 -144q-72 -49 -179 -49q-98 2 -206 49l36 86q72 -28 144 -30q115 0 119 86q0 39 -27 57q-31 18 -74 18q-37 2 -78 -22l-45 39l129 180h-86v1262z" />
    <glyph glyph-name="tcedilla" unicode="&#x163;" horiz-adv-x="569" 
d="M399 0q-110 0 -180 68q-72 65 -72 188v623h-104v159h104v316h209v-316h152v-159h-152v-605q-4 -81 74 -77h78v-197l-90 -123h4q18 8 55 8q88 0 133 -45q47 -47 47 -110q-2 -97 -73 -144q-72 -49 -178 -49q-99 2 -207 49l37 86q71 -28 143 -30q115 0 119 86q0 39 -27 57
q-31 18 -74 18q-37 2 -78 -22l-45 39l129 180h-4z" />
    <glyph glyph-name="Tcaron" unicode="&#x164;" 
d="M401 0h222v1261h399v197h-1020v-197h399v-1261zM179 1828h197l137 -176v0l137 176h197l-218 -299h-233z" />
    <glyph glyph-name="tcaron" unicode="&#x165;" horiz-adv-x="879" 
d="M147 1038h-104v-159h104v-623q0 -123 72 -188q70 -68 180 -68h109v197h-78q-76 -2 -74 77v605h152v159h-152v316h-209v-316zM669 1098v0l209 151v209h-209v-360z" />
    <glyph glyph-name="Utilde" unicode="&#x168;" horiz-adv-x="1290" 
d="M127 494q2 -230 152 -365q147 -139 366 -141q223 2 369 141q145 135 149 365v964h-221v-940q-2 -149 -84 -227q-84 -82 -213 -82t-211 82q-84 78 -86 227v940h-221v-964zM401 1550q0 51 33 72q31 16 53 16q64 -2 141 -37q37 -14 78 -25q39 -14 76 -14q104 2 158 74
q53 67 67 164h-123q-10 -54 -36 -72q-29 -20 -60 -18q-31 0 -61 14q-33 10 -70 27q-35 16 -72 26q-36 10 -75 10q-95 0 -154 -63q-61 -66 -78 -174h123z" />
    <glyph glyph-name="utilde" unicode="&#x169;" horiz-adv-x="1100" 
d="M135 348q2 -176 115 -266q104 -92 233 -94q166 0 269 123h4v-111h209v1038h-209v-618q0 -105 -58 -164q-57 -59 -147 -59t-148 59q-59 59 -59 164v618h-209v-690zM307 1192q0 51 33 72q31 16 53 16q64 -2 141 -37q37 -14 78 -25q39 -14 76 -14q104 2 158 74q53 67 67 164
h-123q-10 -54 -36 -72q-29 -20 -60 -18q-31 0 -61 14q-33 10 -70 27q-35 16 -72 26q-36 10 -75 10q-95 0 -154 -63q-61 -66 -78 -174h123z" />
    <glyph glyph-name="Umacron" unicode="&#x16a;" horiz-adv-x="1290" 
d="M127 494q2 -230 152 -365q147 -139 366 -141q223 2 369 141q145 135 149 365v964h-221v-940q-2 -149 -84 -227q-84 -82 -213 -82t-211 82q-84 78 -86 227v940h-221v-964zM351 1736h590v-135h-590v135z" />
    <glyph glyph-name="umacron" unicode="&#x16b;" horiz-adv-x="1100" 
d="M135 348q2 -176 115 -266q104 -92 233 -94q166 0 269 123h4v-111h209v1038h-209v-618q0 -105 -58 -164q-57 -59 -147 -59t-148 59q-59 59 -59 164v618h-209v-690zM254 1378h590v-135h-590v135z" />
    <glyph glyph-name="Ubreve" unicode="&#x16c;" horiz-adv-x="1290" 
d="M127 494q2 -230 152 -365q147 -139 366 -141q223 2 369 141q145 135 149 365v964h-221v-940q-2 -149 -84 -227q-84 -82 -213 -82t-211 82q-84 78 -86 227v940h-221v-964zM439 1828q21 -82 72 -116q53 -35 135 -35q76 -2 131 33q57 32 76 118h123q-11 -129 -95 -204
q-84 -82 -235 -82q-148 0 -231 82q-86 75 -99 204h123z" />
    <glyph glyph-name="ubreve" unicode="&#x16d;" horiz-adv-x="1100" 
d="M135 348q2 -176 115 -266q104 -92 233 -94q166 0 269 123h4v-111h209v1038h-209v-618q0 -105 -58 -164q-57 -59 -147 -59t-148 59q-59 59 -59 164v618h-209v-690zM343 1470q21 -82 72 -116q53 -35 135 -35q76 -2 131 33q57 32 76 118h123q-11 -129 -95 -204
q-84 -82 -235 -82q-148 0 -231 82q-86 75 -99 204h123z" />
    <glyph glyph-name="Uring" unicode="&#x16e;" horiz-adv-x="1290" 
d="M127 494q2 -230 152 -365q147 -139 366 -141q223 2 369 141q145 135 149 365v964h-221v-940q-2 -149 -84 -227q-84 -82 -213 -82t-211 82q-84 78 -86 227v940h-221v-964zM435 1710q0 92 63 151q60 57 148 60q92 -3 151 -60q58 -59 60 -151q-2 -88 -60 -148
q-59 -63 -151 -63q-88 0 -148 63q-63 60 -63 148zM517 1710q0 -54 39 -91q36 -38 90 -38q57 0 92 38q35 37 37 91q-2 57 -37 92t-92 37q-54 -2 -90 -37q-39 -35 -39 -92z" />
    <glyph glyph-name="uring" unicode="&#x16f;" horiz-adv-x="1100" 
d="M135 348q2 -176 115 -266q104 -92 233 -94q166 0 269 123h4v-111h209v1038h-209v-618q0 -105 -58 -164q-57 -59 -147 -59t-148 59q-59 59 -59 164v618h-209v-690zM338 1352q0 92 63 151q60 57 148 60q92 -3 151 -60q58 -59 60 -151q-2 -88 -60 -148q-59 -63 -151 -63
q-88 0 -148 63q-63 60 -63 148zM420 1352q0 -54 39 -91q36 -38 90 -38q57 0 92 38q35 37 37 91q-2 57 -37 92t-92 37q-54 -2 -90 -37q-39 -35 -39 -92z" />
    <glyph glyph-name="Uhungarumlaut" unicode="&#x170;" horiz-adv-x="1290" 
d="M127 494q2 -230 152 -365q147 -139 366 -141q223 2 369 141q145 135 149 365v964h-221v-940q-2 -149 -84 -227q-84 -82 -213 -82t-211 82q-84 78 -86 227v940h-221v-964zM547 1529h-172l188 299h275zM919 1529h-172l189 299h274z" />
    <glyph glyph-name="uhungarumlaut" unicode="&#x171;" horiz-adv-x="1100" 
d="M135 348q2 -176 115 -266q104 -92 233 -94q166 0 269 123h4v-111h209v1038h-209v-618q0 -105 -58 -164q-57 -59 -147 -59t-148 59q-59 59 -59 164v618h-209v-690zM428 1171h-172l188 299h275zM800 1171h-172l189 299h274z" />
    <glyph glyph-name="Uogonek" unicode="&#x172;" horiz-adv-x="1290" 
d="M866 -414q-26 -16 -80 -32q-53 -17 -118 -17q-86 4 -140 51q-59 50 -59 140q0 47 16 90q15 35 41 69q23 27 50.5 52.5t60.5 48.5q-213 6 -358 141q-148 133 -152 365v964h221v-940q2 -151 86 -227q82 -82 211 -82q131 0 213 82q80 76 84 227v940h221v-964
q-2 -228 -149 -365q-109 -102 -256 -129q-127 -127 -129 -258q0 -45 30 -72q29 -28 70 -28q68 0 109 30z" />
    <glyph glyph-name="uogonek" unicode="&#x173;" horiz-adv-x="1100" 
d="M967 -414q-27 -16 -80 -32q-53 -17 -119 -17q-86 4 -139 51q-60 50 -60 140q0 47 17 90q14 35 41 69q26 29 58 57.5t71 55.5v111h-4q-103 -123 -269 -123q-131 4 -233 94q-111 88 -115 266v690h209v-618q0 -105 59 -164q60 -59 148 -59t147 59q58 57 58 164v618h209
v-1038h-105q-127 -125 -131 -258q0 -45 31 -72q28 -28 69 -28q68 0 109 30z" />
    <glyph glyph-name="Wcircumflex" unicode="&#x174;" horiz-adv-x="1704" 
d="M387 0h184l279 1051h4l278 -1051h185l364 1458h-233l-230 -1036h-4l-282 1036h-160l-283 -1036h-4l-229 1036h-233zM716 1529h-197l217 299h233l218 -299h-197l-137 176z" />
    <glyph glyph-name="wcircumflex" unicode="&#x175;" horiz-adv-x="1479" 
d="M958 0h185l331 1038h-221l-198 -727h-4l-236 727h-151l-236 -727h-4l-199 727h-221l332 -1038h184l217 727h4zM601 1171h-197l217 299h233l218 -299h-197l-137 176z" />
    <glyph glyph-name="Ycircumflex" unicode="&#x176;" 
d="M408 0h208v600l439 858h-234l-309 -647v0l-309 647h-234l439 -858v-600zM376 1529h-197l217 299h233l218 -299h-197l-137 176z" />
    <glyph glyph-name="ycircumflex" unicode="&#x177;" horiz-adv-x="909" 
d="M358 41l-57 -174q-14 -45 -49 -68q-35 -22 -76 -22h-61v-197h69q97 0 174 43q76 45 119 162l447 1253h-222l-245 -727h-4l-246 727h-221zM318 1171h-197l217 299h233l218 -299h-197l-137 176z" />
    <glyph glyph-name="Ydieresis" unicode="&#x178;" 
d="M408 0h208v600l439 858h-234l-309 -647v0l-309 647h-234l439 -858v-600zM589 1558h222v221h-222v-221zM229 1558h221v221h-221v-221z" />
    <glyph glyph-name="Zacute" unicode="&#x179;" horiz-adv-x="1063" 
d="M66 0h931v209h-663l663 1083v166h-905v-197h635l-661 -1077v-184zM590 1828h275l-291 -299h-172z" />
    <glyph glyph-name="zacute" unicode="&#x17a;" horiz-adv-x="909" 
d="M68 0h774v197h-520l520 675v166h-746v-184h492l-520 -688v-166zM494 1470h275l-291 -299h-172z" />
    <glyph glyph-name="Zdotaccent" unicode="&#x17b;" horiz-adv-x="1063" 
d="M66 0h931v209h-663l663 1083v166h-905v-197h635l-661 -1077v-184zM441 1779h221v-221h-221v221z" />
    <glyph glyph-name="zdotaccent" unicode="&#x17c;" horiz-adv-x="909" 
d="M68 0h774v197h-520l520 675v166h-746v-184h492l-520 -688v-166zM345 1421h221v-221h-221v221z" />
    <glyph glyph-name="Zcaron" unicode="&#x17d;" horiz-adv-x="1063" 
d="M66 0h931v209h-663l663 1083v166h-905v-197h635l-661 -1077v-184zM197 1907h197l137 -176v0l137 176h197l-218 -299h-233z" />
    <glyph glyph-name="zcaron" unicode="&#x17e;" horiz-adv-x="909" 
d="M68 0h774v197h-520l520 675v166h-746v-184h492l-520 -688v-166zM121 1487h197l137 -176v0l137 176h197l-218 -299h-233z" />
    <glyph glyph-name="florin" unicode="&#x192;" horiz-adv-x="983" 
d="M229 -86q-14 -78 -96 -78q-57 2 -94 10l-35 -188q62 -18 123 -18q149 0 221 71q72 70 90 205l146 850h188l25 160h-185l43 252q19 96 113 96q43 0 88 -10l31 194q-47 12 -94 12q-113 0 -209 -47q-97 -49 -125 -186l-56 -311h-180l-24 -160h176z" />
    <glyph glyph-name="Ohorn" unicode="&#x1a0;" horiz-adv-x="1489" 
d="M1358 1526q24 -21 58 -63t57 -105q28 -78 -0.5 -150.5t-108.5 -101.5q-68 -25 -128 -13.5t-120 44.5q4 -17 8 -33.5t9 -34.5q12 -86 12 -340q0 -250 -12 -338q-17 -90 -52 -141q-53 -103 -166 -178q-118 -82 -290 -84q-172 2 -287 84q-119 78 -170 178l-29 63
q-6 17 -11 36.5t-9 41.5q-15 84 -15 338q0 129 3.5 213t11.5 127q16 88 49 139q51 99 170 181q113 77 287 81q176 -4 290 -81q80 -60 129 -123q70 -27 132.5 -32t117.5 15q37 17 55.5 53.5t2.5 75.5q-21 64 -66 92zM326 729q0 -108 4 -180t12 -111q16 -78 57 -123
q33 -47 93 -73q53 -33 133 -33t137 33q53 26 88 73q45 47 59 123q15 72 15 291q0 109 -3 181.5t-12 111.5q-14 74 -59 121q-33 45 -88 76q-60 28 -137 30q-78 -4 -133 -30q-60 -31 -93 -76q-41 -45 -57 -121q-16 -82 -16 -293z" />
    <glyph glyph-name="ohorn" unicode="&#x1a1;" horiz-adv-x="1196" 
d="M1065 1161q27 -20 59.5 -62t55.5 -106q28 -78 0.5 -149.5t-109.5 -104.5q-41 -14 -77 -15t-70 7q8 -41 12 -93t4 -118q0 -164 -25 -250q-28 -86 -88 -149q-10 -10 -22 -22.5t-27 -22.5q-28 -25 -67 -43q-76 -41 -199 -45q-119 2 -195 45q-79 41 -120 88q-60 65 -86 149
q-27 82 -27 250q0 166 27 252q28 88 86 146q43 51 120 92q74 37 195 41q125 -4 199 -41q75 -41 116 -92q23 -23 41 -48q74 -10 133 15q41 16 56.5 52t3.5 77q-25 63 -68 92zM731 518q0 55 -3 95t-7 67q-8 47 -41 86q-23 33 -68 55q-41 21 -100 21q-55 0 -98 -21
q-41 -20 -70 -55q-27 -35 -39 -86q-12 -53 -12 -160q0 -108 12 -158q12 -51 39 -90q31 -32 70 -53q49 -22 98 -22q55 0 100 22q45 21 68 53q33 43 41 90q4 25 7 64t3 92z" />
    <glyph glyph-name="Uhorn" unicode="&#x1af;" horiz-adv-x="1522" 
d="M1389 1503q26 -20 59 -62t55 -106q33 -78 2.5 -149.5t-110.5 -104.5q-64 -22 -120 -13t-112 38v-612q-2 -228 -149 -365q-146 -139 -369 -141q-219 4 -366 141q-148 133 -152 365v964h221v-940q2 -151 86 -227q82 -82 211 -82q131 0 213 82q80 76 84 227v940h221v-241
q90 -19 162 10q41 16 58.5 52t0.5 77q-20 63 -65 92z" />
    <glyph glyph-name="uhorn" unicode="&#x1b0;" horiz-adv-x="1348" 
d="M1217 1087q24 -20 58 -63t56 -104q29 -78 1.5 -150t-109.5 -104q-72 -27 -134.5 -12.5t-123.5 51.5v-705h-209v111h-4q-103 -123 -269 -123q-131 4 -233 94q-111 88 -115 266v690h209v-618q0 -105 59 -164q60 -59 148 -59t147 59q58 57 58 164v618h209v-231
q104 -29 188 4q37 12 55.5 52t1.5 75q-20 63 -65 92z" />
    <glyph glyph-name="clickdental" unicode="&#x1c0;" horiz-adv-x="455" 
d="M147 -12h160v1482h-160v-1482z" />
    <glyph glyph-name="clicklateral" unicode="&#x1c1;" horiz-adv-x="910" 
d="M147 -12h160v1482h-160v-1482zM602 -12h160v1482h-160v-1482z" />
    <glyph glyph-name="clickretroflex" unicode="&#x1c3;" horiz-adv-x="528" 
d="M211 360h104l80 1098h-262zM160 0h209v209h-209v-209z" />
    <glyph glyph-name="DZcaron" unicode="&#x1c4;" horiz-adv-x="2312" 
d="M154 0h495q164 0 277 72q114 67 178 170q24 39 41 75q16 37 24 84q17 93 17 328q0 221 -11 311q-14 90 -67 172q-148 244 -444 246h-510v-1458zM375 1249h264q168 4 260 -123q45 -51 57 -133q9 -82 9 -272q0 -195 -9 -266q-10 -72 -47 -119q-84 -127 -270 -127h-264v1040
zM1315 0h931v209h-663l663 1083v166h-905v-197h635l-661 -1077v-184zM1663 1529h233l218 299h-197l-137 -176v0l-137 176h-197z" />
    <glyph glyph-name="Dzcaron" unicode="&#x1c5;" horiz-adv-x="2200" 
d="M154 0h495q164 0 277 72q114 67 178 170q24 39 41 75q16 37 24 84q17 93 17 328q0 221 -11 311q-14 90 -67 172q-148 244 -444 246h-510v-1458zM375 1249h264q168 4 260 -123q45 -51 57 -133q9 -82 9 -272q0 -195 -9 -266q-10 -72 -47 -119q-84 -127 -270 -127h-264v1040
zM1358 0h774v197h-520l520 675v166h-746v-184h492l-520 -688v-166zM1628 1171h233l218 299h-197l-137 -176v0l-137 176h-197z" />
    <glyph glyph-name="dzcaron" unicode="&#x1c6;" horiz-adv-x="1972" 
d="M756 109v-109h209v1458h-209v-530v0q-58 55 -121 90q-68 33 -148 33q-190 -5 -278 -136q-43 -49 -57 -129q-17 -79 -17 -266q0 -184 17 -264q14 -84 57 -133q47 -60 117 -96q67 -37 161 -39q166 4 269 121v0zM551 842q74 0 117 -29t59 -76q20 -47 27 -102q2 -55 2 -115
q0 -55 -2 -112q-7 -58 -27 -105q-16 -47 -59 -76q-43 -30 -117 -30t-113 28q-43 29 -63 74q-19 47 -25 106q-6 56 -6 115q0 62 6 121q6 55 25 102q20 47 63 74q39 25 113 25v0zM1131 0h774v197h-520l520 675v166h-746v-184h492l-520 -688v-166zM1401 1171h233l218 299h-197
l-137 -176v0l-137 176h-197z" />
    <glyph glyph-name="LJ" unicode="&#x1c7;" horiz-adv-x="2124" 
d="M154 0h931v209h-710v1249h-221v-1458zM1319 307l-178 -129q125 -184 379 -190q184 2 323 125q140 120 144 340v1005h-221v-983q0 -74 -23 -123q-22 -51 -61 -82q-80 -63 -168 -61q-66 0 -115 31q-49 26 -80 67v0z" />
    <glyph glyph-name="Lj" unicode="&#x1c8;" horiz-adv-x="1667" 
d="M154 0h931v209h-710v1249h-221v-1458zM1301 -113q-2 -110 -117 -110h-59v-197h82q135 2 219 82q82 78 84 209v1167h-209v-1151zM1301 1249h209v209h-209v-209z" />
    <glyph glyph-name="lj" unicode="&#x1c9;" horiz-adv-x="1056" 
d="M135 252q0 -137 78 -195q74 -57 188 -57h93v197h-72q-78 0 -78 71v1190h-209v-1206zM690 -113q-2 -110 -117 -110h-59v-197h82q135 2 219 82q82 78 84 209v1167h-209v-1151zM690 1249h209v209h-209v-209z" />
    <glyph glyph-name="NJ" unicode="&#x1ca;" horiz-adv-x="2386" 
d="M154 0h221v1036h4l659 -1036h209v1458h-221v-1036h-4l-660 1036h-208v-1458zM1581 307l-178 -129q125 -184 379 -190q184 2 323 125q140 120 144 340v1005h-221v-983q0 -74 -23 -123q-22 -51 -61 -82q-80 -63 -168 -61q-66 0 -115 31q-49 26 -80 67v0z" />
    <glyph glyph-name="Nj" unicode="&#x1cb;" horiz-adv-x="1929" 
d="M154 0h221v1036h4l659 -1036h209v1458h-221v-1036h-4l-660 1036h-208v-1458zM1563 -113q-2 -110 -117 -110h-59v-197h82q135 2 219 82q82 78 84 209v1167h-209v-1151zM1563 1249h209v209h-209v-209z" />
    <glyph glyph-name="nj" unicode="&#x1cc;" horiz-adv-x="1628" 
d="M135 0h209v618q0 109 59 166q58 58 148 58t147 -58q58 -57 58 -166v-618h209v690q-5 178 -111 270q-107 91 -236 91q-167 0 -270 -123h-4v110h-209v-1038zM1262 -113q-2 -110 -117 -110h-59v-197h82q135 2 219 82q82 78 84 209v1167h-209v-1151zM1262 1249h209v209h-209
v-209z" />
    <glyph glyph-name="Acaron" unicode="&#x1cd;" horiz-adv-x="1249" 
d="M412 522l211 637h4l211 -637h-426zM1014 0h233l-530 1458h-185l-530 -1458h234l112 326h553zM508 1529h233l218 299h-197l-137 -176v0l-137 176h-197z" />
    <glyph glyph-name="acaron" unicode="&#x1ce;" 
d="M680 0h209v709q-2 190 -119 268q-117 76 -313 74q-232 4 -351 -152l164 -125v0q27 45 74 64q45 16 123 16q215 4 213 -133v-109h-289q-166 -2 -252 -90q-86 -86 -86 -217q0 -137 99 -225q94 -90 268 -92q106 0 166 26q61 25 90 78h4v-92zM680 365q0 -117 -49 -150
q-54 -33 -185 -31q-104 0 -149 41q-47 37 -47 90q-2 121 180 125h250v-75zM375 1171h233l218 299h-197l-137 -176v0l-137 176h-197z" />
    <glyph glyph-name="Icaron" unicode="&#x1cf;" horiz-adv-x="528" 
d="M154 0h221v1458h-221v-1458zM147 1529h233l218 299h-197l-137 -176v0l-137 176h-197z" />
    <glyph glyph-name="icaron" unicode="&#x1d0;" horiz-adv-x="492" 
d="M141 0h209v1038h-209v-1038zM129 1171h233l218 299h-197l-137 -176v0l-137 176h-197z" />
    <glyph glyph-name="Ocaron" unicode="&#x1d1;" horiz-adv-x="1249" 
d="M104 729q0 -250 15 -338q8 -47 20 -78q13 -30 29 -63q53 -101 170 -178q115 -80 287 -84q174 4 290 84q115 77 166 178q37 53 51 141q13 88 13 338q0 254 -13 340q-14 86 -51 139q-51 101 -166 180q-116 80 -290 82q-172 -2 -287 -82q-117 -79 -170 -180
q-33 -53 -49 -139q-15 -86 -15 -340v0zM326 729q0 215 16 293q14 74 57 121q35 45 92 75q56 29 134 31q79 -2 137 -31q55 -30 88 -75q43 -47 59 -121q15 -78 15 -293t-15 -291q-16 -76 -59 -123q-33 -45 -88 -73q-58 -33 -137 -33q-78 0 -134 33q-57 28 -92 73
q-43 47 -57 123q-16 76 -16 291v0zM508 1529h233l218 299h-197l-137 -176v0l-137 176h-197z" />
    <glyph glyph-name="ocaron" unicode="&#x1d2;" 
d="M84 520q0 -164 27 -250q28 -86 86 -149q43 -49 120 -88q76 -43 195 -45q123 2 199 45q41 18 67 43q29 22 49 45q62 63 88 149q25 86 25 250t-25 252q-26 86 -88 145q-41 52 -116 93q-76 39 -199 41q-119 -2 -195 -41q-77 -41 -120 -93q-58 -59 -86 -145q-27 -88 -27 -252
v0zM731 518q0 -106 -10 -156q-10 -51 -41 -90q-23 -30 -68 -53q-43 -22 -100 -22q-53 0 -98 22q-43 23 -70 53q-27 39 -39 90q-12 50 -12 158q0 109 12 160q12 49 39 86q27 35 70 55q45 21 98 21q57 0 100 -21q45 -20 68 -55q31 -37 41 -86q10 -51 10 -162v0zM395 1171h233
l218 299h-197l-137 -176v0l-137 176h-197z" />
    <glyph glyph-name="Ucaron" unicode="&#x1d3;" horiz-adv-x="1290" 
d="M127 494q2 -230 152 -365q147 -139 366 -141q223 2 369 141q145 135 149 365v964h-221v-940q-2 -149 -84 -227q-84 -82 -213 -82t-211 82q-84 78 -86 227v940h-221v-964zM528 1529h233l218 299h-197l-137 -176v0l-137 176h-197z" />
    <glyph glyph-name="ucaron" unicode="&#x1d4;" horiz-adv-x="1100" 
d="M135 348q2 -176 115 -266q104 -92 233 -94q166 0 269 123h4v-111h209v1038h-209v-618q0 -105 -58 -164q-57 -59 -147 -59t-148 59q-59 59 -59 164v618h-209v-690zM432 1171h233l218 299h-197l-137 -176v0l-137 176h-197z" />
    <glyph glyph-name="Udieresismacron" unicode="&#x1d5;" horiz-adv-x="1290" 
d="M127 494q2 -230 152 -365q147 -139 366 -141q223 2 369 141q145 135 149 365v964h-221v-940q-2 -149 -84 -227q-84 -82 -213 -82t-211 82q-84 78 -86 227v940h-221v-964zM714 1558h222v221h-222v-221zM354 1558h221v221h-221v-221zM350 1929h590v135h-590v-135z" />
    <glyph glyph-name="udieresismacron" unicode="&#x1d6;" horiz-adv-x="1100" 
d="M135 348q2 -176 115 -266q104 -92 233 -94q166 0 269 123h4v-111h209v1038h-209v-618q0 -105 -58 -164q-57 -59 -147 -59t-148 59q-59 59 -59 164v618h-209v-690zM618 1200h222v221h-222v-221zM258 1200h221v221h-221v-221zM254 1571h590v135h-590v-135z" />
    <glyph glyph-name="Udieresisacute" unicode="&#x1d7;" horiz-adv-x="1290" 
d="M127 494q2 -230 152 -365q147 -139 366 -141q223 2 369 141q145 135 149 365v964h-221v-940q-2 -149 -84 -227q-84 -82 -213 -82t-211 82q-84 78 -86 227v940h-221v-964zM714 1558h222v221h-222v-221zM354 1558h221v221h-221v-221zM498 1857h172l291 299h-275z" />
    <glyph glyph-name="udieresisacute" unicode="&#x1d8;" horiz-adv-x="1100" 
d="M135 348q2 -176 115 -266q104 -92 233 -94q166 0 269 123h4v-111h209v1038h-209v-618q0 -105 -58 -164q-57 -59 -147 -59t-148 59q-59 59 -59 164v618h-209v-690zM618 1200h222v221h-222v-221zM258 1200h221v221h-221v-221zM389 1499h172l291 299h-275z" />
    <glyph glyph-name="Udieresiscaron" unicode="&#x1d9;" horiz-adv-x="1290" 
d="M127 494q2 -230 152 -365q147 -139 366 -141q223 2 369 141q145 135 149 365v964h-221v-940q-2 -149 -84 -227q-84 -82 -213 -82t-211 82q-84 78 -86 227v940h-221v-964zM714 1558h222v221h-222v-221zM354 1558h221v221h-221v-221zM528 1857h233l218 299h-197l-137 -176
v0l-137 176h-197z" />
    <glyph glyph-name="udieresiscaron" unicode="&#x1da;" horiz-adv-x="1100" 
d="M135 348q2 -176 115 -266q104 -92 233 -94q166 0 269 123h4v-111h209v1038h-209v-618q0 -105 -58 -164q-57 -59 -147 -59t-148 59q-59 59 -59 164v618h-209v-690zM618 1200h222v221h-222v-221zM258 1200h221v221h-221v-221zM432 1499h233l218 299h-197l-137 -176v0
l-137 176h-197z" />
    <glyph glyph-name="Udieresisgrave" unicode="&#x1db;" horiz-adv-x="1290" 
d="M127 494q2 -230 152 -365q147 -139 366 -141q223 2 369 141q145 135 149 365v964h-221v-940q-2 -149 -84 -227q-84 -82 -213 -82t-211 82q-84 78 -86 227v940h-221v-964zM714 1558h222v221h-222v-221zM354 1558h221v221h-221v-221zM637 1857h172l-188 299h-274z" />
    <glyph glyph-name="udieresisgrave" unicode="&#x1dc;" horiz-adv-x="1100" 
d="M135 348q2 -176 115 -266q104 -92 233 -94q166 0 269 123h4v-111h209v1038h-209v-618q0 -105 -58 -164q-57 -59 -147 -59t-148 59q-59 59 -59 164v618h-209v-690zM618 1200h222v221h-222v-221zM258 1200h221v221h-221v-221zM526 1499h172l-188 299h-274z" />
    <glyph glyph-name="Adieresismacron" unicode="&#x1de;" horiz-adv-x="1249" 
d="M412 522l211 637h4l211 -637h-426zM1014 0h233l-530 1458h-185l-530 -1458h234l112 326h553zM694 1558h222v221h-222v-221zM334 1558h221v221h-221v-221zM330 1929h590v135h-590v-135z" />
    <glyph glyph-name="adieresismacron" unicode="&#x1df;" 
d="M680 0h209v709q-2 190 -119 268q-117 76 -313 74q-232 4 -351 -152l164 -125v0q27 45 74 64q45 16 123 16q215 4 213 -133v-109h-289q-166 -2 -252 -90q-86 -86 -86 -217q0 -137 99 -225q94 -90 268 -92q106 0 166 26q61 25 90 78h4v-92zM680 365q0 -117 -49 -150
q-54 -33 -185 -31q-104 0 -149 41q-47 37 -47 90q-2 121 180 125h250v-75zM583 1200h222v221h-222v-221zM223 1200h221v221h-221v-221zM219 1571h590v135h-590v-135z" />
    <glyph glyph-name="Adotmacron" unicode="&#x1e0;" horiz-adv-x="1249" 
d="M412 522l211 637h4l211 -637h-426zM1014 0h233l-530 1458h-185l-530 -1458h234l112 326h553zM514 1558h221v221h-221v-221zM330 1929h590v135h-590v-135z" />
    <glyph glyph-name="adotmacron" unicode="&#x1e1;" 
d="M680 0h209v709q-2 190 -119 268q-117 76 -313 74q-232 4 -351 -152l164 -125v0q27 45 74 64q45 16 123 16q215 4 213 -133v-109h-289q-166 -2 -252 -90q-86 -86 -86 -217q0 -137 99 -225q94 -90 268 -92q106 0 166 26q61 25 90 78h4v-92zM680 365q0 -117 -49 -150
q-54 -33 -185 -31q-104 0 -149 41q-47 37 -47 90q-2 121 180 125h250v-75zM405 1200h221v221h-221v-221zM221 1571h590v135h-590v-135z" />
    <glyph glyph-name="AEmacron" unicode="&#x1e2;" horiz-adv-x="1858" 
d="M872 0h932v209h-710v428h606v196h-606v416h710v209h-1034l-793 -1458h234l176 326h485v-326zM491 522l377 739h4v-739h-381zM819 1601h590v135h-590v-135z" />
    <glyph glyph-name="aemacron" unicode="&#x1e3;" horiz-adv-x="1593" 
d="M256 774v0q27 45 74 64q45 16 123 16q215 4 213 -133v-109h-316q-151 -2 -229 -94q-82 -90 -82 -213q2 -153 110 -235q107 -80 273 -82q92 0 182 37q88 34 148 122v0q73 -90 163 -124q88 -35 199 -35q215 -2 375 168l-152 129v0q-100 -101 -227 -101q-109 0 -176 66
q-72 65 -72 190h647v172q-2 205 -127 322q-123 115 -301 117q-86 0 -168 -35q-84 -35 -133 -97v0q-94 134 -338 132q-231 4 -350 -152zM666 440v-75q0 -117 -50 -150q-53 -33 -184 -31q-104 0 -149 41q-47 37 -47 90q-3 121 180 125h250zM862 612q6 121 66 183q59 59 153 59
t154 -59q61 -62 65 -183h-438zM479 1243h590v135h-590v-135z" />
    <glyph glyph-name="Gcaron" unicode="&#x1e6;" horiz-adv-x="1249" 
d="M627 594h297v-76q-2 -137 -86 -221q-84 -88 -213 -88q-78 0 -134 33q-57 28 -92 73q-43 47 -57 123q-16 76 -16 291t16 293q14 74 57 121q35 45 92 75q56 29 134 31q106 -2 180 -61q71 -62 98 -150h234q-35 183 -168 307q-133 123 -344 125q-172 -2 -287 -82
q-117 -79 -170 -180q-33 -53 -49 -139q-15 -86 -15 -340q0 -250 15 -338q8 -47 20 -78q13 -30 29 -63q53 -101 170 -178q115 -80 287 -84q223 4 370 151q146 148 150 367v297h-518v-209zM508 1529h233l218 299h-197l-137 -176v0l-137 176h-197z" />
    <glyph glyph-name="gcaron" unicode="&#x1e7;" horiz-adv-x="1063" 
d="M719 109v-107q-2 -106 -66 -166q-65 -59 -172 -59q-57 2 -110 31q-52 26 -92 63v0l-162 -129q149 -170 360 -174q184 0 316 113q131 110 135 344v1013h-209v-110v0q-113 123 -268 123q-101 -2 -168 -39q-70 -39 -107 -88q-41 -50 -59 -123q-19 -74 -19 -283
q0 -205 19 -278q18 -74 59 -125q37 -45 107 -84q67 -41 168 -43q165 4 268 121v0zM307 518q0 121 8 168q7 47 33 76q21 28 64 55q41 23 102 25q61 -2 102 -25q41 -27 62 -55q26 -29 35 -76q6 -47 6 -168q0 -119 -6 -164q-9 -47 -35 -78q-21 -28 -62 -51q-41 -28 -102 -28
t-102 28q-43 23 -64 51q-26 31 -33 78q-8 45 -8 164v0zM395 1171h233l218 299h-197l-137 -176v0l-137 176h-197z" />
    <glyph glyph-name="Kcaron" unicode="&#x1e8;" horiz-adv-x="1290" 
d="M154 0h221v444l256 269v0l397 -713h262l-516 883l467 575h-262l-600 -751h-4v751h-221v-1458zM543 1529h233l218 299h-197l-137 -176v0l-137 176h-197z" />
    <glyph glyph-name="kcaron" unicode="&#x1e9;" horiz-adv-x="1063" 
d="M135 0h209v299l164 186v0l276 -485h262l-407 633l358 405h-250l-399 -487h-4v907h-209v-1458zM459 1529h233l218 299h-197l-137 -176v0l-137 176h-197z" />
    <glyph glyph-name="Oogonek" unicode="&#x1ea;" horiz-adv-x="1249" 
d="M844 -414q-29 -16 -80 -32.5t-119 -16.5q-84 0 -141.5 52.5t-57.5 138.5q0 88 48.5 148.5t119.5 111.5q-163 6 -276 84q-119 78 -170 178l-29 63q-6 17 -11 36.5t-9 41.5q-15 84 -15 338q0 129 3.5 213t11.5 127q16 88 49 139q51 99 170 181q113 77 287 81
q176 -4 290 -81q115 -80 166 -181q35 -49 52 -139q12 -86 12 -340q0 -250 -12 -338q-17 -90 -52 -141q-53 -103 -166 -178q-79 -54 -180 -72q-61 -63 -95 -126.5t-34 -131.5q0 -41 30 -70.5t71 -29.5q67 0 108 30zM326 729q0 -108 4 -180t12 -111q16 -78 57 -123
q33 -47 93 -73q53 -33 133 -33t137 33q53 26 88 73q45 47 59 123q15 72 15 291q0 109 -3 181.5t-12 111.5q-14 74 -59 121q-33 45 -88 76q-60 28 -137 30q-78 -4 -133 -30q-60 -31 -93 -76q-41 -45 -57 -121q-16 -82 -16 -293z" />
    <glyph glyph-name="oogonek" unicode="&#x1eb;" 
d="M731 -414q-29 -16 -80 -32.5t-119 -16.5q-83 0 -140.5 52.5t-57.5 138.5q0 88 48 148.5t120 111.5q-58 4 -103 13t-82 32q-79 41 -120 88q-60 65 -86 149q-27 82 -27 250q0 166 27 252q28 88 86 146q43 51 120 92q74 37 195 41q125 -4 199 -41q75 -41 116 -92
q60 -58 88 -146q25 -90 25 -252q0 -164 -25 -250q-28 -86 -88 -149q-10 -10 -22 -22.5t-27 -22.5q-28 -25 -67 -43q-21 -10 -42.5 -19.5t-43.5 -13.5q-64 -63 -97.5 -126.5t-33.5 -131.5q0 -41 29.5 -70.5t70.5 -29.5q68 0 108 30zM731 518q0 55 -3 95t-7 67q-8 47 -41 86
q-23 33 -68 55q-41 21 -100 21q-55 0 -98 -21q-41 -20 -70 -55q-27 -35 -39 -86q-12 -53 -12 -160q0 -108 12 -158q12 -51 39 -90q31 -32 70 -53q49 -22 98 -22q55 0 100 22q45 21 68 53q33 43 41 90q4 25 7 64t3 92z" />
    <glyph glyph-name="Oogonekmacron" unicode="&#x1ec;" horiz-adv-x="1249" 
d="M844 -414q-29 -16 -80 -32.5t-119 -16.5q-84 0 -141.5 52.5t-57.5 138.5q0 88 48.5 148.5t119.5 111.5q-163 6 -276 84q-119 78 -170 178l-29 63q-6 17 -11 36.5t-9 41.5q-15 84 -15 338q0 129 3.5 213t11.5 127q16 88 49 139q51 99 170 181q113 77 287 81
q176 -4 290 -81q115 -80 166 -181q35 -49 52 -139q12 -86 12 -340q0 -250 -12 -338q-17 -90 -52 -141q-53 -103 -166 -178q-79 -54 -180 -72q-61 -63 -95 -126.5t-34 -131.5q0 -41 30 -70.5t71 -29.5q67 0 108 30zM326 729q0 -108 4 -180t12 -111q16 -78 57 -123
q33 -47 93 -73q53 -33 133 -33t137 33q53 26 88 73q45 47 59 123q15 72 15 291q0 109 -3 181.5t-12 111.5q-14 74 -59 121q-33 45 -88 76q-60 28 -137 30q-78 -4 -133 -30q-60 -31 -93 -76q-41 -45 -57 -121q-16 -82 -16 -293zM330 1601h590v135h-590v-135z" />
    <glyph glyph-name="oogonekmacron" unicode="&#x1ed;" 
d="M731 -414q-29 -16 -80 -32.5t-119 -16.5q-83 0 -140.5 52.5t-57.5 138.5q0 88 48 148.5t120 111.5q-58 4 -103 13t-82 32q-79 41 -120 88q-60 65 -86 149q-27 82 -27 250q0 166 27 252q28 88 86 146q43 51 120 92q74 37 195 41q125 -4 199 -41q75 -41 116 -92
q60 -58 88 -146q25 -90 25 -252q0 -164 -25 -250q-28 -86 -88 -149q-10 -10 -22 -22.5t-27 -22.5q-28 -25 -67 -43q-21 -10 -42.5 -19.5t-43.5 -13.5q-64 -63 -97.5 -126.5t-33.5 -131.5q0 -41 29.5 -70.5t70.5 -29.5q68 0 108 30zM731 518q0 55 -3 95t-7 67q-8 47 -41 86
q-23 33 -68 55q-41 21 -100 21q-55 0 -98 -21q-41 -20 -70 -55q-27 -35 -39 -86q-12 -53 -12 -160q0 -108 12 -158q12 -51 39 -90q31 -32 70 -53q49 -22 98 -22q55 0 100 22q45 21 68 53q33 43 41 90q4 25 7 64t3 92zM221 1243h590v135h-590v-135z" />
    <glyph glyph-name="DZ" unicode="&#x1f1;" horiz-adv-x="2312" 
d="M154 0h495q164 0 277 72q114 67 178 170q24 39 41 75q16 37 24 84q17 93 17 328q0 221 -11 311q-14 90 -67 172q-148 244 -444 246h-510v-1458zM375 1249h264q168 4 260 -123q45 -51 57 -133q9 -82 9 -272q0 -195 -9 -266q-10 -72 -47 -119q-84 -127 -270 -127h-264v1040
zM1315 0h931v209h-663l663 1083v166h-905v-197h635l-661 -1077v-184z" />
    <glyph glyph-name="Dz" unicode="&#x1f2;" horiz-adv-x="2199" 
d="M154 0h495q164 0 277 72q114 67 178 170q24 39 41 75q16 37 24 84q17 93 17 328q0 221 -11 311q-14 90 -67 172q-148 244 -444 246h-510v-1458zM375 1249h264q168 4 260 -123q45 -51 57 -133q9 -82 9 -272q0 -195 -9 -266q-10 -72 -47 -119q-84 -127 -270 -127h-264v1040
zM1358 0h774v197h-520l520 675v166h-746v-184h492l-520 -688v-166z" />
    <glyph glyph-name="dz" unicode="&#x1f3;" horiz-adv-x="1972" 
d="M756 109v-109h209v1458h-209v-530v0q-58 55 -121 90q-68 33 -148 33q-190 -5 -278 -136q-43 -49 -57 -129q-17 -79 -17 -266q0 -184 17 -264q14 -84 57 -133q47 -60 117 -96q67 -37 161 -39q166 4 269 121v0zM551 842q74 0 117 -29t59 -76q20 -47 27 -102q2 -55 2 -115
q0 -55 -2 -112q-7 -58 -27 -105q-16 -47 -59 -76q-43 -30 -117 -30t-113 28q-43 29 -63 74q-19 47 -25 106q-6 56 -6 115q0 62 6 121q6 55 25 102q20 47 63 74q39 25 113 25v0zM1131 0h774v197h-520l520 675v166h-746v-184h492l-520 -688v-166z" />
    <glyph glyph-name="Gacute" unicode="&#x1f4;" horiz-adv-x="1249" 
d="M627 594h297v-76q-2 -137 -86 -221q-84 -88 -213 -88q-78 0 -134 33q-57 28 -92 73q-43 47 -57 123q-16 76 -16 291t16 293q14 74 57 121q35 45 92 75q56 29 134 31q106 -2 180 -61q71 -62 98 -150h234q-35 183 -168 307q-133 123 -344 125q-172 -2 -287 -82
q-117 -79 -170 -180q-33 -53 -49 -139q-15 -86 -15 -340q0 -250 15 -338q8 -47 20 -78q13 -30 29 -63q53 -101 170 -178q115 -80 287 -84q223 4 370 151q146 148 150 367v297h-518v-209zM477 1529h172l291 299h-275z" />
    <glyph glyph-name="gacute" unicode="&#x1f5;" horiz-adv-x="1063" 
d="M719 109v-107q-2 -106 -66 -166q-65 -59 -172 -59q-57 2 -110 31q-52 26 -92 63v0l-162 -129q149 -170 360 -174q184 0 316 113q131 110 135 344v1013h-209v-110v0q-113 123 -268 123q-101 -2 -168 -39q-70 -39 -107 -88q-41 -50 -59 -123q-19 -74 -19 -283
q0 -205 19 -278q18 -74 59 -125q37 -45 107 -84q67 -41 168 -43q165 4 268 121v0zM307 518q0 121 8 168q7 47 33 76q21 28 64 55q41 23 102 25q61 -2 102 -25q41 -27 62 -55q26 -29 35 -76q6 -47 6 -168q0 -119 -6 -164q-9 -47 -35 -78q-21 -28 -62 -51q-41 -28 -102 -28
t-102 28q-43 23 -64 51q-26 31 -33 78q-8 45 -8 164v0zM362 1171h172l291 299h-275z" />
    <glyph glyph-name="Ngrave" unicode="&#x1f8;" horiz-adv-x="1401" 
d="M154 0h221v1036h4l659 -1036h209v1458h-221v-1036h-4l-660 1036h-208v-1458zM677 1529h172l-188 299h-274z" />
    <glyph glyph-name="ngrave" unicode="&#x1f9;" horiz-adv-x="1100" 
d="M135 0h209v618q0 109 59 166q58 58 148 58t147 -58q58 -57 58 -166v-618h209v690q-5 178 -111 270q-107 91 -236 91q-167 0 -270 -123h-4v110h-209v-1038zM526 1171h172l-188 299h-274z" />
    <glyph glyph-name="Aringacute" unicode="&#x1fa;" horiz-adv-x="1249" 
d="M412 522l211 637h4l211 -637h-426zM1014 0h233l-530 1458h-185l-530 -1458h234l112 326h553zM414 1710q0 -88 63 -148q60 -63 148 -63q92 0 151 63q58 60 60 148q-2 92 -60 151q-59 57 -151 60q-88 -3 -148 -60q-63 -59 -63 -151v0zM496 1710q0 57 39 92q36 35 90 37
q57 -2 92 -37t37 -92q-2 -54 -37 -91q-35 -38 -92 -38q-54 0 -90 38q-39 37 -39 91v0zM481 1980h172l291 299h-275z" />
    <glyph glyph-name="aringacute" unicode="&#x1fb;" 
d="M680 0h209v709q-2 190 -119 268q-117 76 -313 74q-232 4 -351 -152l164 -125v0q27 45 74 64q45 16 123 16q215 4 213 -133v-109h-289q-166 -2 -252 -90q-86 -86 -86 -217q0 -137 99 -225q94 -90 268 -92q106 0 166 26q61 25 90 78h4v-92zM680 365q0 -117 -49 -150
q-54 -33 -185 -31q-104 0 -149 41q-47 37 -47 90q-2 121 180 125h250v-75zM362 1634h172l291 299h-275zM309 1352q0 -88 63 -148q60 -63 148 -63q92 0 151 63q58 60 60 148q-2 92 -60 151q-59 57 -151 60q-88 -3 -148 -60q-63 -59 -63 -151v0zM391 1352q0 57 39 92
q36 35 90 37q57 -2 92 -37t37 -92q-2 -54 -37 -91q-35 -38 -92 -38q-54 0 -90 38q-39 37 -39 91v0z" />
    <glyph glyph-name="AEacute" unicode="&#x1fc;" horiz-adv-x="1858" 
d="M872 0h932v209h-710v428h606v196h-606v416h710v209h-1034l-793 -1458h234l176 326h485v-326zM491 522l377 739h4v-739h-381zM782 1529h172l291 299h-275z" />
    <glyph glyph-name="aeacute" unicode="&#x1fd;" horiz-adv-x="1593" 
d="M256 774v0q27 45 74 64q45 16 123 16q215 4 213 -133v-109h-316q-151 -2 -229 -94q-82 -90 -82 -213q2 -153 110 -235q107 -80 273 -82q92 0 182 37q88 34 148 122v0q73 -90 163 -124q88 -35 199 -35q215 -2 375 168l-152 129v0q-100 -101 -227 -101q-109 0 -176 66
q-72 65 -72 190h647v172q-2 205 -127 322q-123 115 -301 117q-86 0 -168 -35q-84 -35 -133 -97v0q-94 134 -338 132q-231 4 -350 -152zM666 440v-75q0 -117 -50 -150q-53 -33 -184 -31q-104 0 -149 41q-47 37 -47 90q-3 121 180 125h250zM862 612q6 121 66 183q59 59 153 59
t154 -59q61 -62 65 -183h-438zM666 1171h172l291 299h-275z" />
    <glyph glyph-name="Oslashacute" unicode="&#x1fe;" horiz-adv-x="1249" 
d="M127 -51l94 -51v0l103 184v0q120 -92 301 -94q174 4 290 84q115 77 166 178q37 53 51 141q13 88 13 338q0 254 -13 340q-14 86 -51 139q-26 51 -73 101l110 200l-94 51v0l-100 -180v0q-121 88 -299 90q-172 -2 -287 -82q-117 -79 -170 -180q-33 -53 -49 -139
q-15 -86 -15 -340q0 -250 15 -338q8 -47 20 -78q13 -30 29 -63q27 -45 72 -98zM362 373v0q-20 39 -28 118q-8 78 -8 238q0 215 16 293q14 74 57 121q35 45 92 75q56 29 134 31q116 -2 188 -67zM885 1089v0q24 -38 32 -116q7 -78 7 -244q0 -215 -15 -291q-16 -76 -59 -123
q-33 -45 -88 -73q-58 -33 -137 -33q-123 2 -191 72zM477 1529h172l291 299h-275z" />
    <glyph glyph-name="oslashacute" unicode="&#x1ff;" 
d="M326 303v0q-19 31 -25 80q-8 47 -8 137q0 109 12 160q12 49 39 86q27 35 70 55q45 21 98 21q61 0 108 -27zM117 -61l90 -54v0l92 158v0q80 -53 213 -55q123 2 199 45q41 18 67 43q29 22 49 45q62 63 88 149q25 86 25 250q0 88 -6 152q-6 65 -23 110q-30 88 -100 152
l96 166l-90 53v0l-90 -156q-82 52 -215 54q-119 -2 -195 -41q-77 -41 -120 -93q-58 -59 -86 -145q-27 -88 -27 -252q-2 -141 25 -241q26 -101 104 -173zM698 737v0q19 -30 27 -78q6 -49 6 -141q0 -106 -10 -156q-10 -51 -41 -90q-23 -30 -68 -53q-43 -22 -100 -22
q-59 0 -109 28zM362 1171h172l291 299h-275z" />
    <glyph glyph-name="Adblgrave" unicode="&#x200;" horiz-adv-x="1249" 
d="M412 522l211 637h4l211 -637h-426zM1014 0h233l-530 1458h-185l-530 -1458h234l112 326h553zM457 1828h274l188 -299h-172zM84 1828h274l188 -299h-172z" />
    <glyph glyph-name="adblgrave" unicode="&#x201;" 
d="M680 0h209v709q-2 190 -119 268q-117 76 -313 74q-232 4 -351 -152l164 -125v0q27 45 74 64q45 16 123 16q215 4 213 -133v-109h-289q-166 -2 -252 -90q-86 -86 -86 -217q0 -137 99 -225q94 -90 268 -92q106 0 166 26q61 25 90 78h4v-92zM680 365q0 -117 -49 -150
q-54 -33 -185 -31q-104 0 -149 41q-47 37 -47 90q-2 121 180 125h250v-75zM406 1470h274l188 -299h-172zM33 1470h274l188 -299h-172z" />
    <glyph glyph-name="Ainvertedbreve" unicode="&#x202;" horiz-adv-x="1249" 
d="M412 522l211 637h4l211 -637h-426zM1014 0h233l-530 1458h-185l-530 -1458h234l112 326h553zM294 1542q13 129 99 204q83 82 231 82q151 0 235 -82q84 -75 95 -204h-123q-19 86 -76 118q-55 35 -131 33q-82 0 -135 -35q-51 -34 -72 -116h-123z" />
    <glyph glyph-name="ainvertedbreve" unicode="&#x203;" 
d="M680 0h209v709q-2 190 -119 268q-117 76 -313 74q-232 4 -351 -152l164 -125v0q27 45 74 64q45 16 123 16q215 4 213 -133v-109h-289q-166 -2 -252 -90q-86 -86 -86 -217q0 -137 99 -225q94 -90 268 -92q106 0 166 26q61 25 90 78h4v-92zM680 365q0 -117 -49 -150
q-54 -33 -185 -31q-104 0 -149 41q-47 37 -47 90q-2 121 180 125h250v-75zM186 1184q13 129 99 204q83 82 231 82q151 0 235 -82q84 -75 95 -204h-123q-19 86 -76 118q-55 35 -131 33q-82 0 -135 -35q-51 -34 -72 -116h-123z" />
    <glyph glyph-name="Edblgrave" unicode="&#x204;" horiz-adv-x="1139" 
d="M154 0h931v209h-710v428h606v196h-606v416h710v209h-931v-1458zM494 1828h274l188 -299h-172zM121 1828h274l188 -299h-172z" />
    <glyph glyph-name="edblgrave" unicode="&#x205;" 
d="M940 440v172q-2 205 -127 322q-123 115 -301 117q-74 0 -150 -27q-77 -27 -139 -88q-61 -60 -100 -164q-39 -102 -39 -256q0 -160 45 -260q41 -104 107 -162q34 -28 73 -47q37 -22 76 -35q78 -24 160 -24q215 -2 374 168l-151 129v0q-100 -101 -227 -101q-109 0 -176 66
q-72 65 -72 190h647zM293 612q6 121 65 183q60 59 154 59t154 -59q61 -62 65 -183h-438zM365 1470h274l188 -299h-172zM-8 1470h274l188 -299h-172z" />
    <glyph glyph-name="Einvertedbreve" unicode="&#x206;" horiz-adv-x="1139" 
d="M154 0h931v209h-710v428h606v196h-606v416h710v209h-931v-1458zM305 1542q13 129 99 204q83 82 231 82q151 0 235 -82q84 -75 95 -204h-123q-19 86 -76 118q-55 35 -131 33q-82 0 -135 -35q-51 -34 -72 -116h-123z" />
    <glyph glyph-name="einvertedbreve" unicode="&#x207;" 
d="M940 440v172q-2 205 -127 322q-123 115 -301 117q-74 0 -150 -27q-77 -27 -139 -88q-61 -60 -100 -164q-39 -102 -39 -256q0 -160 45 -260q41 -104 107 -162q34 -28 73 -47q37 -22 76 -35q78 -24 160 -24q215 -2 374 168l-151 129v0q-100 -101 -227 -101q-109 0 -176 66
q-72 65 -72 190h647zM293 612q6 121 65 183q60 59 154 59t154 -59q61 -62 65 -183h-438zM182 1184q13 129 99 204q83 82 231 82q151 0 235 -82q84 -75 95 -204h-123q-19 86 -76 118q-55 35 -131 33q-82 0 -135 -35q-51 -34 -72 -116h-123z" />
    <glyph glyph-name="Idblgrave" unicode="&#x208;" horiz-adv-x="528" 
d="M154 0h221v1458h-221v-1458zM138 1828h274l188 -299h-172zM-235 1828h274l188 -299h-172z" />
    <glyph glyph-name="idblgrave" unicode="&#x209;" horiz-adv-x="492" 
d="M141 0h209v1038h-209v-1038zM119 1470h274l188 -299h-172zM-254 1470h274l188 -299h-172z" />
    <glyph glyph-name="Iinvertedbreve" unicode="&#x20a;" horiz-adv-x="528" 
d="M154 0h221v1458h-221v-1458zM-66 1542q13 129 99 204q83 82 231 82q151 0 235 -82q84 -75 95 -204h-123q-19 86 -76 118q-55 35 -131 33q-82 0 -135 -35q-51 -34 -72 -116h-123z" />
    <glyph glyph-name="iinvertedbreve" unicode="&#x20b;" horiz-adv-x="492" 
d="M141 0h209v1038h-209v-1038zM-85 1184q13 129 99 204q83 82 231 82q151 0 235 -82q84 -75 95 -204h-123q-19 86 -76 118q-55 35 -131 33q-82 0 -135 -35q-51 -34 -72 -116h-123z" />
    <glyph glyph-name="Odblgrave" unicode="&#x20c;" horiz-adv-x="1249" 
d="M104 729q0 -250 15 -338q8 -47 20 -78q13 -30 29 -63q53 -101 170 -178q115 -80 287 -84q174 4 290 84q115 77 166 178q37 53 51 141q13 88 13 338q0 254 -13 340q-14 86 -51 139q-51 101 -166 180q-116 80 -290 82q-172 -2 -287 -82q-117 -79 -170 -180
q-33 -53 -49 -139q-15 -86 -15 -340v0zM326 729q0 215 16 293q14 74 57 121q35 45 92 75q56 29 134 31q79 -2 137 -31q55 -30 88 -75q43 -47 59 -121q15 -78 15 -293t-15 -291q-16 -76 -59 -123q-33 -45 -88 -73q-58 -33 -137 -33q-78 0 -134 33q-57 28 -92 73
q-43 47 -57 123q-16 76 -16 291v0zM498 1828h274l188 -299h-172zM125 1828h274l188 -299h-172z" />
    <glyph glyph-name="odblgrave" unicode="&#x20d;" 
d="M84 520q0 -164 27 -250q28 -86 86 -149q43 -49 120 -88q76 -43 195 -45q123 2 199 45q41 18 67 43q29 22 49 45q62 63 88 149q25 86 25 250t-25 252q-26 86 -88 145q-41 52 -116 93q-76 39 -199 41q-119 -2 -195 -41q-77 -41 -120 -93q-58 -59 -86 -145q-27 -88 -27 -252
v0zM731 518q0 -106 -10 -156q-10 -51 -41 -90q-23 -30 -68 -53q-43 -22 -100 -22q-53 0 -98 22q-43 23 -70 53q-27 39 -39 90q-12 50 -12 158q0 109 12 160q12 49 39 86q27 35 70 55q45 21 98 21q57 0 100 -21q45 -20 68 -55q31 -37 41 -86q10 -51 10 -162v0zM386 1470h274
l188 -299h-172zM13 1470h274l188 -299h-172z" />
    <glyph glyph-name="Oinvertedbreve" unicode="&#x20e;" horiz-adv-x="1249" 
d="M104 729q0 -250 15 -338q8 -47 20 -78q13 -30 29 -63q53 -101 170 -178q115 -80 287 -84q174 4 290 84q115 77 166 178q37 53 51 141q13 88 13 338q0 254 -13 340q-14 86 -51 139q-51 101 -166 180q-116 80 -290 82q-172 -2 -287 -82q-117 -79 -170 -180
q-33 -53 -49 -139q-15 -86 -15 -340v0zM326 729q0 215 16 293q14 74 57 121q35 45 92 75q56 29 134 31q79 -2 137 -31q55 -30 88 -75q43 -47 59 -121q15 -78 15 -293t-15 -291q-16 -76 -59 -123q-33 -45 -88 -73q-58 -33 -137 -33q-78 0 -134 33q-57 28 -92 73
q-43 47 -57 123q-16 76 -16 291v0zM298 1542q13 129 99 204q83 82 231 82q151 0 235 -82q84 -75 95 -204h-123q-19 86 -76 118q-55 35 -131 33q-82 0 -135 -35q-51 -34 -72 -116h-123z" />
    <glyph glyph-name="oinvertedbreve" unicode="&#x20f;" 
d="M84 520q0 -164 27 -250q28 -86 86 -149q43 -49 120 -88q76 -43 195 -45q123 2 199 45q41 18 67 43q29 22 49 45q62 63 88 149q25 86 25 250t-25 252q-26 86 -88 145q-41 52 -116 93q-76 39 -199 41q-119 -2 -195 -41q-77 -41 -120 -93q-58 -59 -86 -145q-27 -88 -27 -252
v0zM731 518q0 -106 -10 -156q-10 -51 -41 -90q-23 -30 -68 -53q-43 -22 -100 -22q-53 0 -98 22q-43 23 -70 53q-27 39 -39 90q-12 50 -12 158q0 109 12 160q12 49 39 86q27 35 70 55q45 21 98 21q57 0 100 -21q45 -20 68 -55q31 -37 41 -86q10 -51 10 -162v0zM182 1184
q13 129 99 204q83 82 231 82q151 0 235 -82q84 -75 95 -204h-123q-19 86 -76 118q-55 35 -131 33q-82 0 -135 -35q-51 -34 -72 -116h-123z" />
    <glyph glyph-name="Rdblgrave" unicode="&#x210;" horiz-adv-x="1249" 
d="M375 1261h346q106 0 162 -45q71 -51 73 -165q0 -95 -61 -160q-62 -70 -186 -72h-334v442zM154 0h221v623h282l301 -623h263l-338 647q278 107 282 404q-6 202 -145 311q-115 96 -297 96h-569v-1458zM418 1828h274l188 -299h-172zM45 1828h274l188 -299h-172z" />
    <glyph glyph-name="rdblgrave" unicode="&#x211;" horiz-adv-x="797" 
d="M135 0h209v625q2 114 66 165q57 52 137 52q71 0 137 -52v0l152 181q-93 78 -218 80q-167 0 -270 -123h-4v110h-209v-1038zM318 1470h274l188 -299h-172zM-55 1470h274l188 -299h-172z" />
    <glyph glyph-name="Rinvertedbreve" unicode="&#x212;" horiz-adv-x="1249" 
d="M375 1261h346q106 0 162 -45q71 -51 73 -165q0 -95 -61 -160q-62 -70 -186 -72h-334v442zM154 0h221v623h282l301 -623h263l-338 647q278 107 282 404q-6 202 -145 311q-115 96 -297 96h-569v-1458zM260 1542q13 129 99 204q83 82 231 82q151 0 235 -82q84 -75 95 -204
h-123q-19 86 -76 118q-55 35 -131 33q-82 0 -135 -35q-51 -34 -72 -116h-123z" />
    <glyph glyph-name="rinvertedbreve" unicode="&#x213;" horiz-adv-x="797" 
d="M135 0h209v625q2 114 66 165q57 52 137 52q71 0 137 -52v0l152 181q-93 78 -218 80q-167 0 -270 -123h-4v110h-209v-1038zM155 1184q13 129 99 204q83 82 231 82q151 0 235 -82q84 -75 95 -204h-123q-19 86 -76 118q-55 35 -131 33q-82 0 -135 -35q-51 -34 -72 -116h-123
z" />
    <glyph glyph-name="Udblgrave" unicode="&#x214;" horiz-adv-x="1290" 
d="M127 494q2 -230 152 -365q147 -139 366 -141q223 2 369 141q145 135 149 365v964h-221v-940q-2 -149 -84 -227q-84 -82 -213 -82t-211 82q-84 78 -86 227v940h-221v-964zM519 1828h274l188 -299h-172zM146 1828h274l188 -299h-172z" />
    <glyph glyph-name="udblgrave" unicode="&#x215;" horiz-adv-x="1100" 
d="M135 348q2 -176 115 -266q104 -92 233 -94q166 0 269 123h4v-111h209v1038h-209v-618q0 -105 -58 -164q-57 -59 -147 -59t-148 59q-59 59 -59 164v618h-209v-690zM416 1470h274l188 -299h-172zM43 1470h274l188 -299h-172z" />
    <glyph glyph-name="Uinvertedbreve" unicode="&#x216;" horiz-adv-x="1290" 
d="M127 494q2 -230 152 -365q147 -139 366 -141q223 2 369 141q145 135 149 365v964h-221v-940q-2 -149 -84 -227q-84 -82 -213 -82t-211 82q-84 78 -86 227v940h-221v-964zM315 1542q13 129 99 204q83 82 231 82q151 0 235 -82q84 -75 95 -204h-123q-19 86 -76 118
q-55 35 -131 33q-82 0 -135 -35q-51 -34 -72 -116h-123z" />
    <glyph glyph-name="uinvertedbreve" unicode="&#x217;" horiz-adv-x="1100" 
d="M135 348q2 -176 115 -266q104 -92 233 -94q166 0 269 123h4v-111h209v1038h-209v-618q0 -105 -58 -164q-57 -59 -147 -59t-148 59q-59 59 -59 164v618h-209v-690zM212 1184q13 129 99 204q83 82 231 82q151 0 235 -82q84 -75 95 -204h-123q-19 86 -76 118q-55 35 -131 33
q-82 0 -135 -35q-51 -34 -72 -116h-123z" />
    <glyph glyph-name="Scommaaccent" unicode="&#x218;" horiz-adv-x="1175" 
d="M172 354l-145 -166q233 -200 557 -200q501 6 512 424q0 155 -97 272q-98 119 -303 147q-104 13 -164 23q-108 20 -157 72q-49 51 -49 114q2 105 73 158q68 51 170 51q197 -4 361 -112v0l123 182q-201 145 -473 151q-226 -2 -349 -118q-127 -117 -127 -308
q0 -159 101 -270q98 -108 286 -139q105 -15 193 -27q192 -33 190 -196q-4 -199 -288 -203q-240 2 -414 145v0zM468 -76h209v-250l-209 -151v401z" />
    <glyph glyph-name="scommaaccent" unicode="&#x219;" horiz-adv-x="983" 
d="M166 317l-146 -143q203 -186 457 -186q187 2 307 86q121 82 123 233q0 129 -67 213q-72 86 -234 98l-172 13q-76 8 -106 37q-33 26 -31 61q0 55 41 90q39 35 137 35q86 0 152 -25q67 -28 127 -71v0l129 151q-76 66 -172 105q-50 18 -107 28q-57 9 -129 9q-166 0 -274 -80
q-111 -80 -113 -240q2 -133 86 -207q82 -76 213 -88l184 -16q58 -2 93 -25q34 -22 34 -78q0 -63 -57 -98t-147 -35q-201 0 -328 133v0zM389 -76h209v-250l-209 -151v401z" />
    <glyph glyph-name="Tcommaaccent" unicode="&#x21a;" 
d="M401 0h222v1261h399v197h-1020v-197h399v-1261zM407 -76h209v-250l-209 -151v401z" />
    <glyph glyph-name="tcommaaccent" unicode="&#x21b;" horiz-adv-x="569" 
d="M147 1038h-104v-159h104v-623q0 -123 72 -188q70 -68 180 -68h109v197h-78q-76 -2 -74 77v605h152v159h-152v316h-209v-316zM249 -76h209v-250l-209 -151v401z" />
    <glyph glyph-name="Hcaron" unicode="&#x21e;" horiz-adv-x="1327" 
d="M952 0h221v1458h-221v-625h-577v625h-221v-1458h221v637h577v-637zM547 1529h233l218 299h-197l-137 -176v0l-137 176h-197z" />
    <glyph glyph-name="hcaron" unicode="&#x21f;" horiz-adv-x="1100" 
d="M135 0h209v618q0 109 59 166q58 58 148 58t147 -58q58 -57 58 -166v-618h209v690q-5 178 -111 270q-107 91 -236 91q-167 0 -270 -123h-4v530h-209v-1458zM459 1529h233l218 299h-197l-137 -176v0l-137 176h-197z" />
    <glyph glyph-name="Adotaccent" unicode="&#x226;" horiz-adv-x="1249" 
d="M412 522l211 637h4l211 -637h-426zM1014 0h233l-530 1458h-185l-530 -1458h234l112 326h553zM514 1558h221v221h-221v-221z" />
    <glyph glyph-name="adotaccent" unicode="&#x227;" 
d="M680 0h209v709q-2 190 -119 268q-117 76 -313 74q-232 4 -351 -152l164 -125v0q27 45 74 64q45 16 123 16q215 4 213 -133v-109h-289q-166 -2 -252 -90q-86 -86 -86 -217q0 -137 99 -225q94 -90 268 -92q106 0 166 26q61 25 90 78h4v-92zM680 365q0 -117 -49 -150
q-54 -33 -185 -31q-104 0 -149 41q-47 37 -47 90q-2 121 180 125h250v-75zM405 1200h221v221h-221v-221z" />
    <glyph glyph-name="Ecedilla" unicode="&#x228;" horiz-adv-x="1139" 
d="M154 1458h931v-209h-710v-415h606v-197h-606v-428h710v-209h-385l-90 -123h4q19 8 56 8q88 0 133 -45q47 -47 47 -110q-2 -97 -74 -144q-74 -49 -178 -49q-98 2 -207 49l37 86q72 -28 143 -30q115 0 119 86q0 39 -28 57q-29 18 -72 18q-37 2 -78 -22l-45 39l129 180h-442
v1458z" />
    <glyph glyph-name="ecedilla" unicode="&#x229;" 
d="M293 440q0 -125 72 -190q69 -66 176 -66q127 0 227 101l152 -129q-144 -154 -336 -166l-82 -113h4q18 8 55 8q88 0 133 -45q47 -47 47 -110q-2 -97 -73 -144q-74 -49 -179 -49q-98 2 -206 49l36 86q72 -28 144 -30q115 0 119 86q0 39 -29 57t-72 18q-37 2 -78 -22l-45 39
l123 172q-24 4 -48.5 8t-47.5 12q-35 11 -76 35q-37 16 -73 47q-68 62 -107 162q-45 98 -45 260q0 158 39 256q41 109 100 164q60 59 139 88q74 27 150 27q178 -4 301 -117q123 -115 127 -322v-172h-647zM731 612q-4 119 -65 183q-60 59 -154 59t-154 -59q-59 -64 -65 -183
h438z" />
    <glyph glyph-name="Odieresismacron" unicode="&#x22a;" horiz-adv-x="1249" 
d="M104 729q0 -250 15 -338q8 -47 20 -78q13 -30 29 -63q53 -101 170 -178q115 -80 287 -84q174 4 290 84q115 77 166 178q37 53 51 141q13 88 13 338q0 254 -13 340q-14 86 -51 139q-51 101 -166 180q-116 80 -290 82q-172 -2 -287 -82q-117 -79 -170 -180
q-33 -53 -49 -139q-15 -86 -15 -340v0zM326 729q0 215 16 293q14 74 57 121q35 45 92 75q56 29 134 31q79 -2 137 -31q55 -30 88 -75q43 -47 59 -121q15 -78 15 -293t-15 -291q-16 -76 -59 -123q-33 -45 -88 -73q-58 -33 -137 -33q-78 0 -134 33q-57 28 -92 73
q-43 47 -57 123q-16 76 -16 291v0zM698 1558h222v221h-222v-221zM338 1558h221v221h-221v-221zM334 1929h590v135h-590v-135z" />
    <glyph glyph-name="odieresismacron" unicode="&#x22b;" 
d="M84 520q0 -164 27 -250q28 -86 86 -149q43 -49 120 -88q76 -43 195 -45q123 2 199 45q41 18 67 43q29 22 49 45q62 63 88 149q25 86 25 250t-25 252q-26 86 -88 145q-41 52 -116 93q-76 39 -199 41q-119 -2 -195 -41q-77 -41 -120 -93q-58 -59 -86 -145q-27 -88 -27 -252
v0zM731 518q0 -106 -10 -156q-10 -51 -41 -90q-23 -30 -68 -53q-43 -22 -100 -22q-53 0 -98 22q-43 23 -70 53q-27 39 -39 90q-12 50 -12 158q0 109 12 160q12 49 39 86q27 35 70 55q45 21 98 21q57 0 100 -21q45 -20 68 -55q31 -37 41 -86q10 -51 10 -162v0zM581 1200h222
v221h-222v-221zM221 1200h221v221h-221v-221zM217 1571h590v135h-590v-135z" />
    <glyph glyph-name="Otildemacron" unicode="&#x22c;" horiz-adv-x="1249" 
d="M104 729q0 -250 15 -338q8 -47 20 -78q13 -30 29 -63q53 -101 170 -178q115 -80 287 -84q174 4 290 84q115 77 166 178q37 53 51 141q13 88 13 338q0 254 -13 340q-14 86 -51 139q-51 101 -166 180q-116 80 -290 82q-172 -2 -287 -82q-117 -79 -170 -180
q-33 -53 -49 -139q-15 -86 -15 -340v0zM326 729q0 215 16 293q14 74 57 121q35 45 92 75q56 29 134 31q79 -2 137 -31q55 -30 88 -75q43 -47 59 -121q15 -78 15 -293t-15 -291q-16 -76 -59 -123q-33 -45 -88 -73q-58 -33 -137 -33q-78 0 -134 33q-57 28 -92 73
q-43 47 -57 123q-16 76 -16 291v0zM387 1550q0 51 33 72q31 16 53 16q64 -2 141 -37q37 -14 78 -25q39 -14 76 -14q104 2 158 74q53 67 67 164h-123q-10 -54 -36 -72q-29 -20 -60 -18q-31 0 -61 14q-33 10 -70 27q-35 16 -72 26q-36 10 -75 10q-95 0 -154 -63
q-61 -66 -78 -174h123zM334 1929h590v135h-590v-135z" />
    <glyph glyph-name="otildemacron" unicode="&#x22d;" 
d="M84 520q0 -164 27 -250q28 -86 86 -149q43 -49 120 -88q76 -43 195 -45q123 2 199 45q41 18 67 43q29 22 49 45q62 63 88 149q25 86 25 250t-25 252q-26 86 -88 145q-41 52 -116 93q-76 39 -199 41q-119 -2 -195 -41q-77 -41 -120 -93q-58 -59 -86 -145q-27 -88 -27 -252
v0zM731 518q0 -106 -10 -156q-10 -51 -41 -90q-23 -30 -68 -53q-43 -22 -100 -22q-53 0 -98 22q-43 23 -70 53q-27 39 -39 90q-12 50 -12 158q0 109 12 160q12 49 39 86q27 35 70 55q45 21 98 21q57 0 100 -21q45 -20 68 -55q31 -37 41 -86q10 -51 10 -162v0zM270 1192
q0 51 33 72q31 16 53 16q64 -2 141 -37q37 -14 78 -25q39 -14 76 -14q104 2 158 74q53 67 67 164h-123q-10 -54 -36 -72q-29 -20 -60 -18q-31 0 -61 14q-33 10 -70 27q-35 16 -72 26q-36 10 -75 10q-95 0 -154 -63q-61 -66 -78 -174h123zM217 1571h590v135h-590v-135z" />
    <glyph glyph-name="Odotaccent" unicode="&#x22e;" horiz-adv-x="1249" 
d="M104 729q0 -250 15 -338q8 -47 20 -78q13 -30 29 -63q53 -101 170 -178q115 -80 287 -84q174 4 290 84q115 77 166 178q37 53 51 141q13 88 13 338q0 254 -13 340q-14 86 -51 139q-51 101 -166 180q-116 80 -290 82q-172 -2 -287 -82q-117 -79 -170 -180
q-33 -53 -49 -139q-15 -86 -15 -340v0zM326 729q0 215 16 293q14 74 57 121q35 45 92 75q56 29 134 31q79 -2 137 -31q55 -30 88 -75q43 -47 59 -121q15 -78 15 -293t-15 -291q-16 -76 -59 -123q-33 -45 -88 -73q-58 -33 -137 -33q-78 0 -134 33q-57 28 -92 73
q-43 47 -57 123q-16 76 -16 291v0zM518 1558h221v221h-221v-221z" />
    <glyph glyph-name="odotaccent" unicode="&#x22f;" 
d="M84 520q0 -164 27 -250q28 -86 86 -149q43 -49 120 -88q76 -43 195 -45q123 2 199 45q41 18 67 43q29 22 49 45q62 63 88 149q25 86 25 250t-25 252q-26 86 -88 145q-41 52 -116 93q-76 39 -199 41q-119 -2 -195 -41q-77 -41 -120 -93q-58 -59 -86 -145q-27 -88 -27 -252
v0zM731 518q0 -106 -10 -156q-10 -51 -41 -90q-23 -30 -68 -53q-43 -22 -100 -22q-53 0 -98 22q-43 23 -70 53q-27 39 -39 90q-12 50 -12 158q0 109 12 160q12 49 39 86q27 35 70 55q45 21 98 21q57 0 100 -21q45 -20 68 -55q31 -37 41 -86q10 -51 10 -162v0zM401 1200h221
v221h-221v-221z" />
    <glyph glyph-name="Odotaccentmacron" unicode="&#x230;" horiz-adv-x="1249" 
d="M104 729q0 -250 15 -338q8 -47 20 -78q13 -30 29 -63q53 -101 170 -178q115 -80 287 -84q174 4 290 84q115 77 166 178q37 53 51 141q13 88 13 338q0 254 -13 340q-14 86 -51 139q-51 101 -166 180q-116 80 -290 82q-172 -2 -287 -82q-117 -79 -170 -180
q-33 -53 -49 -139q-15 -86 -15 -340v0zM326 729q0 215 16 293q14 74 57 121q35 45 92 75q56 29 134 31q79 -2 137 -31q55 -30 88 -75q43 -47 59 -121q15 -78 15 -293t-15 -291q-16 -76 -59 -123q-33 -45 -88 -73q-58 -33 -137 -33q-78 0 -134 33q-57 28 -92 73
q-43 47 -57 123q-16 76 -16 291v0zM518 1558h221v221h-221v-221zM334 1929h590v135h-590v-135z" />
    <glyph glyph-name="odotaccentmacron" unicode="&#x231;" 
d="M84 520q0 -164 27 -250q28 -86 86 -149q43 -49 120 -88q76 -43 195 -45q123 2 199 45q41 18 67 43q29 22 49 45q62 63 88 149q25 86 25 250t-25 252q-26 86 -88 145q-41 52 -116 93q-76 39 -199 41q-119 -2 -195 -41q-77 -41 -120 -93q-58 -59 -86 -145q-27 -88 -27 -252
v0zM731 518q0 -106 -10 -156q-10 -51 -41 -90q-23 -30 -68 -53q-43 -22 -100 -22q-53 0 -98 22q-43 23 -70 53q-27 39 -39 90q-12 50 -12 158q0 109 12 160q12 49 39 86q27 35 70 55q45 21 98 21q57 0 100 -21q45 -20 68 -55q31 -37 41 -86q10 -51 10 -162v0zM401 1200h221
v221h-221v-221zM217 1571h590v135h-590v-135z" />
    <glyph glyph-name="Ymacron" unicode="&#x232;" 
d="M408 0h208v600l439 858h-234l-309 -647v0l-309 647h-234l439 -858v-600zM217 1601h590v135h-590v-135z" />
    <glyph glyph-name="ymacron" unicode="&#x233;" horiz-adv-x="909" 
d="M358 41l-57 -174q-14 -45 -49 -68q-35 -22 -76 -22h-61v-197h69q97 0 174 43q76 45 119 162l447 1253h-222l-245 -727h-4l-246 727h-221zM160 1243h590v135h-590v-135z" />
    <glyph glyph-name="commaturnedmod" unicode="&#x2bb;" horiz-adv-x="491" 
d="M141 1098h209v360v0l-209 -151v-209z" />
    <glyph glyph-name="afii57929" unicode="&#x2bc;" horiz-adv-x="491" 
d="M141 1098v0l209 151v209h-209v-360z" />
    <glyph glyph-name="circumflex" unicode="&#x2c6;" horiz-adv-x="491" 
d="M246 1347l137 -176h197l-218 299h-233l-217 -299h197l137 176v0z" />
    <glyph glyph-name="caron" unicode="&#x2c7;" horiz-adv-x="491" 
d="M129 1171h233l218 299h-197l-137 -176v0l-137 176h-197z" />
    <glyph glyph-name="breve" unicode="&#x2d8;" horiz-adv-x="491" 
d="M-76 1470q13 -129 99 -204q83 -82 231 -82q151 0 235 82q84 75 95 204h-123q-19 -86 -76 -118q-55 -35 -131 -33q-82 0 -135 35q-51 34 -72 116h-123z" />
    <glyph glyph-name="dotaccent" unicode="&#x2d9;" horiz-adv-x="491" 
d="M135 1200h221v221h-221v-221z" />
    <glyph glyph-name="ring" unicode="&#x2da;" horiz-adv-x="491" 
d="M35 1352q0 -88 63 -148q60 -63 148 -63q92 0 151 63q58 60 60 148q-2 92 -60 151q-59 57 -151 60q-88 -3 -148 -60q-63 -59 -63 -151v0zM117 1352q0 57 39 92q36 35 90 37q57 -2 92 -37t37 -92q-2 -54 -37 -91q-35 -38 -92 -38q-54 0 -90 38q-39 37 -39 91v0z" />
    <glyph glyph-name="ogonek" unicode="&#x2db;" horiz-adv-x="491" 
d="M440 -414q-29 -17 -80 -33t-118 -16q-42 0 -78.5 13.5t-63 38.5t-42 60t-15.5 79q0 46 14.5 84.5t40 71t59 61t72.5 55.5h105q-64 -63 -97.5 -127t-33.5 -131q0 -21 8 -39.5t21.5 -32t31.5 -21t39 -7.5q68 0 109 30z" />
    <glyph glyph-name="onequarter.002" unicode="&#x2dc;" horiz-adv-x="491" 
d="M4 1192q0 51 33 72q31 16 53 16q64 -2 141 -37q37 -14 78 -25q39 -14 76 -14q104 2 158 74q53 67 67 164h-123q-10 -54 -36 -72q-29 -20 -60 -18q-31 0 -61 14q-33 10 -70 27q-35 16 -72 26q-36 10 -75 10q-95 0 -154 -63q-61 -66 -78 -174h123z" />
    <glyph glyph-name="hungarumlaut" unicode="&#x2dd;" horiz-adv-x="492" 
d="M72 1470h274l-291 -299h-172zM481 1470h275l-291 -299h-172z" />
    <glyph glyph-name="uni02EE" unicode="&#x2ee;" horiz-adv-x="682" 
d="M78 1098v0l209 151v209h-209v-360zM395 1098v0l209 151v209h-209v-360z" />
    <glyph glyph-name="gravecmb" unicode="&#x300;" horiz-adv-x="0" 
d="M-491 1470h274l188 -299h-172z" />
    <glyph glyph-name="acutecmb" unicode="&#x301;" horiz-adv-x="0" 
d="M-303 1470h275l-291 -299h-172z" />
    <glyph glyph-name="circumflexcmb" unicode="&#x302;" horiz-adv-x="0" 
d="M-294 1171h-197l217 299h233l218 -299h-197l-137 176z" />
    <glyph glyph-name="tildecmb" unicode="&#x303;" horiz-adv-x="0" 
d="M-1054 -251q24 54 70 98q45 42 118 44q40 0 83 -15q40 -16 84 -39q42 -21 83 -39q41 -20 70 -20q46 2 77 39q32 34 56 79v0l53 -103q-23 -54 -67 -94q-43 -45 -120 -47q-39 0 -80 17q-42 17 -87 36q-42 22 -81 39q-41 18 -73 20q-43 -2 -74 -36q-31 -36 -58 -80z" />
    <glyph glyph-name="macroncmb" unicode="&#x304;" horiz-adv-x="0" 
d="M-491 1378h590v-135h-590v135z" />
    <glyph glyph-name="brevecmb" unicode="&#x306;" horiz-adv-x="0" 
d="M-368 1470q21 -82 72 -116q53 -35 135 -35q76 -2 131 33q57 32 76 118h123q-11 -129 -95 -204q-84 -82 -235 -82q-148 0 -231 82q-86 75 -99 204h123z" />
    <glyph glyph-name="dotaccentcmb" unicode="&#x307;" horiz-adv-x="0" 
d="M-491 1421h221v-221h-221v221z" />
    <glyph glyph-name="dieresiscmb" unicode="&#x308;" horiz-adv-x="0" 
d="M-131 1421h222v-221h-222v221zM-491 1421h221v-221h-221v221z" />
    <glyph glyph-name="hookabovecmb" unicode="&#x309;" horiz-adv-x="0" 
d="M-571 1172q0 24 5 43q6 19 23 37l98 104q27 29 27 55q-1 35 -30 55q-29 19 -64 19q-42 0 -70 -20q-31 -21 -31 -71h-111v17q1 69 62 113q61 45 144 46q86 -1 147 -42q63 -44 64 -118q-1 -53 -35 -88l-99 -104q-20 -22 -19 -53v-47h-111v54z" />
    <glyph glyph-name="ringcmb" unicode="&#x30a;" horiz-adv-x="0" 
d="M-491 1352q0 92 63 151q60 57 148 60q92 -3 151 -60q58 -59 60 -151q-2 -88 -60 -148q-59 -63 -151 -63q-88 0 -148 63q-63 60 -63 148zM-409 1352q0 -54 39 -91q36 -38 90 -38q57 0 92 38q35 37 37 91q-2 57 -37 92t-92 37q-54 -2 -90 -37q-39 -35 -39 -92z" />
    <glyph glyph-name="hungarumlautcmb" unicode="&#x30b;" horiz-adv-x="0" 
d="M-649 1171h-172l188 299h275zM-277 1171h-172l189 299h274z" />
    <glyph glyph-name="caroncmb" unicode="&#x30c;" horiz-adv-x="0" 
d="M-491 1470h197l137 -176v0l137 176h197l-218 -299h-233z" />
    <glyph glyph-name="doublegravecmb" unicode="&#x30f;" horiz-adv-x="0" 
d="M-491 1470h274l188 -299h-172zM-864 1470h274l188 -299h-172z" />
    <glyph glyph-name="invertedbrevecmb" unicode="&#x311;" horiz-adv-x="0" 
d="M-660 1184q13 129 99 204q83 82 231 82q151 0 235 -82q84 -75 95 -204h-123q-19 86 -76 118q-55 35 -131 33q-82 0 -135 -35q-51 -34 -72 -116h-123z" />
    <glyph glyph-name="dotbelowcmb" unicode="&#x323;" horiz-adv-x="0" 
d="M-491 -140h209v-209h-209v209z" />
    <glyph glyph-name="dieresisbelowcmb" unicode="&#x324;" horiz-adv-x="0" 
d="M-131 -140h222v-221h-222v221zM-491 -140h221v-221h-221v221z" />
    <glyph glyph-name="ringbelowcmb" unicode="&#x325;" horiz-adv-x="0" 
d="M-491 -351q0 92 63 151q60 57 148 60q92 -3 151 -60q58 -59 60 -151q-2 -88 -60 -148q-59 -63 -151 -63q-88 0 -148 63q-63 60 -63 148zM-409 -351q0 -54 39 -91q36 -38 90 -38q57 0 92 38q35 37 37 91q-2 57 -37 92t-92 37q-54 -2 -90 -37q-39 -35 -39 -92z" />
    <glyph glyph-name="commabelowcmb" unicode="&#x326;" horiz-adv-x="0" 
d="M-492 -76h209v-250l-209 -151v401z" />
    <glyph glyph-name="cedillacmb" unicode="&#x327;" horiz-adv-x="0" 
d="M-182 0l-90 -123h4q23 8 56 8q86 0 133 -45t47 -110q-2 -99 -74 -144q-73 -49 -178 -49q-100 2 -207 49l37 86q70 -28 143 -30q115 0 119 86q0 39 -28 57q-29 18 -72 18q-39 2 -78 -22l-45 39l129 180h104z" />
    <glyph glyph-name="ogonekcmb" unicode="&#x328;" horiz-adv-x="0" 
d="M-94 -414q-30 -18 -80 -32q-49 -17 -118 -17q-84 2 -140 51q-59 50 -59 140q0 51 16 90q17 39 41 69q52 60 129 113h105q-129 -125 -131 -258q0 -43 30 -72q29 -28 70 -28q68 0 109 30z" />
    <glyph glyph-name="circumflexbelowcmb" unicode="&#x32d;" horiz-adv-x="0" 
d="M-294 -439h-197l217 299h233l218 -299h-197l-137 176z" />
    <glyph glyph-name="brevebelowcmb" unicode="&#x32e;" horiz-adv-x="0" 
d="M-368 -140q21 -82 72 -116q53 -35 135 -35q76 -2 131 33q57 32 76 118h123q-11 -129 -95 -204q-84 -82 -235 -82q-148 0 -231 82q-86 75 -99 204h123z" />
    <glyph glyph-name="tildebelowcmb" unicode="&#x330;" horiz-adv-x="0" 
d="M-1043 -201q11 26 27 52.5t38.5 47.5t50.5 34t63 13q19 0 39 -4t41 -12q25 -10 56 -27t61.5 -33.5t59 -28.5t49.5 -12t39 10.5t34 28t29.5 39.5t24.5 44l51 -106q-10 -28 -26 -53.5t-38.5 -46.5t-50.5 -33.5t-64 -13.5q-18 -1 -37 4t-39 14l-83 37q-41 22 -79 41t-68 20
q-21 -1 -38.5 -11t-32.5 -26.5t-28.5 -38t-26.5 -44.5z" />
    <glyph glyph-name="macronbelowcmb" unicode="&#x331;" horiz-adv-x="0" 
d="M-491 -140h590v-135h-590v135z" />
    <glyph glyph-name="gravetonecmb" unicode="&#x340;" horiz-adv-x="0" 
d="M-491 1470h274l188 -299h-172z" />
    <glyph glyph-name="acutetonecmb" unicode="&#x341;" horiz-adv-x="0" 
d="M-303 1470h275l-291 -299h-172z" />
    <glyph glyph-name="dialytikatonoscmb" unicode="&#x344;" horiz-adv-x="0" 
d="M-131 1421h222v-221h-222v221zM-491 1421h221v-221h-221v221zM-100 1869h275l-291 -299h-172z" />
    <glyph glyph-name="combininggraphemejoiner" unicode="&#x34f;" horiz-adv-x="0" 
 />
    <glyph glyph-name="questiongreek" unicode="&#x37e;" horiz-adv-x="491" 
d="M141 -152v0l209 152v209h-209v-361zM141 465h209v209h-209v-209z" />
    <glyph glyph-name="tonosgreek" unicode="&#x384;" horiz-adv-x="492" 
d="M276 1470h275l-291 -299h-172z" />
    <glyph glyph-name="dialytikatonosgreek" unicode="&#x385;" horiz-adv-x="961" 
d="M688 1413h201v-213h-201v213zM72 1413h200v-213h-200v213zM434 1466h248l-225 -295h-135z" />
    <glyph glyph-name="Alphatonosgreek" unicode="&#x386;" horiz-adv-x="1311" 
d="M593 1458h185l530 -1458h-233l-113 326h-553l-112 -326h-234zM899 522l-211 637h-4l-211 -637h426zM195 1459h275l-291 -299h-172z" />
    <glyph glyph-name="Epsilontonosgreek" unicode="&#x388;" horiz-adv-x="1507" 
d="M523 1458h931v-209h-710v-415h606v-197h-606v-428h710v-209h-931v1458zM195 1459h275l-291 -299h-172z" />
    <glyph glyph-name="Etatonosgreek" unicode="&#x389;" horiz-adv-x="1696" 
d="M523 1458h221v-624h577v624h222v-1458h-222v637h-577v-637h-221v1458zM195 1459h275l-291 -299h-172z" />
    <glyph glyph-name="Iotatonosgreek" unicode="&#x38a;" horiz-adv-x="897" 
d="M523 1458h221v-1458h-221v1458zM195 1459h275l-291 -299h-172z" />
    <glyph glyph-name="Omicrontonosgreek" unicode="&#x38c;" horiz-adv-x="1495" 
d="M871 -12q-172 2 -287 84q-119 78 -170 178l-29 63q-6 17 -11 36.5t-9 41.5q-15 84 -15 338q0 129 3.5 213t11.5 127q16 88 49 139q51 99 170 181q117 81 287 81q172 0 290 -81q115 -80 166 -181q35 -49 52 -139q12 -86 12 -340q0 -250 -12 -338q-17 -90 -52 -141
q-53 -103 -166 -178q-118 -82 -290 -84zM871 209q80 0 137 33q53 26 88 73q45 47 59 123q15 72 15 291q0 109 -3 181.5t-12 111.5q-14 74 -59 121q-33 45 -88 76q-60 28 -137 30q-78 -4 -133 -30q-60 -31 -93 -76q-41 -45 -57 -121q-16 -82 -16 -293q0 -108 4 -180t12 -111
q16 -78 57 -123q33 -47 93 -73q53 -33 133 -33zM195 1459h275l-291 -299h-172z" />
    <glyph glyph-name="Upsilontonosgreek" unicode="&#x38e;" horiz-adv-x="1536" 
d="M920 600l-439 858h234l309 -647l309 647h234l-439 -858v-600h-208v600zM195 1459h275l-291 -299h-172z" />
    <glyph glyph-name="Omegatonosgreek" unicode="&#x38f;" horiz-adv-x="1642" 
d="M363 209h309v96q-82 27 -145.5 82t-94.5 105q-20 32 -33.5 65t-21.5 75t-11 95t-3 125q0 113 13 202t52 154q31 52 77 99t110.5 83.5t145.5 58t183 21.5q105 0 187 -21.5t145.5 -58t108.5 -83.5t75 -99q39 -65 52.5 -154t13.5 -202q0 -72 -3 -125t-11.5 -95t-21.5 -75
t-34 -65q-30 -50 -93.5 -105t-145.5 -82v-96h309v-209h-496v469q31 2 62 12.5t58.5 23.5t49 29.5t31.5 30.5q21 27 35 55.5t23.5 62.5t12.5 75t3 94q0 100 -14.5 167.5t-57.5 123.5q-35 43 -102.5 74.5t-186.5 31.5q-116 0 -185 -31.5t-103 -74.5q-43 -56 -57.5 -123.5
t-14.5 -167.5q0 -53 3 -94t12 -75t22.5 -62.5t36.5 -55.5q10 -14 31.5 -30.5t49 -29.5t58.5 -23.5t61 -12.5v-469h-495v209zM195 1459h275l-291 -299h-172z" />
    <glyph glyph-name="iotadieresistonosgreek" unicode="&#x390;" horiz-adv-x="764" 
d="M520 0q-57 0 -105 13.5t-84 43t-56.5 77.5t-20.5 118v786h209v-770q0 -71 78 -71h72v-197h-93v0zM591 1413h201v-213h-201v213zM-25 1413h200v-213h-200v213zM337 1466h248l-225 -295h-135z" />
    <glyph glyph-name="Alphagreek" unicode="&#x391;" horiz-adv-x="1249" 
d="M532 1458h185l530 -1458h-233l-113 326h-553l-112 -326h-234zM838 522l-211 637h-4l-211 -637h426z" />
    <glyph glyph-name="Betagreek" unicode="&#x392;" horiz-adv-x="1249" 
d="M154 1458h565q219 -4 323 -108q109 -109 109 -283q2 -90 -43 -172q-21 -39 -66 -74q-45 -39 -106 -67v-4q119 -31 180 -125q58 -95 58 -211q-5 -189 -119 -299q-115 -115 -287 -115h-614v1458zM715 209q121 2 180 67q57 64 57 152q0 90 -57 154q-57 61 -180 65h-340v-438
h340zM694 844q121 0 178 63q58 58 58 146q0 90 -58 149q-55 55 -178 60h-319v-418h319z" />
    <glyph glyph-name="Gammagreek" unicode="&#x393;" horiz-adv-x="1032" 
d="M154 1458h876v-209h-655v-1249h-221v1458z" />
    <glyph glyph-name="Deltagreek" unicode="&#x394;" horiz-adv-x="1323" 
d="M557 1458h209l555 -1458h-1319zM1006 209l-344 956l-345 -956h689z" />
    <glyph glyph-name="Epsilongreek" unicode="&#x395;" horiz-adv-x="1139" 
d="M154 1458h931v-209h-710v-415h606v-197h-606v-428h710v-209h-931v1458z" />
    <glyph glyph-name="Zetagreek" unicode="&#x396;" horiz-adv-x="1063" 
d="M66 184l653 1065h-627v209h905v-166l-663 -1083h663v-209h-931v184z" />
    <glyph glyph-name="Etagreek" unicode="&#x397;" horiz-adv-x="1328" 
d="M154 1458h221v-624h577v624h222v-1458h-222v637h-577v-637h-221v1458z" />
    <glyph glyph-name="Thetagreek" unicode="&#x398;" horiz-adv-x="1249" 
d="M625 -12q-86 0 -159 23.5t-130 60.5t-99 84t-69 94q-18 33 -29.5 62.5t-19.5 78.5t-11.5 128t-3.5 210t3.5 210t11.5 128t19.5 79t29.5 62q27 47 69 94.5t99 84t130 60t159 23.5t158.5 -23.5t130 -60t99.5 -84t68 -94.5q19 -32 30 -62t19.5 -79t11.5 -128t3 -210t-3 -210
t-11.5 -128t-19.5 -78.5t-30 -62.5q-26 -47 -68 -94t-99.5 -84t-130 -60.5t-158.5 -23.5zM625 209q77 0 133.5 31.5t91.5 74.5q20 27 34.5 53.5t24 69.5t12.5 110.5t3 180.5t-3 180.5t-12.5 110.5t-24 68.5t-34.5 54.5q-35 43 -91.5 74.5t-133.5 31.5q-78 0 -134.5 -31.5
t-91.5 -74.5q-22 -29 -35.5 -54.5t-22.5 -68.5t-12 -110.5t-3 -180.5t3 -180.5t12 -110.5t22.5 -69.5t35.5 -53.5q35 -43 91.5 -74.5t134.5 -31.5zM418 834h413v-197h-413v197z" />
    <glyph glyph-name="Iotagreek" unicode="&#x399;" horiz-adv-x="528" 
d="M154 1458h221v-1458h-221v1458z" />
    <glyph glyph-name="Kappagreek" unicode="&#x39a;" horiz-adv-x="1290" 
d="M154 1458h221v-751h4l600 751h262l-467 -575l516 -883h-262l-397 713l-256 -269v-444h-221v1458z" />
    <glyph glyph-name="Lambdagreek" unicode="&#x39b;" horiz-adv-x="1229" 
d="M522 1458h185l520 -1458h-234l-377 1159h-4l-376 -1159h-234z" />
    <glyph glyph-name="Mugreek" unicode="&#x39c;" horiz-adv-x="1553" 
d="M154 1458h208l418 -950l410 950h209v-1458h-221v909h-4l-306 -700h-184l-305 700h-4v-909h-221v1458z" />
    <glyph glyph-name="Nugreek" unicode="&#x39d;" horiz-adv-x="1401" 
d="M154 1458h208l660 -1036h4v1036h221v-1458h-209l-659 1036h-4v-1036h-221v1458z" />
    <glyph glyph-name="Xigreek" unicode="&#x39e;" horiz-adv-x="1085" 
d="M53 209h979v-209h-979v209zM164 834h758v-197h-758v197zM53 1458h979v-209h-979v209z" />
    <glyph glyph-name="Omicrongreek" unicode="&#x39f;" horiz-adv-x="1249" 
d="M625 -12q-172 2 -287 84q-119 78 -170 178l-29 63q-6 17 -11 36.5t-9 41.5q-15 84 -15 338q0 129 3.5 213t11.5 127q16 88 49 139q51 99 170 181q117 81 287 81q172 0 290 -81q115 -80 166 -181q35 -49 52 -139q12 -86 12 -340q0 -250 -12 -338q-17 -90 -52 -141
q-53 -103 -166 -178q-118 -82 -290 -84zM625 209q80 0 137 33q53 26 88 73q45 47 59 123q15 72 15 291q0 109 -3 181.5t-12 111.5q-14 74 -59 121q-33 45 -88 76q-60 28 -137 30q-78 -4 -133 -30q-60 -31 -93 -76q-41 -45 -57 -121q-16 -82 -16 -293q0 -108 4 -180t12 -111
q16 -78 57 -123q33 -47 93 -73q53 -33 133 -33z" />
    <glyph glyph-name="Pigreek" unicode="&#x3a0;" horiz-adv-x="1319" 
d="M154 1458h1011v-1458h-221v1249h-569v-1249h-221v1458z" />
    <glyph glyph-name="Rhogreek" unicode="&#x3a1;" horiz-adv-x="1214" 
d="M154 1458h528q43 0 84 -4t82 -12q78 -21 162 -86q67 -47 112 -139q45 -89 45 -209q0 -162 -114 -295q-119 -142 -342 -144h-336v-569h-221v1458zM702 778q123 4 185 76q59 72 59 160q0 73 -24 123q-23 43 -70 71q-70 43 -158 41h-319v-471h327z" />
    <glyph glyph-name="Sigmagreek" unicode="&#x3a3;" horiz-adv-x="1063" 
d="M66 184l454 604l-454 504v166h931v-209h-626l417 -461l-454 -579h672v-209h-940v184z" />
    <glyph glyph-name="Taugreek" unicode="&#x3a4;" 
d="M401 1249h-399v209h1020v-209h-399v-1249h-222v1249z" />
    <glyph glyph-name="Upsilongreek" unicode="&#x3a5;" 
d="M408 600l-439 858h234l309 -647l309 647h234l-439 -858v-600h-208v600z" />
    <glyph glyph-name="Phigreek" unicode="&#x3a6;" horiz-adv-x="1528" 
d="M653 172q-159 6 -271 43t-180.5 108.5t-99 181t-30.5 261.5t32.5 256t103.5 172t181.5 100.5t263.5 40.5v135h221v-135q154 -8 264.5 -40.5t181.5 -100.5t103.5 -172t32.5 -256t-30.5 -261.5t-99.5 -181t-180.5 -108.5t-271.5 -43v-184h-221v184zM653 1135
q-108 -5 -179 -24t-110.5 -62t-55 -115t-15.5 -176q0 -105 16.5 -174.5t57.5 -113.5t110.5 -65.5t175.5 -25.5v756zM874 379q107 4 176.5 25.5t110.5 65.5t57.5 113.5t16.5 174.5q0 104 -15.5 176t-55.5 115t-110.5 62t-179.5 24v-756z" />
    <glyph glyph-name="Chigreek" unicode="&#x3a7;" horiz-adv-x="1098" 
d="M426 748l-418 710h250l291 -506l291 506h250l-418 -710l446 -748h-250l-319 543l-320 -543h-249z" />
    <glyph glyph-name="Psigreek" unicode="&#x3a8;" horiz-adv-x="1610" 
d="M694 336q-174 0 -293.5 68.5t-185.5 170.5q-45 68 -63.5 152t-18.5 170v561h221v-563q0 -64 11.5 -121t44.5 -104q43 -64 115.5 -93.5t168.5 -29.5v911h221v-911q97 0 169.5 29.5t115.5 93.5q33 47 44 104t11 121v563h222v-563q0 -86 -19.5 -170t-62.5 -150
q-66 -102 -185.5 -170.5t-294.5 -68.5v-336h-221v336z" />
    <glyph glyph-name="Omegagreek" unicode="&#x3a9;" horiz-adv-x="1397" 
d="M117 209h309v96q-82 27 -145.5 82t-94.5 105q-20 32 -33.5 65t-21.5 75t-11 95t-3 125q0 113 13 202t52 154q31 52 77 99t110.5 83.5t145.5 58t183 21.5q105 0 187 -21.5t145.5 -58t108.5 -83.5t75 -99q39 -65 52.5 -154t13.5 -202q0 -72 -3 -125t-11.5 -95t-21.5 -75
t-34 -65q-30 -50 -93.5 -105t-145.5 -82v-96h309v-209h-496v469q31 2 62 12.5t58.5 23.5t49 29.5t31.5 30.5q21 27 35 55.5t23.5 62.5t12.5 75t3 94q0 100 -14.5 167.5t-57.5 123.5q-35 43 -102.5 74.5t-186.5 31.5q-116 0 -185 -31.5t-103 -74.5q-43 -56 -57.5 -123.5
t-14.5 -167.5q0 -53 3 -94t12 -75t22.5 -62.5t36.5 -55.5q10 -14 31.5 -30.5t49 -29.5t58.5 -23.5t61 -12.5v-469h-495v209z" />
    <glyph glyph-name="Iotadieresisgreek" unicode="&#x3aa;" horiz-adv-x="528" 
d="M154 1458h221v-1458h-221v1458zM333 1558h222v221h-222v-221zM-27 1558h221v221h-221v-221z" />
    <glyph glyph-name="Upsilondieresisgreek" unicode="&#x3ab;" 
d="M408 600l-439 858h234l309 -647l309 647h234l-439 -858v-600h-208v600zM581 1558h222v221h-222v-221zM221 1558h221v221h-221v-221z" />
    <glyph glyph-name="alphatonosgreek" unicode="&#x3ac;" horiz-adv-x="1075" 
d="M453 -12q-99 0 -165.5 39t-113.5 96q-22 24 -36.5 54t-23 74t-12.5 108.5t-4 160.5q0 94 5.5 159.5t13.5 106.5q22 123 113.5 194t222.5 71q67 0 119.5 -16.5t90 -43t63.5 -57.5t40 -57l18 161h207l-55 -518l55 -520h-207l-18 172q-21 -37 -48.5 -70.5t-64.5 -59.5
t-87 -40t-113 -14zM514 197q43 0 73.5 17t52.5 47t36 68t26 81l31 110l-33 119q-10 39 -24 76t-36 65.5t-52.5 45t-73.5 16.5q-74 0 -116 -29t-62.5 -75t-24.5 -103t-4 -115q0 -55 4 -112.5t24.5 -104.5t62.5 -76.5t116 -29.5zM401 1171h172l291 299h-275z" />
    <glyph glyph-name="epsilontonosgreek" unicode="&#x3ad;" horiz-adv-x="948" 
d="M496 -12q-199 0 -305.5 73.5t-106.5 227.5q0 28 6 64t26.5 71t58.5 64.5t99 46.5q-28 12 -60 29.5t-58.5 45t-43 66.5t-16.5 92q0 127 96.5 207t313.5 80q78 0 138.5 -11.5t108.5 -31t84.5 -48t67.5 -63.5l-133 -141q-22 22 -44.5 39.5t-52.5 30t-73 18.5t-104 6
q-101 0 -147 -25.5t-46 -85.5q0 -53 39 -85.5t137 -32.5h174v-189h-174q-37 0 -70.5 -4t-59 -17.5t-42 -37t-16.5 -62.5q0 -59 52 -95t149 -36q59 0 98 5.5t69.5 19.5t58.5 36.5t64 59.5l154 -137q-59 -64 -114.5 -98.5t-112.5 -55.5q-58 -20 -112 -23t-103 -3zM344 1171
h172l291 299h-275z" />
    <glyph glyph-name="etatonosgreek" unicode="&#x3ae;" horiz-adv-x="1100" 
d="M756 618q0 107 -58.5 165.5t-146.5 58.5q-90 0 -148.5 -58.5t-58.5 -165.5v-618h-209v1038h209v-110h4q49 61 118 92t152 31q62 0 123.5 -23.5t110.5 -69t81 -113t32 -155.5v-1110h-209v1038zM399 1171h172l291 299h-275z" />
    <glyph glyph-name="iotatonosgreek" unicode="&#x3af;" horiz-adv-x="528" 
d="M401 0q-57 0 -105 13.5t-84 43t-56.5 77.5t-20.5 118v786h209v-770q0 -71 78 -71h72v-197h-93v0zM135 1171h172l291 299h-275z" />
    <glyph glyph-name="upsilondieresistonosgreek" unicode="&#x3b0;" horiz-adv-x="1100" 
d="M545 -12q-209 0 -309.5 105.5t-100.5 279.5v665h209v-618q0 -107 61.5 -165t141.5 -58q69 0 115.5 17t73 58t36.5 110t10 173q0 154 -25.5 233.5t-97.5 116.5l152 148q63 -41 99 -89.5t54.5 -108.5t22.5 -134t4 -166q0 -102 -2 -171t-11 -118t-26.5 -85t-48.5 -68
q-59 -70 -146 -97.5t-212 -27.5zM754 1413h201v-213h-201v213zM138 1413h200v-213h-200v213zM500 1466h248l-225 -295h-135z" />
    <glyph glyph-name="alphagreek" unicode="&#x3b1;" horiz-adv-x="1075" 
d="M453 -12q-99 0 -165.5 39t-113.5 96q-22 24 -36.5 54t-23 74t-12.5 108.5t-4 160.5q0 94 5.5 159.5t13.5 106.5q22 123 113.5 194t222.5 71q67 0 119.5 -16.5t90 -43t63.5 -57.5t40 -57l18 161h207l-55 -518l55 -520h-207l-18 172q-21 -37 -48.5 -70.5t-64.5 -59.5
t-87 -40t-113 -14zM514 197q43 0 73.5 17t52.5 47t36 68t26 81l31 110l-33 119q-10 39 -24 76t-36 65.5t-52.5 45t-73.5 16.5q-74 0 -116 -29t-62.5 -75t-24.5 -103t-4 -115q0 -55 4 -112.5t24.5 -104.5t62.5 -76.5t116 -29.5z" />
    <glyph glyph-name="betagreek" unicode="&#x3b2;" horiz-adv-x="1090" 
d="M631 -12q-105 0 -172.5 36.5t-114.5 86.5v-531h-209v1481q0 63 7.5 109.5t20.5 81t31.5 61t43.5 49.5q59 55 140 81.5t169 26.5q82 0 152.5 -15t121.5 -46q74 -43 109 -125t35 -192q0 -142 -59.5 -225t-133.5 -109v-4q47 -13 87 -34.5t69.5 -59t46 -94t16.5 -136.5
q0 -70 -9 -137.5t-28 -108.5q-47 -104 -130 -150t-193 -46zM561 197q57 0 98 10t69 36.5t41 72.5t13 118q0 101 -61.5 155t-192.5 54h-75v201h73q123 0 176.5 61.5t53.5 169.5q0 86 -48.5 136.5t-158.5 50.5q-115 -2 -160 -53.5t-45 -157.5v-582q0 -156 57.5 -214t159.5 -58
z" />
    <glyph glyph-name="gammagreek" unicode="&#x3b3;" horiz-adv-x="909" 
d="M350 49l-362 989h221l244 -727h4l243 727h222l-363 -989v-469h-209v469z" />
    <glyph glyph-name="deltagreek" unicode="&#x3b4;" 
d="M512 -12q-61 0 -109.5 12t-87.5 30.5t-68.5 42t-49.5 48.5q-31 33 -51.5 67.5t-35 80.5t-20.5 106.5t-6 144.5q0 146 30.5 236t82 142t119 72.5t139.5 28.5l-303 318v141h714v-184h-417l364 -365q33 -32 56.5 -69t39 -83t23.5 -104.5t8 -132.5q0 -84 -6 -144.5
t-20.5 -106.5t-35 -80.5t-51.5 -67.5q-22 -25 -50.5 -48.5t-67.5 -42t-87.5 -30.5t-109.5 -12zM512 197q53 0 99 21.5t69 53.5q14 21 24.5 41.5t16.5 47t8 64.5t2 93q0 82 -11 129t-40 88q-23 33 -69 54.5t-99 21.5t-99 -21.5t-69 -54.5q-29 -41 -40 -87t-11 -128
q0 -57 2 -95t8 -64.5t16.5 -47t24.5 -41.5q23 -32 69 -53.5t99 -21.5z" />
    <glyph glyph-name="epsilongreek" unicode="&#x3b5;" horiz-adv-x="948" 
d="M496 -12q-199 0 -305.5 73.5t-106.5 227.5q0 28 6 64t26.5 71t58.5 64.5t99 46.5q-28 12 -60 29.5t-58.5 45t-43 66.5t-16.5 92q0 127 96.5 207t313.5 80q78 0 138.5 -11.5t108.5 -31t84.5 -48t67.5 -63.5l-133 -141q-22 22 -44.5 39.5t-52.5 30t-73 18.5t-104 6
q-101 0 -147 -25.5t-46 -85.5q0 -53 39 -85.5t137 -32.5h174v-189h-174q-37 0 -70.5 -4t-59 -17.5t-42 -37t-16.5 -62.5q0 -59 52 -95t149 -36q59 0 98 5.5t69.5 19.5t58.5 36.5t64 59.5l154 -137q-59 -64 -114.5 -98.5t-112.5 -55.5q-58 -20 -112 -23t-103 -3z" />
    <glyph glyph-name="zetagreek" unicode="&#x3b6;" horiz-adv-x="938" 
d="M547 -184h78q116 0 116 92q0 35 -25.5 59.5t-90.5 24.5h-54q-106 0 -196 18.5t-154.5 64.5t-100.5 122.5t-36 191.5q0 84 14.5 152.5t47 133t84 131t122.5 148.5l269 308v4h-465v192h776v-145l-393 -439q-66 -71 -112 -132.5t-75.5 -119t-44 -112.5t-14.5 -113
q0 -94 64.5 -147t205.5 -53h37q180 0 264 -64.5t84 -226.5q0 -66 -15 -119t-54 -90t-103.5 -57.5t-165.5 -20.5h-63v197z" />
    <glyph glyph-name="etagreek" unicode="&#x3b7;" horiz-adv-x="1100" 
d="M756 618q0 107 -58.5 165.5t-146.5 58.5q-90 0 -148.5 -58.5t-58.5 -165.5v-618h-209v1038h209v-110h4q49 61 118 92t152 31q62 0 123.5 -23.5t110.5 -69t81 -113t32 -155.5v-1110h-209v1038z" />
    <glyph glyph-name="thetagreek" unicode="&#x3b8;" horiz-adv-x="1126" 
d="M563 -12q-133 0 -213 49t-125 113q-28 40 -46.5 83t-28 108t-12.5 159t-3 235q0 142 3 236t12.5 158.5t28 107.5t46.5 84q45 63 125 112.5t213 49.5t213 -49.5t125 -112.5q29 -41 47.5 -84t27.5 -107.5t12 -158.5t3 -236q0 -141 -3 -235t-12 -159t-27.5 -108t-47.5 -83
q-45 -64 -125 -113t-213 -49zM563 197q55 0 96 19.5t64 47.5q18 23 29.5 48.5t18.5 73.5t10 130t3 219t-3 219t-10 130.5t-18.5 73t-29.5 48.5q-23 29 -64 48.5t-96 19.5t-96 -19.5t-64 -48.5q-18 -24 -30.5 -48.5t-18.5 -73t-9 -130.5t-3 -219t3 -219t9 -130t18.5 -73.5
t30.5 -48.5q23 -28 64 -47.5t96 -19.5zM406 829h315v-188h-315v188z" />
    <glyph glyph-name="iotagreek" unicode="&#x3b9;" horiz-adv-x="528" 
d="M401 0q-57 0 -105 13.5t-84 43t-56.5 77.5t-20.5 118v786h209v-770q0 -71 78 -71h72v-197h-93v0z" />
    <glyph glyph-name="kappagreek" unicode="&#x3ba;" 
d="M135 1038h209v-487l285 342q30 39 56 66.5t54.5 45t63.5 25.5t86 8h69v-188h-28q-31 0 -54.5 -5t-42 -16.5t-36 -28t-37.5 -38.5l-144 -160l402 -602h-262l-277 451l-135 -152v-299h-209v1038z" />
    <glyph glyph-name="lambdagreek" unicode="&#x3bb;" horiz-adv-x="938" 
d="M387 997l-63 191q-15 43 -38.5 58.5t-74.5 15.5h-84v196h100q56 0 99 -9t74.5 -30.5t56 -60.5t45.5 -96l436 -1262h-221l-232 727h-4l-260 -727h-221z" />
    <glyph glyph-name="mugreek" unicode="&#x3bc;" horiz-adv-x="1100" 
d="M135 1038h209v-628q0 -107 57.5 -160t149.5 -53q88 0 146.5 58t58.5 165v618h209v-1038h-209v104q-60 -63 -130.5 -89.5t-142.5 -26.5q-75 0 -139 35v-443h-209v1458z" />
    <glyph glyph-name="nugreek" unicode="&#x3bd;" horiz-adv-x="909" 
d="M-12 1038h221l244 -727h4l243 727h222l-381 -1038h-172z" />
    <glyph glyph-name="xigreek" unicode="&#x3be;" horiz-adv-x="938" 
d="M547 -184h78q116 0 116 92q0 35 -25.5 59.5t-90.5 24.5h-54q-231 0 -359 101.5t-128 322.5q0 90 20.5 148.5t53 95t74.5 57t83 33.5v4q-43 12 -78.5 44.5t-63.5 77t-43 95.5t-15 100q0 94 22.5 168t71.5 125t128 78.5t189 27.5q92 0 157 -13t108 -37.5t70.5 -56.5
t49.5 -69l-155 -129q-29 45 -77 73t-153 28q-102 0 -154.5 -54.5t-52.5 -156.5q0 -39 15.5 -76t44.5 -66.5t73 -47t99 -17.5h182v-205h-192q-107 0 -177.5 -50t-70.5 -177q0 -113 69.5 -166t200.5 -53h37q180 0 264 -64.5t84 -226.5q0 -66 -15 -119t-54 -90t-103.5 -57.5
t-165.5 -20.5h-63v197z" />
    <glyph glyph-name="omicrongreek" unicode="&#x3bf;" 
d="M512 -12q-119 2 -195 45q-79 41 -120 88q-60 65 -86 149q-27 82 -27 250q0 166 27 252q28 88 86 146q43 51 120 92q78 41 195 41q121 0 199 -41q75 -41 116 -92q60 -58 88 -146q25 -90 25 -252q0 -164 -25 -250q-28 -86 -88 -149q-10 -10 -22 -22.5t-27 -22.5
q-28 -25 -67 -43q-76 -41 -199 -45zM512 197q55 0 100 22q45 21 68 53q33 43 41 90q4 25 7 64t3 92q0 55 -3 95t-7 67q-8 47 -41 86q-23 33 -68 55q-41 21 -100 21q-55 0 -98 -21q-41 -20 -70 -55q-27 -35 -39 -86q-12 -53 -12 -160q0 -108 12 -158q12 -51 39 -90
q31 -32 70 -53q49 -22 98 -22z" />
    <glyph glyph-name="pigreek" unicode="&#x3c0;" horiz-adv-x="1184" 
d="M188 842h-147v196h1057v-196h-150v-574q0 -71 78 -71h72v-197h-92q-58 0 -106 13.5t-84 43t-56.5 77.5t-20.5 118v590h-342v-842h-209v842z" />
    <glyph glyph-name="rhogreek" unicode="&#x3c1;" horiz-adv-x="1063" 
d="M135 520q0 94 4 156.5t14.5 106.5t30 76t47.5 67q48 55 136 90t180 35q71 0 125.5 -10.5t95.5 -29t70.5 -43t52.5 -53.5q20 -28 34.5 -57t23.5 -73t12.5 -107.5t3.5 -159.5t-3.5 -158.5t-12.5 -106.5t-23.5 -73.5t-34.5 -56.5q-45 -60 -113.5 -97.5t-165.5 -37.5
q-80 0 -144.5 31.5t-123.5 91.5v-531h-209v940zM549 197q74 0 116 27.5t61 72.5t24.5 103.5t5.5 117.5q0 62 -5.5 119t-24.5 103t-61 74t-116 28q-72 0 -113 -28t-61.5 -74t-25.5 -103t-5 -119q0 -78 8 -150.5t58 -119.5q22 -23 57 -37t82 -14z" />
    <glyph glyph-name="sigmafinalgreek" unicode="&#x3c2;" horiz-adv-x="909" 
d="M518 -184h78q117 0 117 92q0 35 -25.5 59.5t-91.5 24.5h-53q-99 0 -187 28.5t-155.5 92t-106.5 164t-39 241.5q0 144 40 244t105.5 164.5t150.5 94.5t175 30q66 0 121 -10.5t105 -39.5q41 -22 79.5 -57t67.5 -74l-154 -137q-34 51 -84.5 80t-125.5 29q-129 0 -200 -76
t-71 -248q0 -170 68.5 -245.5t202.5 -75.5h36q181 0 265 -64.5t84 -226.5q0 -66 -15.5 -119t-54.5 -90t-103.5 -57.5t-164.5 -20.5h-64v197z" />
    <glyph glyph-name="sigmagreek" unicode="&#x3c3;" horiz-adv-x="1067" 
d="M512 -12q-61 0 -109.5 12t-87.5 30.5t-68.5 42t-49.5 48.5q-31 33 -51.5 67.5t-35 80.5t-20.5 106.5t-6 144.5t6 144.5t20.5 105.5t35 80t51.5 68q20 24 49.5 47.5t68.5 42t87.5 31t109.5 12.5t111 -13h415v-192h-180v-4q41 -54 61.5 -127.5t20.5 -194.5q0 -84 -6 -144.5
t-20.5 -106.5t-35 -80.5t-51.5 -67.5q-22 -25 -50.5 -48.5t-67.5 -42t-87.5 -30.5t-109.5 -12zM512 197q53 0 99 21.5t69 53.5q14 21 24.5 41.5t16.5 47t8 64.5t2 93q0 57 -2 95t-8 65t-16.5 47t-24.5 41q-23 33 -69 54.5t-99 21.5t-99 -21.5t-69 -54.5q-14 -21 -24.5 -41
t-16.5 -47t-8 -65t-2 -93q0 -57 2 -95t8 -64.5t16.5 -47t24.5 -41.5q23 -32 69 -53.5t99 -21.5z" />
    <glyph glyph-name="taugreek" unicode="&#x3c4;" horiz-adv-x="879" 
d="M606 0q-57 0 -105 13.5t-84 43t-56.5 77.5t-20.5 118v590h-317v196h833v-196h-307v-574q0 -71 78 -71h71v-197h-92v0z" />
    <glyph glyph-name="upsilongreek" unicode="&#x3c5;" horiz-adv-x="1100" 
d="M545 -12q-209 0 -309.5 105.5t-100.5 279.5v665h209v-618q0 -107 61.5 -165t141.5 -58q69 0 115.5 17t73 58t36.5 110t10 173q0 154 -25.5 233.5t-97.5 116.5l152 148q63 -41 99 -89.5t54.5 -108.5t22.5 -134t4 -166q0 -102 -2 -171t-11 -118t-26.5 -85t-48.5 -68
q-59 -70 -146 -97.5t-212 -27.5z" />
    <glyph glyph-name="phigreek" unicode="&#x3c6;" horiz-adv-x="1343" 
d="M567 -10q-123 0 -219 28.5t-172 120.5q-22 27 -38.5 58.5t-29 76.5t-18.5 104.5t-6 139.5q0 105 11 192t52 154q43 72 117 123t191 51v-211q-78 -14 -120 -86.5t-42 -222.5q0 -61 8 -119.5t36 -103.5t83 -71.5t147 -26.5v841h119q139 0 246.5 -9t173.5 -60
q45 -35 74.5 -76t47 -94.5t25 -122t7.5 -158.5q0 -106 -14.5 -193t-51.5 -149q-66 -106 -168 -146t-250 -40v-410h-209v410zM776 197q80 0 133.5 22.5t85 63.5t44 101t12.5 134q0 100 -19.5 161.5t-56.5 96.5t-87 48.5t-112 13.5v-641z" />
    <glyph glyph-name="chigreek" unicode="&#x3c7;" horiz-adv-x="920" 
d="M344 326l-342 712h240l219 -528l217 528h240l-343 -712l357 -746h-242l-231 541l-232 -541h-239z" />
    <glyph glyph-name="psigreek" unicode="&#x3c8;" horiz-adv-x="1413" 
d="M602 -10q-92 0 -173 12t-140 49q-94 60 -124 145t-30 207v635h209v-567q0 -156 60.5 -215t197.5 -59v1261h209v-1261q139 0 198.5 59t59.5 215v567h209v-635q0 -127 -32 -210.5t-122 -141.5q-59 -37 -140 -49t-173 -12v-410h-209v410z" />
    <glyph glyph-name="omegagreek" unicode="&#x3c9;" horiz-adv-x="1421" 
d="M424 -12q-98 0 -159.5 37.5t-100.5 97.5q-19 27 -33 59.5t-25.5 77.5t-16.5 107.5t-5 150.5t7 150.5t20.5 108.5t31 78t35.5 60q15 21 40.5 45.5t61 45t83 35t104.5 14.5v-209q-41 -10 -73 -26.5t-54.5 -52.5t-34.5 -95.5t-12 -153.5q0 -59 3 -117.5t17.5 -103.5
t43 -72.5t81.5 -27.5q54 0 86.5 20.5t51 54t24.5 78.5t6 92v283h209v-283q0 -47 6 -92t24.5 -78.5t51.5 -54t86 -20.5q51 0 81 27.5t44 72.5t17 103.5t3 117.5q0 94 -12 153.5t-34.5 95.5t-55.5 52.5t-72 26.5v209q58 0 105 -14.5t83 -35t61.5 -45t39.5 -45.5q19 -28 36 -60
t30.5 -78t20.5 -108.5t7 -150.5t-5 -150.5t-16 -107.5t-25.5 -77.5t-33.5 -59.5q-38 -60 -99.5 -97.5t-160.5 -37.5q-114 0 -180.5 49t-101.5 127h-8q-35 -78 -101.5 -127t-181.5 -49z" />
    <glyph glyph-name="iotadieresisgreek" unicode="&#x3ca;" horiz-adv-x="528" 
d="M401 0q-57 0 -105 13.5t-84 43t-56.5 77.5t-20.5 118v786h209v-770q0 -71 78 -71h72v-197h-93v0zM333 1200h222v221h-222v-221zM-27 1200h221v221h-221v-221z" />
    <glyph glyph-name="upsilondieresisgreek" unicode="&#x3cb;" horiz-adv-x="1100" 
d="M545 -12q-209 0 -309.5 105.5t-100.5 279.5v665h209v-618q0 -107 61.5 -165t141.5 -58q69 0 115.5 17t73 58t36.5 110t10 173q0 154 -25.5 233.5t-97.5 116.5l152 148q63 -41 99 -89.5t54.5 -108.5t22.5 -134t4 -166q0 -102 -2 -171t-11 -118t-26.5 -85t-48.5 -68
q-59 -70 -146 -97.5t-212 -27.5zM608 1200h222v221h-222v-221zM248 1200h221v221h-221v-221z" />
    <glyph glyph-name="omicrontonosgreek" unicode="&#x3cc;" 
d="M512 -12q-119 2 -195 45q-79 41 -120 88q-60 65 -86 149q-27 82 -27 250q0 166 27 252q28 88 86 146q43 51 120 92q78 41 195 41q121 0 199 -41q75 -41 116 -92q60 -58 88 -146q25 -90 25 -252q0 -164 -25 -250q-28 -86 -88 -149q-10 -10 -22 -22.5t-27 -22.5
q-28 -25 -67 -43q-76 -41 -199 -45zM512 197q55 0 100 22q45 21 68 53q33 43 41 90q4 25 7 64t3 92q0 55 -3 95t-7 67q-8 47 -41 86q-23 33 -68 55q-41 21 -100 21q-55 0 -98 -21q-41 -20 -70 -55q-27 -35 -39 -86q-12 -53 -12 -160q0 -108 12 -158q12 -51 39 -90
q31 -32 70 -53q49 -22 98 -22zM383 1171h172l291 299h-275z" />
    <glyph glyph-name="upsilontonosgreek" unicode="&#x3cd;" horiz-adv-x="1100" 
d="M545 -12q-209 0 -309.5 105.5t-100.5 279.5v665h209v-618q0 -107 61.5 -165t141.5 -58q69 0 115.5 17t73 58t36.5 110t10 173q0 154 -25.5 233.5t-97.5 116.5l152 148q63 -41 99 -89.5t54.5 -108.5t22.5 -134t4 -166q0 -102 -2 -171t-11 -118t-26.5 -85t-48.5 -68
q-59 -70 -146 -97.5t-212 -27.5zM410 1171h172l291 299h-275z" />
    <glyph glyph-name="omegatonosgreek" unicode="&#x3ce;" horiz-adv-x="1421" 
d="M424 -12q-98 0 -159.5 37.5t-100.5 97.5q-19 27 -33 59.5t-25.5 77.5t-16.5 107.5t-5 150.5t7 150.5t20.5 108.5t31 78t35.5 60q15 21 40.5 45.5t61 45t83 35t104.5 14.5v-209q-41 -10 -73 -26.5t-54.5 -52.5t-34.5 -95.5t-12 -153.5q0 -59 3 -117.5t17.5 -103.5
t43 -72.5t81.5 -27.5q54 0 86.5 20.5t51 54t24.5 78.5t6 92v283h209v-283q0 -47 6 -92t24.5 -78.5t51.5 -54t86 -20.5q51 0 81 27.5t44 72.5t17 103.5t3 117.5q0 94 -12 153.5t-34.5 95.5t-55.5 52.5t-72 26.5v209q58 0 105 -14.5t83 -35t61.5 -45t39.5 -45.5q19 -28 36 -60
t30.5 -78t20.5 -108.5t7 -150.5t-5 -150.5t-16 -107.5t-25.5 -77.5t-33.5 -59.5q-38 -60 -99.5 -97.5t-160.5 -37.5q-114 0 -180.5 49t-101.5 127h-8q-35 -78 -101.5 -127t-181.5 -49zM561 1171h172l291 299h-275z" />
    <glyph glyph-name="Iocyrillic" unicode="&#x401;" horiz-adv-x="1139" 
d="M154 1458h931v-209h-710v-415h606v-197h-606v-428h710v-209h-931v1458zM704 1558h222v221h-222v-221zM344 1558h221v221h-221v-221z" />
    <glyph glyph-name="Djecyrillic" unicode="&#x402;" horiz-adv-x="1528" 
d="M401 1249h-399v209h1020v-209h-399v-407q30 6 71 13t84 13t86 11.5t80 5.5q115 0 203 -33t147.5 -91.5t90 -142t30.5 -184.5q0 -96 -30.5 -175t-89 -137.5t-142.5 -90t-188 -31.5h-88v209h63q117 0 185.5 61.5t68.5 163.5q0 72 -23.5 119t-63.5 75.5t-91 41t-109 12.5
q-28 0 -66 -4t-77 -9t-76 -12.5t-65 -13.5v-643h-222v1249z" />
    <glyph glyph-name="Gjecyrillic" unicode="&#x403;" horiz-adv-x="1032" 
d="M154 1458h876v-209h-655v-1249h-221v1458zM420 1607h172l291 299h-275z" />
    <glyph glyph-name="Ecyrillic" unicode="&#x404;" horiz-adv-x="1147" 
d="M627 -12q-115 0 -210 40t-173 115q-54 52 -81.5 109t-40.5 125.5t-15.5 154.5t-2.5 197q0 113 2.5 200t15.5 154.5t40.5 123t81.5 108.5q78 76 173 115.5t210 39.5q98 0 183 -31.5t152.5 -88t114.5 -136t68 -176.5h-236q-30 95 -99 153t-181 58q-68 0 -123 -22.5
t-96 -63.5q-25 -24 -41.5 -52t-25.5 -64.5t-12 -88t-3 -124.5h495v-197h-495q0 -74 4 -128t12 -93t24.5 -68t41.5 -53q41 -41 96 -63.5t123 -22.5q110 0 177.5 54t100.5 145h234q-23 -99 -70 -177.5t-113.5 -132t-151.5 -82t-179 -28.5z" />
    <glyph glyph-name="Dzecyrillic" unicode="&#x405;" horiz-adv-x="1176" 
d="M584 -12q-322 0 -557 200l145 166q172 -141 414 -145q284 2 288 203q3 161 -190 196l-192 27q-189 31 -287 139q-101 109 -101 270q0 191 127 308q125 118 349 118q137 0 254.5 -39.5t218.5 -111.5l-123 -182q-166 110 -361 112q-104 0 -170 -51q-69 -51 -73 -158
q0 -63 49 -114q47 -49 157 -72q29 -4 70 -10t94 -13q205 -26 303 -147q97 -119 97 -272q-4 -211 -132 -317.5t-380 -106.5z" />
    <glyph glyph-name="Icyrillic" unicode="&#x406;" horiz-adv-x="528" 
d="M154 1458h221v-1458h-221v1458z" />
    <glyph glyph-name="Yicyrillic" unicode="&#x407;" horiz-adv-x="528" 
d="M154 1458h221v-1458h-221v1458zM333 1558h222v221h-222v-221zM-27 1558h221v221h-221v-221z" />
    <glyph glyph-name="Jecyrillic" unicode="&#x408;" horiz-adv-x="985" 
d="M381 -12q-129 0 -222 49t-157 141l178 129q31 -41 80 -67q49 -31 115 -31q88 -2 168 61q41 31 61 82q23 51 23 123v983h221v-1005q0 -111 -37 -196t-106 -144q-142 -125 -324 -125z" />
    <glyph glyph-name="Ljecyrillic" unicode="&#x409;" horiz-adv-x="2116" 
d="M25 209h36q48 0 87.5 11t73.5 53t58.5 123t42 219.5t26.5 344t9 498.5h844v-573h338q105 0 190 -33t146 -91.5t94 -139t33 -179.5q0 -98 -34 -180t-94 -140.5t-145 -90t-190 -31.5h-559v1249h-408q0 -272 -12 -469.5t-36.5 -337t-62.5 -225.5t-91.5 -134t-121 -65.5
t-149.5 -17.5h-75v209zM1528 209q119 0 185.5 63.5t66.5 173.5q0 111 -66.5 175.5t-185.5 64.5h-326v-477h326z" />
    <glyph glyph-name="Njecyrillic" unicode="&#x40a;" horiz-adv-x="2087" 
d="M154 1458h221v-573h577v573h222v-573h339q105 0 190 -33t145.5 -91.5t93 -139t32.5 -179.5q0 -98 -32.5 -180t-93 -140.5t-145.5 -90t-190 -31.5h-561v686h-577v-686h-221v1458zM1499 209q119 0 185.5 63.5t66.5 173.5q0 111 -66.5 175.5t-185.5 64.5h-325v-477h325z" />
    <glyph glyph-name="Tshecyrillic" unicode="&#x40b;" horiz-adv-x="1528" 
d="M401 1249h-399v209h1020v-209h-399v-401q30 6 73 14t92.5 15.5t100.5 12.5t100 5q80 0 150.5 -19.5t124 -61.5t85 -108.5t31.5 -162.5v-543h-221v485q0 64 -18.5 104t-50 62.5t-73.5 31.5t-89 9q-33 0 -74 -4t-83 -10t-81 -13.5t-67 -13.5v-651h-222v1249z" />
    <glyph glyph-name="Kjecyrillic" unicode="&#x40c;" horiz-adv-x="1290" 
d="M154 1458h221v-624h149q43 0 76 16t57.5 43t44 61.5t33.5 69.5l68 164q24 61 49 111.5t58.5 86t81.5 54t122 18.5h86v-209h-47q-35 0 -56.5 -3t-37 -14t-25.5 -30.5t-24 -52.5l-92 -227q-23 -58 -63 -100t-85 -66q72 -17 113 -68t69 -117l107 -254q12 -28 22.5 -48.5
t25.5 -34t36.5 -19.5t58.5 -6h60v-209h-111q-84 0 -140.5 24.5t-97.5 79.5q-24 35 -44.5 79t-37.5 85l-96 234q-18 43 -42.5 68.5t-52.5 40t-56.5 19.5t-55.5 5h-153v-635h-221v1458zM522 1607h172l291 299h-275z" />
    <glyph glyph-name="Ushortcyrillic" unicode="&#x40e;" horiz-adv-x="1133" 
d="M150 209h104q65 0 102 28.5t62 88.5l51 118l-467 1014h238l344 -776l313 776h233l-522 -1220q-43 -101 -115.5 -169.5t-191.5 -68.5h-151v209zM377 1894q21 -82 72 -116q53 -35 135 -35q76 -2 131 33q57 32 76 118h123q-11 -129 -95 -204q-84 -82 -235 -82
q-148 0 -231 82q-86 75 -99 204h123z" />
    <glyph glyph-name="Dzhecyrillic" unicode="&#x40f;" horiz-adv-x="1319" 
d="M555 0h-401v1458h221v-1249h569v1249h221v-1458h-401v-328h-209v328z" />
    <glyph glyph-name="Acyrillic" unicode="&#x410;" horiz-adv-x="1249" 
d="M532 1458h185l530 -1458h-233l-113 326h-553l-112 -326h-234zM838 522l-211 637h-4l-211 -637h426z" />
    <glyph glyph-name="Becyrillic" unicode="&#x411;" horiz-adv-x="1251" 
d="M154 1458h931v-209h-710v-364h340q106 0 191 -33t144.5 -91.5t92.5 -139t33 -179.5q0 -98 -32 -180t-92.5 -140.5t-145.5 -90t-191 -31.5h-561v1458zM707 209q116 0 181.5 64.5t65.5 175.5q0 110 -65.5 174.5t-181.5 64.5h-332v-479h332z" />
    <glyph glyph-name="Vecyrillic" unicode="&#x412;" horiz-adv-x="1249" 
d="M154 1458h565q219 -4 323 -108q109 -109 109 -283q2 -90 -43 -172q-21 -39 -66 -74q-45 -39 -106 -67v-4q119 -31 180 -125q58 -95 58 -211q-5 -189 -119 -299q-115 -115 -287 -115h-614v1458zM715 209q121 2 180 67q57 64 57 152q0 90 -57 154q-57 61 -180 65h-340v-438
h340zM694 844q121 0 178 63q58 58 58 146q0 90 -58 149q-55 55 -178 60h-319v-418h319z" />
    <glyph glyph-name="Gecyrillic" unicode="&#x413;" horiz-adv-x="1032" 
d="M154 1458h876v-209h-655v-1249h-221v1458z" />
    <glyph glyph-name="Decyrillic" unicode="&#x414;" horiz-adv-x="1346" 
d="M14 209h133q46 90 79.5 190.5t56 241.5t33 338t10.5 479h833v-1249h172v-537h-209v328h-899v-328h-209v537zM938 209v1040h-401q0 -223 -10.5 -383.5t-30 -280.5t-48 -209t-65.5 -167h555z" />
    <glyph glyph-name="Iecyrillic" unicode="&#x415;" horiz-adv-x="1139" 
d="M154 1458h931v-209h-710v-415h606v-197h-606v-428h710v-209h-931v1458z" />
    <glyph glyph-name="Zhecyrillic" unicode="&#x416;" horiz-adv-x="1901" 
d="M29 0v209h59q37 0 59.5 6t38 19.5t25.5 34t20 48.5l97 254q26 68 68 118t114 67q-45 24 -85 66t-63 100l-92 227q-14 33 -24 52.5t-25.5 30.5t-37 14t-56.5 3h-47v209h86q74 0 122 -18.5t81.5 -54t58.5 -86t49 -111.5l68 -164q14 -35 33.5 -69.5t44 -61.5t57.5 -43
t76 -16h84v624h221v-624h84q43 0 75.5 16t57.5 43t44 61.5t34 69.5l67 164q25 61 49.5 111.5t58.5 86t82 54t122 18.5h86v-209h-47q-35 0 -56.5 -3t-37 -14t-25.5 -30.5t-25 -52.5l-92 -227q-22 -58 -62 -100t-85 -66q71 -17 113 -67t69 -118l96 -254q21 -59 46.5 -83.5
t96.5 -24.5h60v-209h-111q-84 0 -138 20.5t-95 75.5q-25 35 -47.5 83t-38.5 89l-86 234q-17 43 -41.5 69.5t-52 40t-57 18.5t-56.5 5h-88v-635h-221v635h-88q-27 0 -56.5 -5t-57.5 -18.5t-52.5 -40t-40.5 -69.5l-86 -234q-17 -41 -39.5 -89t-46.5 -83q-41 -55 -95.5 -75.5
t-138.5 -20.5h-110z" />
    <glyph glyph-name="Zecyrillic" unicode="&#x417;" horiz-adv-x="1114" 
d="M535 -12q-95 0 -179 27.5t-151.5 81t-114.5 131t-67 180.5h233q31 -95 101.5 -151t181.5 -56q123 0 199.5 61.5t76.5 165.5q0 111 -65.5 165t-192.5 54h-186v197h190q111 0 171.5 53t60.5 158q0 102 -68 156.5t-184 54.5q-117 0 -186.5 -62.5t-98.5 -165.5h-233
q40 211 180.5 321.5t339.5 110.5q102 0 189 -27.5t149.5 -78.5t98.5 -125t36 -164q0 -112 -52.5 -193t-148.5 -128q107 -43 165 -128t58 -214q0 -97 -37.5 -175.5t-105.5 -134t-160 -85t-200 -29.5z" />
    <glyph glyph-name="Iicyrillic" unicode="&#x418;" horiz-adv-x="1362" 
d="M154 1458h221v-1057l631 1057h202v-1458h-221v1059l-633 -1059h-200v1458z" />
    <glyph glyph-name="Iishortcyrillic" unicode="&#x419;" horiz-adv-x="1362" 
d="M154 1458h221v-1057l631 1057h202v-1458h-221v1059l-633 -1059h-200v1458zM470 1894q21 -82 72 -116q53 -35 135 -35q76 -2 131 33q57 32 76 118h123q-11 -129 -95 -204q-84 -82 -235 -82q-148 0 -231 82q-86 75 -99 204h123z" />
    <glyph glyph-name="Kacyrillic" unicode="&#x41a;" horiz-adv-x="1290" 
d="M154 1458h221v-624h149q43 0 76 16t57.5 43t44 61.5t33.5 69.5l68 164q24 61 49 111.5t58.5 86t81.5 54t122 18.5h86v-209h-47q-35 0 -56.5 -3t-37 -14t-25.5 -30.5t-24 -52.5l-92 -227q-23 -58 -63 -100t-85 -66q72 -17 113 -68t69 -117l107 -254q12 -28 22.5 -48.5
t25.5 -34t36.5 -19.5t58.5 -6h60v-209h-111q-84 0 -140.5 24.5t-97.5 79.5q-24 35 -44.5 79t-37.5 85l-96 234q-18 43 -42.5 68.5t-52.5 40t-56.5 19.5t-55.5 5h-153v-635h-221v1458z" />
    <glyph glyph-name="Elcyrillic" unicode="&#x41b;" horiz-adv-x="1356" 
d="M25 209h36q48 0 87.5 11t73.5 53t58.5 123t42 219.5t26.5 344t9 498.5h844v-1458h-221v1249h-408q0 -272 -12 -469.5t-36.5 -337t-62.5 -225.5t-91.5 -134t-121 -65.5t-149.5 -17.5h-75v209z" />
    <glyph glyph-name="Emcyrillic" unicode="&#x41c;" horiz-adv-x="1553" 
d="M154 1458h208l418 -950l410 950h209v-1458h-221v909h-4l-306 -700h-184l-305 700h-4v-909h-221v1458z" />
    <glyph glyph-name="Encyrillic" unicode="&#x41d;" horiz-adv-x="1328" 
d="M154 1458h221v-624h577v624h222v-1458h-222v637h-577v-637h-221v1458z" />
    <glyph glyph-name="Ocyrillic" unicode="&#x41e;" horiz-adv-x="1249" 
d="M625 -12q-86 0 -158 21.5t-129 62.5q-119 78 -170 178l-29 63q-6 17 -11 36.5t-9 41.5q-15 84 -15 338q0 129 3.5 213t11.5 127q16 88 49 139q51 99 170 181q117 81 287 81q172 0 290 -81q115 -80 166 -181q35 -49 52 -139q12 -86 12 -340q0 -250 -12 -338
q-17 -90 -52 -141q-53 -103 -166 -178q-59 -41 -130.5 -62.5t-159.5 -21.5zM625 209q80 0 137 33q53 26 88 73q45 47 59 123q15 72 15 291q0 109 -3 181.5t-12 111.5q-14 74 -59 121q-33 45 -88 76q-60 28 -137 30q-78 -4 -133 -30q-60 -31 -93 -76q-41 -45 -57 -121
q-16 -82 -16 -293q0 -108 4 -180t12 -111q16 -78 57 -123q33 -47 93 -73q53 -33 133 -33z" />
    <glyph glyph-name="Pecyrillic" unicode="&#x41f;" horiz-adv-x="1319" 
d="M154 1458h1011v-1458h-221v1249h-569v-1249h-221v1458z" />
    <glyph glyph-name="Ercyrillic" unicode="&#x420;" horiz-adv-x="1214" 
d="M154 1458h528q43 0 84 -4t82 -12q78 -21 162 -86q67 -47 112 -139q45 -89 45 -209q0 -162 -114 -295q-119 -142 -342 -144h-336v-569h-221v1458zM702 778q123 4 185 76q59 72 59 160q0 73 -24 123q-23 43 -70 71q-70 43 -158 41h-319v-471h327z" />
    <glyph glyph-name="Escyrillic" unicode="&#x421;" horiz-adv-x="1139" 
d="M625 -12q-86 0 -158 21.5t-129 62.5q-119 78 -170 178l-29 63q-6 17 -11 36.5t-9 41.5q-15 84 -15 338q0 129 3.5 213t11.5 127q16 88 49 139q51 99 170 181q117 81 287 81q209 0 344 -124q135 -129 168 -308h-234q-26 88 -98 150q-74 59 -180 61q-78 -4 -133 -30
q-60 -31 -93 -76q-41 -45 -57 -121q-16 -82 -16 -293q0 -108 4 -180t12 -111q16 -78 57 -123q33 -47 93 -73q53 -33 133 -33q186 0 278 199h234q-47 -203 -183 -312q-139 -108 -329 -108z" />
    <glyph glyph-name="Tecyrillic" unicode="&#x422;" 
d="M401 1249h-399v209h1020v-209h-399v-1249h-222v1249z" />
    <glyph glyph-name="Ucyrillic" unicode="&#x423;" horiz-adv-x="1133" 
d="M150 209h104q65 0 102 28.5t62 88.5l51 118l-467 1014h238l344 -776l313 776h233l-522 -1220q-43 -101 -115.5 -169.5t-191.5 -68.5h-151v209z" />
    <glyph glyph-name="Efcyrillic" unicode="&#x424;" horiz-adv-x="1528" 
d="M653 172q-159 6 -271 43t-180.5 108.5t-99 181t-30.5 261.5t32.5 256t103.5 172t181.5 100.5t263.5 40.5v135h221v-135q154 -8 264.5 -40.5t181.5 -100.5t103.5 -172t32.5 -256t-30.5 -261.5t-99.5 -181t-180.5 -108.5t-271.5 -43v-184h-221v184zM653 1135
q-108 -5 -179 -24t-110.5 -62t-55 -115t-15.5 -176q0 -105 16.5 -174.5t57.5 -113.5t110.5 -65.5t175.5 -25.5v756zM874 379q107 4 176.5 25.5t110.5 65.5t57.5 113.5t16.5 174.5q0 104 -15.5 176t-55.5 115t-110.5 62t-179.5 24v-756z" />
    <glyph glyph-name="Xacyrillic" unicode="&#x425;" horiz-adv-x="1098" 
d="M426 748l-418 710h250l291 -506l291 506h250l-418 -710l446 -748h-250l-319 543l-320 -543h-249z" />
    <glyph glyph-name="Tsecyrillic" unicode="&#x426;" horiz-adv-x="1352" 
d="M1128 0h-974v1458h221v-1249h569v1249h221v-1249h172v-537h-209v328z" />
    <glyph glyph-name="Checyrillic" unicode="&#x427;" horiz-adv-x="1266" 
d="M891 567q-64 -12 -168.5 -29.5t-212.5 -17.5q-72 0 -140.5 19.5t-121.5 62.5t-85 111.5t-32 165.5v579h223v-522q0 -64 18.5 -104.5t49.5 -65.5t70.5 -34t85.5 -9q36 0 78 4t85 10t82 13.5t68 13.5v694h221v-1458h-221v567z" />
    <glyph glyph-name="Shacyrillic" unicode="&#x428;" horiz-adv-x="1915" 
d="M154 1458h221v-1249h473v1249h221v-1249h471v1249h221v-1458h-1607v1458z" />
    <glyph glyph-name="Shchacyrillic" unicode="&#x429;" horiz-adv-x="1948" 
d="M1724 0h-1570v1458h221v-1249h473v1249h221v-1249h471v1249h221v-1249h172v-537h-209v328z" />
    <glyph glyph-name="Hardsigncyrillic" unicode="&#x42a;" horiz-adv-x="1466" 
d="M332 1249h-330v209h551v-573h338q104 0 189 -33t146.5 -91.5t94.5 -139t33 -179.5q0 -98 -34 -180t-94.5 -140.5t-145.5 -90t-189 -31.5h-559v1249zM879 209q118 0 184.5 63.5t66.5 173.5q0 111 -66.5 175.5t-184.5 64.5h-326v-477h326z" />
    <glyph glyph-name="Yericyrillic" unicode="&#x42b;" horiz-adv-x="1727" 
d="M154 1458h221v-573h338q104 0 189 -33t146.5 -91.5t94.5 -139t33 -179.5q0 -98 -34 -180t-94.5 -140.5t-145.5 -90t-189 -31.5h-559v1458zM700 209q119 0 185.5 63.5t66.5 173.5q0 111 -66.5 175.5t-185.5 64.5h-325v-477h325zM1352 1458h221v-1458h-221v1458z" />
    <glyph glyph-name="Softsigncyrillic" unicode="&#x42c;" horiz-adv-x="1288" 
d="M154 1458h221v-573h338q104 0 189 -33t146.5 -91.5t94.5 -139t33 -179.5q0 -98 -34 -180t-94.5 -140.5t-145.5 -90t-189 -31.5h-559v1458zM700 209q119 0 185.5 63.5t66.5 173.5q0 111 -66.5 175.5t-185.5 64.5h-325v-477h325z" />
    <glyph glyph-name="Ereversedcyrillic" unicode="&#x42d;" horiz-adv-x="1147" 
d="M520 -12q-96 0 -180 28.5t-150.5 82t-114.5 132t-69 177.5h234q32 -91 100 -145t178 -54q68 0 123 22.5t96 63.5q25 24 41.5 53t24.5 68t12 93t4 128h-495v197h495q0 73 -4 124.5t-13 88t-24.5 64.5t-40.5 52q-41 41 -96 63.5t-123 22.5q-112 0 -181 -58t-99 -153h-236
q21 97 68 176.5t114.5 136t152.5 88t183 31.5q115 0 210 -39.5t173 -115.5q51 -53 80 -108.5t42 -123t15 -154.5t2 -200q0 -111 -2 -197t-15 -154.5t-42 -125.5t-80 -109q-78 -75 -173 -115t-210 -40z" />
    <glyph glyph-name="IUcyrillic" unicode="&#x42e;" horiz-adv-x="1792" 
d="M1163 -12q-231 0 -383 155q-45 45 -72.5 96.5t-43 112t-20.5 130t-7 155.5h-262v-637h-221v1458h221v-622h264q2 82 8 150.5t20.5 126.5t41 107.5t71.5 94.5q74 78 171.5 116.5t211.5 38.5q113 0 210 -38.5t173 -116.5q86 -86 114 -198.5t28 -258.5v-129
q0 -108 -3.5 -193t-16.5 -155t-42 -127t-80 -111q-151 -155 -383 -155zM1163 209q64 0 120 23.5t97 64.5q31 31 47.5 68.5t24.5 87t10 111t2 138.5v72q0 84 -4 145.5t-13 106.5t-25.5 78t-41.5 59q-86 86 -217 86q-65 0 -120.5 -22.5t-96.5 -63.5q-55 -57 -70.5 -151
t-15.5 -256v-78q0 -86 4 -146.5t13.5 -104.5t27 -74.5t41.5 -55.5q41 -41 96.5 -64.5t120.5 -23.5z" />
    <glyph glyph-name="IAcyrillic" unicode="&#x42f;" horiz-adv-x="1262" 
d="M27 199h49q35 0 57.5 5t36.5 18.5t25.5 35t25.5 53.5l82 197q16 35 44 77t67 68q-64 6 -122.5 34t-103.5 75t-71.5 114.5t-26.5 155.5q0 94 32 172t91 134.5t143 88t187 31.5h565v-1458h-223v600h-172q-49 0 -102.5 -25.5t-88.5 -107.5l-100 -234q-23 -53 -49.5 -96
t-60 -73.5t-80 -47t-107.5 -16.5h-98v199zM885 797v452h-334q-107 0 -173.5 -59.5t-66.5 -165.5t66.5 -166.5t173.5 -60.5h334z" />
    <glyph glyph-name="acyrillic" unicode="&#x430;" 
d="M420 -12q-172 2 -268 92q-99 88 -99 225q0 131 86 217q84 86 252 90h289v109q2 137 -213 133q-74 0 -123 -16q-47 -19 -74 -64l-164 125q119 156 351 152q196 2 313 -74q115 -76 119 -268v-709h-209v92h-4q-29 -53 -90 -78q-56 -26 -166 -26zM446 184q132 -4 185 31
q49 33 49 150v75h-250q-184 -4 -180 -125q0 -53 47 -90q47 -41 149 -41z" />
    <glyph glyph-name="becyrillic" unicode="&#x431;" horiz-adv-x="1065" 
d="M549 -12q-158 0 -257 73.5t-140 196.5q-13 35 -19 80t-10 94t-5 98.5t-1 92.5v79q0 84 3 163t18.5 150.5t46 133t83.5 111.5q43 38 91.5 62t100.5 37t105 20t105 14q32 4 52.5 19t25.5 46h213q-17 -227 -211 -258q-50 -8 -99 -13t-97 -14.5t-91 -27t-80 -49.5
q-47 -43 -68.5 -102.5t-23.5 -110.5h6q35 61 113.5 104t183.5 43q205 0 296 -134t91 -382q0 -135 -24.5 -230.5t-82.5 -164.5q-53 -64 -135 -97.5t-190 -33.5zM547 195q53 0 96 19t72 54q35 41 46 99.5t11 142.5q0 86 -11 147.5t-46 102.5q-29 33 -72 51t-96 18t-96 -19
t-70 -54q-35 -41 -45 -102.5t-10 -147.5q0 -98 16 -155.5t51 -94.5q29 -29 69 -45t85 -16z" />
    <glyph glyph-name="vecyrillic" unicode="&#x432;" horiz-adv-x="1047" 
d="M135 1038h498q143 0 228 -75.5t85 -202.5q0 -156 -145 -223q78 -35 120 -94.5t42 -149.5q0 -135 -83 -214t-231 -79h-514v1038zM608 174q70 0 110 38t40 101q0 66 -40 102t-110 36h-264v-277h264zM594 612q147 0 147 129q0 60 -37.5 91.5t-109.5 31.5h-250v-252h250z" />
    <glyph glyph-name="gecyrillic" unicode="&#x433;" horiz-adv-x="831" 
d="M135 1038h674v-196h-465v-842h-209v1038z" />
    <glyph glyph-name="decyrillic" unicode="&#x434;" horiz-adv-x="1100" 
d="M12 197h119q27 67 48.5 140t34.5 169t20.5 225t7.5 307h700v-841h143v-463h-196v266h-680v-266h-197v463zM733 197v645h-293q0 -127 -7 -223.5t-19.5 -173t-29.5 -137t-36 -111.5h385z" />
    <glyph glyph-name="iecyrillic" unicode="&#x435;" 
d="M545 -12q-84 0 -160 24q-35 11 -76 35q-37 16 -73 47q-68 62 -107 162q-45 98 -45 260q0 158 39 256q41 109 100 164q60 59 139 88q74 27 150 27q178 -4 301 -117q123 -115 127 -322v-172h-647q0 -125 72 -190q69 -66 176 -66q127 0 227 101l152 -129
q-162 -170 -375 -168zM731 612q-4 119 -65 183q-60 59 -154 59t-154 -59q-59 -64 -65 -183h438z" />
    <glyph glyph-name="zhecyrillic" unicode="&#x436;" horiz-adv-x="1516" 
d="M31 193h45q28 0 46.5 4t31 13t21.5 25.5t20 43.5l47 127q22 57 55 90.5t86 50.5q-35 12 -64.5 38.5t-46.5 73.5l-34 103q-11 29 -20 46t-22.5 26.5t-33 12.5t-49.5 3h-33v188h72q100 0 157.5 -41t91.5 -135l50 -139q16 -43 54 -69.5t91 -26.5h57v411h209v-411h56
q55 0 93 26.5t54 69.5l49 139q35 94 91.5 135t158.5 41h70v-188h-31q-31 0 -51.5 -3t-32.5 -12.5t-21.5 -26.5t-19.5 -46l-37 -103q-16 -47 -46 -73.5t-65 -38.5q54 -17 86.5 -50.5t55.5 -90.5l49 -127q10 -27 19.5 -43.5t21.5 -25.5t29.5 -13t46.5 -4h47v-193h-76
q-55 0 -97 10t-73 31.5t-54.5 57.5t-43.5 87l-58 148q-14 37 -34.5 56.5t-44 29.5t-48 12t-49.5 2h-45v-434h-209v434h-45q-24 0 -50 -2t-49.5 -12t-44 -29.5t-34.5 -56.5l-55 -148q-21 -51 -44.5 -87t-55 -57.5t-72.5 -31.5t-97 -10h-75v193z" />
    <glyph glyph-name="zecyrillic" unicode="&#x437;" horiz-adv-x="920" 
d="M414 -12q-129 0 -221.5 41t-172.5 127l152 129q51 -52 103.5 -76.5t138.5 -24.5q96 0 154.5 35t58.5 103q0 67 -44 94.5t-137 27.5h-151v172h154q75 0 120 33t45 92q0 60 -52 87.5t-148 27.5q-64 0 -125.5 -21.5t-110.5 -68.5l-149 129q37 37 75.5 65.5t86 49t106.5 31
t137 10.5q84 0 158 -13.5t127 -52.5q49 -35 74.5 -92t25.5 -123q0 -76 -40 -137.5t-111 -89.5q75 -29 121.5 -92.5t46.5 -149.5q0 -80 -38 -148.5t-108 -109.5q-53 -33 -124.5 -44t-151.5 -11z" />
    <glyph glyph-name="iicyrillic" unicode="&#x438;" horiz-adv-x="1139" 
d="M135 1038h209v-704l451 704h209v-1038h-209v715l-451 -715h-209v1038z" />
    <glyph glyph-name="iishortcyrillic" unicode="&#x439;" horiz-adv-x="1139" 
d="M135 1038h209v-704l451 704h209v-1038h-209v715l-451 -715h-209v1038zM363 1470q21 -82 72 -116q53 -35 135 -35q76 -2 131 33q57 32 76 118h123q-11 -129 -95 -204q-84 -82 -235 -82q-148 0 -231 82q-86 75 -99 204h123z" />
    <glyph glyph-name="kacyrillic" unicode="&#x43a;" horiz-adv-x="1040" 
d="M135 1038h209v-407h98q56 0 93.5 24.5t54.5 67.5l49 139q33 94 90 135t160 41h69v-188h-30q-31 0 -51.5 -3t-34 -12.5t-22.5 -26.5t-19 -46l-35 -103q-16 -47 -46 -73.5t-65 -38.5q54 -17 86.5 -50.5t55.5 -90.5l49 -127q10 -27 19 -43.5t21.5 -25.5t30 -13t46.5 -4h47
v-193h-76q-113 0 -172.5 42t-97.5 144l-58 148q-14 37 -34.5 56.5t-44 29.5t-48 12t-49.5 2h-86v-434h-209v1038z" />
    <glyph glyph-name="elcyrillic" unicode="&#x43b;" horiz-adv-x="1091" 
d="M12 197h33q33 0 61.5 5t52 30.5t41 77.5t30 145.5t18.5 236t6 346.5h702v-1038h-208v842h-295q0 -189 -10.5 -325t-30 -229t-50 -150.5t-70.5 -87.5t-90 -40t-110 -10h-80v197z" />
    <glyph glyph-name="emcyrillic" unicode="&#x43c;" horiz-adv-x="1302" 
d="M135 1038h207l311 -618l310 618h204v-1038h-209v666l-239 -476h-131l-244 476v-666h-209v1038z" />
    <glyph glyph-name="encyrillic" unicode="&#x43d;" horiz-adv-x="1100" 
d="M135 1038h209v-405h412v405h209v-1038h-209v436h-412v-436h-209v1038z" />
    <glyph glyph-name="ocyrillic" unicode="&#x43e;" 
d="M512 -12q-115 0 -195 45q-79 41 -120 88q-60 65 -86 149q-27 82 -27 250q0 166 27 252q28 88 86 146q43 51 120 92q78 41 195 41q121 0 199 -41q75 -41 116 -92q60 -58 88 -146q25 -90 25 -252q0 -164 -25 -250q-28 -86 -88 -149q-10 -10 -22 -22.5t-27 -22.5
q-28 -25 -67 -43q-80 -45 -199 -45zM512 197q55 0 100 22q45 21 68 53q33 43 41 90q4 25 7 64t3 92q0 55 -3 95t-7 67q-8 47 -41 86q-23 33 -68 55q-41 21 -100 21q-55 0 -98 -21q-41 -20 -70 -55q-27 -35 -39 -86q-12 -53 -12 -160q0 -108 12 -158q12 -51 39 -90
q31 -32 70 -53q49 -22 98 -22z" />
    <glyph glyph-name="pecyrillic" unicode="&#x43f;" horiz-adv-x="1100" 
d="M135 1038h830v-1038h-209v842h-412v-842h-209v1038z" />
    <glyph glyph-name="ercyrillic" unicode="&#x440;" horiz-adv-x="1063" 
d="M135 1038h209v-108q105 117 268 121q189 -2 279 -136q45 -51 59 -129q8 -41 11.5 -107.5t3.5 -160.5q0 -92 -3.5 -157.5t-11.5 -106.5q-14 -78 -59 -131q-45 -62 -113 -96q-67 -35 -166 -39q-77 0 -143 35q-68 34 -125 88v-531h-209v1458zM549 197q72 0 117 28
q43 27 61 74q21 43 27 104q2 29 2 57.5v57.5v61.5t-2 59.5q-6 61 -27 104q-18 45 -61 74q-43 25 -117 25q-70 0 -111 -29q-41 -27 -63 -76q-19 -45 -25 -102q-6 -60 -6 -117q0 -55 6 -110q6 -60 25 -105q22 -49 63 -76q39 -30 111 -30z" />
    <glyph glyph-name="escyrillic" unicode="&#x441;" horiz-adv-x="909" 
d="M526 -12q-186 0 -323 125q-146 125 -148 405q4 285 148 410q139 127 323 123q121 -4 213 -50q95 -49 160 -131l-154 -137q-79 107 -210 109q-269 4 -271 -324q2 -325 271 -321q133 4 210 108l154 -137q-70 -78 -160 -127q-94 -53 -213 -53z" />
    <glyph glyph-name="tecyrillic" unicode="&#x442;" horiz-adv-x="881" 
d="M342 842h-319v196h835v-196h-307v-842h-209v842z" />
    <glyph glyph-name="ucyrillic" unicode="&#x443;" horiz-adv-x="909" 
d="M115 -223h61q41 0 76 22q33 21 49 68l57 174l-372 997h221l246 -727h4l245 727h222l-447 -1253q-43 -117 -119 -162q-77 -43 -174 -43h-69v197z" />
    <glyph glyph-name="efcyrillic" unicode="&#x444;" horiz-adv-x="1534" 
d="M664 49q-46 -33 -94 -47t-121 -14q-101 0 -169.5 40t-115.5 107q-21 31 -34 64.5t-20.5 79t-9.5 104.5t-2 139q0 125 9.5 219.5t56.5 169.5q47 74 122.5 107t170.5 33q73 0 119.5 -18.5t87.5 -47.5v473h206v-473q41 29 87.5 47.5t119.5 18.5q94 0 170 -33t123 -107
q47 -75 56.5 -169.5t9.5 -219.5q0 -80 -2 -139t-9.5 -104.5t-20.5 -79t-34 -64.5q-47 -67 -115.5 -107t-169.5 -40q-73 0 -121.5 14t-93.5 47v-469h-206v469zM506 197q49 0 89 19.5t69 51.5v502q-29 33 -68 52.5t-88 19.5q-105 0 -154 -72t-49 -252q0 -176 49 -248.5
t152 -72.5zM1028 197q102 0 151.5 72.5t49.5 248.5q0 180 -49.5 252t-153.5 72q-49 0 -88 -19.5t-68 -52.5v-502q29 -32 69 -51.5t89 -19.5z" />
    <glyph glyph-name="hacyrillic" unicode="&#x445;" horiz-adv-x="983" 
d="M375 530l-340 508h250l207 -336l206 336h250l-340 -508l355 -530h-250l-221 346l-222 -346h-250z" />
    <glyph glyph-name="tsecyrillic" unicode="&#x446;" horiz-adv-x="1126" 
d="M915 0h-780v1038h209v-841h412v841h209v-841h147v-463h-197v266z" />
    <glyph glyph-name="checyrillic" unicode="&#x447;" horiz-adv-x="1038" 
d="M694 379q-53 -10 -129 -21.5t-168 -11.5q-129 0 -212 75t-83 234v383h209v-342q0 -84 40 -118.5t112 -34.5q65 0 126.5 8t104.5 16v471h209v-1038h-209v379z" />
    <glyph glyph-name="shacyrillic" unicode="&#x448;" horiz-adv-x="1599" 
d="M135 1038h209v-841h352v841h209v-841h350v841h209v-1038h-1329v1038z" />
    <glyph glyph-name="shchacyrillic" unicode="&#x449;" horiz-adv-x="1626" 
d="M1415 0h-1280v1038h209v-841h352v841h209v-841h350v841h209v-841h148v-463h-197v266z" />
    <glyph glyph-name="hardsigncyrillic" unicode="&#x44a;" horiz-adv-x="1159" 
d="M287 842h-264v196h473v-391h274q152 0 244 -89t92 -234q0 -146 -92 -235t-244 -89h-483v842zM748 184q71 0 111 38t40 106q0 65 -40 103t-111 38h-252v-285h252z" />
    <glyph glyph-name="yericyrillic" unicode="&#x44b;" horiz-adv-x="1442" 
d="M135 1038h209v-391h274q152 0 244 -89t92 -234q0 -146 -92 -235t-244 -89h-483v1038zM596 184q72 0 112 38t40 106q0 65 -40 103t-112 38h-252v-285h252zM1098 1038h209v-1038h-209v1038z" />
    <glyph glyph-name="softsigncyrillic" unicode="&#x44c;" horiz-adv-x="1008" 
d="M135 1038h209v-391h274q152 0 244 -89t92 -234q0 -146 -92 -235t-244 -89h-483v1038zM596 184q72 0 112 38t40 106q0 65 -40 103t-112 38h-252v-285h252z" />
    <glyph glyph-name="ereversedcyrillic" unicode="&#x44d;" horiz-adv-x="928" 
d="M399 -12q-215 0 -374 168l151 129q100 -101 227 -101q125 0 182.5 74t65.5 186h-356v172h356q-16 105 -74.5 170.5t-175.5 65.5q-63 0 -111 -23.5t-97 -70.5l-160 137q37 37 72.5 65.5t77.5 49t93.5 31t122.5 10.5q224 0 345.5 -139.5t121.5 -387.5q0 -256 -121.5 -396
t-345.5 -140z" />
    <glyph glyph-name="iucyrillic" unicode="&#x44e;" horiz-adv-x="1475" 
d="M954 -12q-168 0 -278 98q-66 57 -103.5 142t-42.5 208h-186v-436h-209v1038h209v-405h186q11 108 46.5 187t97.5 132q114 99 280 99q207 0 322 -138q55 -67 80.5 -159t25.5 -230q0 -155 -26.5 -249.5t-91.5 -163.5q-60 -60 -138.5 -91.5t-171.5 -31.5zM954 197
q101 0 162 71q33 37 45.5 96.5t12.5 153.5q0 100 -12.5 158.5t-47.5 97.5q-57 68 -160 68q-98 0 -159 -68q-35 -39 -47.5 -97.5t-12.5 -156.5q0 -96 12.5 -154.5t45.5 -99.5q59 -69 161 -69z" />
    <glyph glyph-name="iacyrillic" unicode="&#x44f;" horiz-adv-x="1046" 
d="M49 197h47q43 0 68.5 11t40.5 44l39 90q10 29 24.5 50.5t42.5 39.5q-98 17 -155.5 96.5t-57.5 196.5q0 147 91.5 230t246.5 83h475v-1038h-209v399h-84q-75 0 -111 -22.5t-65 -91.5l-47 -115q-18 -47 -40.5 -79t-51.5 -52.5t-68.5 -29.5t-93.5 -9h-92v197zM702 571v279
h-243q-78 0 -117 -38t-39 -103q0 -138 156 -138h243z" />
    <glyph glyph-name="iocyrillic" unicode="&#x451;" 
d="M545 -12q-84 0 -160 24q-35 11 -76 35q-37 16 -73 47q-68 62 -107 162q-45 98 -45 260q0 158 39 256q41 109 100 164q60 59 139 88q74 27 150 27q178 -4 301 -117q123 -115 127 -322v-172h-647q0 -125 72 -190q69 -66 176 -66q127 0 227 101l152 -129
q-162 -170 -375 -168zM731 612q-4 119 -65 183q-60 59 -154 59t-154 -59q-59 -64 -65 -183h438zM585 1200h222v221h-222v-221zM225 1200h221v221h-221v-221z" />
    <glyph glyph-name="djecyrillic" unicode="&#x452;" horiz-adv-x="1100" 
d="M580 -223h59q117 0 117 110v731q0 109 -57.5 166.5t-147.5 57.5t-148.5 -57.5t-58.5 -166.5v-618h-209v1151h-115v160h115v147h209v-147h209v-160h-209v-223h4q101 123 270 123q64 0 125.5 -22.5t110.5 -69t80 -114t31 -155.5v-819q0 -66 -22.5 -119t-62.5 -92
t-96.5 -59.5t-121.5 -20.5h-82v197z" />
    <glyph glyph-name="gjecyrillic" unicode="&#x453;" horiz-adv-x="831" 
d="M135 1038h674v-196h-465v-842h-209v1038zM301 1171h172l291 299h-275z" />
    <glyph glyph-name="ecyrillic" unicode="&#x454;" horiz-adv-x="928" 
d="M528 -12q-223 0 -345 140t-122 396q0 248 122 387.5t345 139.5q70 0 122 -10.5t94 -31t78 -49t73 -65.5l-160 -137q-49 47 -97 70.5t-112 23.5q-116 0 -174.5 -65.5t-75.5 -170.5h357v-172h-357q9 -112 66 -186t182 -74q127 0 228 101l151 -129q-160 -168 -375 -168z" />
    <glyph glyph-name="dzecyrillic" unicode="&#x455;" horiz-adv-x="983" 
d="M477 -12q-256 0 -457 186l146 143q127 -133 328 -133q88 0 147 35q57 33 57 98q0 56 -34 78q-35 21 -93 25l-184 16q-131 13 -213 88q-82 74 -86 207q4 160 113 240q106 80 274 80q35 0 67.5 -2t61.5 -7q29 -4 55.5 -11t51.5 -17q94 -41 172 -105l-129 -151
q-60 45 -127 71q-66 25 -152 25q-96 0 -137 -35t-41 -90q-4 -35 31 -61q30 -29 106 -37l172 -13q162 -12 234 -98q67 -84 67 -213q-4 -151 -123 -233q-59 -41 -136 -63.5t-171 -22.5z" />
    <glyph glyph-name="icyrillic" unicode="&#x456;" horiz-adv-x="492" 
d="M141 1038h209v-1038h-209v1038zM141 1458h209v-209h-209v209z" />
    <glyph glyph-name="yicyrillic" unicode="&#x457;" horiz-adv-x="492" 
d="M141 0h209v1038h-209v-1038zM315 1200h222v221h-222v-221zM-45 1200h221v221h-221v-221z" />
    <glyph glyph-name="jecyrillic" unicode="&#x458;" horiz-adv-x="528" 
d="M-14 -223h59q117 0 117 110v1151h209v-1167q0 -131 -84 -209q-82 -78 -219 -82h-82v197zM162 1458h209v-209h-209v209z" />
    <glyph glyph-name="ljecyrillic" unicode="&#x459;" horiz-adv-x="1620" 
d="M12 197h33q33 0 61.5 5t52 30.5t41 77.5t30 145.5t18.5 236t6 346.5h702v-391h275q151 0 243.5 -89t92.5 -234q0 -146 -92.5 -235t-243.5 -89h-483v842h-295q0 -189 -10.5 -325t-30 -229t-50 -150.5t-70.5 -87.5t-90 -40t-110 -10h-80v197zM1208 184q72 0 112 38t40 106
q0 65 -40 103t-112 38h-252v-285h252z" />
    </font>
</defs>
</svg>
