<?xml version="1.0" standalone="no"?>
<!DOCTYPE svg PUBLIC "-//W3C//DTD SVG 1.1//EN" "http://www.w3.org/Graphics/SVG/1.1/DTD/svg11.dtd" >
<svg xmlns="http://www.w3.org/2000/svg" xmlns:xlink="http://www.w3.org/1999/xlink" version="1.1">
<metadata>
Created by FontForge 20170731 at Fri Oct  2 23:02:24 2020
 By Aleksey,,,
Pangram Pangram
</metadata>
<defs>
<font id="MonumentExtended-Bold" horiz-adv-x="0" >
  <font-face 
    font-family="Monument Extended"
    font-weight="700"
    font-stretch="normal"
    units-per-em="1000"
    panose-1="0 0 8 0 0 0 0 0 0 0"
    ascent="800"
    descent="-200"
    x-height="594"
    cap-height="714"
    bbox="-1070 -307 2054 1066"
    underline-thickness="94"
    underline-position="-154"
    unicode-range="U+0020-25CA"
  />
<missing-glyph horiz-adv-x="550" 
d="M102 800h349v-1100h-349v1100zM366 690v36h-181v-36h71v-41h-72v-36h182v36h-72v41h72zM294 507v77h-110v-114h182v37h-72zM220 547h36v-40h-36v40zM366 404v36h-182v-36h72v-41h-72v-36h110v77h72zM366 264v110h-36v-72h-146v-38h182zM366 116v124h-110v-61h38v25h36
v-52h-110v88h-36v-124h182zM366 -74v124h-182v-124h182zM220 14h110v-52h-110v52zM366 -136v36h-182v-36h77l-77 -52v-36h182v36h-112l77 52h35z" />
    <glyph glyph-name="f_f" unicode="ff" horiz-adv-x="1188" 
d="M983 673q-44 0 -66.5 -6.5t-32 -23t-10.5 -49.5h261v-148h-261v-446h-192v446h-283v-446h-193v446h-153v148h153v20q0 97 61.5 141.5t194.5 44.5h160v-127h-114q-44 0 -66.5 -6.5t-32 -23t-10.5 -49.5h283v20q0 97 61.5 141.5t193.5 44.5h198v-127h-152z" />
    <glyph glyph-name="f_f_i" unicode="ffi" horiz-adv-x="1419" 
d="M983 673q-44 0 -66.5 -6.5t-32 -23t-10.5 -49.5h476v-594h-193v446h-283v-446h-192v446h-283v-446h-193v446h-153v148h153v20q0 97 61.5 141.5t194.5 44.5h172v-127h-126q-44 0 -66.5 -6.5t-32 -23t-10.5 -49.5h283v20q0 97 61.5 141.5t193.5 44.5h413v-127h-367z" />
    <glyph glyph-name="f_i" unicode="fi" horiz-adv-x="944" 
d="M508 673q-44 0 -66.5 -6.5t-32 -23t-10.5 -49.5h475v-594h-192v446h-283v-446h-193v446h-153v148h153v20q0 97 61.5 141.5t194.5 44.5h412v-127h-366z" />
    <glyph glyph-name="f_l" unicode="fl" horiz-adv-x="953" 
d="M884 800v-800h-193v673h-183q-44 0 -66.5 -6.5t-32 -23t-10.5 -49.5h192v-148h-192v-446h-193v446h-153v148h153v20q0 97 61.5 141.5t194.5 44.5h422z" />
    <glyph glyph-name=".notdef" horiz-adv-x="550" 
d="M102 800h349v-1100h-349v1100zM366 690v36h-181v-36h71v-41h-72v-36h182v36h-72v41h72zM294 507v77h-110v-114h182v37h-72zM220 547h36v-40h-36v40zM366 404v36h-182v-36h72v-41h-72v-36h110v77h72zM366 264v110h-36v-72h-146v-38h182zM366 116v124h-110v-61h38v25h36
v-52h-110v88h-36v-124h182zM366 -74v124h-182v-124h182zM220 14h110v-52h-110v52zM366 -136v36h-182v-36h77l-77 -52v-36h182v36h-112l77 52h35z" />
    <glyph glyph-name=".null" 
 />
    <glyph glyph-name="nonmarkingreturn" horiz-adv-x="333" 
 />
    <glyph glyph-name="space" unicode=" " horiz-adv-x="393" 
 />
    <glyph glyph-name="exclam" unicode="!" horiz-adv-x="352" 
d="M69 700h214l-7 -472h-200zM76 0v155h200v-155h-200z" />
    <glyph glyph-name="quotedbl" unicode="&#x22;" horiz-adv-x="650" 
d="M364 774h217l-17 -361h-183zM69 774h217l-17 -361h-183z" />
    <glyph glyph-name="numbersign" unicode="#" horiz-adv-x="1354" 
d="M1264 558v-149h-228l-65 -218h193v-148h-237l-58 -193h-187l58 193h-278l-58 -193h-187l58 193h-186v148h230l65 218h-195v149h239l65 217h188l-65 -217h277l65 217h188l-65 -217h183zM506 191h278l65 218h-278z" />
    <glyph glyph-name="dollar" unicode="$" horiz-adv-x="1033" 
d="M860 36q-103 -54 -297 -56v-80h-93v81q-192 9 -293 68.5t-108 184.5h217q0 -42 42.5 -66.5t141.5 -30.5v148q-137 11 -220.5 37t-123.5 73t-40 123q0 105 101.5 159t282.5 57v66h93v-68q175 -10 270.5 -71t99.5 -169h-216q0 39 -37 59.5t-117 25.5v-139
q143 -11 224.5 -29t128.5 -63t47 -130q0 -126 -103 -180zM315 482q13 -12 48.5 -20t106.5 -16v133q-96 -1 -132 -17t-36 -47q0 -21 13 -33zM563 135q104 2 144 20t40 52q0 25 -13.5 37.5t-51.5 20t-119 13.5v-143z" />
    <glyph glyph-name="percent" unicode="%" horiz-adv-x="1512" 
d="M194 283.5q-63 34.5 -94 90t-31 118.5q0 62 31 117.5t94 90t154 34.5q92 0 155.5 -34.5t94 -89.5t30.5 -118t-30.5 -118.5t-94 -90t-155.5 -34.5q-91 0 -154 34.5zM912 714h178l-492 -714h-177zM437 409.5q30 32.5 30 83.5q0 50 -30 81.5t-89 31.5q-58 0 -87.5 -31.5
t-29.5 -81.5q0 -51 29.5 -83.5t87.5 -32.5q59 0 89 32.5zM1008 14.5q-63 34.5 -93.5 90t-30.5 118.5t30.5 118t93.5 89.5t154 34.5q92 0 155.5 -34.5t94 -89.5t30.5 -118t-30.5 -118.5t-94 -90t-155.5 -34.5q-91 0 -154 34.5zM1251.5 140.5q29.5 32.5 29.5 83.5
q0 50 -29.5 81.5t-89.5 31.5q-58 0 -87.5 -31.5t-29.5 -81.5q0 -51 29.5 -83.5t87.5 -32.5q60 0 89.5 32.5z" />
    <glyph glyph-name="ampersand" unicode="&#x26;" horiz-adv-x="1103" 
d="M1033 0h-253l-63 45q-121 -65 -281 -65q-177 0 -272 48.5t-95 146.5q0 75 51 119.5t143 75.5q-45 39 -68 79t-23 89q0 59 37.5 100.5t100 61.5t136.5 20q122 0 195.5 -46.5t73.5 -129.5q0 -66 -49.5 -105t-141.5 -70q26 -16 38 -25l161 -117q38 54 48 139h161
q-9 -131 -92 -225zM381.5 575q-27.5 -18 -27.5 -52q0 -28 21 -51.5t59 -48.5q67 23 93.5 46t26.5 54q0 34 -27 52t-71 18q-47 0 -74.5 -18zM594 133l-142 101q-28 20 -106 73q-41 -21 -61 -45t-20 -53q0 -48 49.5 -71.5t149.5 -23.5q73 0 130 19z" />
    <glyph glyph-name="quotesingle" unicode="'" horiz-adv-x="355" 
d="M69 774h217l-17 -361h-183z" />
    <glyph glyph-name="parenleft" unicode="(" horiz-adv-x="644" 
d="M200 683q131 117 374 117v-162q-99 0 -163.5 -31t-98 -105.5t-33.5 -201.5t33.5 -201.5t98 -105.5t163.5 -31v-162q-243 0 -374 117t-131 383t131 383z" />
    <glyph glyph-name="parenright" unicode=")" horiz-adv-x="644" 
d="M443 -83q-131 -117 -374 -117v162q99 0 164 31t98.5 105.5t33.5 201.5t-33.5 201.5t-98 105.5t-164.5 31v162q243 0 374 -117t131 -383t-131 -383z" />
    <glyph glyph-name="asterisk" unicode="*" horiz-adv-x="658" 
d="M126 402l-57 105l179 73l-179 72l58 106l157 -103l-19 158l127 1l-18 -159l157 103l57 -106l-178 -72l178 -73l-56 -105l-158 103l18 -160h-127l19 160z" />
    <glyph glyph-name="plus" unicode="+" horiz-adv-x="939" 
d="M557 414h312v-148h-312v-266h-175v266h-313v148h313v266h175v-266z" />
    <glyph glyph-name="comma" unicode="," horiz-adv-x="338" 
d="M69 0v155h200v-155l-96 -208h-90l59 208h-73z" />
    <glyph glyph-name="hyphen" unicode="-" horiz-adv-x="979" 
d="M89 266v148h800v-148h-800z" />
    <glyph glyph-name="period" unicode="." horiz-adv-x="338" 
d="M69 0v155h200v-155h-200z" />
    <glyph glyph-name="slash" unicode="/" horiz-adv-x="609" 
d="M353 775h187l-277 -925h-187z" />
    <glyph glyph-name="zero" unicode="0" horiz-adv-x="966" 
d="M251.5 27.5q-95.5 47.5 -144 132.5t-48.5 198q0 112 48.5 197t144 132t231.5 47q135 0 230.5 -47.5t144.5 -132t49 -196.5t-49 -197.5t-144.5 -133t-230.5 -47.5q-136 0 -231.5 47.5zM641.5 202.5q56.5 53.5 56.5 155.5q0 101 -56 154t-159 53t-158.5 -52.5t-55.5 -154.5
t56 -155.5t158 -53.5t158.5 53.5z" />
    <glyph glyph-name="one" unicode="1" horiz-adv-x="823" 
d="M515 714v-552h239v-162h-685v162h239l1 377l-191 -62l-49 157l254 80h192z" />
    <glyph glyph-name="two" unicode="2" horiz-adv-x="927" 
d="M806.5 384q-50.5 -51 -120.5 -78.5t-178 -55.5q-91 -24 -135 -42t-56 -46h533v-162h-784v98q2 79 53 131.5t121 81.5t180 61q78 23 121 39t71.5 39.5t28.5 55.5q0 39 -33 59.5t-118 20.5q-95 0 -143 -30t-48 -94h-216q9 141 120.5 206.5t290.5 65.5q171 0 267 -54.5
t96 -164.5q0 -80 -50.5 -131z" />
    <glyph glyph-name="three" unicode="3" horiz-adv-x="933" 
d="M874 205q0 -111 -98 -168t-284 -57q-214 0 -318.5 64t-114.5 205h210q0 -62 50.5 -88t161.5 -26q98 0 138 19.5t40 63.5q0 34 -21.5 52t-72.5 25.5t-147 7.5v121q89 0 139 8t71 26t21 50q0 39 -38.5 58.5t-132.5 19.5q-77 0 -122.5 -12t-66 -38.5t-20.5 -70.5h-203
q10 139 118 204t310 65q179 0 274.5 -54.5t95.5 -160.5q0 -58 -30 -95.5t-86 -59.5q126 -45 126 -159z" />
    <glyph glyph-name="four" unicode="4" horiz-adv-x="974" 
d="M769 261h136v-155h-136v-106h-206v106h-494v155l494 453h206v-453zM563 521l-286 -260h286v260z" />
    <glyph glyph-name="five" unicode="5" horiz-adv-x="913" 
d="M716.5 459.5q65.5 -28.5 101 -81.5t35.5 -126q0 -129 -100 -200.5t-282 -71.5q-178 0 -292.5 61.5t-119.5 189.5h217q5 -46 53.5 -71t137.5 -25q86 0 128 30t42 86q0 110 -151 110q-49 0 -92 -13t-102 -47l-191 39l67 374h629v-155h-463l-20 -125q57 26 115.5 40
t133.5 14q88 0 153.5 -28.5z" />
    <glyph glyph-name="six" unicode="6" horiz-adv-x="932" 
d="M780.5 426.5q82.5 -61.5 82.5 -181.5q0 -131 -96.5 -198t-281.5 -67q-216 0 -315 86.5t-101 273.5v3v3q2 205 123.5 296.5t329.5 91.5q80 0 139.5 -5.5t144.5 -17.5v-155l-25 3q-75 10 -124.5 15t-110.5 5q-88 0 -141 -13.5t-82 -48t-35 -96.5q107 67 260 67
q150 0 232.5 -61.5zM604 164q42 29 42 84t-41.5 84t-138.5 29q-180 0 -180 -113t180 -113q96 0 138 29z" />
    <glyph glyph-name="seven" unicode="7" horiz-adv-x="857" 
d="M57 714h743v-162q-135 -83 -216 -166.5t-118 -177t-37 -208.5h-209q0 168 78.5 306.5t266.5 245.5h-508v162z" />
    <glyph glyph-name="eight" unicode="8" horiz-adv-x="980" 
d="M914 195q0 -104 -95.5 -159.5t-328.5 -55.5q-159 0 -252.5 26t-132.5 73t-39 116t45 114.5t137 69.5q-119 48 -119 160q0 97 91 146t270 49q178 0 269.5 -49.5t91.5 -145.5q0 -112 -119 -160q182 -45 182 -184zM368 582q-36 -17 -36 -55t36 -55.5t122 -17.5t122 17.5
t36 55.5t-36 55t-122 17t-122 -17zM644 143.5q47 22.5 47 67.5t-46.5 66.5t-154.5 21.5t-154.5 -21.5t-46.5 -66.5q0 -46 47 -68t154 -22t154 22.5z" />
    <glyph glyph-name="nine" unicode="9" horiz-adv-x="939" 
d="M869 368v0q-2 -205 -123 -296.5t-329 -91.5q-80 0 -139.5 5.5t-144.5 17.5v155l25 -3q75 -10 124.5 -15t110.5 -5q88 0 141 13.5t82 48t35 96.5q-109 -67 -260 -67q-150 0 -232.5 61t-82.5 182q0 131 96.5 198t281.5 67q215 0 314 -86.5t101 -273.5v-3v-3zM653 465
q0 114 -180 114q-97 0 -138.5 -29t-41.5 -85q0 -55 41.5 -83.5t138.5 -28.5q180 0 180 112z" />
    <glyph glyph-name="colon" unicode=":" horiz-adv-x="338" 
d="M69 0v155h200v-155h-200zM69 300v155h200v-155h-200z" />
    <glyph glyph-name="semicolon" unicode=";" horiz-adv-x="338" 
d="M69 0v155h200v-155l-96 -208h-90l59 208h-73zM69 300v155h200v-155h-200z" />
    <glyph glyph-name="less" unicode="&#x3c;" horiz-adv-x="939" 
d="M69 468l800 132v-168l-640 -92l640 -92v-168l-800 132v256z" />
    <glyph glyph-name="equal" unicode="=" horiz-adv-x="939" 
d="M69 426v148h800v-148h-800zM69 106v148h800v-148h-800z" />
    <glyph glyph-name="greater" unicode="&#x3e;" horiz-adv-x="939" 
d="M69 432v168l800 -132v-256l-800 -132v168l640 92z" />
    <glyph glyph-name="question" unicode="?" horiz-adv-x="886" 
d="M313 228q0 62 26.5 102.5t63 61.5t94.5 44q53 21 78 38t25 45q0 30 -33 48.5t-106 18.5q-95 0 -142 -31.5t-47 -104.5h-203q5 147 109.5 215.5t286.5 68.5q352 0 352 -189q0 -50 -23 -84t-56 -54t-86 -43q-46 -20 -73 -36t-45.5 -40.5t-18.5 -59.5h-202zM313 0v155h199
v-155h-199z" />
    <glyph glyph-name="at" unicode="@" horiz-adv-x="1365" 
d="M992.5 -122q114.5 27 213.5 72l61 -117q-75 -38 -142.5 -63.5t-164.5 -43t-225 -17.5q-339 0 -502.5 141t-163.5 418q0 264 164 408.5t495 144.5q280 0 423.5 -126.5t143.5 -370.5q0 -166 -62.5 -252t-194.5 -86q-79 0 -130 32t-75 85q-59 -98 -201 -98q-126 0 -190 72
t-64 188t64 188t190 72q121 0 181 -71v58h145v-307q0 -40 5.5 -64.5t24 -39.5t55.5 -15q56 0 77 55t21 164q0 144 -43 225t-132 115t-238 34q-177 0 -287.5 -43t-163.5 -133.5t-53 -234.5q0 -150 53 -241t165 -133.5t293 -42.5q143 0 257.5 27zM780 171q33 32 33 94t-33 94
t-107 32q-75 0 -108 -32t-33 -94t33 -94t108 -32q74 0 107 32z" />
    <glyph glyph-name="A" unicode="A" horiz-adv-x="1140" 
d="M1080 0h-222l-68 135h-440l-68 -135h-223l368 714h286zM570 569l-141 -279h282z" />
    <glyph glyph-name="B" unicode="B" horiz-adv-x="977" 
d="M880.5 308.5q36.5 -42.5 36.5 -109.5q0 -93 -58.5 -146t-182.5 -53h-607v714h579q236 0 236 -177q0 -57 -27 -98t-76 -67q63 -21 99.5 -63.5zM276 559v-133h305q35 0 53 3t29 17.5t11 45.5q0 32 -11 46.5t-29 17.5t-53 3h-305zM614 155q31 0 48 3.5t28 18t11 46.5t-11 46
t-28 17.5t-48 3.5h-338v-135h338z" />
    <glyph glyph-name="C" unicode="C" horiz-adv-x="996" 
d="M173.5 637.5q114.5 96.5 329.5 96.5q194 0 305.5 -78.5t127.5 -218.5h-220q-11 53 -65 87t-148 34q-113 0 -170 -52t-57 -148t57.5 -149t169.5 -53q94 0 148 34.5t65 88.5h220q-16 -141 -127.5 -220t-305.5 -79q-215 0 -329.5 97t-114.5 281q0 183 114.5 279.5z" />
    <glyph glyph-name="D" unicode="D" horiz-adv-x="977" 
d="M750 674.5q76 -39.5 121.5 -120t45.5 -197.5t-45.5 -197.5t-121.5 -120t-167 -39.5h-514v714h514q91 0 167 -39.5zM496 176q67 0 110 12t69 51t26 118t-26 118t-69 51t-110 12h-220v-362h220z" />
    <glyph glyph-name="E" unicode="E" horiz-adv-x="876" 
d="M809 714v-162h-533v-114h513v-162h-513v-114h533v-162h-740v714h740z" />
    <glyph glyph-name="F" unicode="F" horiz-adv-x="876" 
d="M809 714v-176h-533v-152h473v-175h-473v-211h-207v714h740z" />
    <glyph glyph-name="G" unicode="G" horiz-adv-x="996" 
d="M115.5 562q56.5 85 158.5 128.5t237 43.5q124 0 218 -36t147 -99.5t60 -144.5h-220q-11 45 -62 74.5t-142 29.5q-127 0 -181.5 -60t-54.5 -147q0 -90 57.5 -149.5t203.5 -59.5q69 0 120 10.5t104 33.5v68h-253v135h428v-305q-105 -59 -201 -81.5t-209 -22.5
q-141 0 -246.5 44t-163 129t-57.5 205q0 119 56.5 204z" />
    <glyph glyph-name="H" unicode="H" horiz-adv-x="1030" 
d="M754 445v269h207v-714h-207v269h-478v-269h-207v714h207v-269h478z" />
    <glyph glyph-name="I" unicode="I" horiz-adv-x="345" 
d="M69 714h207v-714h-207v714z" />
    <glyph glyph-name="J" unicode="J" horiz-adv-x="979" 
d="M909 351q0 -185 -101.5 -276.5t-318.5 -91.5q-214 0 -317 91.5t-103 276.5h207q0 -83 44 -137.5t169 -54.5q126 0 170 54.5t44 137.5v187h-298v176h504v-363z" />
    <glyph glyph-name="K" unicode="K" horiz-adv-x="1019" 
d="M650 714h310l-360 -299l360 -415h-260l-250 290l-174 -145v-145h-207v714h207v-320z" />
    <glyph glyph-name="L" unicode="L" horiz-adv-x="823" 
d="M276 714v-538h495v-176h-702v714h207z" />
    <glyph glyph-name="M" unicode="M" horiz-adv-x="1280" 
d="M1210 714v-714h-206v526l-269 -526h-191l-268 526v-526h-207v714h323l248 -478l248 478h322z" />
    <glyph glyph-name="N" unicode="N" horiz-adv-x="1070" 
d="M794 192v522h206v-714h-303l-421 522v-522h-207v714h304z" />
    <glyph glyph-name="O" unicode="O" horiz-adv-x="1046" 
d="M179 79q-120 99 -120 279q0 179 120 277.5t344 98.5q149 0 253 -44.5t157.5 -129t53.5 -202.5q0 -119 -53.5 -203.5t-157.5 -129.5t-253 -45q-224 0 -344 99zM771 358q0 200 -248 200q-247 0 -247 -200q0 -202 247 -202q248 0 248 202z" />
    <glyph glyph-name="P" unicode="P" horiz-adv-x="971" 
d="M836 643.5q76 -70.5 76 -194.5q0 -125 -76 -195.5t-206 -70.5h-354v-183h-207v714h561q130 0 206 -70.5zM573 359q39 0 63.5 4.5t42 24t17.5 61.5q0 41 -17.5 60.5t-42 24t-63.5 4.5h-297v-179h297z" />
    <glyph glyph-name="Q" unicode="Q" horiz-adv-x="1040" 
d="M995 40l-105 -105l-102 95q-108 -50 -265 -50q-224 0 -344 99t-120 279q0 179 120 277.5t344 98.5q149 0 253 -44.5t157.5 -129t53.5 -202.5q0 -144 -79 -237zM637 170l-111 104l105 105l122 -114q18 41 18 93q0 200 -248 200q-247 0 -247 -200q0 -202 247 -202
q66 0 114 14z" />
    <glyph glyph-name="R" unicode="R" horiz-adv-x="985" 
d="M870 251.5q32 -34.5 32 -94.5v-157h-206v118q0 35 -7 52.5t-25 25t-54 7.5h-334v-203h-207v714h548q141 0 215 -56.5t74 -168.5q0 -150 -127 -197q59 -6 91 -40.5zM276 545v-173h290q42 0 66 4t40.5 23t16.5 59q0 41 -16.5 59.5t-40.5 23t-66 4.5h-290z" />
    <glyph glyph-name="S" unicode="S" horiz-adv-x="1013" 
d="M276 234q0 -48 56.5 -73.5t190.5 -25.5q122 0 168 18t46 54q0 27 -17 40t-66 20.5t-161 14.5q-149 10 -239.5 35.5t-134 73.5t-43.5 127q0 108 108 162t300 54q208 0 321.5 -62t117.5 -180h-216q0 47 -54 67t-175 20q-107 0 -146.5 -16t-39.5 -48q0 -23 17 -36
t64.5 -21.5t146.5 -16.5q160 -12 245.5 -29t136.5 -62t51 -134q0 -130 -108.5 -183t-314.5 -53q-227 0 -345.5 59t-125.5 195h217z" />
    <glyph glyph-name="T" unicode="T" horiz-adv-x="979" 
d="M919 714v-176h-326v-538h-207v538h-327v176h860z" />
    <glyph glyph-name="U" unicode="U" horiz-adv-x="1019" 
d="M949 348q0 -185 -106.5 -276.5t-333.5 -91.5q-228 0 -334 91t-106 277v366h207v-359q0 -88 49 -143.5t184 -55.5t184.5 56t49.5 143v359h206v-366z" />
    <glyph glyph-name="V" unicode="V" horiz-adv-x="1140" 
d="M570 145l288 569h222l-367 -714h-286l-368 714h223z" />
    <glyph glyph-name="W" unicode="W" horiz-adv-x="1650" 
d="M1182 159l197 555h211l-260 -714h-292l-214 554l-219 -554h-291l-255 714h211l192 -555l223 555h280z" />
    <glyph glyph-name="X" unicode="X" horiz-adv-x="1146" 
d="M346 0h-283l370 357l-370 357h283l227 -229l227 229h283l-370 -357l370 -357h-283l-227 229z" />
    <glyph glyph-name="Y" unicode="Y" horiz-adv-x="1127" 
d="M563 410l244 304h260l-399 -477v-237h-209v237l-400 477h260z" />
    <glyph glyph-name="Z" unicode="Z" horiz-adv-x="943" 
d="M69 714h804v-176l-500 -362h500v-176h-804v176l501 362h-501v176z" />
    <glyph glyph-name="bracketleft" unicode="[" horiz-adv-x="644" 
d="M574 800v-162h-295v-676h295v-162h-505v1000h505z" />
    <glyph glyph-name="backslash" unicode="\" horiz-adv-x="602" 
d="M346 -150l-277 925h188l276 -925h-187z" />
    <glyph glyph-name="bracketright" unicode="]" horiz-adv-x="644" 
d="M69 800h505v-1000h-505v162h296v676h-296v162z" />
    <glyph glyph-name="asciicircum" unicode="^" horiz-adv-x="940" 
d="M597 800l273 -450h-192l-208 349l-209 -349h-192l275 450h253z" />
    <glyph glyph-name="underscore" unicode="_" horiz-adv-x="1179" 
d="M89 -208v155h1000v-155h-1000z" />
    <glyph glyph-name="grave" unicode="`" horiz-adv-x="528" 
d="M69 860l389 -80v-103l-389 80v103z" />
    <glyph glyph-name="a" unicode="a" horiz-adv-x="938" 
d="M714 583.5q82 -30.5 123 -98.5t42 -181v-304h-193v77q-81 -44 -174.5 -67t-185.5 -23q-131 0 -204 46.5t-73 147.5q0 110 99 157.5t250 47.5q137 0 288 -36q-4 71 -64 97t-150 26q-76 0 -155.5 -11.5t-181.5 -37.5l-37 136q214 54 406 54q128 0 210 -30.5zM530.5 143.5
q84.5 15.5 155.5 34.5v51q-138 30 -264 30q-87 0 -128.5 -16t-41.5 -52t33 -49.5t106 -13.5q55 0 139.5 15.5z" />
    <glyph glyph-name="b" unicode="b" horiz-adv-x="949" 
d="M722.5 581.5q77.5 -32.5 125.5 -103.5t48 -181t-48 -181t-125.5 -103.5t-170.5 -32.5q-96 0 -171 31t-119 94v-105h-193v800h193v-311q44 63 119 94t171 31q93 0 170.5 -32.5zM640 181.5q54 39.5 54 115.5t-54.5 115.5t-160.5 39.5t-161.5 -40t-55.5 -115
q0 -76 55.5 -115.5t161.5 -39.5q107 0 161 39.5z" />
    <glyph glyph-name="c" unicode="c" horiz-adv-x="939" 
d="M163 533.5q110 80.5 310 80.5q179 0 284.5 -64.5t128.5 -192.5h-199q-35 102 -214 102q-111 0 -168 -39t-57 -123t57 -123t168 -39q179 0 214 102h199q-23 -128 -128.5 -192.5t-284.5 -64.5q-200 0 -310 80.5t-110 236.5t110 236.5z" />
    <glyph glyph-name="d" unicode="d" horiz-adv-x="949" 
d="M687 800h193v-800h-193v105q-44 -63 -119 -94t-171 -31q-93 0 -170.5 32.5t-125.5 103.5t-48 181t48 181t125.5 103.5t170.5 32.5q96 0 171 -31t119 -94v311zM631.5 181.5q55.5 39.5 55.5 115.5q0 75 -55.5 115t-161.5 40t-160 -39.5t-54 -115.5t53.5 -115.5t160.5 -39.5
q106 0 161.5 39.5z" />
    <glyph glyph-name="e" unicode="e" horiz-adv-x="942" 
d="M623 148.5q48 20.5 67 58.5h193q-30 -110 -130 -168.5t-273 -58.5q-199 0 -313 81t-114 236q0 103 53.5 174.5t147.5 107t216 35.5q195 0 307 -86.5t112 -266.5h-638q11 -72 69 -102.5t166 -30.5q89 0 137 20.5zM331 453.5q-53 -25.5 -72 -82.5h427q-19 57 -72.5 82.5
t-143.5 25.5q-86 0 -139 -25.5z" />
    <glyph glyph-name="f" unicode="f" horiz-adv-x="699" 
d="M448.5 674.5q-27.5 -8.5 -38 -27.5t-11.5 -53h247v-148h-247v-446h-193v446h-153v148h153v20q0 98 66 150.5t197 52.5q93 0 177 -10v-131q-81 7 -118 7q-52 0 -79.5 -8.5z" />
    <glyph glyph-name="g" unicode="g" horiz-adv-x="949" 
d="M687 594h192v-527q-1 -171 -93.5 -249t-280.5 -78q-193 0 -407 50l22 148q104 -21 185 -32t159 -11q116 0 169.5 40t53.5 136v45q-44 -61 -118.5 -91.5t-169.5 -30.5q-92 0 -170.5 32t-127 101.5t-48.5 176.5t48.5 176.5t127 101.5t170.5 32q95 0 169.5 -30.5
t118.5 -91.5v102zM687 304q0 71 -53.5 109.5t-162.5 38.5t-162.5 -38.5t-53.5 -109.5q0 -148 216 -148t216 148z" />
    <glyph glyph-name="h" unicode="h" horiz-adv-x="993" 
d="M840.5 542q82.5 -72 83.5 -232v-310h-192v245q0 107 -47 157t-163 50q-122 0 -191 -55t-69 -163v-234h-193v800h193v-342q59 75 142.5 115.5t202.5 40.5q151 0 233.5 -72z" />
    <glyph glyph-name="i" unicode="i" horiz-adv-x="331" 
d="M69 660v140h193v-140h-193zM69 0v594h193v-594h-193z" />
    <glyph glyph-name="j" unicode="j" horiz-adv-x="529" 
d="M270 660v140h193v-140h-193zM463 27q0 -141 -60 -214t-197 -73q-91 0 -177 15v150q34 -4 63.5 -7t59.5 -3q50 0 74.5 10.5t34 40t9.5 90.5v558h193v-567z" />
    <glyph glyph-name="k" unicode="k" horiz-adv-x="960" 
d="M606 594h301l-358 -253l358 -341h-251l-248 240l-146 -103v-137h-193v800h193v-452z" />
    <glyph glyph-name="l" unicode="l" horiz-adv-x="331" 
d="M69 0v800h193v-800h-193z" />
    <glyph glyph-name="m" unicode="m" horiz-adv-x="1416" 
d="M1272 544q73 -70 74 -217v-327h-192v300q0 80 -38 116t-122 36q-81 0 -135.5 -41.5t-54.5 -123.5v-287h-192v300q0 80 -38 116t-122 36q-81 0 -135.5 -41t-54.5 -124v-287h-193v594h193v-110q104 130 272 130q90 0 155.5 -38.5t94.5 -118.5q108 157 292 157
q123 0 196 -70z" />
    <glyph glyph-name="n" unicode="n" horiz-adv-x="993" 
d="M840.5 542q82.5 -72 83.5 -232v-310h-192v245q0 107 -47 157t-163 50q-122 0 -191 -55t-69 -163v-234h-193v594h193v-136q59 75 142.5 115.5t202.5 40.5q151 0 233.5 -72z" />
    <glyph glyph-name="o" unicode="o" horiz-adv-x="949" 
d="M162.5 62.5q-109.5 82.5 -109.5 234.5t109.5 234.5t311.5 82.5q203 0 312.5 -82.5t109.5 -234.5t-109.5 -234.5t-312.5 -82.5q-202 0 -311.5 82.5zM639.5 174.5q54.5 39.5 54.5 122.5t-55 122.5t-165 39.5t-164.5 -39.5t-54.5 -122.5t54.5 -122.5t164.5 -39.5
q111 0 165.5 39.5z" />
    <glyph glyph-name="p" unicode="p" horiz-adv-x="949" 
d="M723.5 581.5q77.5 -32.5 125.5 -103.5t48 -181t-48 -181t-125.5 -103.5t-170.5 -32.5q-97 0 -172 31t-119 94v-345h-192v834h192v-105q44 63 119 94t172 31q93 0 170.5 -32.5zM640 181.5q54 39.5 54 115.5q0 75 -55.5 115t-161.5 40t-160.5 -39.5t-54.5 -115.5
t55.5 -115.5t162.5 -39.5q106 0 160 39.5z" />
    <glyph glyph-name="q" unicode="q" horiz-adv-x="949" 
d="M687 594h192v-834h-192v345q-44 -63 -119 -94t-172 -31q-93 0 -170.5 32.5t-125 103.5t-47.5 181t47.5 181t125 103.5t170.5 32.5q97 0 172 -31t119 -94v105zM631.5 181.5q55.5 39.5 55.5 115.5t-54.5 115.5t-160.5 39.5t-161.5 -40t-55.5 -115q0 -76 54 -115.5
t160 -39.5q107 0 162.5 39.5z" />
    <glyph glyph-name="r" unicode="r" horiz-adv-x="722" 
d="M600.5 607.5q34.5 -6.5 72.5 -20.5v-169q-46 15 -81 21t-74 6q-65 0 -127 -26t-129 -97v-322h-193v594h193v-121q54 77 117 109t144 32q43 0 77.5 -6.5z" />
    <glyph glyph-name="s" unicode="s" horiz-adv-x="919" 
d="M255 200q2 -31 21.5 -49.5t67 -27.5t131.5 -9q79 0 120 6.5t55 20t14 37.5t-16 35t-57.5 16.5t-144.5 12.5q-141 10 -217.5 25.5t-116.5 50.5t-40 101q0 108 104 151.5t281 43.5q175 0 278.5 -44.5t111.5 -153.5h-203q-2 40 -46.5 55t-148.5 15q-96 0 -135 -13.5
t-39 -39.5q0 -19 15 -29t57 -16.5t139 -14.5l23 -2q139 -12 207.5 -25t109.5 -49.5t41 -109.5q0 -118 -97 -162.5t-285 -44.5q-204 0 -317 49t-115 171h202z" />
    <glyph glyph-name="t" unicode="t" horiz-adv-x="704" 
d="M649 446h-264v-186q0 -64 23.5 -91t87.5 -27q37 0 69 3.5t84 13.5v-157q-112 -22 -198 -22q-135 0 -197 52.5t-62 172.5v241h-139v148h139v119l193 54v-173h264v-148z" />
    <glyph glyph-name="u" unicode="u" horiz-adv-x="994" 
d="M731 594h193v-594h-193v136q-59 -75 -142.5 -115.5t-202.5 -40.5q-151 0 -233.5 72t-83.5 232v310h193v-245q0 -107 47 -157t162 -50q122 0 191 55t69 163v234z" />
    <glyph glyph-name="v" unicode="v" horiz-adv-x="1000" 
d="M500 107l247 487h200l-304 -594h-286l-304 594h199z" />
    <glyph glyph-name="w" unicode="w" horiz-adv-x="1564" 
d="M1118 130l200 464h194l-256 -594h-273l-201 417l-201 -417h-273l-255 594h193l200 -464l221 464h230z" />
    <glyph glyph-name="x" unicode="x" horiz-adv-x="1008" 
d="M314 0h-261l324 297l-324 297h261l190 -191l190 191h261l-324 -297l324 -297h-261l-190 191z" />
    <glyph glyph-name="y" unicode="y" horiz-adv-x="999" 
d="M754 594h199l-309 -604q-43 -85 -87 -139t-104 -82.5t-142 -28.5q-102 0 -214 30v151q120 -26 184 -26q44 0 71 7.5t50 30t47 67.5h-94l-302 594h200l250 -491z" />
    <glyph glyph-name="z" unicode="z" horiz-adv-x="847" 
d="M69 594h708v-148l-442 -298h442v-148h-708v148l443 298h-443v148z" />
    <glyph glyph-name="braceleft" unicode="{" horiz-adv-x="644" 
d="M69 385q52 0 82.5 6.5t50 33.5t19.5 83q0 17 -1 27q-2 30 -2 42q0 86 35 134t111.5 68.5t209.5 20.5v-162q-76 0 -116 -9t-58.5 -36t-18.5 -81q0 -18 1 -28q1 -8 1 -24q0 -86 -40.5 -117.5t-88.5 -31.5v-20q52 0 93.5 -36.5t34.5 -136.5q-1 -10 -1 -29q0 -55 18.5 -82
t58.5 -36t116 -9v-162q-137 0 -213.5 20t-109.5 67.5t-33 132.5q0 13 2 47q1 10 1 27q0 56 -19.5 83t-50 33.5t-82.5 6.5v168z" />
    <glyph glyph-name="bar" unicode="|" horiz-adv-x="318" 
d="M69 -150v950h179v-950h-179z" />
    <glyph glyph-name="braceright" unicode="}" horiz-adv-x="658" 
d="M588 217q-52 0 -82 -6.5t-49.5 -32.5t-19.5 -81q0 -19 1 -30q2 -32 2 -45q0 -86 -33 -133.5t-109.5 -68t-214.5 -20.5v162q76 0 116 9t58.5 36t18.5 82q0 19 -1 29q-1 8 -1 24q0 86 41 117.5t89 31.5v20q-52 0 -94 36.5t-35 136.5q1 10 1 29q0 54 -18.5 80.5t-58.5 35.5
t-116 9v162q134 0 210.5 -20.5t111.5 -69t35 -135.5q0 -12 -2 -40q-1 -11 -1 -29q0 -56 19.5 -82t49.5 -32.5t82 -6.5v-168z" />
    <glyph glyph-name="asciitilde" unicode="~" horiz-adv-x="939" 
d="M69 186q0 145 53.5 226.5t160.5 81.5q57 0 101 -20.5t97 -58.5q43 -31 72 -45.5t62 -14.5q46 0 66 31.5t20 107.5h168q0 -146 -53 -227t-160 -81q-57 0 -101 20.5t-97 58.5q-43 31 -72 45.5t-62 14.5q-46 0 -66 -31.5t-20 -107.5h-169z" />
    <glyph glyph-name="exclamdown" unicode="&#xa1;" horiz-adv-x="355" 
d="M276 445h-200v155h200v-155zM276 373l7 -473h-214l7 473h200z" />
    <glyph glyph-name="cent" unicode="&#xa2;" horiz-adv-x="959" 
d="M526 190q140 10 171 100h199q-22 -120 -116.5 -184t-253.5 -72v-134h-93v134q-177 10 -273.5 90t-96.5 226t96.5 226t273.5 90v134h93v-134q159 -8 253.5 -72t116.5 -184h-199q-31 90 -171 100v-320zM302 237q44 -39 131 -47v320q-87 -8 -131 -47t-44 -113t44 -113z" />
    <glyph glyph-name="sterling" unicode="&#xa3;" horiz-adv-x="879" 
d="M466.5 560q-38.5 -12 -55.5 -38t-17 -69q0 -22 5 -59h294v-66h-287q-5 -114 -176 -166h579v-162h-740v162l32 29q55 50 76.5 76.5t26.5 60.5h-135v66h129q-2 10 -4 15q-14 48 -14 90q0 107 86.5 171t258.5 64q72 0 133.5 -7t150.5 -23v-161q-83 16 -134 22.5t-103 6.5
q-67 0 -105.5 -12z" />
    <glyph glyph-name="currency" unicode="&#xa4;" horiz-adv-x="955" 
d="M784 104l94 -99l-83 -82l-123 130q-83 -23 -188 -23q-104 0 -187 23l-123 -130l-83 82l93 99q-121 83 -121 243q0 159 119 241l-91 97l83 83l121 -128q81 24 189 24q107 0 190 -24l121 128l83 -83l-91 -97q59 -40 89 -101t30 -140q0 -161 -122 -243zM318 225
q55 -40 166 -40t165.5 39.5t54.5 122.5t-55 122.5t-165 39.5t-164.5 -39.5t-54.5 -122.5q0 -73 42 -113l1 1z" />
    <glyph glyph-name="yen" unicode="&#xa5;" horiz-adv-x="1166" 
d="M817 714h260l-310 -371h231v-66h-287l-33 -40v-27h320v-66h-320v-144h-209v144h-301v66h301v27l-34 40h-267v66h212l-311 371h260l244 -304z" />
    <glyph glyph-name="brokenbar" unicode="&#xa6;" horiz-adv-x="318" 
d="M69 425v375h179v-375h-179zM69 -150v375h179v-375h-179z" />
    <glyph glyph-name="section" unicode="&#xa7;" horiz-adv-x="958" 
d="M850.5 141.5q38.5 -42.5 38.5 -116.5q0 -118 -103 -162.5t-292 -44.5q-183 0 -291.5 51t-113.5 165h203q0 -34 22 -52t67.5 -25t122.5 -7q71 0 111 7.5t56 22.5t16 41q0 27 -17 40.5t-62.5 22t-142.5 16.5q-144 11 -222 25t-122.5 48t-44.5 99q0 63 38.5 99t111.5 53
q-80 23 -118.5 64.5t-38.5 111.5q0 117 104 161.5t292 44.5q389 0 398 -216h-203q0 34 -21 52.5t-65 25.5t-119 7q-104 0 -143.5 -16.5t-39.5 -54.5q0 -23 16.5 -36t62 -21t139.5 -15q145 -11 222.5 -25t122 -48t44.5 -99q0 -63 -38 -99.5t-110 -53.5q81 -23 119.5 -65.5z
M291.5 278.5q19.5 -14.5 66 -22t142.5 -15.5q34 -2 48 -2q72 0 103.5 19t31.5 53q0 27 -19.5 41.5t-66 22.5t-141.5 15q-36 2 -49 2q-72 0 -103.5 -18.5t-31.5 -53.5q0 -27 19.5 -41.5z" />
    <glyph glyph-name="dieresis" unicode="&#xa8;" horiz-adv-x="573" 
d="M69 700v100h174v-100h-174zM329 700v100h174v-100h-174z" />
    <glyph glyph-name="copyright" unicode="&#xa9;" horiz-adv-x="964" 
d="M257 34q-93 44 -140.5 125.5t-47.5 191.5t47.5 190.5t140.5 124.5t225 44t224.5 -43.5t140 -124.5t47.5 -191t-47.5 -191.5t-140 -125.5t-224.5 -44t-225 44zM728 137.5q87 73.5 87 213.5t-86.5 212.5t-246.5 72.5q-159 0 -246 -73t-87 -212q0 -140 87.5 -213.5
t245.5 -73.5q159 0 246 73.5zM317 489q64 47 174 47q188 0 219 -144h-79q-12 38 -45.5 54t-101.5 16q-152 0 -152 -112t152 -112q68 0 101.5 16t45.5 54h79q-31 -144 -219 -144q-110 0 -174 47t-64 139t64 139z" />
    <glyph glyph-name="guillemotleft" unicode="&#xab;" horiz-adv-x="1032" 
d="M461 297l260 297h242l-260 -297l260 -297h-242zM69 297l260 297h242l-260 -297l260 -297h-242z" />
    <glyph glyph-name="logicalnot" unicode="&#xac;" horiz-adv-x="939" 
d="M69 435h800v-371h-175v223h-625v148z" />
    <glyph glyph-name="registered" unicode="&#xae;" horiz-adv-x="964" 
d="M258 26.5q-93 46.5 -141 130.5t-48 194q0 111 48 197.5t141 136t224 49.5t224 -49.5t140.5 -136t47.5 -197.5t-47.5 -194.5t-140 -130t-224.5 -46.5q-131 0 -224 46.5zM728 132q87 78 87 219q0 94 -39 163.5t-114 107.5t-180 38t-180 -38t-114 -107.5t-39 -163.5
q0 -141 87 -219t246 -78t246 78zM326 190v332h195q75 0 110.5 -32.5t35.5 -89.5q0 -37 -20 -67.5t-59 -44.5l74 -98h-94l-65 89h-99v-89h-78zM522 352q37 0 52.5 10.5t15.5 37.5q0 26 -15.5 37t-52.5 11h-118v-96h118z" />
    <glyph glyph-name="macron" unicode="&#xaf;" horiz-adv-x="608" 
d="M69 700v100h469v-100h-469z" />
    <glyph glyph-name="degree" unicode="&#xb0;" horiz-adv-x="711" 
d="M136 306q-67 71 -67 179t67 178.5t219 70.5t219.5 -70.5t67.5 -178.5t-67 -179t-220 -71q-152 0 -219 71zM449.5 396q30.5 33 30.5 90q0 55 -30.5 87.5t-94.5 32.5t-94 -32.5t-30 -87.5q0 -57 30 -90t94 -33t94.5 33z" />
    <glyph glyph-name="plusminus" unicode="&#xb1;" horiz-adv-x="939" 
d="M557 707v-163h312v-148h-312v-163h-175v163h-313v148h313v163h175zM869 26h-800v148h800v-148z" />
    <glyph glyph-name="acute" unicode="&#xb4;" horiz-adv-x="528" 
d="M69 677v103l389 80v-103z" />
    <glyph glyph-name="paragraph" unicode="&#xb6;" horiz-adv-x="932" 
d="M573 800v-950h-179v489q-104 0 -170 12.5t-110.5 62.5t-44.5 155t44.5 155.5t110.5 63t170 12.5h179zM684 -150v950h178v-950h-178z" />
    <glyph glyph-name="periodcentered" unicode="&#xb7;" horiz-adv-x="341" 
d="M69 239v155h200v-155h-200z" />
    <glyph glyph-name="cedilla" unicode="&#xb8;" horiz-adv-x="455" 
d="M357 -70q28 -20 28 -57q0 -57 -60 -83.5t-155 -26.5q-41 0 -101 7v87q87 -12 121 -12q62 0 62 29q0 23 -33 23q-21 0 -51 -15l-69 23l19 95h101l-15 -65q33 15 79 15t74 -20z" />
    <glyph glyph-name="guillemotright" unicode="&#xbb;" horiz-adv-x="1044" 
d="M82 594h241l260 -297l-260 -297h-241l260 297zM474 594h241l260 -297l-260 -297h-241l260 297z" />
    <glyph glyph-name="questiondown" unicode="&#xbf;" horiz-adv-x="886" 
d="M573 600v-155h-199v155h199zM573 373q0 -63 -27 -103t-63.5 -61.5t-93.5 -44.5q-53 -21 -78 -38t-25 -45q0 -30 33 -48.5t106 -18.5q95 0 142 31.5t47 104.5h203q-5 -147 -109.5 -215.5t-286.5 -68.5q-352 0 -352 189q0 50 23 84t55.5 53.5t85.5 43.5q48 22 74.5 37.5
t45 39.5t18.5 60h202z" />
    <glyph glyph-name="Agrave" unicode="&#xc0;" horiz-adv-x="1140" 
d="M1080 0h-222l-68 135h-440l-68 -135h-223l368 714h286zM570 569l-141 -279h282zM375 980l389 -80v-103l-389 80v103z" />
    <glyph glyph-name="Aacute" unicode="&#xc1;" horiz-adv-x="1140" 
d="M1080 0h-222l-68 135h-440l-68 -135h-223l368 714h286zM570 569l-141 -279h282zM375 797v103l389 80v-103z" />
    <glyph glyph-name="Acircumflex" unicode="&#xc2;" horiz-adv-x="1140" 
d="M1080 0h-222l-68 135h-440l-68 -135h-223l368 714h286zM570 569l-141 -279h282zM363 900l207 80l207 -80v-107l-207 80l-207 -80v107z" />
    <glyph glyph-name="Atilde" unicode="&#xc3;" horiz-adv-x="1140" 
d="M1080 0h-222l-68 135h-440l-68 -135h-223l368 714h286zM570 569l-141 -279h282zM266 786q0 91 39 151t125 60q46 0 80.5 -14.5t76.5 -40.5q31 -19 51.5 -28.5t41.5 -9.5q34 0 47 22t13 68h134q0 -91 -38.5 -151t-124.5 -60q-46 0 -80.5 14.5t-76.5 40.5
q-31 19 -51.5 28.5t-42.5 9.5q-34 0 -47 -22t-13 -68h-134z" />
    <glyph glyph-name="Adieresis" unicode="&#xc4;" horiz-adv-x="1140" 
d="M1080 0h-222l-68 135h-440l-68 -135h-223l368 714h286zM570 569l-141 -279h282zM353 820v100h174v-100h-174zM613 820v100h174v-100h-174z" />
    <glyph glyph-name="Aring" unicode="&#xc5;" horiz-adv-x="1140" 
d="M1080 0h-222l-68 135h-440l-68 -135h-223l368 714h286zM570 569l-141 -279h282zM405 814q-52 34 -52 98t52 98t165 34t165 -34t52 -98t-52 -98t-165 -34t-165 34zM647 870q26 13 26 42t-26 42t-77 13q-103 0 -103 -55t103 -55q51 0 77 13z" />
    <glyph glyph-name="AE" unicode="&#xc6;" horiz-adv-x="1473" 
d="M1413 714v-162h-533v-114h513v-162h-513v-114h533v-162h-740v138h-328l-64 -138h-222l325 714h1029zM535 552l-119 -259h257v259h-138z" />
    <glyph glyph-name="Ccedilla" unicode="&#xc7;" horiz-adv-x="996" 
d="M651 190.5q54 34.5 65 88.5h220q-15 -137 -121 -216t-290 -83l-13 -55q33 15 79 15t74 -20t28 -57q0 -57 -60 -83.5t-155 -26.5q-42 0 -101 7v87q87 -12 121 -12q62 0 62 29q0 23 -33 23q-21 0 -51 -15l-69 23l18 89q-178 17 -272 112.5t-94 261.5q0 183 114.5 279.5
t329.5 96.5q194 0 305.5 -78.5t127.5 -218.5h-220q-11 53 -65 87t-148 34q-113 0 -170 -52t-57 -148t57.5 -149t169.5 -53q94 0 148 34.5z" />
    <glyph glyph-name="Egrave" unicode="&#xc8;" horiz-adv-x="876" 
d="M809 714v-162h-533v-114h513v-162h-513v-114h533v-162h-740v714h740zM265 980l389 -80v-103l-389 80v103z" />
    <glyph glyph-name="Eacute" unicode="&#xc9;" horiz-adv-x="876" 
d="M809 714v-162h-533v-114h513v-162h-513v-114h533v-162h-740v714h740zM265 797v103l389 80v-103z" />
    <glyph glyph-name="Ecircumflex" unicode="&#xca;" horiz-adv-x="876" 
d="M809 714v-162h-533v-114h513v-162h-513v-114h533v-162h-740v714h740zM253 900l207 80l207 -80v-107l-207 80l-207 -80v107z" />
    <glyph glyph-name="Edieresis" unicode="&#xcb;" horiz-adv-x="876" 
d="M809 714v-162h-533v-114h513v-162h-513v-114h533v-162h-740v714h740zM243 820v100h174v-100h-174zM503 820v100h174v-100h-174z" />
    <glyph glyph-name="Igrave" unicode="&#xcc;" horiz-adv-x="345" 
d="M69 714h207v-714h-207v714zM-23 980l389 -80v-103l-389 80v103z" />
    <glyph glyph-name="Iacute" unicode="&#xcd;" horiz-adv-x="345" 
d="M69 714h207v-714h-207v714zM-23 797v103l389 80v-103z" />
    <glyph glyph-name="Icircumflex" unicode="&#xce;" horiz-adv-x="345" 
d="M69 714h207v-714h-207v714zM-35 900l207 80l207 -80v-107l-207 80l-207 -80v107z" />
    <glyph glyph-name="Idieresis" unicode="&#xcf;" horiz-adv-x="345" 
d="M69 714h207v-714h-207v714zM-45 820v100h174v-100h-174zM215 820v100h174v-100h-174z" />
    <glyph glyph-name="Eth" unicode="&#xd0;" horiz-adv-x="1004" 
d="M777 674.5q76 -39.5 121.5 -120t45.5 -197.5t-45.5 -197.5t-121.5 -120t-167 -39.5h-514v327h-80v60h80v327h514q91 0 167 -39.5zM523 176q67 0 110 12t69 51t26 118t-26 118t-69 51t-110 12h-220v-151h193v-60h-193v-151h220z" />
    <glyph glyph-name="Ntilde" unicode="&#xd1;" horiz-adv-x="1070" 
d="M794 192v522h206v-714h-303l-421 522v-522h-207v714h304zM237 786q0 91 39 151t125 60q46 0 80.5 -14.5t76.5 -40.5q31 -19 51.5 -28.5t41.5 -9.5q34 0 47 22t13 68h134q0 -91 -38.5 -151t-124.5 -60q-46 0 -80.5 14.5t-76.5 40.5q-31 19 -51.5 28.5t-42.5 9.5
q-34 0 -47 -22t-13 -68h-134z" />
    <glyph glyph-name="Ograve" unicode="&#xd2;" horiz-adv-x="1046" 
d="M179 79q-120 99 -120 279q0 179 120 277.5t344 98.5q149 0 253 -44.5t157.5 -129t53.5 -202.5q0 -119 -53.5 -203.5t-157.5 -129.5t-253 -45q-224 0 -344 99zM771 358q0 200 -248 200q-247 0 -247 -200q0 -202 247 -202q248 0 248 202zM328 980l389 -80v-103l-389 80v103
z" />
    <glyph glyph-name="Oacute" unicode="&#xd3;" horiz-adv-x="1046" 
d="M179 79q-120 99 -120 279q0 179 120 277.5t344 98.5q149 0 253 -44.5t157.5 -129t53.5 -202.5q0 -119 -53.5 -203.5t-157.5 -129.5t-253 -45q-224 0 -344 99zM771 358q0 200 -248 200q-247 0 -247 -200q0 -202 247 -202q248 0 248 202zM328 797v103l389 80v-103z" />
    <glyph glyph-name="Ocircumflex" unicode="&#xd4;" horiz-adv-x="1046" 
d="M179 79q-120 99 -120 279q0 179 120 277.5t344 98.5q149 0 253 -44.5t157.5 -129t53.5 -202.5q0 -119 -53.5 -203.5t-157.5 -129.5t-253 -45q-224 0 -344 99zM771 358q0 200 -248 200q-247 0 -247 -200q0 -202 247 -202q248 0 248 202zM316 900l207 80l207 -80v-107
l-207 80l-207 -80v107z" />
    <glyph glyph-name="Otilde" unicode="&#xd5;" horiz-adv-x="1046" 
d="M179 79q-120 99 -120 279q0 179 120 277.5t344 98.5q149 0 253 -44.5t157.5 -129t53.5 -202.5q0 -119 -53.5 -203.5t-157.5 -129.5t-253 -45q-224 0 -344 99zM771 358q0 200 -248 200q-247 0 -247 -200q0 -202 247 -202q248 0 248 202zM219 786q0 91 39 151t125 60
q46 0 80.5 -14.5t76.5 -40.5q31 -19 51.5 -28.5t41.5 -9.5q34 0 47 22t13 68h134q0 -91 -38.5 -151t-124.5 -60q-46 0 -80.5 14.5t-76.5 40.5q-31 19 -51.5 28.5t-42.5 9.5q-34 0 -47 -22t-13 -68h-134z" />
    <glyph glyph-name="Odieresis" unicode="&#xd6;" horiz-adv-x="1046" 
d="M179 79q-120 99 -120 279q0 179 120 277.5t344 98.5q149 0 253 -44.5t157.5 -129t53.5 -202.5q0 -119 -53.5 -203.5t-157.5 -129.5t-253 -45q-224 0 -344 99zM771 358q0 200 -248 200q-247 0 -247 -200q0 -202 247 -202q248 0 248 202zM306 820v100h174v-100h-174z
M566 820v100h174v-100h-174z" />
    <glyph glyph-name="multiply" unicode="&#xd7;" horiz-adv-x="907" 
d="M762 598l75 -129l-235 -135l235 -136l-74 -129l-309 179l-310 -179l-74 129l235 136l-235 135l74 129l309 -178z" />
    <glyph glyph-name="Oslash" unicode="&#xd8;" horiz-adv-x="1046" 
d="M659 723q159 -28 243.5 -122.5t84.5 -242.5q0 -119 -53.5 -203.5t-157.5 -129.5t-253 -45h-15l-28 -138h-121l30 149q-161 27 -245.5 121.5t-84.5 245.5q0 179 120 277.5t344 98.5h17l25 125h122zM425 166l79 392q-228 -8 -228 -200q0 -156 149 -192zM544 156
q227 8 227 202q0 154 -147 190z" />
    <glyph glyph-name="Ugrave" unicode="&#xd9;" horiz-adv-x="1019" 
d="M949 348q0 -185 -106.5 -276.5t-333.5 -91.5q-228 0 -334 91t-106 277v366h207v-359q0 -88 49 -143.5t184 -55.5t184.5 56t49.5 143v359h206v-366zM314 980l389 -80v-103l-389 80v103z" />
    <glyph glyph-name="Uacute" unicode="&#xda;" horiz-adv-x="1019" 
d="M949 348q0 -185 -106.5 -276.5t-333.5 -91.5q-228 0 -334 91t-106 277v366h207v-359q0 -88 49 -143.5t184 -55.5t184.5 56t49.5 143v359h206v-366zM314 797v103l389 80v-103z" />
    <glyph glyph-name="Ucircumflex" unicode="&#xdb;" horiz-adv-x="1019" 
d="M949 348q0 -185 -106.5 -276.5t-333.5 -91.5q-228 0 -334 91t-106 277v366h207v-359q0 -88 49 -143.5t184 -55.5t184.5 56t49.5 143v359h206v-366zM302 900l207 80l207 -80v-107l-207 80l-207 -80v107z" />
    <glyph glyph-name="Udieresis" unicode="&#xdc;" horiz-adv-x="1019" 
d="M949 348q0 -185 -106.5 -276.5t-333.5 -91.5q-228 0 -334 91t-106 277v366h207v-359q0 -88 49 -143.5t184 -55.5t184.5 56t49.5 143v359h206v-366zM292 820v100h174v-100h-174zM552 820v100h174v-100h-174z" />
    <glyph glyph-name="Yacute" unicode="&#xdd;" horiz-adv-x="1127" 
d="M563 410l244 304h260l-399 -477v-237h-209v237l-400 477h260zM368 797v103l389 80v-103z" />
    <glyph glyph-name="Thorn" unicode="&#xde;" horiz-adv-x="967" 
d="M626 621q86 0 149.5 -31.5t98 -90t34.5 -137.5t-34.5 -137t-98 -89.5t-149.5 -31.5h-347v-104h-210v714h210v-93h347zM569 280q39 0 63.5 4t42 22t17.5 56t-17.5 56.5t-42 22.5t-63.5 4h-290v-165h290z" />
    <glyph glyph-name="germandbls" unicode="&#xdf;" horiz-adv-x="923" 
d="M814 321q49 -42 49 -123q0 -90 -49.5 -132t-148 -54t-290.5 -12v155q125 0 183 5t80.5 21t22.5 50t-22.5 50t-80.5 21t-183 5v114q79 0 119 5t59 21.5t19 50.5q0 81 -136 81q-57 0 -93.5 -12.5t-57 -47t-20.5 -97.5v-422h-196v408q0 128 46 199.5t127 99t199 27.5
q154 0 243.5 -46.5t89.5 -156.5q0 -103 -103 -152q94 -16 143 -58z" />
    <glyph glyph-name="agrave" unicode="&#xe0;" horiz-adv-x="938" 
d="M714 583.5q82 -30.5 123 -98.5t42 -181v-304h-193v77q-81 -44 -174.5 -67t-185.5 -23q-131 0 -204 46.5t-73 147.5q0 110 99 157.5t250 47.5q137 0 288 -36q-4 71 -64 97t-150 26q-76 0 -155.5 -11.5t-181.5 -37.5l-37 136q214 54 406 54q128 0 210 -30.5zM530.5 143.5
q84.5 15.5 155.5 34.5v51q-138 30 -264 30q-87 0 -128.5 -16t-41.5 -52t33 -49.5t106 -13.5q55 0 139.5 15.5zM289 860l389 -80v-103l-389 80v103z" />
    <glyph glyph-name="aacute" unicode="&#xe1;" horiz-adv-x="938" 
d="M714 583.5q82 -30.5 123 -98.5t42 -181v-304h-193v77q-81 -44 -174.5 -67t-185.5 -23q-131 0 -204 46.5t-73 147.5q0 110 99 157.5t250 47.5q137 0 288 -36q-4 71 -64 97t-150 26q-76 0 -155.5 -11.5t-181.5 -37.5l-37 136q214 54 406 54q128 0 210 -30.5zM530.5 143.5
q84.5 15.5 155.5 34.5v51q-138 30 -264 30q-87 0 -128.5 -16t-41.5 -52t33 -49.5t106 -13.5q55 0 139.5 15.5zM289 677v103l389 80v-103z" />
    <glyph glyph-name="acircumflex" unicode="&#xe2;" horiz-adv-x="938" 
d="M714 583.5q82 -30.5 123 -98.5t42 -181v-304h-193v77q-81 -44 -174.5 -67t-185.5 -23q-131 0 -204 46.5t-73 147.5q0 110 99 157.5t250 47.5q137 0 288 -36q-4 71 -64 97t-150 26q-76 0 -155.5 -11.5t-181.5 -37.5l-37 136q214 54 406 54q128 0 210 -30.5zM530.5 143.5
q84.5 15.5 155.5 34.5v51q-138 30 -264 30q-87 0 -128.5 -16t-41.5 -52t33 -49.5t106 -13.5q55 0 139.5 15.5zM277 780l207 80l207 -80v-107l-207 80l-207 -80v107z" />
    <glyph glyph-name="atilde" unicode="&#xe3;" horiz-adv-x="938" 
d="M714 583.5q82 -30.5 123 -98.5t42 -181v-304h-193v77q-81 -44 -174.5 -67t-185.5 -23q-131 0 -204 46.5t-73 147.5q0 110 99 157.5t250 47.5q137 0 288 -36q-4 71 -64 97t-150 26q-76 0 -155.5 -11.5t-181.5 -37.5l-37 136q214 54 406 54q128 0 210 -30.5zM530.5 143.5
q84.5 15.5 155.5 34.5v51q-138 30 -264 30q-87 0 -128.5 -16t-41.5 -52t33 -49.5t106 -13.5q55 0 139.5 15.5zM180 666q0 91 39 151t125 60q46 0 80.5 -14.5t76.5 -40.5q31 -19 51.5 -28.5t41.5 -9.5q34 0 47 22t13 68h134q0 -91 -38.5 -151t-124.5 -60q-46 0 -80.5 14.5
t-76.5 40.5q-31 19 -51.5 28.5t-42.5 9.5q-34 0 -47 -22t-13 -68h-134z" />
    <glyph glyph-name="adieresis" unicode="&#xe4;" horiz-adv-x="938" 
d="M714 583.5q82 -30.5 123 -98.5t42 -181v-304h-193v77q-81 -44 -174.5 -67t-185.5 -23q-131 0 -204 46.5t-73 147.5q0 110 99 157.5t250 47.5q137 0 288 -36q-4 71 -64 97t-150 26q-76 0 -155.5 -11.5t-181.5 -37.5l-37 136q214 54 406 54q128 0 210 -30.5zM530.5 143.5
q84.5 15.5 155.5 34.5v51q-138 30 -264 30q-87 0 -128.5 -16t-41.5 -52t33 -49.5t106 -13.5q55 0 139.5 15.5zM267 700v100h174v-100h-174zM527 700v100h174v-100h-174z" />
    <glyph glyph-name="aring" unicode="&#xe5;" horiz-adv-x="938" 
d="M714 583.5q82 -30.5 123 -98.5t42 -181v-304h-193v77q-81 -44 -174.5 -67t-185.5 -23q-131 0 -204 46.5t-73 147.5q0 110 99 157.5t250 47.5q137 0 288 -36q-4 71 -64 97t-150 26q-76 0 -155.5 -11.5t-181.5 -37.5l-37 136q214 54 406 54q128 0 210 -30.5zM530.5 143.5
q84.5 15.5 155.5 34.5v51q-138 30 -264 30q-87 0 -128.5 -16t-41.5 -52t33 -49.5t106 -13.5q55 0 139.5 15.5zM319 694q-52 34 -52 98t52 98t165 34t165 -34t52 -98t-52 -98t-165 -34t-165 34zM561 750q26 13 26 42t-26 42t-77 13q-103 0 -103 -55t103 -55q51 0 77 13z" />
    <glyph glyph-name="ae" unicode="&#xe6;" horiz-adv-x="1549" 
d="M1231 148.5q48 20.5 67 58.5h192q-29 -110 -129 -168.5t-274 -58.5q-120 0 -211.5 30.5t-145.5 89.5q-69 -56 -172.5 -84.5t-220.5 -28.5q-136 0 -212 45t-76 138q0 198 369 198h227q0 52 -57.5 71.5t-136.5 19.5q-64 0 -131.5 -12t-152.5 -39l-62 131q83 34 173.5 51
t180.5 17q199 0 296 -91q55 49 138 73.5t185 24.5q194 0 306.5 -86.5t112.5 -266.5h-638q11 -72 69 -102.5t166 -30.5q89 0 137 20.5zM939 453.5q-53 -25.5 -72 -82.5h426q-19 57 -72 82.5t-143 25.5q-86 0 -139 -25.5zM645 254h-209q-97 0 -140.5 -14t-43.5 -54
q0 -33 29.5 -45.5t90.5 -12.5q74 0 146 15t127 45v66z" />
    <glyph glyph-name="ccedilla" unicode="&#xe7;" horiz-adv-x="939" 
d="M687 237h199q-22 -124 -121 -188t-266 -69l-11 -48q33 15 79 15t74 -20t28 -57q0 -57 -60 -83.5t-155 -26.5q-41 0 -101 7v87q87 -12 121 -12q62 0 62 29q0 23 -33 23q-21 0 -51 -15l-69 23l16 81q-166 15 -256 94t-90 220q0 156 110 236.5t310 80.5q179 0 284.5 -64.5
t128.5 -192.5h-199q-35 102 -214 102q-111 0 -168 -39t-57 -123t57 -123t168 -39q179 0 214 102z" />
    <glyph glyph-name="egrave" unicode="&#xe8;" horiz-adv-x="942" 
d="M623 148.5q48 20.5 67 58.5h193q-30 -110 -130 -168.5t-273 -58.5q-199 0 -313 81t-114 236q0 103 53.5 174.5t147.5 107t216 35.5q195 0 307 -86.5t112 -266.5h-638q11 -72 69 -102.5t166 -30.5q89 0 137 20.5zM331 453.5q-53 -25.5 -72 -82.5h427q-19 57 -72.5 82.5
t-143.5 25.5q-86 0 -139 -25.5zM278 860l389 -80v-103l-389 80v103z" />
    <glyph glyph-name="eacute" unicode="&#xe9;" horiz-adv-x="942" 
d="M623 148.5q48 20.5 67 58.5h193q-30 -110 -130 -168.5t-273 -58.5q-199 0 -313 81t-114 236q0 103 53.5 174.5t147.5 107t216 35.5q195 0 307 -86.5t112 -266.5h-638q11 -72 69 -102.5t166 -30.5q89 0 137 20.5zM331 453.5q-53 -25.5 -72 -82.5h427q-19 57 -72.5 82.5
t-143.5 25.5q-86 0 -139 -25.5zM278 677v103l389 80v-103z" />
    <glyph glyph-name="ecircumflex" unicode="&#xea;" horiz-adv-x="942" 
d="M623 148.5q48 20.5 67 58.5h193q-30 -110 -130 -168.5t-273 -58.5q-199 0 -313 81t-114 236q0 103 53.5 174.5t147.5 107t216 35.5q195 0 307 -86.5t112 -266.5h-638q11 -72 69 -102.5t166 -30.5q89 0 137 20.5zM331 453.5q-53 -25.5 -72 -82.5h427q-19 57 -72.5 82.5
t-143.5 25.5q-86 0 -139 -25.5zM266 780l207 80l207 -80v-107l-207 80l-207 -80v107z" />
    <glyph glyph-name="edieresis" unicode="&#xeb;" horiz-adv-x="942" 
d="M623 148.5q48 20.5 67 58.5h193q-30 -110 -130 -168.5t-273 -58.5q-199 0 -313 81t-114 236q0 103 53.5 174.5t147.5 107t216 35.5q195 0 307 -86.5t112 -266.5h-638q11 -72 69 -102.5t166 -30.5q89 0 137 20.5zM331 453.5q-53 -25.5 -72 -82.5h427q-19 57 -72.5 82.5
t-143.5 25.5q-86 0 -139 -25.5zM256 700v100h174v-100h-174zM516 700v100h174v-100h-174z" />
    <glyph glyph-name="igrave" unicode="&#xec;" horiz-adv-x="334" 
d="M69 0v594h196v-594h-196zM-28 860l389 -80v-103l-389 80v103z" />
    <glyph glyph-name="iacute" unicode="&#xed;" horiz-adv-x="334" 
d="M69 0v594h196v-594h-196zM-28 677v103l389 80v-103z" />
    <glyph glyph-name="icircumflex" unicode="&#xee;" horiz-adv-x="334" 
d="M69 0v594h196v-594h-196zM-40 780l207 80l207 -80v-107l-207 80l-207 -80v107z" />
    <glyph glyph-name="idieresis" unicode="&#xef;" horiz-adv-x="334" 
d="M69 0v594h196v-594h-196zM-50 700v100h174v-100h-174zM210 700v100h174v-100h-174z" />
    <glyph glyph-name="ntilde" unicode="&#xf1;" horiz-adv-x="993" 
d="M840.5 542q82.5 -72 83.5 -232v-310h-192v245q0 107 -47 157t-163 50q-122 0 -191 -55t-69 -163v-234h-193v594h193v-136q59 75 142.5 115.5t202.5 40.5q151 0 233.5 -72zM205 666q0 91 39 151t125 60q46 0 80.5 -14.5t76.5 -40.5q31 -19 51.5 -28.5t41.5 -9.5
q34 0 47 22t13 68h134q0 -91 -38.5 -151t-124.5 -60q-46 0 -80.5 14.5t-76.5 40.5q-31 19 -51.5 28.5t-42.5 9.5q-34 0 -47 -22t-13 -68h-134z" />
    <glyph glyph-name="ograve" unicode="&#xf2;" horiz-adv-x="949" 
d="M162.5 62.5q-109.5 82.5 -109.5 234.5t109.5 234.5t311.5 82.5q203 0 312.5 -82.5t109.5 -234.5t-109.5 -234.5t-312.5 -82.5q-202 0 -311.5 82.5zM639.5 174.5q54.5 39.5 54.5 122.5t-55 122.5t-165 39.5t-164.5 -39.5t-54.5 -122.5t54.5 -122.5t164.5 -39.5
q111 0 165.5 39.5zM279 860l389 -80v-103l-389 80v103z" />
    <glyph glyph-name="oacute" unicode="&#xf3;" horiz-adv-x="949" 
d="M162.5 62.5q-109.5 82.5 -109.5 234.5t109.5 234.5t311.5 82.5q203 0 312.5 -82.5t109.5 -234.5t-109.5 -234.5t-312.5 -82.5q-202 0 -311.5 82.5zM639.5 174.5q54.5 39.5 54.5 122.5t-55 122.5t-165 39.5t-164.5 -39.5t-54.5 -122.5t54.5 -122.5t164.5 -39.5
q111 0 165.5 39.5zM279 677v103l389 80v-103z" />
    <glyph glyph-name="ocircumflex" unicode="&#xf4;" horiz-adv-x="949" 
d="M162.5 62.5q-109.5 82.5 -109.5 234.5t109.5 234.5t311.5 82.5q203 0 312.5 -82.5t109.5 -234.5t-109.5 -234.5t-312.5 -82.5q-202 0 -311.5 82.5zM639.5 174.5q54.5 39.5 54.5 122.5t-55 122.5t-165 39.5t-164.5 -39.5t-54.5 -122.5t54.5 -122.5t164.5 -39.5
q111 0 165.5 39.5zM267 780l207 80l207 -80v-107l-207 80l-207 -80v107z" />
    <glyph glyph-name="otilde" unicode="&#xf5;" horiz-adv-x="949" 
d="M162.5 62.5q-109.5 82.5 -109.5 234.5t109.5 234.5t311.5 82.5q203 0 312.5 -82.5t109.5 -234.5t-109.5 -234.5t-312.5 -82.5q-202 0 -311.5 82.5zM639.5 174.5q54.5 39.5 54.5 122.5t-55 122.5t-165 39.5t-164.5 -39.5t-54.5 -122.5t54.5 -122.5t164.5 -39.5
q111 0 165.5 39.5zM170 666q0 91 39 151t125 60q46 0 80.5 -14.5t76.5 -40.5q31 -19 51.5 -28.5t41.5 -9.5q34 0 47 22t13 68h134q0 -91 -38.5 -151t-124.5 -60q-46 0 -80.5 14.5t-76.5 40.5q-31 19 -51.5 28.5t-42.5 9.5q-34 0 -47 -22t-13 -68h-134z" />
    <glyph glyph-name="odieresis" unicode="&#xf6;" horiz-adv-x="949" 
d="M162.5 62.5q-109.5 82.5 -109.5 234.5t109.5 234.5t311.5 82.5q203 0 312.5 -82.5t109.5 -234.5t-109.5 -234.5t-312.5 -82.5q-202 0 -311.5 82.5zM639.5 174.5q54.5 39.5 54.5 122.5t-55 122.5t-165 39.5t-164.5 -39.5t-54.5 -122.5t54.5 -122.5t164.5 -39.5
q111 0 165.5 39.5zM257 700v100h174v-100h-174zM517 700v100h174v-100h-174z" />
    <glyph glyph-name="divide" unicode="&#xf7;" horiz-adv-x="939" 
d="M383 500v134h172v-134h-172zM69 254v148h800v-148h-800zM383 25v134h172v-134h-172z" />
    <glyph glyph-name="oslash" unicode="&#xf8;" horiz-adv-x="949" 
d="M618 601q135 -26 206.5 -104t71.5 -200q0 -152 -109.5 -234.5t-312.5 -82.5h-16l-30 -118h-132l34 131q-135 26 -206 104t-71 200q0 152 109.5 234.5t311.5 82.5h16l30 118h132zM283.5 200q28.5 -37 85.5 -53l81 311q-98 -4 -146.5 -43.5t-48.5 -117.5q0 -60 28.5 -97z
M498 135q99 5 147.5 44t48.5 118q0 118 -115 150z" />
    <glyph glyph-name="ugrave" unicode="&#xf9;" horiz-adv-x="994" 
d="M731 594h193v-594h-193v136q-59 -75 -142.5 -115.5t-202.5 -40.5q-151 0 -233.5 72t-83.5 232v310h193v-245q0 -107 47 -157t162 -50q122 0 191 55t69 163v234zM298 860l389 -80v-103l-389 80v103z" />
    <glyph glyph-name="uacute" unicode="&#xfa;" horiz-adv-x="994" 
d="M731 594h193v-594h-193v136q-59 -75 -142.5 -115.5t-202.5 -40.5q-151 0 -233.5 72t-83.5 232v310h193v-245q0 -107 47 -157t162 -50q122 0 191 55t69 163v234zM298 677v103l389 80v-103z" />
    <glyph glyph-name="ucircumflex" unicode="&#xfb;" horiz-adv-x="994" 
d="M731 594h193v-594h-193v136q-59 -75 -142.5 -115.5t-202.5 -40.5q-151 0 -233.5 72t-83.5 232v310h193v-245q0 -107 47 -157t162 -50q122 0 191 55t69 163v234zM286 780l207 80l207 -80v-107l-207 80l-207 -80v107z" />
    <glyph glyph-name="udieresis" unicode="&#xfc;" horiz-adv-x="994" 
d="M731 594h193v-594h-193v136q-59 -75 -142.5 -115.5t-202.5 -40.5q-151 0 -233.5 72t-83.5 232v310h193v-245q0 -107 47 -157t162 -50q122 0 191 55t69 163v234zM276 700v100h174v-100h-174zM536 700v100h174v-100h-174z" />
    <glyph glyph-name="yacute" unicode="&#xfd;" horiz-adv-x="999" 
d="M754 594h199l-309 -604q-43 -85 -87 -139t-104 -82.5t-142 -28.5q-102 0 -214 30v151q120 -26 184 -26q44 0 71 7.5t50 30t47 67.5h-94l-302 594h200l250 -491zM305 677v103l389 80v-103z" />
    <glyph glyph-name="thorn" unicode="&#xfe;" horiz-adv-x="952" 
d="M793 535q92 -72 92 -238t-92 -238t-237 -72q-92 0 -165 27.5t-119 81.5v-269h-203v973h203v-303q46 54 119 82t165 28q145 0 237 -72zM633 189q50 33 50 108q0 74 -50 107.5t-156 33.5q-105 0 -155 -33.5t-50 -107.5q0 -75 50 -108t155 -33q106 0 156 33z" />
    <glyph glyph-name="ydieresis" unicode="&#xff;" horiz-adv-x="999" 
d="M754 594h199l-309 -604q-43 -85 -87 -139t-104 -82.5t-142 -28.5q-102 0 -214 30v151q120 -26 184 -26q44 0 71 7.5t50 30t47 67.5h-94l-302 594h200l250 -491zM283 700v100h174v-100h-174zM543 700v100h174v-100h-174z" />
    <glyph glyph-name="Amacron" unicode="&#x100;" horiz-adv-x="1140" 
d="M1080 0h-222l-68 135h-440l-68 -135h-223l368 714h286zM570 569l-141 -279h282zM335 820v100h469v-100h-469z" />
    <glyph glyph-name="amacron" unicode="&#x101;" horiz-adv-x="938" 
d="M714 583.5q82 -30.5 123 -98.5t42 -181v-304h-193v77q-81 -44 -174.5 -67t-185.5 -23q-131 0 -204 46.5t-73 147.5q0 110 99 157.5t250 47.5q137 0 288 -36q-4 71 -64 97t-150 26q-76 0 -155.5 -11.5t-181.5 -37.5l-37 136q214 54 406 54q128 0 210 -30.5zM530.5 143.5
q84.5 15.5 155.5 34.5v51q-138 30 -264 30q-87 0 -128.5 -16t-41.5 -52t33 -49.5t106 -13.5q55 0 139.5 15.5zM249 700v100h469v-100h-469z" />
    <glyph glyph-name="Abreve" unicode="&#x102;" horiz-adv-x="1140" 
d="M1080 0h-222l-68 135h-440l-68 -135h-223l368 714h286zM570 569l-141 -279h282zM457 977q0 -49 28 -71t85 -22t85.5 22.5t28.5 70.5h113q0 -102 -62 -146t-165 -44t-165 44t-62 146h114z" />
    <glyph glyph-name="abreve" unicode="&#x103;" horiz-adv-x="938" 
d="M714 583.5q82 -30.5 123 -98.5t42 -181v-304h-193v77q-81 -44 -174.5 -67t-185.5 -23q-131 0 -204 46.5t-73 147.5q0 110 99 157.5t250 47.5q137 0 288 -36q-4 71 -64 97t-150 26q-76 0 -155.5 -11.5t-181.5 -37.5l-37 136q214 54 406 54q128 0 210 -30.5zM530.5 143.5
q84.5 15.5 155.5 34.5v51q-138 30 -264 30q-87 0 -128.5 -16t-41.5 -52t33 -49.5t106 -13.5q55 0 139.5 15.5zM371 857q0 -49 28 -71t85 -22t85.5 22.5t28.5 70.5h113q0 -102 -62 -146t-165 -44t-165 44t-62 146h114z" />
    <glyph glyph-name="Aogonek" unicode="&#x104;" horiz-adv-x="1140" 
d="M970.5 -113q34.5 -10 109.5 -10v-127q-150 0 -233 32.5t-83 108.5q0 41 31.5 69.5t86.5 39.5h-24l-68 135h-440l-68 -135h-223l368 714h286l367 -714h-20q-60 -4 -92 -22.5t-32 -45.5q0 -35 34.5 -45zM570 569l-141 -279h282z" />
    <glyph glyph-name="aogonek" unicode="&#x105;" horiz-adv-x="960" 
d="M774.5 -113q34.5 -10 111.5 -10v-127q-155 0 -236 28t-81 100q0 87 124 122h-7v77q-81 -44 -174.5 -67t-185.5 -23q-131 0 -204 46.5t-73 147.5q0 110 99 157.5t250 47.5q137 0 288 -36q-4 71 -64 97t-150 26q-76 0 -155.5 -11.5t-181.5 -37.5l-37 136q214 54 406 54
q128 0 210 -30.5t123 -98.5t42 -181v-304h-14q-68 -5 -96.5 -22.5t-28.5 -45.5q0 -35 34.5 -45zM530.5 143.5q84.5 15.5 155.5 34.5v51q-138 30 -264 30q-87 0 -128.5 -16t-41.5 -52t33 -49.5t106 -13.5q55 0 139.5 15.5z" />
    <glyph glyph-name="Cacute" unicode="&#x106;" horiz-adv-x="996" 
d="M173.5 637.5q114.5 96.5 329.5 96.5q194 0 305.5 -78.5t127.5 -218.5h-220q-11 53 -65 87t-148 34q-113 0 -170 -52t-57 -148t57.5 -149t169.5 -53q94 0 148 34.5t65 88.5h220q-16 -141 -127.5 -220t-305.5 -79q-215 0 -329.5 97t-114.5 281q0 183 114.5 279.5zM308 797
v103l389 80v-103z" />
    <glyph glyph-name="cacute" unicode="&#x107;" horiz-adv-x="939" 
d="M163 533.5q110 80.5 310 80.5q179 0 284.5 -64.5t128.5 -192.5h-199q-35 102 -214 102q-111 0 -168 -39t-57 -123t57 -123t168 -39q179 0 214 102h199q-23 -128 -128.5 -192.5t-284.5 -64.5q-200 0 -310 80.5t-110 236.5t110 236.5zM279 677v103l389 80v-103z" />
    <glyph glyph-name="Cdotaccent" unicode="&#x10a;" horiz-adv-x="996" 
d="M173.5 637.5q114.5 96.5 329.5 96.5q194 0 305.5 -78.5t127.5 -218.5h-220q-11 53 -65 87t-148 34q-113 0 -170 -52t-57 -148t57.5 -149t169.5 -53q94 0 148 34.5t65 88.5h220q-16 -141 -127.5 -220t-305.5 -79q-215 0 -329.5 97t-114.5 281q0 183 114.5 279.5zM409 820
v100h188v-100h-188z" />
    <glyph glyph-name="cdotaccent" unicode="&#x10b;" horiz-adv-x="939" 
d="M163 533.5q110 80.5 310 80.5q179 0 284.5 -64.5t128.5 -192.5h-199q-35 102 -214 102q-111 0 -168 -39t-57 -123t57 -123t168 -39q179 0 214 102h199q-23 -128 -128.5 -192.5t-284.5 -64.5q-200 0 -310 80.5t-110 236.5t110 236.5zM380 700v100h188v-100h-188z" />
    <glyph glyph-name="Ccaron" unicode="&#x10c;" horiz-adv-x="996" 
d="M173.5 637.5q114.5 96.5 329.5 96.5q194 0 305.5 -78.5t127.5 -218.5h-220q-11 53 -65 87t-148 34q-113 0 -170 -52t-57 -148t57.5 -149t169.5 -53q94 0 148 34.5t65 88.5h220q-16 -141 -127.5 -220t-305.5 -79q-215 0 -329.5 97t-114.5 281q0 183 114.5 279.5zM296 969
l207 -80l207 80v-107l-207 -80l-207 80v107z" />
    <glyph glyph-name="ccaron" unicode="&#x10d;" horiz-adv-x="939" 
d="M163 533.5q110 80.5 310 80.5q179 0 284.5 -64.5t128.5 -192.5h-199q-35 102 -214 102q-111 0 -168 -39t-57 -123t57 -123t168 -39q179 0 214 102h199q-23 -128 -128.5 -192.5t-284.5 -64.5q-200 0 -310 80.5t-110 236.5t110 236.5zM267 849l207 -80l207 80v-107
l-207 -80l-207 80v107z" />
    <glyph glyph-name="Dcaron" unicode="&#x10e;" horiz-adv-x="977" 
d="M750 674.5q76 -39.5 121.5 -120t45.5 -197.5t-45.5 -197.5t-121.5 -120t-167 -39.5h-514v714h514q91 0 167 -39.5zM496 176q67 0 110 12t69 51t26 118t-26 118t-69 51t-110 12h-220v-362h220zM216 955l207 -80l207 80v-107l-207 -80l-207 80v107z" />
    <glyph glyph-name="dcaron" unicode="&#x10f;" horiz-adv-x="1190" 
d="M687 800h193v-800h-193v105q-44 -63 -119 -94t-171 -31q-93 0 -170.5 32.5t-125.5 103.5t-48 181t48 181t125.5 103.5t170.5 32.5q96 0 171 -31t119 -94v311zM631.5 181.5q55.5 39.5 55.5 115.5q0 75 -55.5 115t-161.5 40t-160 -39.5t-54 -115.5t53.5 -115.5t160.5 -39.5
q106 0 161.5 39.5zM939 645v155h200v-155l-96 -208h-90l59 208h-73z" />
    <glyph glyph-name="Dcroat" unicode="&#x110;" horiz-adv-x="1004" 
d="M777 674.5q76 -39.5 121.5 -120t45.5 -197.5t-45.5 -197.5t-121.5 -120t-167 -39.5h-514v327h-80v60h80v327h514q91 0 167 -39.5zM523 176q67 0 110 12t69 51t26 118t-26 118t-69 51t-110 12h-220v-151h193v-60h-193v-151h220z" />
    <glyph glyph-name="dcroat" unicode="&#x111;" horiz-adv-x="1015" 
d="M965 747v-100h-85v-647h-193v105q-44 -63 -119 -94t-171 -31q-93 0 -170.5 32.5t-125.5 103.5t-48 181t48 181t125.5 103.5t170.5 32.5q96 0 171 -31t119 -94v158h-245v100h245v53h193v-53h85zM631.5 181.5q55.5 39.5 55.5 115.5q0 75 -55.5 115t-161.5 40t-160 -39.5
t-54 -115.5t53.5 -115.5t160.5 -39.5q106 0 161.5 39.5z" />
    <glyph glyph-name="Emacron" unicode="&#x112;" horiz-adv-x="876" 
d="M809 714v-162h-533v-114h513v-162h-513v-114h533v-162h-740v714h740zM225 820v100h469v-100h-469z" />
    <glyph glyph-name="emacron" unicode="&#x113;" horiz-adv-x="942" 
d="M623 148.5q48 20.5 67 58.5h193q-30 -110 -130 -168.5t-273 -58.5q-199 0 -313 81t-114 236q0 103 53.5 174.5t147.5 107t216 35.5q195 0 307 -86.5t112 -266.5h-638q11 -72 69 -102.5t166 -30.5q89 0 137 20.5zM331 453.5q-53 -25.5 -72 -82.5h427q-19 57 -72.5 82.5
t-143.5 25.5q-86 0 -139 -25.5zM238 700v100h469v-100h-469z" />
    <glyph glyph-name="Edotaccent" unicode="&#x116;" horiz-adv-x="876" 
d="M809 714v-162h-533v-114h513v-162h-513v-114h533v-162h-740v714h740zM366 820v100h188v-100h-188z" />
    <glyph glyph-name="edotaccent" unicode="&#x117;" horiz-adv-x="942" 
d="M623 148.5q48 20.5 67 58.5h193q-30 -110 -130 -168.5t-273 -58.5q-199 0 -313 81t-114 236q0 103 53.5 174.5t147.5 107t216 35.5q195 0 307 -86.5t112 -266.5h-638q11 -72 69 -102.5t166 -30.5q89 0 137 20.5zM331 453.5q-53 -25.5 -72 -82.5h427q-19 57 -72.5 82.5
t-143.5 25.5q-86 0 -139 -25.5zM379 700v100h188v-100h-188z" />
    <glyph glyph-name="Eogonek" unicode="&#x118;" horiz-adv-x="876" 
d="M809 552h-533v-114h513v-162h-513v-114h533v-162h-26q-65 -7 -92 -24t-27 -44q0 -35 34.5 -45t110.5 -10v-127q-152 0 -234.5 32t-82.5 109q0 86 128 109h-551v714h740v-162z" />
    <glyph glyph-name="eogonek" unicode="&#x119;" horiz-adv-x="928" 
d="M623 148.5q48 20.5 67 58.5h193q-24 -90 -96 -146t-193 -73q-31 -10 -42.5 -20.5t-11.5 -25.5q0 -30 37 -37.5t117 -7.5v-127q-101 0 -162.5 9.5t-93.5 34.5t-32 73q0 60 87 93h-13q-199 0 -313 81t-114 236q0 103 53.5 174.5t147.5 107t216 35.5q195 0 307 -86.5
t112 -266.5h-638q11 -72 69 -102.5t166 -30.5q89 0 137 20.5zM331 453.5q-53 -25.5 -72 -82.5h427q-19 57 -72.5 82.5t-143.5 25.5q-86 0 -139 -25.5z" />
    <glyph glyph-name="Ecaron" unicode="&#x11a;" horiz-adv-x="876" 
d="M809 714v-162h-533v-114h513v-162h-513v-114h533v-162h-740v714h740zM253 969l207 -80l207 80v-107l-207 -80l-207 80v107z" />
    <glyph glyph-name="ecaron" unicode="&#x11b;" horiz-adv-x="942" 
d="M623 148.5q48 20.5 67 58.5h193q-30 -110 -130 -168.5t-273 -58.5q-199 0 -313 81t-114 236q0 103 53.5 174.5t147.5 107t216 35.5q195 0 307 -86.5t112 -266.5h-638q11 -72 69 -102.5t166 -30.5q89 0 137 20.5zM331 453.5q-53 -25.5 -72 -82.5h427q-19 57 -72.5 82.5
t-143.5 25.5q-86 0 -139 -25.5zM266 849l207 -80l207 80v-107l-207 -80l-207 80v107z" />
    <glyph glyph-name="Gbreve" unicode="&#x11e;" horiz-adv-x="996" 
d="M115.5 562q56.5 85 158.5 128.5t237 43.5q124 0 218 -36t147 -99.5t60 -144.5h-220q-11 45 -62 74.5t-142 29.5q-127 0 -181.5 -60t-54.5 -147q0 -90 57.5 -149.5t203.5 -59.5q69 0 120 10.5t104 33.5v68h-253v135h428v-305q-105 -59 -201 -81.5t-209 -22.5
q-141 0 -246.5 44t-163 129t-57.5 205q0 119 56.5 204zM395 977q0 -49 28 -71t85 -22t85.5 22.5t28.5 70.5h113q0 -102 -62 -146t-165 -44t-165 44t-62 146h114z" />
    <glyph glyph-name="gbreve" unicode="&#x11f;" horiz-adv-x="949" 
d="M687 594h192v-527q-1 -171 -93.5 -249t-280.5 -78q-193 0 -407 50l22 148q104 -21 185 -32t159 -11q116 0 169.5 40t53.5 136v45q-44 -61 -118.5 -91.5t-169.5 -30.5q-92 0 -170.5 32t-127 101.5t-48.5 176.5t48.5 176.5t127 101.5t170.5 32q95 0 169.5 -30.5
t118.5 -91.5v102zM687 304q0 71 -53.5 109.5t-162.5 38.5t-162.5 -38.5t-53.5 -109.5q0 -148 216 -148t216 148zM354 857q0 -49 28 -71t85 -22t85.5 22.5t28.5 70.5h113q0 -102 -62 -146t-165 -44t-165 44t-62 146h114z" />
    <glyph glyph-name="Gdotaccent" unicode="&#x120;" horiz-adv-x="996" 
d="M115.5 562q56.5 85 158.5 128.5t237 43.5q124 0 218 -36t147 -99.5t60 -144.5h-220q-11 45 -62 74.5t-142 29.5q-127 0 -181.5 -60t-54.5 -147q0 -90 57.5 -149.5t203.5 -59.5q69 0 120 10.5t104 33.5v68h-253v135h428v-305q-105 -59 -201 -81.5t-209 -22.5
q-141 0 -246.5 44t-163 129t-57.5 205q0 119 56.5 204zM414 820v100h188v-100h-188z" />
    <glyph glyph-name="gdotaccent" unicode="&#x121;" horiz-adv-x="949" 
d="M687 594h192v-527q-1 -171 -93.5 -249t-280.5 -78q-193 0 -407 50l22 148q104 -21 185 -32t159 -11q116 0 169.5 40t53.5 136v45q-44 -61 -118.5 -91.5t-169.5 -30.5q-92 0 -170.5 32t-127 101.5t-48.5 176.5t48.5 176.5t127 101.5t170.5 32q95 0 169.5 -30.5
t118.5 -91.5v102zM687 304q0 71 -53.5 109.5t-162.5 38.5t-162.5 -38.5t-53.5 -109.5q0 -148 216 -148t216 148zM373 700v100h188v-100h-188z" />
    <glyph glyph-name="uni0122" unicode="&#x122;" horiz-adv-x="996" 
d="M115.5 562q56.5 85 158.5 128.5t237 43.5q124 0 218 -36t147 -99.5t60 -144.5h-220q-11 45 -62 74.5t-142 29.5q-127 0 -181.5 -60t-54.5 -147q0 -90 57.5 -149.5t203.5 -59.5q69 0 120 10.5t104 33.5v68h-253v135h428v-305q-105 -59 -201 -81.5t-209 -22.5
q-141 0 -246.5 44t-163 129t-57.5 205q0 119 56.5 204zM444 -187v114h175v-114l-90 -110h-85l62 110h-62z" />
    <glyph glyph-name="uni0123" unicode="&#x123;" horiz-adv-x="949" 
d="M687 594h192v-527q-1 -171 -93.5 -249t-280.5 -78q-193 0 -407 50l22 148q104 -21 185 -32t159 -11q116 0 169.5 40t53.5 136v45q-44 -61 -118.5 -91.5t-169.5 -30.5q-92 0 -170.5 32t-127 101.5t-48.5 176.5t48.5 176.5t127 101.5t170.5 32q95 0 169.5 -30.5
t118.5 -91.5v102zM687 304q0 71 -53.5 109.5t-162.5 38.5t-162.5 -38.5t-53.5 -109.5q0 -148 216 -148t216 148zM555 817v-114h-175v114l91 110h84l-61 -110h61z" />
    <glyph glyph-name="Hbar" unicode="&#x126;" horiz-adv-x="1118" 
d="M1004 628h70v-100h-70v-528h-206v269h-479v-269h-206v528h-70v100h70v86h206v-86h479v86h206v-86zM319 445h479v83h-479v-83z" />
    <glyph glyph-name="hbar" unicode="&#x127;" horiz-adv-x="1057" 
d="M903.5 542q82.5 -72 83.5 -232v-310h-192v245q0 107 -47 157t-163 50q-122 0 -191 -55t-69 -163v-234h-192v647h-84v100h84v53h192v-53h248v-100h-248v-189q59 75 142.5 115.5t202.5 40.5q151 0 233.5 -72z" />
    <glyph glyph-name="Imacron" unicode="&#x12a;" horiz-adv-x="345" 
d="M69 714h207v-714h-207v714zM-63 820v100h469v-100h-469z" />
    <glyph glyph-name="imacron" unicode="&#x12b;" horiz-adv-x="334" 
d="M69 0v594h196v-594h-196zM-68 700v100h469v-100h-469z" />
    <glyph glyph-name="Iogonek" unicode="&#x12e;" horiz-adv-x="353" 
d="M196 -113q34 -10 111 -10v-127q-153 0 -235 32t-82 109q0 41 27.5 66t90.5 43h-41v714h206v-714h7q-64 -7 -91 -24t-27 -44q0 -35 34 -45z" />
    <glyph glyph-name="iogonek" unicode="&#x12f;" horiz-adv-x="341" 
d="M58 800h207v-128h-207v128zM201.5 -113q34.5 -10 111.5 -10v-127q-153 0 -235.5 32t-82.5 109q0 36 19.5 60t54.5 49v594h196v-594h7q-105 -14 -105 -68q0 -35 34.5 -45z" />
    <glyph glyph-name="Idotaccent" unicode="&#x130;" horiz-adv-x="345" 
d="M69 714h207v-714h-207v714zM78 820v100h188v-100h-188z" />
    <glyph glyph-name="dotlessi" unicode="&#x131;" horiz-adv-x="334" 
d="M69 0v594h196v-594h-196z" />
    <glyph glyph-name="uni0136" unicode="&#x136;" horiz-adv-x="1019" 
d="M650 714h310l-360 -299l360 -415h-260l-250 290l-174 -145v-145h-207v714h207v-320zM392 -187v114h175v-114l-90 -110h-85l62 110h-62z" />
    <glyph glyph-name="uni0137" unicode="&#x137;" horiz-adv-x="960" 
d="M606 594h301l-358 -253l358 -341h-251l-248 240l-146 -103v-137h-193v800h193v-452zM369 -187v114h175v-114l-90 -110h-85l62 110h-62z" />
    <glyph glyph-name="Lacute" unicode="&#x139;" horiz-adv-x="823" 
d="M276 714v-538h495v-176h-702v714h207zM69 797v103l389 80v-103z" />
    <glyph glyph-name="lacute" unicode="&#x13a;" horiz-adv-x="331" 
d="M69 0v800h193v-800h-193zM-30 883v103l389 80v-103z" />
    <glyph glyph-name="uni013B" unicode="&#x13b;" horiz-adv-x="823" 
d="M276 714v-538h495v-176h-702v714h207zM334 -187v114h175v-114l-90 -110h-85l62 110h-62z" />
    <glyph glyph-name="uni013C" unicode="&#x13c;" horiz-adv-x="331" 
d="M69 0v800h193v-800h-193zM78 -187v114h175v-114l-90 -110h-85l62 110h-62z" />
    <glyph glyph-name="Lcaron" unicode="&#x13d;" horiz-adv-x="823" 
d="M276 714v-538h495v-176h-702v714h207zM514 566v114h175v-114l-90 -110h-85l62 110h-62z" />
    <glyph glyph-name="lcaron" unicode="&#x13e;" horiz-adv-x="526" 
d="M69 0v800h193v-800h-193zM324 666v114h175v-114l-90 -110h-85l62 110h-62z" />
    <glyph glyph-name="Lslash" unicode="&#x141;" horiz-adv-x="931" 
d="M348 364v-188h495v-176h-701v289l-106 -38v136l106 38v289h206v-214l243 88v-136z" />
    <glyph glyph-name="lslash" unicode="&#x142;" horiz-adv-x="580" 
d="M385 494l143 65v-110l-143 -65v-384h-193v296l-139 -64v110l139 64v394h193v-306z" />
    <glyph glyph-name="Nacute" unicode="&#x143;" horiz-adv-x="1070" 
d="M794 192v522h206v-714h-303l-421 522v-522h-207v714h304zM346 797v103l389 80v-103z" />
    <glyph glyph-name="nacute" unicode="&#x144;" horiz-adv-x="993" 
d="M840.5 542q82.5 -72 83.5 -232v-310h-192v245q0 107 -47 157t-163 50q-122 0 -191 -55t-69 -163v-234h-193v594h193v-136q59 75 142.5 115.5t202.5 40.5q151 0 233.5 -72zM314 677v103l389 80v-103z" />
    <glyph glyph-name="uni0145" unicode="&#x145;" horiz-adv-x="1070" 
d="M794 192v522h206v-714h-303l-421 522v-522h-207v714h304zM399 -187v114h175v-114l-90 -110h-85l62 110h-62z" />
    <glyph glyph-name="uni0146" unicode="&#x146;" horiz-adv-x="993" 
d="M840.5 542q82.5 -72 83.5 -232v-310h-192v245q0 107 -47 157t-163 50q-122 0 -191 -55t-69 -163v-234h-193v594h193v-136q59 75 142.5 115.5t202.5 40.5q151 0 233.5 -72zM409 -187v114h175v-114l-90 -110h-85l62 110h-62z" />
    <glyph glyph-name="Ncaron" unicode="&#x147;" horiz-adv-x="1070" 
d="M794 192v522h206v-714h-303l-421 522v-522h-207v714h304zM334 969l207 -80l207 80v-107l-207 -80l-207 80v107z" />
    <glyph glyph-name="ncaron" unicode="&#x148;" horiz-adv-x="993" 
d="M840.5 542q82.5 -72 83.5 -232v-310h-192v245q0 107 -47 157t-163 50q-122 0 -191 -55t-69 -163v-234h-193v594h193v-136q59 75 142.5 115.5t202.5 40.5q151 0 233.5 -72zM302 849l207 -80l207 80v-107l-207 -80l-207 80v107z" />
    <glyph glyph-name="Eng" unicode="&#x14a;" horiz-adv-x="1070" 
d="M794 714h206v-714q0 -133 -67 -201.5t-211 -68.5q-91 0 -177 18v157q45 -7 70.5 -10t61.5 -3q62 0 84.5 25t22.5 83h-87l-421 522v-522h-207v714h304l421 -522v522z" />
    <glyph glyph-name="eng" unicode="&#x14b;" horiz-adv-x="993" 
d="M840.5 542q82.5 -72 83.5 -232v-310q0 -132 -67 -198t-209 -66q-91 0 -177 15v154q34 -4 62 -7t51 -3q57 0 88.5 8.5t45.5 31t14 65.5v245q0 107 -47 157t-163 50q-122 0 -191 -55t-69 -163v-234h-193v594h193v-136q59 75 142.5 115.5t202.5 40.5q151 0 233.5 -72z" />
    <glyph glyph-name="Omacron" unicode="&#x14c;" horiz-adv-x="1046" 
d="M179 79q-120 99 -120 279q0 179 120 277.5t344 98.5q149 0 253 -44.5t157.5 -129t53.5 -202.5q0 -119 -53.5 -203.5t-157.5 -129.5t-253 -45q-224 0 -344 99zM771 358q0 200 -248 200q-247 0 -247 -200q0 -202 247 -202q248 0 248 202zM288 820v100h469v-100h-469z" />
    <glyph glyph-name="omacron" unicode="&#x14d;" horiz-adv-x="949" 
d="M162.5 62.5q-109.5 82.5 -109.5 234.5t109.5 234.5t311.5 82.5q203 0 312.5 -82.5t109.5 -234.5t-109.5 -234.5t-312.5 -82.5q-202 0 -311.5 82.5zM639.5 174.5q54.5 39.5 54.5 122.5t-55 122.5t-165 39.5t-164.5 -39.5t-54.5 -122.5t54.5 -122.5t164.5 -39.5
q111 0 165.5 39.5zM239 700v100h469v-100h-469z" />
    <glyph glyph-name="Ohungarumlaut" unicode="&#x150;" horiz-adv-x="1046" 
d="M179 79q-120 99 -120 279q0 179 120 277.5t344 98.5q149 0 253 -44.5t157.5 -129t53.5 -202.5q0 -119 -53.5 -203.5t-157.5 -129.5t-253 -45q-224 0 -344 99zM771 358q0 200 -248 200q-247 0 -247 -200q0 -202 247 -202q248 0 248 202zM306 805v107l207 80v-107zM573 805
v107l207 80v-107z" />
    <glyph glyph-name="ohungarumlaut" unicode="&#x151;" horiz-adv-x="949" 
d="M162.5 62.5q-109.5 82.5 -109.5 234.5t109.5 234.5t311.5 82.5q203 0 312.5 -82.5t109.5 -234.5t-109.5 -234.5t-312.5 -82.5q-202 0 -311.5 82.5zM639.5 174.5q54.5 39.5 54.5 122.5t-55 122.5t-165 39.5t-164.5 -39.5t-54.5 -122.5t54.5 -122.5t164.5 -39.5
q111 0 165.5 39.5zM257 685v107l207 80v-107zM524 685v107l207 80v-107z" />
    <glyph glyph-name="OE" unicode="&#x152;" horiz-adv-x="1695" 
d="M1628 552h-533v-114h513v-162h-513v-114h533v-162h-740v99q-59 -58 -151 -88.5t-214 -30.5q-224 0 -344 99t-120 279q0 179 120 277.5t344 98.5q122 0 214 -30t151 -88v98h740v-162zM771 358q0 200 -248 200q-247 0 -247 -200q0 -202 247 -202q248 0 248 202z" />
    <glyph glyph-name="oe" unicode="&#x153;" horiz-adv-x="1640" 
d="M1321.5 148.5q47.5 20.5 66.5 58.5h193q-29 -110 -129 -168.5t-274 -58.5q-119 0 -209.5 29.5t-144.5 87.5q-53 -57 -141.5 -87t-208.5 -30q-202 0 -311.5 82.5t-109.5 234.5t109.5 234.5t311.5 82.5q121 0 209.5 -30t141.5 -88q55 58 143.5 88t200.5 30
q194 0 306.5 -86.5t112.5 -266.5h-638q11 -72 69 -102.5t165 -30.5q90 0 137.5 20.5zM1030 453.5q-53 -25.5 -72 -82.5h426q-19 57 -72 82.5t-143 25.5q-86 0 -139 -25.5zM639.5 174.5q54.5 39.5 54.5 122.5t-55 122.5t-165 39.5t-164.5 -39.5t-54.5 -122.5t54.5 -122.5
t164.5 -39.5q111 0 165.5 39.5z" />
    <glyph glyph-name="Racute" unicode="&#x154;" horiz-adv-x="985" 
d="M870 251.5q32 -34.5 32 -94.5v-157h-206v118q0 35 -7 52.5t-25 25t-54 7.5h-334v-203h-207v714h548q141 0 215 -56.5t74 -168.5q0 -150 -127 -197q59 -6 91 -40.5zM276 545v-173h290q42 0 66 4t40.5 23t16.5 59q0 41 -16.5 59.5t-40.5 23t-66 4.5h-290zM267 797v103
l389 80v-103z" />
    <glyph glyph-name="racute" unicode="&#x155;" horiz-adv-x="722" 
d="M600.5 607.5q34.5 -6.5 72.5 -20.5v-169q-46 15 -81 21t-74 6q-65 0 -127 -26t-129 -97v-322h-193v594h193v-121q54 77 117 109t144 32q43 0 77.5 -6.5zM159 677v103l389 80v-103z" />
    <glyph glyph-name="uni0156" unicode="&#x156;" horiz-adv-x="985" 
d="M870 251.5q32 -34.5 32 -94.5v-157h-206v118q0 35 -7 52.5t-25 25t-54 7.5h-334v-203h-207v714h548q141 0 215 -56.5t74 -168.5q0 -150 -127 -197q59 -6 91 -40.5zM276 545v-173h290q42 0 66 4t40.5 23t16.5 59q0 41 -16.5 59.5t-40.5 23t-66 4.5h-290zM411 -187v114h175
v-114l-90 -110h-85l62 110h-62z" />
    <glyph glyph-name="uni0157" unicode="&#x157;" horiz-adv-x="722" 
d="M600.5 607.5q34.5 -6.5 72.5 -20.5v-169q-46 15 -81 21t-74 6q-65 0 -127 -26t-129 -97v-322h-193v594h193v-121q54 77 117 109t144 32q43 0 77.5 -6.5zM78 -187v114h175v-114l-90 -110h-85l62 110h-62z" />
    <glyph glyph-name="Rcaron" unicode="&#x158;" horiz-adv-x="985" 
d="M870 251.5q32 -34.5 32 -94.5v-157h-206v118q0 35 -7 52.5t-25 25t-54 7.5h-334v-203h-207v714h548q141 0 215 -56.5t74 -168.5q0 -150 -127 -197q59 -6 91 -40.5zM276 545v-173h290q42 0 66 4t40.5 23t16.5 59q0 41 -16.5 59.5t-40.5 23t-66 4.5h-290zM255 969l207 -80
l207 80v-107l-207 -80l-207 80v107z" />
    <glyph glyph-name="rcaron" unicode="&#x159;" horiz-adv-x="722" 
d="M600.5 607.5q34.5 -6.5 72.5 -20.5v-169q-46 15 -81 21t-74 6q-65 0 -127 -26t-129 -97v-322h-193v594h193v-121q54 77 117 109t144 32q43 0 77.5 -6.5zM147 849l207 -80l207 80v-107l-207 -80l-207 80v107z" />
    <glyph glyph-name="Sacute" unicode="&#x15a;" horiz-adv-x="1013" 
d="M276 234q0 -48 56.5 -73.5t190.5 -25.5q122 0 168 18t46 54q0 27 -17 40t-66 20.5t-161 14.5q-149 10 -239.5 35.5t-134 73.5t-43.5 127q0 108 108 162t300 54q208 0 321.5 -62t117.5 -180h-216q0 47 -54 67t-175 20q-107 0 -146.5 -16t-39.5 -48q0 -23 17 -36
t64.5 -21.5t146.5 -16.5q160 -12 245.5 -29t136.5 -62t51 -134q0 -130 -108.5 -183t-314.5 -53q-227 0 -345.5 59t-125.5 195h217zM311 797v103l389 80v-103z" />
    <glyph glyph-name="sacute" unicode="&#x15b;" horiz-adv-x="919" 
d="M255 200q2 -31 21.5 -49.5t67 -27.5t131.5 -9q79 0 120 6.5t55 20t14 37.5t-16 35t-57.5 16.5t-144.5 12.5q-141 10 -217.5 25.5t-116.5 50.5t-40 101q0 108 104 151.5t281 43.5q175 0 278.5 -44.5t111.5 -153.5h-203q-2 40 -46.5 55t-148.5 15q-96 0 -135 -13.5
t-39 -39.5q0 -19 15 -29t57 -16.5t139 -14.5l23 -2q139 -12 207.5 -25t109.5 -49.5t41 -109.5q0 -118 -97 -162.5t-285 -44.5q-204 0 -317 49t-115 171h202zM264 677v103l389 80v-103z" />
    <glyph glyph-name="Scedilla" unicode="&#x15e;" horiz-adv-x="1013" 
d="M846.5 34q-106.5 -53 -306.5 -54l-13 -55q33 15 79 15t74 -20t28 -57q0 -57 -60 -83.5t-155 -26.5q-41 0 -101 7v87q87 -12 121 -12q62 0 62 29q0 23 -33 23q-21 0 -51 -15l-69 23l17 87q-182 11 -277.5 71t-102.5 181h217q0 -48 56.5 -73.5t190.5 -25.5q122 0 168 18
t46 54q0 27 -17 40t-66 20.5t-161 14.5q-149 10 -239.5 35.5t-134 73.5t-43.5 127q0 108 108 162t300 54q208 0 321.5 -62t117.5 -180h-216q0 47 -54 67t-175 20q-107 0 -146.5 -16t-39.5 -48q0 -23 17 -36t64.5 -21.5t146.5 -16.5q160 -12 245.5 -29t136.5 -62t51 -134
q0 -129 -106.5 -182z" />
    <glyph glyph-name="scedilla" unicode="&#x15f;" horiz-adv-x="919" 
d="M771.5 25.5q-95.5 -44.5 -278.5 -45.5l-13 -55q33 15 79 15t74 -20t28 -57q0 -57 -60 -83.5t-155 -26.5q-41 0 -101 7v87q87 -12 121 -12q62 0 62 29q0 23 -33 23q-21 0 -51 -15l-69 23l17 87q-160 10 -248.5 60.5t-90.5 157.5h202q2 -31 21.5 -49.5t67 -27.5t131.5 -9
q79 0 120 6.5t55 20t14 37.5t-16 35t-57.5 16.5t-144.5 12.5q-141 10 -217.5 25.5t-116.5 50.5t-40 101q0 108 104 151.5t281 43.5q175 0 278.5 -44.5t111.5 -153.5h-203q-2 40 -46.5 55t-148.5 15q-96 0 -135 -13.5t-39 -39.5q0 -19 15 -29t57 -16.5t139 -14.5l23 -2
q139 -12 207.5 -25t109.5 -49.5t41 -109.5q0 -117 -95.5 -161.5z" />
    <glyph glyph-name="Scaron" unicode="&#x160;" horiz-adv-x="1013" 
d="M276 234q0 -48 56.5 -73.5t190.5 -25.5q122 0 168 18t46 54q0 27 -17 40t-66 20.5t-161 14.5q-149 10 -239.5 35.5t-134 73.5t-43.5 127q0 108 108 162t300 54q208 0 321.5 -62t117.5 -180h-216q0 47 -54 67t-175 20q-107 0 -146.5 -16t-39.5 -48q0 -23 17 -36
t64.5 -21.5t146.5 -16.5q160 -12 245.5 -29t136.5 -62t51 -134q0 -130 -108.5 -183t-314.5 -53q-227 0 -345.5 59t-125.5 195h217zM299 969l207 -80l207 80v-107l-207 -80l-207 80v107z" />
    <glyph glyph-name="scaron" unicode="&#x161;" horiz-adv-x="919" 
d="M255 200q2 -31 21.5 -49.5t67 -27.5t131.5 -9q79 0 120 6.5t55 20t14 37.5t-16 35t-57.5 16.5t-144.5 12.5q-141 10 -217.5 25.5t-116.5 50.5t-40 101q0 108 104 151.5t281 43.5q175 0 278.5 -44.5t111.5 -153.5h-203q-2 40 -46.5 55t-148.5 15q-96 0 -135 -13.5
t-39 -39.5q0 -19 15 -29t57 -16.5t139 -14.5l23 -2q139 -12 207.5 -25t109.5 -49.5t41 -109.5q0 -118 -97 -162.5t-285 -44.5q-204 0 -317 49t-115 171h202zM252 849l207 -80l207 80v-107l-207 -80l-207 80v107z" />
    <glyph glyph-name="uni0162" unicode="&#x162;" horiz-adv-x="979" 
d="M919 714v-176h-326v-538h-207v538h-327v176h860zM668 -70q28 -20 28 -57q0 -57 -60 -83.5t-155 -26.5q-41 0 -101 7v87q87 -12 121 -12q62 0 62 29q0 23 -33 23q-21 0 -51 -15l-69 23l19 95h101l-15 -65q33 15 79 15t74 -20z" />
    <glyph glyph-name="uni0163" unicode="&#x163;" horiz-adv-x="704" 
d="M649 446h-264v-186q0 -64 23.5 -91t87.5 -27q37 0 69 3.5t84 13.5v-157q-112 -22 -198 -22h-4l-11 -48q33 15 79 15t74 -20t28 -57q0 -57 -60 -83.5t-155 -26.5q-42 0 -101 7v87q87 -12 121 -12q62 0 62 29q0 23 -33 23q-21 0 -51 -15l-69 23l17 87q-80 17 -118 69.5
t-38 146.5v241h-139v148h139v119l193 54v-173h264v-148z" />
    <glyph glyph-name="Tcaron" unicode="&#x164;" horiz-adv-x="979" 
d="M919 714v-176h-326v-538h-207v538h-327v176h860zM282 969l207 -80l207 80v-107l-207 -80l-207 80v107z" />
    <glyph glyph-name="tcaron" unicode="&#x165;" horiz-adv-x="704" 
d="M626 732l-91 -102h-84l61 102h-61v106h175v-106zM649 446h-264v-186q0 -64 23.5 -91t87.5 -27q37 0 69 3.5t84 13.5v-157q-112 -22 -198 -22q-135 0 -197 52.5t-62 172.5v241h-139v148h139v119l193 54v-173h264v-148z" />
    <glyph glyph-name="Tbar" unicode="&#x166;" horiz-adv-x="979" 
d="M919 714v-176h-326v-172h231v-100h-231v-266h-207v266h-231v100h231v172h-327v176h860z" />
    <glyph glyph-name="tbar" unicode="&#x167;" horiz-adv-x="704" 
d="M649 446h-264v-69h264v-100h-264v-17q0 -64 23.5 -91t87.5 -27q37 0 69 3.5t84 13.5v-157q-112 -22 -198 -22q-135 0 -197 52.5t-62 172.5v72h-139v100h139v69h-139v148h139v119l193 54v-173h264v-148z" />
    <glyph glyph-name="Umacron" unicode="&#x16a;" horiz-adv-x="1019" 
d="M949 348q0 -185 -106.5 -276.5t-333.5 -91.5q-228 0 -334 91t-106 277v366h207v-359q0 -88 49 -143.5t184 -55.5t184.5 56t49.5 143v359h206v-366zM274 820v100h469v-100h-469z" />
    <glyph glyph-name="umacron" unicode="&#x16b;" horiz-adv-x="994" 
d="M731 594h193v-594h-193v136q-59 -75 -142.5 -115.5t-202.5 -40.5q-151 0 -233.5 72t-83.5 232v310h193v-245q0 -107 47 -157t162 -50q122 0 191 55t69 163v234zM258 700v100h469v-100h-469z" />
    <glyph glyph-name="Uring" unicode="&#x16e;" horiz-adv-x="1019" 
d="M949 348q0 -185 -106.5 -276.5t-333.5 -91.5q-228 0 -334 91t-106 277v366h207v-359q0 -88 49 -143.5t184 -55.5t184.5 56t49.5 143v359h206v-366zM344 814q-52 34 -52 98t52 98t165 34t165 -34t52 -98t-52 -98t-165 -34t-165 34zM586 870q26 13 26 42t-26 42t-77 13
q-103 0 -103 -55t103 -55q51 0 77 13z" />
    <glyph glyph-name="uring" unicode="&#x16f;" horiz-adv-x="994" 
d="M731 594h193v-594h-193v136q-59 -75 -142.5 -115.5t-202.5 -40.5q-151 0 -233.5 72t-83.5 232v310h193v-245q0 -107 47 -157t162 -50q122 0 191 55t69 163v234zM328 694q-52 34 -52 98t52 98t165 34t165 -34t52 -98t-52 -98t-165 -34t-165 34zM570 750q26 13 26 42
t-26 42t-77 13q-103 0 -103 -55t103 -55q51 0 77 13z" />
    <glyph glyph-name="Uhungarumlaut" unicode="&#x170;" horiz-adv-x="1019" 
d="M949 348q0 -185 -106.5 -276.5t-333.5 -91.5q-228 0 -334 91t-106 277v366h207v-359q0 -88 49 -143.5t184 -55.5t184.5 56t49.5 143v359h206v-366zM292 805v107l207 80v-107zM559 805v107l207 80v-107z" />
    <glyph glyph-name="uhungarumlaut" unicode="&#x171;" horiz-adv-x="994" 
d="M731 594h193v-594h-193v136q-59 -75 -142.5 -115.5t-202.5 -40.5q-151 0 -233.5 72t-83.5 232v310h193v-245q0 -107 47 -157t162 -50q122 0 191 55t69 163v234zM276 685v107l207 80v-107zM543 685v107l207 80v-107z" />
    <glyph glyph-name="Uogonek" unicode="&#x172;" horiz-adv-x="1019" 
d="M743 714h206v-366q0 -142 -62 -228.5t-192 -119.5l-5 -1q-1 -1 -5 -1q-53 -13 -72 -25.5t-19 -30.5q0 -30 37.5 -37.5t117.5 -7.5v-127q-102 0 -163 8.5t-93 33t-32 72.5q0 61 89 97q-13 -1 -41 -1q-228 0 -334 91t-106 277v366h207v-359q0 -88 49 -143.5t184 -55.5
t184.5 56t49.5 143v359z" />
    <glyph glyph-name="uogonek" unicode="&#x173;" horiz-adv-x="993" 
d="M731 594h193v-594h-1q-68 -5 -96 -23t-28 -48q0 -33 29.5 -42.5t94.5 -9.5v-127q-142 0 -219 30t-77 103q0 45 36.5 74t108.5 43h-41v136q-59 -75 -142.5 -115.5t-202.5 -40.5q-151 0 -233.5 72t-83.5 232v310h193v-245q0 -107 47 -157t162 -50q122 0 191 55t69 163v234z
" />
    <glyph glyph-name="Wcircumflex" unicode="&#x174;" horiz-adv-x="1650" 
d="M1182 159l197 555h211l-260 -714h-292l-214 554l-219 -554h-291l-255 714h211l192 -555l223 555h280zM617 900l207 80l207 -80v-107l-207 80l-207 -80v107z" />
    <glyph glyph-name="wcircumflex" unicode="&#x175;" horiz-adv-x="1564" 
d="M1118 130l200 464h194l-256 -594h-273l-201 417l-201 -417h-273l-255 594h193l200 -464l221 464h230zM575 780l207 80l207 -80v-107l-207 80l-207 -80v107z" />
    <glyph glyph-name="Ycircumflex" unicode="&#x176;" horiz-adv-x="1127" 
d="M563 410l244 304h260l-399 -477v-237h-209v237l-400 477h260zM356 900l207 80l207 -80v-107l-207 80l-207 -80v107z" />
    <glyph glyph-name="ycircumflex" unicode="&#x177;" horiz-adv-x="999" 
d="M754 594h199l-309 -604q-43 -85 -87 -139t-104 -82.5t-142 -28.5q-102 0 -214 30v151q120 -26 184 -26q44 0 71 7.5t50 30t47 67.5h-94l-302 594h200l250 -491zM293 780l207 80l207 -80v-107l-207 80l-207 -80v107z" />
    <glyph glyph-name="Ydieresis" unicode="&#x178;" horiz-adv-x="1127" 
d="M563 410l244 304h260l-399 -477v-237h-209v237l-400 477h260zM346 820v100h174v-100h-174zM606 820v100h174v-100h-174z" />
    <glyph glyph-name="Zacute" unicode="&#x179;" horiz-adv-x="943" 
d="M69 714h804v-176l-500 -362h500v-176h-804v176l501 362h-501v176zM276 797v103l389 80v-103z" />
    <glyph glyph-name="zacute" unicode="&#x17a;" horiz-adv-x="847" 
d="M69 594h708v-148l-442 -298h442v-148h-708v148l443 298h-443v148zM228 677v103l389 80v-103z" />
    <glyph glyph-name="Zdotaccent" unicode="&#x17b;" horiz-adv-x="943" 
d="M69 714h804v-176l-500 -362h500v-176h-804v176l501 362h-501v176zM377 820v100h188v-100h-188z" />
    <glyph glyph-name="zdotaccent" unicode="&#x17c;" horiz-adv-x="847" 
d="M69 594h708v-148l-442 -298h442v-148h-708v148l443 298h-443v148zM329 700v100h188v-100h-188z" />
    <glyph glyph-name="Zcaron" unicode="&#x17d;" horiz-adv-x="943" 
d="M69 714h804v-176l-500 -362h500v-176h-804v176l501 362h-501v176zM264 969l207 -80l207 80v-107l-207 -80l-207 80v107z" />
    <glyph glyph-name="zcaron" unicode="&#x17e;" horiz-adv-x="847" 
d="M69 594h708v-148l-442 -298h442v-148h-708v148l443 298h-443v148zM216 849l207 -80l207 80v-107l-207 -80l-207 80v107z" />
    <glyph glyph-name="uni0218" unicode="&#x218;" horiz-adv-x="1013" 
d="M276 234q0 -48 56.5 -73.5t190.5 -25.5q122 0 168 18t46 54q0 27 -17 40t-66 20.5t-161 14.5q-149 10 -239.5 35.5t-134 73.5t-43.5 127q0 108 108 162t300 54q208 0 321.5 -62t117.5 -180h-216q0 47 -54 67t-175 20q-107 0 -146.5 -16t-39.5 -48q0 -23 17 -36
t64.5 -21.5t146.5 -16.5q160 -12 245.5 -29t136.5 -62t51 -134q0 -130 -108.5 -183t-314.5 -53q-227 0 -345.5 59t-125.5 195h217zM419 -197v114h175v-114l-90 -110h-85l62 110h-62z" />
    <glyph glyph-name="uni0219" unicode="&#x219;" horiz-adv-x="919" 
d="M255 200q2 -31 21.5 -49.5t67 -27.5t131.5 -9q79 0 120 6.5t55 20t14 37.5t-16 35t-57.5 16.5t-144.5 12.5q-141 10 -217.5 25.5t-116.5 50.5t-40 101q0 108 104 151.5t281 43.5q175 0 278.5 -44.5t111.5 -153.5h-203q-2 40 -46.5 55t-148.5 15q-96 0 -135 -13.5
t-39 -39.5q0 -19 15 -29t57 -16.5t139 -14.5l23 -2q139 -12 207.5 -25t109.5 -49.5t41 -109.5q0 -118 -97 -162.5t-285 -44.5q-204 0 -317 49t-115 171h202zM372 -197v114h175v-114l-90 -110h-85l62 110h-62z" />
    <glyph glyph-name="uni021A" unicode="&#x21a;" horiz-adv-x="979" 
d="M919 714v-176h-326v-538h-207v538h-327v176h860zM402 -187v114h175v-114l-90 -110h-85l62 110h-62z" />
    <glyph glyph-name="uni021B" unicode="&#x21b;" horiz-adv-x="704" 
d="M649 446h-264v-186q0 -64 23.5 -91t87.5 -27q37 0 69 3.5t84 13.5v-157q-112 -22 -198 -22q-135 0 -197 52.5t-62 172.5v241h-139v148h139v119l193 54v-173h264v-148zM337 -194v114h175v-114l-90 -110h-85l62 110h-62z" />
    <glyph glyph-name="circumflex" unicode="&#x2c6;" horiz-adv-x="553" 
d="M69 780l207 80l207 -80v-107l-207 80l-207 -80v107z" />
    <glyph glyph-name="caron" unicode="&#x2c7;" horiz-adv-x="553" 
d="M69 849l207 -80l207 80v-107l-207 -80l-207 80v107z" />
    <glyph glyph-name="breve" unicode="&#x2d8;" horiz-adv-x="593" 
d="M183 857q0 -49 28 -71t85 -22t85.5 22.5t28.5 70.5h113q0 -102 -62 -146t-165 -44t-165 44t-62 146h114z" />
    <glyph glyph-name="dotaccent" unicode="&#x2d9;" horiz-adv-x="326" 
d="M69 700v100h188v-100h-188z" />
    <glyph glyph-name="ring" unicode="&#x2da;" horiz-adv-x="573" 
d="M121 694q-52 34 -52 98t52 98t165 34t165 -34t52 -98t-52 -98t-165 -34t-165 34zM363 750q26 13 26 42t-26 42t-77 13q-103 0 -103 -55t103 -55q51 0 77 13z" />
    <glyph glyph-name="ogonek" unicode="&#x2db;" horiz-adv-x="427" 
d="M357 -230q-102 0 -164.5 9.5t-96 34.5t-33.5 73q0 34 21 60t63 53h100q-26 -21 -38.5 -35.5t-12.5 -36.5q0 -27 21.5 -39.5t53 -15.5t86.5 -3v-100z" />
    <glyph glyph-name="tilde" unicode="&#x2dc;" horiz-adv-x="746" 
d="M69 666q0 91 39 151t125 60q46 0 80.5 -14.5t76.5 -40.5q31 -19 51.5 -28.5t41.5 -9.5q34 0 47 22t13 68h134q0 -91 -38.5 -151t-124.5 -60q-46 0 -80.5 14.5t-76.5 40.5q-31 19 -51.5 28.5t-42.5 9.5q-34 0 -47 -22t-13 -68h-134z" />
    <glyph glyph-name="hungarumlaut" unicode="&#x2dd;" horiz-adv-x="613" 
d="M69 685v107l207 80v-107zM336 685v107l207 80v-107z" />
    <glyph glyph-name="gravecomb" unicode="&#x300;" 
d="M-465 860l389 -80v-103l-389 80v103z" />
    <glyph glyph-name="acutecomb" unicode="&#x301;" 
d="M-459 677v103l389 80v-103z" />
    <glyph glyph-name="uni0302" unicode="&#x302;" 
d="M-484 780l207 80l207 -80v-107l-207 80l-207 -80v107z" />
    <glyph glyph-name="tildecomb" unicode="&#x303;" 
d="M-677 666q0 91 39 151t125 60q46 0 80.5 -14.5t76.5 -40.5q31 -19 51.5 -28.5t41.5 -9.5q34 0 47 22t13 68h134q0 -91 -38.5 -151t-124.5 -60q-46 0 -80.5 14.5t-76.5 40.5q-31 19 -51.5 28.5t-42.5 9.5q-34 0 -47 -22t-13 -68h-134z" />
    <glyph glyph-name="uni0304" unicode="&#x304;" 
d="M-539 700v100h469v-100h-469z" />
    <glyph glyph-name="uni0306" unicode="&#x306;" 
d="M-410 857q0 -49 28 -71t85 -22t85.5 22.5t28.5 70.5h113q0 -102 -62 -146t-165 -44t-165 44t-62 146h114z" />
    <glyph glyph-name="uni0307" unicode="&#x307;" 
d="M-257 700v100h188v-100h-188z" />
    <glyph glyph-name="uni0308" unicode="&#x308;" 
d="M-504 700v100h174v-100h-174zM-244 700v100h174v-100h-174z" />
    <glyph glyph-name="uni030A" unicode="&#x30a;" 
d="M-452 694q-52 34 -52 98t52 98t165 34t165 -34t52 -98t-52 -98t-165 -34t-165 34zM-210 750q26 13 26 42t-26 42t-77 13q-103 0 -103 -55t103 -55q51 0 77 13z" />
    <glyph glyph-name="uni030B" unicode="&#x30b;" 
d="M-544 685v107l207 80v-107zM-277 685v107l207 80v-107z" />
    <glyph glyph-name="uni030C" unicode="&#x30c;" 
d="M-484 849l207 -80l207 80v-107l-207 -80l-207 80v107z" />
    <glyph glyph-name="uni0312" unicode="&#x312;" 
d="M-70 817v-114h-175v114l91 110h84l-61 -110h61z" />
    <glyph glyph-name="uni0326" unicode="&#x326;" 
d="M-245 -187v114h175v-114l-90 -110h-85l62 110h-62z" />
    <glyph glyph-name="uni0327" unicode="&#x327;" 
d="M-98 -70q28 -20 28 -57q0 -57 -60 -83.5t-155 -26.5q-41 0 -101 7v87q87 -12 121 -12q62 0 62 29q0 23 -33 23q-21 0 -51 -15l-69 23l19 95h101l-15 -65q33 15 79 15t74 -20z" />
    <glyph glyph-name="uni0328" unicode="&#x328;" 
d="M-70 -230q-102 0 -164.5 9.5t-96 34.5t-33.5 73q0 34 21 60t63 53h100q-26 -21 -38.5 -35.5t-12.5 -36.5q0 -27 21.5 -39.5t53 -15.5t86.5 -3v-100z" />
    <glyph glyph-name="uni0335" unicode="&#x335;" 
d="M-550 290v100h480v-100h-480z" />
    <glyph glyph-name="uni0336" unicode="&#x336;" 
d="M-1070 290v100h1000v-100h-1000z" />
    <glyph glyph-name="uni0337" unicode="&#x337;" 
d="M-256 775h187l-277 -925h-187z" />
    <glyph glyph-name="uni0338" unicode="&#x338;" 
d="M-223 720h153l-260 -870h-153z" />
    <glyph glyph-name="Wgrave" unicode="&#x1e80;" horiz-adv-x="1650" 
d="M1182 159l197 555h211l-260 -714h-292l-214 554l-219 -554h-291l-255 714h211l192 -555l223 555h280zM630 980l389 -80v-103l-389 80v103z" />
    <glyph glyph-name="wgrave" unicode="&#x1e81;" horiz-adv-x="1564" 
d="M1118 130l200 464h194l-256 -594h-273l-201 417l-201 -417h-273l-255 594h193l200 -464l221 464h230zM587 860l389 -80v-103l-389 80v103z" />
    <glyph glyph-name="Wacute" unicode="&#x1e82;" horiz-adv-x="1650" 
d="M1182 159l197 555h211l-260 -714h-292l-214 554l-219 -554h-291l-255 714h211l192 -555l223 555h280zM629 797v103l389 80v-103z" />
    <glyph glyph-name="wacute" unicode="&#x1e83;" horiz-adv-x="1564" 
d="M1118 130l200 464h194l-256 -594h-273l-201 417l-201 -417h-273l-255 594h193l200 -464l221 464h230zM587 677v103l389 80v-103z" />
    <glyph glyph-name="Wdieresis" unicode="&#x1e84;" horiz-adv-x="1650" 
d="M1182 159l197 555h211l-260 -714h-292l-214 554l-219 -554h-291l-255 714h211l192 -555l223 555h280zM608 820v100h174v-100h-174zM868 820v100h174v-100h-174z" />
    <glyph glyph-name="wdieresis" unicode="&#x1e85;" horiz-adv-x="1564" 
d="M1118 130l200 464h194l-256 -594h-273l-201 417l-201 -417h-273l-255 594h193l200 -464l221 464h230zM565 700v100h174v-100h-174zM825 700v100h174v-100h-174z" />
    <glyph glyph-name="Ygrave" unicode="&#x1ef2;" horiz-adv-x="1127" 
d="M563 410l244 304h260l-399 -477v-237h-209v237l-400 477h260zM368 980l389 -80v-103l-389 80v103z" />
    <glyph glyph-name="ygrave" unicode="&#x1ef3;" horiz-adv-x="999" 
d="M754 594h199l-309 -604q-43 -85 -87 -139t-104 -82.5t-142 -28.5q-102 0 -214 30v151q120 -26 184 -26q44 0 71 7.5t50 30t47 67.5h-94l-302 594h200l250 -491zM305 860l389 -80v-103l-389 80v103z" />
    <glyph glyph-name="endash" unicode="&#x2013;" horiz-adv-x="1179" 
d="M89 266v148h1000v-148h-1000z" />
    <glyph glyph-name="emdash" unicode="&#x2014;" horiz-adv-x="1379" 
d="M89 266v148h1200v-148h-1200z" />
    <glyph glyph-name="quoteleft" unicode="&#x2018;" horiz-adv-x="388" 
d="M275 413h-196l67 361h169z" />
    <glyph glyph-name="quoteright" unicode="&#x2019;" horiz-adv-x="381" 
d="M113 774h195l-67 -361h-168z" />
    <glyph glyph-name="quotesinglbase" unicode="&#x201a;" horiz-adv-x="341" 
d="M69 0v155h200v-155l-96 -208h-90l59 208h-73z" />
    <glyph glyph-name="quotedblleft" unicode="&#x201c;" horiz-adv-x="663" 
d="M275 413h-196l67 361h169zM551 413h-196l67 361h169z" />
    <glyph glyph-name="quotedblright" unicode="&#x201d;" horiz-adv-x="663" 
d="M113 774h195l-67 -361h-168zM389 774h195l-67 -361h-168z" />
    <glyph glyph-name="quotedblbase" unicode="&#x201e;" horiz-adv-x="617" 
d="M345 0v155h200v-155l-96 -208h-90l59 208h-73zM69 0v155h200v-155l-96 -208h-90l59 208h-73z" />
    <glyph glyph-name="dagger" unicode="&#x2020;" horiz-adv-x="908" 
d="M543 594h295v-162h-295v-582h-178v582h-296v162h296v206h178v-206z" />
    <glyph glyph-name="daggerdbl" unicode="&#x2021;" horiz-adv-x="908" 
d="M838 594v-162h-295v-214h295v-162h-295v-206h-178v206h-296v162h296v214h-296v162h296v206h178v-206h295z" />
    <glyph glyph-name="bullet" unicode="&#x2022;" horiz-adv-x="499" 
d="M113 224q-44 31 -44 97q0 65 44.5 96t136.5 31t135.5 -31t43.5 -96q0 -66 -43.5 -97t-135.5 -31q-93 0 -137 31z" />
    <glyph glyph-name="ellipsis" unicode="&#x2026;" horiz-adv-x="898" 
d="M69 0v155h200v-155h-200zM347 0v155h200v-155h-200zM625 0v155h200v-155h-200z" />
    <glyph glyph-name="perthousand" unicode="&#x2030;" horiz-adv-x="2123" 
d="M194 283.5q-63 34.5 -94 90t-31 118.5q0 62 31 117.5t94 90t154 34.5q92 0 155.5 -34.5t94 -89.5t30.5 -118t-30.5 -118.5t-94 -90t-155.5 -34.5q-91 0 -154 34.5zM912 714h178l-492 -714h-177zM437 409.5q30 32.5 30 83.5q0 50 -30 81.5t-89 31.5q-58 0 -87.5 -31.5
t-29.5 -81.5q0 -51 29.5 -83.5t87.5 -32.5q59 0 89 32.5zM1008 14.5q-63 34.5 -93.5 90t-30.5 118.5t30.5 118t93.5 89.5t154 34.5q92 0 155.5 -34.5t94 -89.5t30.5 -118t-30.5 -118.5t-94 -90t-155.5 -34.5q-91 0 -154 34.5zM1620 14.5q-63 34.5 -94 90t-31 118.5
q0 62 31 117.5t94 90t154 34.5q92 0 155 -34.5t94 -90t31 -117.5q0 -63 -31 -118.5t-94 -90t-155 -34.5q-91 0 -154 34.5zM1251.5 140.5q29.5 32.5 29.5 83.5q0 50 -29.5 81.5t-89.5 31.5q-58 0 -87.5 -31.5t-29.5 -81.5q0 -51 29.5 -83.5t87.5 -32.5q60 0 89.5 32.5z
M1863 140.5q30 32.5 30 83.5q0 50 -30 81.5t-89 31.5q-58 0 -87.5 -31.5t-29.5 -81.5q0 -51 29.5 -83.5t87.5 -32.5q59 0 89 32.5z" />
    <glyph glyph-name="guilsinglleft" unicode="&#x2039;" horiz-adv-x="640" 
d="M69 297l260 297h242l-260 -297l260 -297h-242z" />
    <glyph glyph-name="guilsinglright" unicode="&#x203a;" horiz-adv-x="640" 
d="M69 594h242l260 -297l-260 -297h-242l260 297z" />
    <glyph glyph-name="fraction" unicode="&#x2044;" horiz-adv-x="608" 
d="M353 775h187l-277 -925h-187z" />
    <glyph glyph-name="Euro" unicode="&#x20ac;" horiz-adv-x="865" 
d="M440 538q-45 -27 -62 -84h302v-66h-313q-1 -12 -1 -37q0 -16 1 -23h313v-66h-304q17 -58 62 -85.5t128 -27.5q54 0 102 8t128 29v-169q-83 -20 -146 -28.5t-138 -8.5q-162 0 -249.5 74t-107.5 208h-86v66h80v23q0 25 1 37h-81v66h88q23 132 110 206t245 74q75 0 138 -8.5
t146 -28.5v-169q-80 21 -128 29t-102 8q-81 0 -126 -27z" />
    <glyph glyph-name="trademark" unicode="&#x2122;" horiz-adv-x="1128" 
d="M238 626h-169v74h415v-74h-168l-1 -258h-77v258zM611 368h-78v332h123l140 -260l140 260h123l-1 -332h-77v255l-138 -255h-94l-138 255v-255z" />
    <glyph glyph-name="arrowleft" unicode="&#x2190;" horiz-adv-x="839" 
d="M769 417v-134h-456l148 -144l-97 -92l-295 304l295 302l97 -92l-148 -144h456z" />
    <glyph glyph-name="arrowup" unicode="&#x2191;" horiz-adv-x="745" 
d="M440 490v-457h-135v457l-143 -148l-93 97l302 294l304 -294l-92 -97z" />
    <glyph glyph-name="arrowright" unicode="&#x2192;" horiz-adv-x="839" 
d="M526 283h-457v134h457l-148 144l97 92l294 -302l-294 -304l-97 92z" />
    <glyph glyph-name="arrowdown" unicode="&#x2193;" horiz-adv-x="745" 
d="M305 674h135v-457l143 148l92 -97l-304 -294l-302 294l93 97l143 -148v457z" />
    <glyph glyph-name="arrowboth" unicode="&#x2194;" horiz-adv-x="1440" 
d="M979 561l97 92l294 -302l-294 -304l-97 92l148 144h-814l148 -144l-97 -92l-295 304l295 302l97 -92l-148 -144h814z" />
    <glyph glyph-name="arrowupdn" unicode="&#x2195;" horiz-adv-x="745" 
d="M440 25l143 147l92 -97l-304 -294l-302 294l93 97l143 -147v558l-143 -147l-93 97l302 294l304 -294l-92 -97l-143 147v-558z" />
    <glyph glyph-name="uni2196" unicode="&#x2196;" horiz-adv-x="687" 
d="M618 189l-95 -95l-323 322l3 -206l-134 4l7 423l422 5l3 -134l-206 3z" />
    <glyph glyph-name="uni2197" unicode="&#x2197;" horiz-adv-x="687" 
d="M487 410l-323 -322l-95 95l323 322l-206 -2l3 133l422 -5l7 -423l-134 -4z" />
    <glyph glyph-name="uni2198" unicode="&#x2198;" horiz-adv-x="687" 
d="M69 517l95 95l323 -322l-3 206l134 -4l-7 -423l-422 -5l-3 133l206 -2z" />
    <glyph glyph-name="uni2199" unicode="&#x2199;" horiz-adv-x="687" 
d="M200 290l323 322l95 -95l-323 -322l206 2l-3 -133l-422 5l-7 423l134 4z" />
    <glyph glyph-name="emptyset" unicode="&#x2205;" horiz-adv-x="1166" 
d="M1092 760l-108 -108q51 -60 76.5 -137t25.5 -164q0 -132 -58 -238t-171.5 -168t-272.5 -62q-172 0 -295 74l-116 -116l-99 99l109 109q-50 60 -76 137.5t-26 164.5q0 132 58.5 237.5t172 167t272.5 61.5q172 0 294 -73l115 115zM320 186l428 428q-68 34 -164 34
q-147 0 -223.5 -78t-76.5 -219q0 -97 36 -165zM848 516l-428 -428q66 -36 164 -36q146 0 223 78.5t77 220.5q0 98 -36 165z" />
    <glyph glyph-name="product" unicode="&#x220f;" horiz-adv-x="1265" 
d="M1195 800v-162h-216v-788h-179v788h-351v-788h-179v788h-201v162h1126z" />
    <glyph glyph-name="minus" unicode="&#x2212;" horiz-adv-x="939" 
d="M69 266v148h800v-148h-800z" />
    <glyph glyph-name="integral" unicode="&#x222b;" horiz-adv-x="1012" 
d="M69 12q78 0 130.5 8.5t101.5 49.5t69 128l63 254q40 163 115 238.5t162.5 92.5t231.5 17v-162q-77 0 -129.5 -8.5t-101.5 -49.5t-69 -128l-63 -254q-40 -163 -115 -238.5t-162.5 -92.5t-232.5 -17v162z" />
    <glyph glyph-name="approxequal" unicode="&#x2248;" horiz-adv-x="939" 
d="M69 380q0 145 53.5 226.5t160.5 81.5q57 0 101 -20.5t97 -58.5q43 -31 72 -45.5t62 -14.5q46 0 66 31.5t20 107.5h168q0 -146 -53 -227t-160 -81q-57 0 -101 20.5t-97 58.5q-43 31 -72 45.5t-62 14.5q-46 0 -66 -31.5t-20 -107.5h-169zM69 6q0 145 53.5 226.5t160.5 81.5
q57 0 101 -20.5t97 -58.5q43 -31 72 -45.5t62 -14.5q46 0 66 31.5t20 107.5h168q0 -146 -53 -227t-160 -81q-57 0 -101 20.5t-97 58.5q-43 31 -72 45.5t-62 14.5q-46 0 -66 -31.5t-20 -107.5h-169z" />
    <glyph glyph-name="notequal" unicode="&#x2260;" horiz-adv-x="939" 
d="M869 573v-148h-266l-52 -172h318v-148h-362l-68 -228h-188l68 228h-250v148h295l51 172h-346v148h390l69 229h187l-68 -229h222z" />
    <glyph glyph-name="lessequal" unicode="&#x2264;" horiz-adv-x="945" 
d="M229 482l640 -92v-168l-800 132v256l800 132v-168zM76 11v148h800v-148h-800z" />
    <glyph glyph-name="greaterequal" unicode="&#x2265;" horiz-adv-x="945" 
d="M69 11v148h800v-148h-800zM75 574v168l800 -132v-256l-800 -132v168l640 92z" />
    <glyph glyph-name="lozenge" unicode="&#x25ca;" horiz-adv-x="970" 
d="M615 800l286 -484l-286 -484h-259l-287 484l287 484h259zM260 316l226 -382l224 382l-224 382z" />
    <glyph glyph-name="A.ss01" horiz-adv-x="1317" 
d="M1257 0h-223l-72 139h-608l-72 -139h-223l368 714h463zM560 538l-126 -244h448l-126 244h-196z" />
    <glyph glyph-name="Aacute.ss01" horiz-adv-x="1317" 
d="M1257 0h-223l-72 139h-608l-72 -139h-223l368 714h463zM560 538l-126 -244h448l-126 244h-196zM463 797v103l389 80v-103z" />
    <glyph glyph-name="Abreve.ss01" horiz-adv-x="1317" 
d="M1257 0h-223l-72 139h-608l-72 -139h-223l368 714h463zM560 538l-126 -244h448l-126 244h-196zM545 977q0 -49 28 -71t85 -22t85.5 22.5t28.5 70.5h113q0 -102 -62 -146t-165 -44t-165 44t-62 146h114z" />
    <glyph glyph-name="Acircumflex.ss01" horiz-adv-x="1317" 
d="M1257 0h-223l-72 139h-608l-72 -139h-223l368 714h463zM560 538l-126 -244h448l-126 244h-196zM451 900l207 80l207 -80v-107l-207 80l-207 -80v107z" />
    <glyph glyph-name="Adieresis.ss01" horiz-adv-x="1317" 
d="M1257 0h-223l-72 139h-608l-72 -139h-223l368 714h463zM560 538l-126 -244h448l-126 244h-196zM441 820v100h174v-100h-174zM701 820v100h174v-100h-174z" />
    <glyph glyph-name="Agrave.ss01" horiz-adv-x="1317" 
d="M1257 0h-223l-72 139h-608l-72 -139h-223l368 714h463zM560 538l-126 -244h448l-126 244h-196zM463 980l389 -80v-103l-389 80v103z" />
    <glyph glyph-name="Amacron.ss01" horiz-adv-x="1317" 
d="M1257 0h-223l-72 139h-608l-72 -139h-223l368 714h463zM560 538l-126 -244h448l-126 244h-196zM423 820v100h469v-100h-469z" />
    <glyph glyph-name="Aogonek.ss01" horiz-adv-x="1317" 
d="M1257 0h-223l-72 139h-608l-72 -139h-223l368 714h463zM560 538l-126 -244h448l-126 244h-196zM1282 -230q-102 0 -164.5 9.5t-96 34.5t-33.5 73q0 34 21 60t63 53h100q-26 -21 -38.5 -35.5t-12.5 -36.5q0 -27 21.5 -39.5t53 -15.5t86.5 -3v-100z" />
    <glyph glyph-name="Aring.ss01" horiz-adv-x="1317" 
d="M1257 0h-223l-72 139h-608l-72 -139h-223l368 714h463zM560 538l-126 -244h448l-126 244h-196zM493 814q-52 34 -52 98t52 98t165 34t165 -34t52 -98t-52 -98t-165 -34t-165 34zM735 870q26 13 26 42t-26 42t-77 13q-103 0 -103 -55t103 -55q51 0 77 13z" />
    <glyph glyph-name="Atilde.ss01" horiz-adv-x="1317" 
d="M1257 0h-223l-72 139h-608l-72 -139h-223l368 714h463zM560 538l-126 -244h448l-126 244h-196zM354 786q0 91 39 151t125 60q46 0 80.5 -14.5t76.5 -40.5q31 -19 51.5 -28.5t41.5 -9.5q34 0 47 22t13 68h134q0 -91 -38.5 -151t-124.5 -60q-46 0 -80.5 14.5t-76.5 40.5
q-31 19 -51.5 28.5t-42.5 9.5q-34 0 -47 -22t-13 -68h-134z" />
    <glyph glyph-name="K.ss01" horiz-adv-x="1053" 
d="M732 714h255l-322 -357l322 -357h-255l-251 269h-205v-269h-207v714h207v-269h205z" />
    <glyph glyph-name="uni0136.ss01" horiz-adv-x="1053" 
d="M732 714h255l-322 -357l322 -357h-255l-251 269h-205v-269h-207v714h207v-269h205zM409 -187v114h175v-114l-90 -110h-85l62 110h-62z" />
    <glyph glyph-name="R.ss01" horiz-adv-x="971" 
d="M871.5 310.5q-40.5 -62.5 -114.5 -90.5l152 -220h-239l-127 200h-267v-200h-207v714h568q130 0 202.5 -67t72.5 -190q0 -84 -40.5 -146.5zM276 545v-176h290q42 0 68 4.5t44 23.5t18 60t-18 60t-44 23.5t-68 4.5h-290z" />
    <glyph glyph-name="Racute.ss01" horiz-adv-x="971" 
d="M871.5 310.5q-40.5 -62.5 -114.5 -90.5l152 -220h-239l-127 200h-267v-200h-207v714h568q130 0 202.5 -67t72.5 -190q0 -84 -40.5 -146.5zM276 545v-176h290q42 0 68 4.5t44 23.5t18 60t-18 60t-44 23.5t-68 4.5h-290zM267 797v103l389 80v-103z" />
    <glyph glyph-name="Rcaron.ss01" horiz-adv-x="971" 
d="M871.5 310.5q-40.5 -62.5 -114.5 -90.5l152 -220h-239l-127 200h-267v-200h-207v714h568q130 0 202.5 -67t72.5 -190q0 -84 -40.5 -146.5zM276 545v-176h290q42 0 68 4.5t44 23.5t18 60t-18 60t-44 23.5t-68 4.5h-290zM255 969l207 -80l207 80v-107l-207 -80l-207 80v107
z" />
    <glyph glyph-name="uni0156.ss01" horiz-adv-x="971" 
d="M871.5 310.5q-40.5 -62.5 -114.5 -90.5l152 -220h-239l-127 200h-267v-200h-207v714h568q130 0 202.5 -67t72.5 -190q0 -84 -40.5 -146.5zM276 545v-176h290q42 0 68 4.5t44 23.5t18 60t-18 60t-44 23.5t-68 4.5h-290zM381 -187v114h175v-114l-90 -110h-85l62 110h-62z
" />
    <glyph glyph-name="V.ss01" horiz-adv-x="1317" 
d="M1034 714h223l-367 -714h-463l-368 714h223l278 -538h196z" />
    <glyph glyph-name="W.ss01" horiz-adv-x="1798" 
d="M1333 176l195 538h211l-261 -714h-412l-167 532l-167 -532h-412l-261 714h211l195 -538h116l173 538h291l172 -538h116z" />
    <glyph glyph-name="Wacute.ss01" horiz-adv-x="1798" 
d="M1333 176l195 538h211l-261 -714h-412l-167 532l-167 -532h-412l-261 714h211l195 -538h116l173 538h291l172 -538h116zM704 797v103l389 80v-103z" />
    <glyph glyph-name="Wcircumflex.ss01" horiz-adv-x="1798" 
d="M1333 176l195 538h211l-261 -714h-412l-167 532l-167 -532h-412l-261 714h211l195 -538h116l173 538h291l172 -538h116zM692 900l207 80l207 -80v-107l-207 80l-207 -80v107z" />
    <glyph glyph-name="Wdieresis.ss01" horiz-adv-x="1798" 
d="M1333 176l195 538h211l-261 -714h-412l-167 532l-167 -532h-412l-261 714h211l195 -538h116l173 538h291l172 -538h116zM682 820v100h174v-100h-174zM942 820v100h174v-100h-174z" />
    <glyph glyph-name="Wgrave.ss01" horiz-adv-x="1798" 
d="M1333 176l195 538h211l-261 -714h-412l-167 532l-167 -532h-412l-261 714h211l195 -538h116l173 538h291l172 -538h116zM704 980l389 -80v-103l-389 80v103z" />
    <glyph glyph-name="i.loclTRK" horiz-adv-x="334" 
d="M64 672v128h207v-128h-207zM69 0v594h196v-594h-196z" />
    <glyph glyph-name="a.001" horiz-adv-x="938" 
d="M714 583.5q82 -30.5 123 -98.5t42 -181v-304h-193v77q-81 -44 -174.5 -67t-185.5 -23q-131 0 -204 46.5t-73 147.5q0 110 99 157.5t250 47.5q137 0 288 -36q-4 71 -64 97t-150 26q-76 0 -155.5 -11.5t-181.5 -37.5l-37 136q214 54 406 54q128 0 210 -30.5zM530.5 143.5
q84.5 15.5 155.5 34.5v51q-138 30 -264 30q-87 0 -128.5 -16t-41.5 -52t33 -49.5t106 -13.5q55 0 139.5 15.5z" />
    <glyph glyph-name="a.ss01" horiz-adv-x="952" 
d="M687 590h195v-594h-195v109q-44 -63 -119 -94t-172 -31q-93 0 -170.5 32.5t-125 103.5t-47.5 181t47.5 181t125 103.5t170.5 32.5q97 0 172 -31t119 -94v101zM631.5 181.5q55.5 39.5 55.5 115.5q0 75 -55.5 115t-162.5 40q-106 0 -160 -39.5t-54 -115.5t54 -115.5
t160 -39.5q107 0 162.5 39.5z" />
    <glyph glyph-name="aacute.ss01" horiz-adv-x="952" 
d="M687 590h195v-594h-195v109q-44 -63 -119 -94t-172 -31q-93 0 -170.5 32.5t-125 103.5t-47.5 181t47.5 181t125 103.5t170.5 32.5q97 0 172 -31t119 -94v101zM631.5 181.5q55.5 39.5 55.5 115.5q0 75 -55.5 115t-162.5 40q-106 0 -160 -39.5t-54 -115.5t54 -115.5
t160 -39.5q107 0 162.5 39.5zM277 677v103l389 80v-103z" />
    <glyph glyph-name="abreve.ss01" horiz-adv-x="952" 
d="M687 590h195v-594h-195v109q-44 -63 -119 -94t-172 -31q-93 0 -170.5 32.5t-125 103.5t-47.5 181t47.5 181t125 103.5t170.5 32.5q97 0 172 -31t119 -94v101zM631.5 181.5q55.5 39.5 55.5 115.5q0 75 -55.5 115t-162.5 40q-106 0 -160 -39.5t-54 -115.5t54 -115.5
t160 -39.5q107 0 162.5 39.5zM359 857q0 -49 28 -71t85 -22t85.5 22.5t28.5 70.5h113q0 -102 -62 -146t-165 -44t-165 44t-62 146h114z" />
    <glyph glyph-name="acircumflex.ss01" horiz-adv-x="952" 
d="M687 590h195v-594h-195v109q-44 -63 -119 -94t-172 -31q-93 0 -170.5 32.5t-125 103.5t-47.5 181t47.5 181t125 103.5t170.5 32.5q97 0 172 -31t119 -94v101zM631.5 181.5q55.5 39.5 55.5 115.5q0 75 -55.5 115t-162.5 40q-106 0 -160 -39.5t-54 -115.5t54 -115.5
t160 -39.5q107 0 162.5 39.5zM265 780l207 80l207 -80v-107l-207 80l-207 -80v107z" />
    <glyph glyph-name="adieresis.ss01" horiz-adv-x="952" 
d="M687 590h195v-594h-195v109q-44 -63 -119 -94t-172 -31q-93 0 -170.5 32.5t-125 103.5t-47.5 181t47.5 181t125 103.5t170.5 32.5q97 0 172 -31t119 -94v101zM631.5 181.5q55.5 39.5 55.5 115.5q0 75 -55.5 115t-162.5 40q-106 0 -160 -39.5t-54 -115.5t54 -115.5
t160 -39.5q107 0 162.5 39.5zM255 700v100h174v-100h-174zM515 700v100h174v-100h-174z" />
    <glyph glyph-name="agrave.ss01" horiz-adv-x="952" 
d="M687 590h195v-594h-195v109q-44 -63 -119 -94t-172 -31q-93 0 -170.5 32.5t-125 103.5t-47.5 181t47.5 181t125 103.5t170.5 32.5q97 0 172 -31t119 -94v101zM631.5 181.5q55.5 39.5 55.5 115.5q0 75 -55.5 115t-162.5 40q-106 0 -160 -39.5t-54 -115.5t54 -115.5
t160 -39.5q107 0 162.5 39.5zM277 860l389 -80v-103l-389 80v103z" />
    <glyph glyph-name="amacron.ss01" horiz-adv-x="952" 
d="M687 590h195v-594h-195v109q-44 -63 -119 -94t-172 -31q-93 0 -170.5 32.5t-125 103.5t-47.5 181t47.5 181t125 103.5t170.5 32.5q97 0 172 -31t119 -94v101zM631.5 181.5q55.5 39.5 55.5 115.5q0 75 -55.5 115t-162.5 40q-106 0 -160 -39.5t-54 -115.5t54 -115.5
t160 -39.5q107 0 162.5 39.5zM237 700v100h469v-100h-469z" />
    <glyph glyph-name="aogonek.ss01" horiz-adv-x="952" 
d="M776.5 -111.5q21.5 -12.5 53 -15.5t86.5 -3v-100q-102 0 -164.5 9.5t-96 34.5t-33.5 73q0 33 19.5 58t58.5 51h-13v109q-44 -63 -119 -94t-172 -31q-93 0 -170.5 32.5t-125 103.5t-47.5 181t47.5 181t125 103.5t170.5 32.5q97 0 172 -31t119 -94v101h195v-594h-81
q-21 -17 -33.5 -32.5t-12.5 -35.5q0 -27 21.5 -39.5zM631.5 181.5q55.5 39.5 55.5 115.5q0 75 -55.5 115t-162.5 40q-106 0 -160 -39.5t-54 -115.5t54 -115.5t160 -39.5q107 0 162.5 39.5z" />
    <glyph glyph-name="aring.ss01" horiz-adv-x="952" 
d="M687 590h195v-594h-195v109q-44 -63 -119 -94t-172 -31q-93 0 -170.5 32.5t-125 103.5t-47.5 181t47.5 181t125 103.5t170.5 32.5q97 0 172 -31t119 -94v101zM631.5 181.5q55.5 39.5 55.5 115.5q0 75 -55.5 115t-162.5 40q-106 0 -160 -39.5t-54 -115.5t54 -115.5
t160 -39.5q107 0 162.5 39.5zM307 694q-52 34 -52 98t52 98t165 34t165 -34t52 -98t-52 -98t-165 -34t-165 34zM549 750q26 13 26 42t-26 42t-77 13q-103 0 -103 -55t103 -55q51 0 77 13z" />
    <glyph glyph-name="atilde.ss01" horiz-adv-x="952" 
d="M687 590h195v-594h-195v109q-44 -63 -119 -94t-172 -31q-93 0 -170.5 32.5t-125 103.5t-47.5 181t47.5 181t125 103.5t170.5 32.5q97 0 172 -31t119 -94v101zM631.5 181.5q55.5 39.5 55.5 115.5q0 75 -55.5 115t-162.5 40q-106 0 -160 -39.5t-54 -115.5t54 -115.5
t160 -39.5q107 0 162.5 39.5zM168 666q0 91 39 151t125 60q46 0 80.5 -14.5t76.5 -40.5q31 -19 51.5 -28.5t41.5 -9.5q34 0 47 22t13 68h134q0 -91 -38.5 -151t-124.5 -60q-46 0 -80.5 14.5t-76.5 40.5q-31 19 -51.5 28.5t-42.5 9.5q-34 0 -47 -22t-13 -68h-134z" />
    <glyph glyph-name="g.ss01" horiz-adv-x="988" 
d="M952 594v-94q-29 0 -96 13q37 -46 37 -113q0 -104 -94.5 -159.5t-322.5 -55.5q-124 0 -173 -1.5t-68 -8.5t-19 -23q0 -17 20 -24t73 -8.5t196 -1.5q148 0 238 -16t134.5 -57t44.5 -115q0 -79 -50 -120.5t-138.5 -55.5t-228.5 -14q-147 0 -240.5 9.5t-149.5 39.5t-56 90
q0 52 43 81t109 37q-148 28 -148 119q0 85 129 107q-70 27 -101.5 71.5t-31.5 105.5q0 103 94.5 158.5t322.5 55.5q134 0 223 -20h253zM630 327.5q46 21.5 46 72.5q0 50 -46 71.5t-154 21.5q-109 0 -154.5 -21.5t-45.5 -71.5q0 -51 45.5 -72.5t154.5 -21.5q108 0 154 21.5z
M731.5 -36.5q-22.5 11.5 -73.5 15.5t-153 4h-16q-100 0 -149.5 -4t-70.5 -15.5t-21 -35.5t24 -35.5t77 -15t156 -3.5t153.5 3.5t73 15t22.5 35.5t-22.5 35.5z" />
    <glyph glyph-name="gbreve.ss01" horiz-adv-x="988" 
d="M952 594v-94q-29 0 -96 13q37 -46 37 -113q0 -104 -94.5 -159.5t-322.5 -55.5q-124 0 -173 -1.5t-68 -8.5t-19 -23q0 -17 20 -24t73 -8.5t196 -1.5q148 0 238 -16t134.5 -57t44.5 -115q0 -79 -50 -120.5t-138.5 -55.5t-228.5 -14q-147 0 -240.5 9.5t-149.5 39.5t-56 90
q0 52 43 81t109 37q-148 28 -148 119q0 85 129 107q-70 27 -101.5 71.5t-31.5 105.5q0 103 94.5 158.5t322.5 55.5q134 0 223 -20h253zM630 327.5q46 21.5 46 72.5q0 50 -46 71.5t-154 21.5q-109 0 -154.5 -21.5t-45.5 -71.5q0 -51 45.5 -72.5t154.5 -21.5q108 0 154 21.5z
M731.5 -36.5q-22.5 11.5 -73.5 15.5t-153 4h-16q-100 0 -149.5 -4t-70.5 -15.5t-21 -35.5t24 -35.5t77 -15t156 -3.5t153.5 3.5t73 15t22.5 35.5t-22.5 35.5zM359 857q0 -49 28 -71t85 -22t85.5 22.5t28.5 70.5h113q0 -102 -62 -146t-165 -44t-165 44t-62 146h114z" />
    <glyph glyph-name="uni0123.ss01" horiz-adv-x="988" 
d="M952 594v-94q-29 0 -96 13q37 -46 37 -113q0 -104 -94.5 -159.5t-322.5 -55.5q-124 0 -173 -1.5t-68 -8.5t-19 -23q0 -17 20 -24t73 -8.5t196 -1.5q148 0 238 -16t134.5 -57t44.5 -115q0 -79 -50 -120.5t-138.5 -55.5t-228.5 -14q-147 0 -240.5 9.5t-149.5 39.5t-56 90
q0 52 43 81t109 37q-148 28 -148 119q0 85 129 107q-70 27 -101.5 71.5t-31.5 105.5q0 103 94.5 158.5t322.5 55.5q134 0 223 -20h253zM630 327.5q46 21.5 46 72.5q0 50 -46 71.5t-154 21.5q-109 0 -154.5 -21.5t-45.5 -71.5q0 -51 45.5 -72.5t154.5 -21.5q108 0 154 21.5z
M731.5 -36.5q-22.5 11.5 -73.5 15.5t-153 4h-16q-100 0 -149.5 -4t-70.5 -15.5t-21 -35.5t24 -35.5t77 -15t156 -3.5t153.5 3.5t73 15t22.5 35.5t-22.5 35.5zM559 817v-114h-175v114l91 110h84l-61 -110h61z" />
    <glyph glyph-name="gdotaccent.ss01" horiz-adv-x="988" 
d="M952 594v-94q-29 0 -96 13q37 -46 37 -113q0 -104 -94.5 -159.5t-322.5 -55.5q-124 0 -173 -1.5t-68 -8.5t-19 -23q0 -17 20 -24t73 -8.5t196 -1.5q148 0 238 -16t134.5 -57t44.5 -115q0 -79 -50 -120.5t-138.5 -55.5t-228.5 -14q-147 0 -240.5 9.5t-149.5 39.5t-56 90
q0 52 43 81t109 37q-148 28 -148 119q0 85 129 107q-70 27 -101.5 71.5t-31.5 105.5q0 103 94.5 158.5t322.5 55.5q134 0 223 -20h253zM630 327.5q46 21.5 46 72.5q0 50 -46 71.5t-154 21.5q-109 0 -154.5 -21.5t-45.5 -71.5q0 -51 45.5 -72.5t154.5 -21.5q108 0 154 21.5z
M731.5 -36.5q-22.5 11.5 -73.5 15.5t-153 4h-16q-100 0 -149.5 -4t-70.5 -15.5t-21 -35.5t24 -35.5t77 -15t156 -3.5t153.5 3.5t73 15t22.5 35.5t-22.5 35.5zM378 700v100h188v-100h-188z" />
    </font>
</defs>
</svg>
