<?xml version="1.0" standalone="no"?>
<!DOCTYPE svg PUBLIC "-//W3C//DTD SVG 1.1//EN" "http://www.w3.org/Graphics/SVG/1.1/DTD/svg11.dtd" >
<svg xmlns="http://www.w3.org/2000/svg" xmlns:xlink="http://www.w3.org/1999/xlink" version="1.1">
<metadata>
Created by FontForge 20170731 at Fri Oct  2 23:02:24 2020
 By Aleksey,,,
Pangram Pangram
</metadata>
<defs>
<font id="MonumentExtended-Book" horiz-adv-x="0" >
  <font-face 
    font-family="Monument Extended Book"
    font-weight="400"
    font-stretch="normal"
    units-per-em="1000"
    panose-1="0 0 5 0 0 0 0 0 0 0"
    ascent="800"
    descent="-200"
    x-height="580"
    cap-height="700"
    bbox="-1078 -300 1946 1069"
    underline-thickness="72"
    underline-position="-132"
    unicode-range="U+0020-25CA"
  />
<missing-glyph horiz-adv-x="550" 
d="M102 800h349v-1100h-349v1100zM366 690v36h-181v-36h71v-41h-72v-36h182v36h-72v41h72zM294 507v77h-110v-114h182v37h-72zM220 547h36v-40h-36v40zM366 404v36h-182v-36h72v-41h-72v-36h110v77h72zM366 264v110h-36v-72h-146v-38h182zM366 116v124h-110v-61h38v25h36
v-52h-110v88h-36v-124h182zM366 -74v124h-182v-124h182zM220 14h110v-52h-110v52zM366 -136v36h-182v-36h77l-77 -52v-36h182v36h-112l77 52h35z" />
    <glyph glyph-name="f_f" unicode="ff" horiz-adv-x="1170" 
d="M948 712q-58 0 -85 -10t-37.5 -36.5t-10.5 -83.5v-2h277v-88h-277v-492h-97v492h-359v-492h-97v492h-182v88h182v18q0 108 51 155t167 47h171v-88h-159q-58 0 -85 -10t-37.5 -36.5t-10.5 -83.5v-2h359v18q0 108 51 155t167 47h156v-88h-144z" />
    <glyph glyph-name="f_f_i" unicode="ffi" horiz-adv-x="1364" 
d="M950 712q-58 0 -85.5 -10t-38 -37t-10.5 -83v-2h456v-580h-97v492h-359v-492h-97v492h-360v-492h-97v492h-182v88h182v18q0 108 51 155t167 47h183v-88h-171q-58 0 -85 -10t-37.5 -36.5t-10.5 -83.5v-2h360v18q0 108 51.5 155t167.5 47h334v-88h-322z" />
    <glyph glyph-name="f_i" unicode="fi" horiz-adv-x="906" 
d="M492 712q-58 0 -85 -10t-37.5 -36.5t-10.5 -83.5v-2h456v-580h-97v492h-359v-492h-97v492h-182v88h182v18q0 108 51 155t167 47h335v-88h-323z" />
    <glyph glyph-name="f_l" unicode="fl" horiz-adv-x="931" 
d="M840 800v-800h-97v712h-251q-58 0 -85 -10t-37.5 -36.5t-10.5 -83.5v-2h277v-88h-277v-492h-97v492h-182v88h182v18q0 108 51 155t167 47h360z" />
    <glyph glyph-name=".notdef" horiz-adv-x="550" 
d="M102 800h349v-1100h-349v1100zM366 690v36h-181v-36h71v-41h-72v-36h182v36h-72v41h72zM294 507v77h-110v-114h182v37h-72zM220 547h36v-40h-36v40zM366 404v36h-182v-36h72v-41h-72v-36h110v77h72zM366 264v110h-36v-72h-146v-38h182zM366 116v124h-110v-61h38v25h36
v-52h-110v88h-36v-124h182zM366 -74v124h-182v-124h182zM220 14h110v-52h-110v52zM366 -136v36h-182v-36h77l-77 -52v-36h182v36h-112l77 52h35z" />
    <glyph glyph-name=".null" 
 />
    <glyph glyph-name="nonmarkingreturn" horiz-adv-x="333" 
 />
    <glyph glyph-name="space" unicode=" " horiz-adv-x="400" 
 />
    <glyph glyph-name="exclam" unicode="!" horiz-adv-x="284" 
d="M94 700h97v-500h-97v500zM92 0v91h100v-91h-100z" />
    <glyph glyph-name="quotedbl" unicode="&#x22;" horiz-adv-x="512" 
d="M315 760h105l-9 -320h-87zM92 760h105l-9 -320h-87z" />
    <glyph glyph-name="numbersign" unicode="#" horiz-adv-x="1378" 
d="M1270 524v-88h-251l-81 -272h239v-88h-265l-68 -226h-101l68 226h-357l-68 -226h-101l68 226h-245v88h271l81 272h-258v88h284l59 196h101l-59 -196h357l59 196h101l-59 -196h225zM480 164h357l81 272h-357z" />
    <glyph glyph-name="dollar" unicode="$" horiz-adv-x="1063" 
d="M863 28.5q-106 -47.5 -296 -48.5v-80h-72v81q-197 7 -298.5 64t-106.5 184h105q0 -77 68.5 -115.5t231.5 -44.5v244q-140 10 -220.5 32t-117.5 64t-37 114q0 104 95 149t280 48v80h72v-81q179 -6 275.5 -65t96.5 -171h-105q0 74 -63 108.5t-204 39.5v-234
q149 -10 230 -25.5t126.5 -55t45.5 -117.5q0 -123 -106 -170.5zM248 455q23 -22 79.5 -34t167.5 -20v231q-103 0 -162 -12.5t-83.5 -37t-24.5 -64.5q0 -41 23 -63zM567 68q156 1 226.5 31.5t70.5 94.5q0 43 -24 64.5t-84.5 32t-188.5 18.5v-241z" />
    <glyph glyph-name="percent" unicode="%" horiz-adv-x="1457" 
d="M200.5 292.5q-57.5 33.5 -83 85.5t-25.5 112q0 59 25.5 111.5t83.5 85.5t149 33q92 0 150 -33t83.5 -85t25.5 -112t-25.5 -112.5t-83.5 -85.5t-150 -33t-149.5 33.5zM953 700h125l-575 -700h-125zM462.5 384q41.5 37 41.5 106t-41.5 105.5t-112.5 36.5
q-70 0 -111.5 -36.5t-41.5 -105.5t41.5 -106t111.5 -37q71 0 112.5 37zM956 13.5q-58 33.5 -83.5 85.5t-25.5 112q0 59 25.5 111.5t83.5 85.5t150 33t150 -33t83.5 -85.5t25.5 -111.5q0 -60 -25.5 -112t-83.5 -85.5t-150 -33.5t-150 33.5zM1218.5 105q41.5 37 41.5 106
t-41.5 105.5t-112.5 36.5q-70 0 -112 -36.5t-42 -105.5t42 -106t112 -37q71 0 112.5 37z" />
    <glyph glyph-name="ampersand" unicode="&#x26;" horiz-adv-x="1046" 
d="M954 0h-170l-74 55q-58 -37 -131.5 -56t-154.5 -19q-167 0 -249.5 52.5t-82.5 144.5q0 76 50 119t139 77q-43 39 -66.5 81.5t-23.5 93.5q0 80 62.5 126t170.5 46q102 0 164.5 -44t62.5 -120q0 -48 -22 -80.5t-62.5 -56.5t-112.5 -54l86 -61l171 -126q54 65 60 160h105
q-6 -129 -86 -217zM327.5 609q-30.5 -23 -30.5 -67q0 -32 23.5 -63.5t67.5 -66.5q63 25 96 44t47 38.5t14 46.5q0 43 -32 67t-92 24q-63 0 -93.5 -23zM631 113l-152 112l-65 46l-69 50q-52 -20 -82 -36t-48 -39t-18 -57q0 -61 61.5 -91t172.5 -30q116 0 200 45z" />
    <glyph glyph-name="quotesingle" unicode="'" horiz-adv-x="288" 
d="M92 760h105l-9 -320h-87z" />
    <glyph glyph-name="parenleft" unicode="(" horiz-adv-x="619" 
d="M205.5 675.5q113.5 124.5 322.5 124.5v-88q-152 0 -241.5 -98t-89.5 -313t90 -314t241 -99v-88q-209 0 -322.5 125t-113.5 376q0 250 113.5 374.5z" />
    <glyph glyph-name="parenright" unicode=")" horiz-adv-x="619" 
d="M414.5 -75q-113.5 -125 -322.5 -125v88q151 0 240.5 99t89.5 314q0 214 -89.5 312.5t-240.5 98.5v88q209 0 322.5 -124.5t113.5 -374.5q0 -251 -113.5 -376z" />
    <glyph glyph-name="asterisk" unicode="*" horiz-adv-x="648" 
d="M136 429l-44 76l158 83l-158 83l45 77l150 -96l-8 147l89 1l-7 -148l150 96l45 -77l-158 -83l158 -83l-44 -76l-151 96l7 -149h-88l8 149z" />
    <glyph glyph-name="plus" unicode="+" horiz-adv-x="970" 
d="M529 384h349v-88h-349v-296h-88v296h-349v88h349v296h88v-296z" />
    <glyph glyph-name="comma" unicode="," horiz-adv-x="281" 
d="M90 0v91h101v-91l-53 -173h-48l36 173h-36z" />
    <glyph glyph-name="hyphen" unicode="-" horiz-adv-x="1010" 
d="M112 296v88h786v-88h-786z" />
    <glyph glyph-name="period" unicode="." horiz-adv-x="281" 
d="M90 0v91h101v-91h-101z" />
    <glyph glyph-name="slash" unicode="/" horiz-adv-x="545" 
d="M352 720h101l-260 -870h-101z" />
    <glyph glyph-name="zero" unicode="0" horiz-adv-x="969" 
d="M262.5 25.5q-90.5 45.5 -135.5 129t-45 196.5t45 196t135.5 128t221.5 45t221.5 -45.5t136 -128.5t45.5 -195q0 -113 -45.5 -196.5t-136 -129t-221.5 -45.5t-221.5 45.5zM703 142.5q79 74.5 79 208.5t-79 207.5t-219 73.5t-218.5 -73.5t-78.5 -207.5q0 -135 78.5 -209
t218.5 -74t219 74.5z" />
    <glyph glyph-name="one" unicode="1" horiz-adv-x="822" 
d="M459 700v-612h271v-88h-638v88h270l1 512l-234 -92l-37 89l263 103h104z" />
    <glyph glyph-name="two" unicode="2" horiz-adv-x="939" 
d="M798.5 378q-50.5 -50 -122.5 -76.5t-189 -56.5q-90 -23 -143.5 -41t-92.5 -46t-47 -70h645v-88h-767v60q4 80 57.5 130.5t127 78.5t191.5 59q99 27 155 46.5t93.5 52.5t37.5 82q0 61 -55 92t-192 31q-144 0 -212 -43t-68 -132h-105q0 138 101.5 200.5t283.5 62.5
q172 0 262 -49.5t90 -163.5q0 -79 -50.5 -129z" />
    <glyph glyph-name="three" unicode="3" horiz-adv-x="939" 
d="M858 190q0 -108 -95.5 -159t-282.5 -51q-398 0 -398 253h105q0 -64 34 -100t100 -50.5t169 -14.5q139 0 200.5 27t61.5 94q0 52 -35.5 79t-112 37.5t-213.5 10.5v72q132 0 206.5 10.5t109.5 38.5t35 80q0 59 -57 87t-196 28q-113 0 -178.5 -16.5t-94.5 -52t-29 -96.5
h-105q0 253 397 253q369 0 369 -206q0 -115 -135 -161q145 -48 145 -163z" />
    <glyph glyph-name="four" unicode="4" horiz-adv-x="974" 
d="M712 234h170v-88h-170v-146h-97v146h-523v88l523 466h97v-466zM615 581l-390 -347h390v347z" />
    <glyph glyph-name="five" unicode="5" horiz-adv-x="943" 
d="M712.5 466q69.5 -29 109 -83.5t39.5 -128.5q0 -133 -101.5 -203.5t-275.5 -70.5q-180 0 -289 55t-113 175h105q4 -67 81 -104.5t221 -37.5q137 0 202 49t65 128q0 162 -241 162q-64 0 -132 -17.5t-167 -62.5l-95 24l88 349h607v-88h-529l-49 -199q81 45 154 63.5
t162 18.5t158.5 -29z" />
    <glyph glyph-name="six" unicode="6" horiz-adv-x="969" 
d="M782.5 433.5q94.5 -61.5 94.5 -191.5q0 -127 -97 -194.5t-279 -67.5q-149 0 -236.5 33t-128.5 108.5t-44 206.5v8v9q4 206 109.5 290.5t295.5 84.5q93 0 164.5 -8t165.5 -24v-88l-40 6q-86 13 -142.5 19.5t-124.5 6.5q-112 0 -180 -21t-104 -74.5t-39 -151.5
q42 46 126 78t195 32q170 0 264.5 -61.5zM705.5 110.5q66.5 42.5 66.5 127.5t-65 127t-219 42q-142 0 -215 -44t-73 -125q0 -80 70.5 -125t213.5 -45q155 0 221.5 42.5z" />
    <glyph glyph-name="seven" unicode="7" horiz-adv-x="833" 
d="M52 700h729v-88q-151 -83 -244 -172.5t-136.5 -196t-43.5 -243.5h-106q0 192 89 345t301 267h-589v88z" />
    <glyph glyph-name="eight" unicode="8" horiz-adv-x="969" 
d="M887 193q0 -102 -94 -157.5t-309 -55.5t-308.5 55t-93.5 158q0 135 164 187q-96 46 -96 143q0 100 79 148.5t255 48.5q175 0 255 -48.5t80 -148.5q0 -94 -97 -143q165 -52 165 -187zM308 606.5q-53 -25.5 -53 -82.5t53 -81.5t176 -24.5q124 0 176.5 24.5t52.5 81.5
t-52.5 82.5t-176.5 25.5q-123 0 -176 -25.5zM714.5 101.5q67.5 33.5 67.5 99.5q0 65 -67.5 96.5t-230.5 31.5t-230 -31.5t-67 -96.5q0 -66 67.5 -99.5t229.5 -33.5q163 0 230.5 33.5z" />
    <glyph glyph-name="nine" unicode="9" horiz-adv-x="969" 
d="M877 355v0q-4 -206 -110 -290.5t-296 -84.5q-92 0 -163.5 8t-165.5 24v88l40 -6q86 -13 142.5 -19.5t124.5 -6.5q112 0 180 21t104 74.5t39 151.5q-43 -46 -126.5 -78t-194.5 -32q-170 0 -264.5 61.5t-94.5 191.5q0 127 97 194.5t279 67.5q149 0 236.5 -33t128.5 -108.5
t44 -206.5v-8v-9zM696 337q73 44 73 125q0 80 -71 125t-214 45q-154 0 -220.5 -42.5t-66.5 -127.5t65 -127t219 -42q142 0 215 44z" />
    <glyph glyph-name="colon" unicode=":" horiz-adv-x="281" 
d="M90 0v91h101v-91h-101zM90 300v91h101v-91h-101z" />
    <glyph glyph-name="semicolon" unicode=";" horiz-adv-x="281" 
d="M90 0v91h101v-91l-53 -173h-48l36 173h-36zM90 300v91h101v-91h-101z" />
    <glyph glyph-name="less" unicode="&#x3c;" horiz-adv-x="967" 
d="M92 410l783 183v-98l-663 -155l663 -154v-99l-783 184v139z" />
    <glyph glyph-name="equal" unicode="=" horiz-adv-x="970" 
d="M92 456v88h786v-88h-786zM92 136v88h786v-88h-786z" />
    <glyph glyph-name="greater" unicode="&#x3e;" horiz-adv-x="967" 
d="M92 495v98l783 -183v-139l-783 -184v99l663 154z" />
    <glyph glyph-name="question" unicode="?" horiz-adv-x="919" 
d="M359 198q0 64 29.5 103.5t71.5 59.5t109 41q52 16 82.5 29t50.5 35.5t20 56.5q0 109 -239 109q-151 0 -219.5 -43.5t-68.5 -145.5h-105q0 149 101.5 213t281.5 64q173 0 264 -48.5t91 -152.5q0 -57 -28 -92.5t-67.5 -54.5t-105.5 -41q-55 -18 -87 -32.5t-53.5 -39
t-21.5 -61.5h-106zM356 0v91h101v-91h-101z" />
    <glyph glyph-name="at" unicode="@" horiz-adv-x="1326" 
d="M1155 -57l46 -72q-188 -136 -496 -136q-307 0 -460 132t-153 401q0 258 152 394t443 136q267 0 407 -115.5t140 -383.5q0 -147 -46 -234t-167 -87q-149 0 -181 122q-58 -92 -213 -92q-130 0 -195.5 71.5t-65.5 187.5t65.5 187.5t195.5 71.5q143 0 205 -81v69h97v-326
q0 -59 19 -90.5t73 -31.5q43 0 66.5 27t32.5 79t9 137q0 152 -51 240t-147.5 124.5t-243.5 36.5q-240 0 -365 -107.5t-125 -334.5q0 -235 126.5 -340t381.5 -105q269 0 450 120zM792 141q40 45 40 126t-40 126t-140 45q-101 0 -141 -45t-40 -126t40 -126t141 -45
q100 0 140 45z" />
    <glyph glyph-name="A" unicode="A" horiz-adv-x="1114" 
d="M1032 0h-112l-96 162h-534l-96 -162h-112l416 700h118zM557 613l-215 -363h430z" />
    <glyph glyph-name="B" unicode="B" horiz-adv-x="1011" 
d="M930 196q0 -92 -56.5 -144t-168.5 -52h-613v700h605q110 0 159.5 -50t49.5 -128q0 -49 -19 -90t-57 -70q100 -54 100 -166zM189 612v-214h474q47 0 75.5 7t45.5 30t17 70q0 46 -16 69.5t-45 30.5t-77 7h-474zM687 88q48 0 76.5 7.5t44.5 31.5t16 73q0 48 -17 72t-45 31
t-75 7h-498v-222h498z" />
    <glyph glyph-name="C" unicode="C" horiz-adv-x="1027" 
d="M132 547q50 83 149.5 128t246.5 45q125 0 214.5 -35.5t140 -96.5t61.5 -137h-105q-16 84 -95.5 132.5t-215.5 48.5q-163 0 -252 -69.5t-89 -211.5q0 -143 89 -213t252 -70q135 0 215 49.5t96 133.5h106q-12 -76 -62.5 -137.5t-140 -97.5t-214.5 -36q-147 0 -246.5 45.5
t-149.5 129t-50 196.5t50 196z" />
    <glyph glyph-name="D" unicode="D" horiz-adv-x="1008" 
d="M753.5 661q79.5 -39 126 -117.5t46.5 -193.5t-46.5 -193.5t-126 -117.5t-176.5 -39h-485v700h485q97 0 176.5 -39zM525 88q102 0 166.5 24.5t97 81.5t32.5 156t-32.5 156t-97 81.5t-166.5 24.5h-336v-524h336z" />
    <glyph glyph-name="E" unicode="E" horiz-adv-x="900" 
d="M818 700v-88h-629v-218h609v-88h-609v-218h629v-88h-726v700h726z" />
    <glyph glyph-name="F" unicode="F" horiz-adv-x="900" 
d="M818 700v-88h-629v-269h569v-89h-569v-254h-97v700h726z" />
    <glyph glyph-name="G" unicode="G" horiz-adv-x="1027" 
d="M135 545q53 84 153 129.5t238 45.5q126 0 217 -36t141 -97t61 -136h-105q-15 81 -95.5 131t-218.5 50q-133 0 -208.5 -46.5t-103 -110t-27.5 -125.5q0 -61 29.5 -125t106.5 -110.5t210 -46.5q98 0 164.5 14.5t142.5 49.5v135h-325v88h430v-263q-112 -61 -205 -86.5
t-207 -25.5q-138 0 -240 45.5t-156.5 129.5t-54.5 195t53 195z" />
    <glyph glyph-name="H" unicode="H" horiz-adv-x="1020" 
d="M831 394v306h97v-700h-97v306h-642v-306h-97v700h97v-306h642z" />
    <glyph glyph-name="I" unicode="I" horiz-adv-x="280" 
d="M92 700h97v-700h-97v700z" />
    <glyph glyph-name="J" unicode="J" horiz-adv-x="1007" 
d="M915 351q0 -181 -100 -271t-312 -90t-311.5 89.5t-99.5 271.5h97q0 -77 22 -136t91.5 -98t200.5 -39t200.5 39.5t92 98.5t22.5 135v261h-382v88h479v-349z" />
    <glyph glyph-name="K" unicode="K" horiz-adv-x="999" 
d="M759 700h159l-412 -315l412 -385h-143l-347 325l-239 -182v-143h-97v700h97v-435z" />
    <glyph glyph-name="L" unicode="L" horiz-adv-x="827" 
d="M189 700v-612h556v-88h-653v700h97z" />
    <glyph glyph-name="M" unicode="M" horiz-adv-x="1237" 
d="M1145 700v-700h-97v606l-385 -606h-89l-385 606v-606h-97v700h151l376 -589l375 589h151z" />
    <glyph glyph-name="N" unicode="N" horiz-adv-x="1032" 
d="M843 95v605h97v-700h-137l-614 605v-605h-97v700h137z" />
    <glyph glyph-name="O" unicode="O" horiz-adv-x="1053" 
d="M194.5 79q-112.5 99 -112.5 272q0 172 112.5 270.5t332.5 98.5q146 0 246 -45.5t149.5 -128t49.5 -195.5t-49.5 -196.5t-149.5 -129t-246 -45.5q-220 0 -332.5 99zM777.5 138q88.5 70 88.5 213q0 142 -88 211.5t-251 69.5q-164 0 -252 -69t-88 -212t88.5 -213t251.5 -70
q162 0 250.5 70z" />
    <glyph glyph-name="P" unicode="P" horiz-adv-x="970" 
d="M759.5 670.5q61.5 -29.5 95 -85t33.5 -131.5t-33.5 -132t-95 -85.5t-141.5 -29.5h-429v-207h-97v700h526q80 0 141.5 -29.5zM577 296q56 0 100 10t75 45t31 103q0 97 -58.5 127.5t-147.5 30.5h-388v-316h388z" />
    <glyph glyph-name="Q" unicode="Q" horiz-adv-x="1059" 
d="M989 4l-69 -69l-110 110q-108 -65 -283 -65q-220 0 -332.5 99t-112.5 272q0 172 112.5 270.5t332.5 98.5q146 0 246 -45.5t149.5 -128t49.5 -195.5q0 -152 -85 -244zM742 114l-117 117l69 69l122 -122q50 69 50 173q0 142 -88 211.5t-251 69.5q-164 0 -252 -69t-88 -212
t88.5 -213t251.5 -70q132 0 215 46z" />
    <glyph glyph-name="R" unicode="R" horiz-adv-x="970" 
d="M831.5 271.5q26.5 -32.5 26.5 -85.5v-186h-97v161q0 36 -9 55.5t-30.5 27.5t-62.5 8h-470v-252h-97v700h510q127 0 196.5 -50t69.5 -156q0 -134 -112 -181q49 -9 75.5 -41.5zM189 612v-271h388q56 0 95 8.5t65 38.5t26 89t-26 88.5t-65 38t-95 8.5h-388z" />
    <glyph glyph-name="S" unicode="S" horiz-adv-x="1039" 
d="M185 229q0 -56 34.5 -91t114.5 -52.5t216 -17.5q159 0 231.5 30.5t72.5 95.5q0 45 -26.5 66.5t-93 31.5t-214.5 19q-154 9 -241.5 30t-128 64t-40.5 118q0 108 102.5 152.5t302.5 44.5q198 0 306 -59.5t108 -177.5h-105q0 55 -34 87.5t-105.5 47t-189.5 14.5
q-107 0 -168 -12.5t-86.5 -37t-25.5 -64.5q0 -43 26 -65t89 -34t190 -20q170 -11 255 -25t134.5 -54t49.5 -121q0 -124 -108.5 -171.5t-302.5 -47.5q-228 0 -345 56.5t-123 192.5h105z" />
    <glyph glyph-name="T" unicode="T" horiz-adv-x="1010" 
d="M928 700v-88h-374v-612h-97v612h-375v88h846z" />
    <glyph glyph-name="U" unicode="U" horiz-adv-x="1047" 
d="M955 341q0 -180 -103.5 -270.5t-328.5 -90.5q-226 0 -328.5 90t-102.5 271v359h97v-359q0 -76 23.5 -135t97 -98.5t213.5 -39.5q141 0 214.5 40t97 98.5t23.5 134.5v359h97v-359z" />
    <glyph glyph-name="V" unicode="V" horiz-adv-x="1114" 
d="M557 87l363 613h112l-416 -700h-118l-416 700h112z" />
    <glyph glyph-name="W" unicode="W" horiz-adv-x="1610" 
d="M1146 94l276 606h106l-321 -700h-122l-281 631l-296 -631h-123l-303 700h106l259 -607l284 607h148z" />
    <glyph glyph-name="X" unicode="X" horiz-adv-x="1110" 
d="M238 0h-148l398 350l-398 350h148l317 -280l317 280h148l-398 -350l398 -350h-148l-317 280z" />
    <glyph glyph-name="Y" unicode="Y" horiz-adv-x="1116" 
d="M558 318l345 382h132l-424 -469v-231h-106v231l-423 469h131z" />
    <glyph glyph-name="Z" unicode="Z" horiz-adv-x="960" 
d="M92 700h776v-88l-623 -524h623v-88h-776v88l623 524h-623v88z" />
    <glyph glyph-name="bracketleft" unicode="[" horiz-adv-x="619" 
d="M528 800v-88h-331v-824h331v-88h-436v1000h436z" />
    <glyph glyph-name="backslash" unicode="\" horiz-adv-x="545" 
d="M352 -150l-260 870h101l260 -870h-101z" />
    <glyph glyph-name="bracketright" unicode="]" horiz-adv-x="619" 
d="M92 800h436v-1000h-436v88h330v824h-330v88z" />
    <glyph glyph-name="asciicircum" unicode="^" horiz-adv-x="968" 
d="M550 800l326 -450h-119l-273 376l-273 -376h-119l327 450h131z" />
    <glyph glyph-name="underscore" unicode="_" horiz-adv-x="1210" 
d="M112 -174v88h986v-88h-986z" />
    <glyph glyph-name="grave" unicode="`" horiz-adv-x="566" 
d="M92 849l382 -80v-90l-382 80v90z" />
    <glyph glyph-name="a" unicode="a" horiz-adv-x="930" 
d="M685.5 572q79.5 -28 120.5 -92.5t42 -171.5v-308h-97v73q-110 -45 -200.5 -69t-198.5 -24q-142 0 -210.5 50t-68.5 151q0 107 96 156t255 49q155 0 327 -52v6q0 103 -86.5 137.5t-188.5 34.5q-70 0 -144.5 -11t-167.5 -42l-42 80q94 31 180.5 46t180.5 15
q123 0 202.5 -28zM551.5 95q100.5 27 199.5 66v85q-77 24 -154 38t-169 14q-115 0 -182 -28t-67 -91t50 -87t149 -24q73 0 173.5 27z" />
    <glyph glyph-name="b" unicode="b" horiz-adv-x="963" 
d="M702 564.5q84 -35.5 131.5 -105t47.5 -169.5q0 -99 -47.5 -169t-132 -105.5t-193.5 -35.5q-114 0 -194 33t-125 94v-107h-97v800h97v-327q45 61 125 94t194 33q110 0 194 -35.5zM700.5 127q75.5 59 75.5 163t-75.5 163t-213.5 59q-139 0 -218.5 -59t-79.5 -163t79.5 -163
t218.5 -59q138 0 213.5 59z" />
    <glyph glyph-name="c" unicode="c" horiz-adv-x="938" 
d="M189.5 521q107.5 79 289.5 79q156 0 253.5 -59t123.5 -174h-107q-22 73 -88.5 109t-181.5 36q-139 0 -215.5 -54.5t-76.5 -167.5t76.5 -167.5t215.5 -54.5q115 0 181.5 36t88.5 109h107q-26 -115 -123.5 -174t-253.5 -59q-182 0 -289.5 79t-107.5 231t107.5 231z" />
    <glyph glyph-name="d" unicode="d" horiz-adv-x="963" 
d="M774 800h97v-800h-97v107q-45 -61 -125 -94t-194 -33q-109 0 -193.5 35.5t-132 105.5t-47.5 169q0 100 47.5 169.5t131.5 105t194 35.5q114 0 194 -33t125 -94v327zM695 127q79 59 79 163t-79 163t-219 59q-138 0 -213.5 -59t-75.5 -163t75.5 -163t213.5 -59
q140 0 219 59z" />
    <glyph glyph-name="e" unicode="e" horiz-adv-x="949" 
d="M660.5 99.5q63.5 31.5 89.5 87.5h107q-26 -97 -124 -152t-250 -55q-183 0 -292 79t-109 231q0 101 50.5 171t139 104.5t202.5 34.5q182 0 288 -79t106 -255h-680q16 -198 295 -198q114 0 177.5 31.5zM286.5 473q-72.5 -39 -92.5 -119h562q-18 80 -89.5 119t-192.5 39
q-115 0 -187.5 -39z" />
    <glyph glyph-name="f" unicode="f" horiz-adv-x="714" 
d="M412.5 710q-31.5 -12 -42.5 -40t-11 -86v-4h277v-88h-277v-492h-97v492h-182v88h182v20q0 108 49 159t152 51q51 0 84 -1.5t89 -8.5v-84q-78 6 -127 6q-65 0 -96.5 -12z" />
    <glyph glyph-name="g" unicode="g" horiz-adv-x="963" 
d="M774 580h97v-513q0 -168 -92.5 -247.5t-274.5 -79.5q-97 0 -176.5 10.5t-163.5 27.5l-22 4v85l43 -7q81 -15 149.5 -23.5t140.5 -8.5q116 0 181.5 29t91.5 85.5t26 148.5v14q-44 -60 -122 -92.5t-189 -32.5q-110 0 -196.5 34.5t-135.5 104.5t-49 171t49 171t135.5 104.5
t196.5 34.5q111 0 189 -32.5t122 -92.5v105zM697 127q77 59 77 163t-77 163t-216 59t-216.5 -59t-77.5 -163t77.5 -163t216.5 -59t216 59z" />
    <glyph glyph-name="h" unicode="h" horiz-adv-x="966" 
d="M786 526q87 -74 89 -241v-285h-97v269q0 125 -60 184t-201 59q-95 0 -169 -31.5t-116.5 -93.5t-42.5 -150v-237h-97v800h97v-354q114 154 347 154q163 0 250 -74z" />
    <glyph glyph-name="i" unicode="i" horiz-adv-x="280" 
d="M92 667v133h97v-133h-97zM92 0v580h97v-580h-97z" />
    <glyph glyph-name="j" unicode="j" horiz-adv-x="501" 
d="M322 667v133h97v-133h-97zM419 10q0 -93 -15 -150.5t-57.5 -88.5t-122.5 -31q-81 0 -172 16v84l25 -3q63 -9 101 -9q64 0 93.5 14.5t40 53.5t10.5 122v562h97v-570z" />
    <glyph glyph-name="k" unicode="k" horiz-adv-x="917" 
d="M660 580h175l-382 -253l382 -327h-152l-314 271l-180 -120v-151h-97v800h97v-533z" />
    <glyph glyph-name="l" unicode="l" horiz-adv-x="280" 
d="M92 0v800h97v-800h-97z" />
    <glyph glyph-name="m" unicode="m" horiz-adv-x="1422" 
d="M1258 531.5q70 -68.5 72 -217.5v-314h-97v308q0 104 -48.5 154t-162.5 50q-68 0 -128 -27.5t-97 -82t-37 -131.5v-271h-97v308q0 104 -49 154t-163 50q-68 0 -128 -27.5t-97 -82t-37 -131.5v-271h-97v580h97v-122q103 142 291 142q106 0 172 -40.5t92 -126.5
q103 167 307 167q137 0 207 -68.5z" />
    <glyph glyph-name="n" unicode="n" horiz-adv-x="966" 
d="M786 526q87 -74 89 -241v-285h-97v269q0 125 -60 184t-201 59q-95 0 -169 -31.5t-116.5 -93.5t-42.5 -150v-237h-97v580h97v-134q114 154 347 154q163 0 250 -74z" />
    <glyph glyph-name="o" unicode="o" horiz-adv-x="965" 
d="M273 14.5q-90 34.5 -140.5 104t-50.5 171.5t50.5 171.5t140.5 104t209 34.5t209.5 -34.5t141 -104t50.5 -171.5t-50.5 -171.5t-141 -104t-209.5 -34.5t-209 34.5zM701 124q77 56 77 166t-77 166t-219 56t-218.5 -56t-76.5 -166t76.5 -166t218.5 -56t219 56z" />
    <glyph glyph-name="p" unicode="p" horiz-adv-x="963" 
d="M703 564.5q84 -35.5 131 -105t47 -169.5t-47.5 -169.5t-131.5 -105t-193 -35.5q-114 0 -194.5 33t-125.5 95v-348h-97v820h97v-108q45 62 125.5 95t194.5 33q110 0 194 -35.5zM701 126.5q75 58.5 75 163.5q0 104 -79 163t-218 59q-138 0 -214 -59t-76 -163t79.5 -163
t218.5 -59t214 58.5z" />
    <glyph glyph-name="q" unicode="q" horiz-adv-x="963" 
d="M774 580h97v-820h-97v348q-45 -62 -125.5 -95t-194.5 -33q-109 0 -193 35.5t-131.5 105t-47.5 169.5t47 169.5t131 105t194 35.5q114 0 194.5 -33t125.5 -95v108zM694.5 127q79.5 59 79.5 163t-76 163t-214 59q-139 0 -218 -59t-79 -163t75.5 -163t213.5 -59
q139 0 218.5 59z" />
    <glyph glyph-name="r" unicode="r" horiz-adv-x="711" 
d="M641 580v-88q-80 20 -156 20q-70 0 -138.5 -25t-157.5 -93v-394h-97v580h97v-100q72 69 141.5 94.5t150.5 25.5q80 0 160 -20z" />
    <glyph glyph-name="s" unicode="s" horiz-adv-x="962" 
d="M187 194q6 -46 40 -73.5t102.5 -40t181.5 -12.5q109 0 166 10t77.5 30t20.5 56q0 34 -20.5 49.5t-77.5 24t-196 18.5t-215 24.5t-115.5 47.5t-39.5 96q0 97 97.5 136.5t271.5 39.5q116 0 195.5 -14.5t128.5 -55t56 -114.5h-105q-6 40 -37 60.5t-89.5 28t-160.5 7.5
q-139 0 -195 -20.5t-56 -61.5q0 -28 21 -42t78.5 -23.5t184.5 -20.5l48 -4q126 -11 190 -23t103 -46t39 -102q0 -106 -90 -147.5t-272 -41.5q-128 0 -220.5 16.5t-151.5 63.5t-65 134h105z" />
    <glyph glyph-name="t" unicode="t" horiz-adv-x="758" 
d="M668 492h-309v-255q0 -73 12.5 -108t45.5 -48t100 -13q58 0 151 11v-84q-99 -15 -171 -15q-93 0 -142.5 22t-71 76.5t-21.5 158.5v255h-182v88h182v143l97 37v-180h309v-88z" />
    <glyph glyph-name="u" unicode="u" horiz-adv-x="966" 
d="M778 580h97v-580h-97v135q-114 -155 -347 -155q-163 0 -250 74t-89 241v285h97v-269q0 -125 59.5 -184t200.5 -59q95 0 169.5 31.5t117 93.5t42.5 150v237z" />
    <glyph glyph-name="v" unicode="v" horiz-adv-x="987" 
d="M494 64l300 516h112l-338 -580h-148l-338 580h112z" />
    <glyph glyph-name="w" unicode="w" horiz-adv-x="1476" 
d="M1052 68l236 512h106l-268 -580h-148l-240 488l-240 -488h-148l-268 580h105l237 -513l251 513h126z" />
    <glyph glyph-name="x" unicode="x" horiz-adv-x="989" 
d="M235 0h-153l352 290l-352 290h153l259 -224l259 224h154l-352 -290l352 -290h-154l-259 224z" />
    <glyph glyph-name="y" unicode="y" horiz-adv-x="1000" 
d="M806 580h112l-366 -640q-39 -70 -74 -112t-80.5 -65t-109.5 -23q-50 0 -88.5 4t-88.5 13v89q87 -18 158 -18q62 0 103.5 31.5t84.5 106.5l19 34h-60l-334 580h114l307 -532z" />
    <glyph glyph-name="z" unicode="z" horiz-adv-x="864" 
d="M92 580h680v-88l-523 -404h523v-88h-680v88l523 404h-523v88z" />
    <glyph glyph-name="braceleft" unicode="{" horiz-adv-x="618" 
d="M92 355q50 0 77 6.5t43.5 34t16.5 86.5q0 11 -2 39q-2 38 -2 53q0 88 28.5 136.5t93 69t180.5 20.5v-88q-85 0 -127.5 -11.5t-60.5 -44t-18 -98.5q0 -29 3 -67q1 -9 1 -25q0 -90 -39.5 -123t-83.5 -33v-18q48 0 88.5 -38.5t33.5 -142.5q-3 -37 -3 -68q0 -66 18 -98.5
t60.5 -44.5t127.5 -12v-88q-120 0 -184.5 20t-91 66.5t-26.5 133.5q0 17 2 61q2 28 2 39q0 59 -16.5 86.5t-43.5 34t-77 6.5v108z" />
    <glyph glyph-name="bar" unicode="|" horiz-adv-x="280" 
d="M92 -150v950h97v-950h-97z" />
    <glyph glyph-name="braceright" unicode="}" horiz-adv-x="618" 
d="M527 247q-51 0 -78 -7t-43 -34.5t-16 -87.5q0 -24 1 -37q3 -34 3 -63q0 -85 -27 -131.5t-91.5 -66.5t-183.5 -20v88q85 0 127.5 12t60.5 44.5t18 98.5q0 31 -3 68q-1 10 -1 27q0 88 39 121t84 33v18q-45 0 -84 33t-39 121q0 17 1 27q3 36 3 65q0 67 -18 99.5t-60.5 44.5
t-127.5 12v88q115 0 179.5 -20t93 -68.5t28.5 -135.5q0 -15 -2 -55q-1 -13 -1 -37q0 -60 16 -87.5t43 -34.5t78 -7v-108z" />
    <glyph glyph-name="asciitilde" unicode="~" horiz-adv-x="969" 
d="M92 203q0 274 212 274q48 0 86 -14.5t65 -35.5t62 -54q44 -42 74.5 -61.5t72.5 -19.5q57 0 82.5 44t25.5 141h105q0 -274 -213 -274q-48 0 -85.5 14.5t-64.5 35.5t-62 54q-43 41 -74.5 61t-73.5 20q-56 0 -81.5 -44t-25.5 -141h-105z" />
    <glyph glyph-name="exclamdown" unicode="&#xa1;" horiz-adv-x="292" 
d="M192 509h-100v91h100v-91zM191 400v-500h-97v500h97z" />
    <glyph glyph-name="cent" unicode="&#xa2;" horiz-adv-x="958" 
d="M516 129q202 7 243 144h107q-24 -110 -115 -169t-235 -64v-140h-72v141q-163 10 -257.5 88.5t-94.5 220.5t94.5 220.5t257.5 88.5v141h72v-140q144 -5 235 -64t115 -169h-107q-41 137 -243 144v-442zM261.5 192.5q64.5 -54.5 182.5 -62.5v440q-118 -8 -182.5 -62
t-64.5 -158q0 -103 64.5 -157.5z" />
    <glyph glyph-name="sterling" unicode="&#xa3;" horiz-adv-x="907" 
d="M432 614q-51 -18 -71 -53t-20 -91q0 -37 6 -81h355v-72h-348q-2 -73 -47.5 -128.5t-133.5 -100.5h642v-88h-723v88q66 50 97 78t51 65t18 86h-166v72h153q-11 50 -11 91q0 110 74 175t226 65q70 0 132.5 -7t148.5 -23v-88q-79 16 -132 23t-109 7q-91 0 -142 -18z" />
    <glyph glyph-name="currency" unicode="&#xa4;" horiz-adv-x="990" 
d="M857.5 188q-38.5 -64 -108.5 -103l133 -159l-69 -67l-161 189q-72 -18 -157 -18t-157 18l-161 -189l-69 67l134 159q-71 38 -109 102.5t-38 152.5q0 86 36.5 149.5t104.5 102.5l-128 152l69 67l156 -180q70 19 162 19q93 0 163 -20l155 181l69 -67l-127 -153
q68 -39 104.5 -102t36.5 -149q0 -88 -38.5 -152zM276.5 174q76.5 -56 218.5 -56t219 56t77 166t-77 166t-219 56t-218.5 -56t-76.5 -166t76.5 -166z" />
    <glyph glyph-name="yen" unicode="&#xa5;" horiz-adv-x="1136" 
d="M913 700h132l-346 -383h256v-72h-321l-13 -14v-46h334v-72h-334v-113h-106v113h-334v72h334v46l-13 14h-321v72h256l-345 383h131l345 -382z" />
    <glyph glyph-name="brokenbar" unicode="&#xa6;" horiz-adv-x="280" 
d="M92 427v373h97v-373h-97zM92 -150v373h97v-373h-97z" />
    <glyph glyph-name="section" unicode="&#xa7;" horiz-adv-x="1006" 
d="M880 111q39 -41 39 -112q0 -72 -45 -112.5t-128.5 -56t-211.5 -15.5q-193 0 -304 52t-115 164h106q1 -49 37.5 -77t107.5 -39.5t185 -11.5q105 0 161.5 10t79 31.5t22.5 59.5q0 40 -25 60.5t-86 31.5t-187 21q-155 12 -240.5 27.5t-133 51t-47.5 102.5q0 130 161 164
q-83 22 -120.5 62.5t-37.5 111.5q0 105 98 144.5t288 39.5q188 0 293 -52t108 -164h-105q-2 49 -35.5 77t-100.5 39.5t-176 11.5q-102 0 -159 -10t-81.5 -31.5t-24.5 -59.5q0 -40 24.5 -60.5t83.5 -31.5t182 -21q157 -12 241.5 -27.5t132 -51t47.5 -102.5q0 -68 -41 -107
t-118 -56q86 -22 125 -63zM226.5 257.5q26.5 -20.5 91 -31.5t201.5 -21h2v0q18 -1 52 -1q126 0 181 27.5t55 84.5q0 41 -27 62t-91 31.5t-202 20.5h-1v0q-20 1 -56 1q-125 0 -178.5 -27.5t-53.5 -84.5q0 -41 26.5 -61.5z" />
    <glyph glyph-name="dieresis" unicode="&#xa8;" horiz-adv-x="577" 
d="M92 699v92h142v-92h-142zM343 699v92h143v-92h-143z" />
    <glyph glyph-name="copyright" unicode="&#xa9;" horiz-adv-x="1008" 
d="M281.5 34.5q-92.5 44.5 -141 125.5t-48.5 191t48.5 190.5t141 124.5t223.5 44t223.5 -44t140.5 -124.5t48 -190.5t-48 -191t-140.5 -125.5t-223.5 -44.5t-223.5 44.5zM694 82q80 37 122 106t42 163t-42 162.5t-121.5 105t-189.5 36.5t-190 -37t-122.5 -105.5
t-42.5 -161.5q0 -94 42.5 -163t122.5 -106t190 -37q109 0 189 37zM339 489.5q63 47.5 173 47.5q93 0 147.5 -36.5t69.5 -107.5h-59q-12 44 -50.5 66.5t-107.5 22.5q-83 0 -130 -32t-47 -100t47 -100t130 -32q69 0 107.5 22.5t50.5 66.5h59q-15 -71 -69.5 -107.5
t-147.5 -36.5q-110 0 -173 48t-63 139q0 92 63 139.5z" />
    <glyph glyph-name="guillemotleft" unicode="&#xab;" horiz-adv-x="901" 
d="M409 290l260 290h140l-260 -290l260 -290h-140zM92 290l260 290h140l-260 -290l260 -290h-140z" />
    <glyph glyph-name="logicalnot" unicode="&#xac;" horiz-adv-x="973" 
d="M881 384v-301h-89v213h-700v88h789z" />
    <glyph glyph-name="registered" unicode="&#xae;" horiz-adv-x="1008" 
d="M282 26.5q-93 46.5 -141.5 130.5t-48.5 194t48.5 193.5t141.5 129.5t223 46t223 -46t141 -129.5t48 -193.5t-48 -194t-141 -130.5t-223 -46.5t-223 46.5zM696.5 74.5q79.5 39.5 120.5 110.5t41 166t-40.5 165.5t-120 109.5t-192.5 39t-193 -39t-121 -110t-41 -165
q0 -95 41 -166t121 -110.5t193 -39.5q112 0 191.5 39.5zM352 184v342h189q78 0 113.5 -32.5t35.5 -87.5q0 -41 -23.5 -73t-70.5 -43l87 -106h-76l-79 101h-118v-101h-58zM538 340q52 0 72.5 14.5t20.5 51.5q0 36 -20.5 50.5t-72.5 14.5h-128v-131h128z" />
    <glyph glyph-name="macron" unicode="&#xaf;" horiz-adv-x="639" 
d="M92 703v88h455v-88h-455z" />
    <glyph glyph-name="degree" unicode="&#xb0;" horiz-adv-x="701" 
d="M200.5 292q-57.5 33 -83 85.5t-25.5 112.5t25.5 112t83 85t149.5 33q93 0 151 -33t83 -85t25 -112t-25 -112.5t-83 -85.5t-151 -33q-92 0 -149.5 33zM463 384q41 37 41 106t-41 105.5t-113 36.5q-71 0 -112 -36.5t-41 -105.5t41 -106t112 -37q72 0 113 37z" />
    <glyph glyph-name="plusminus" unicode="&#xb1;" horiz-adv-x="970" 
d="M529 700v-186h349v-88h-349v-186h-88v186h-349v88h349v186h88zM878 56h-786v88h786v-88z" />
    <glyph glyph-name="acute" unicode="&#xb4;" horiz-adv-x="566" 
d="M92 679v90l382 80v-90z" />
    <glyph glyph-name="paragraph" unicode="&#xb6;" horiz-adv-x="869" 
d="M542 800v-950h-97v537q-128 0 -201 13.5t-112.5 58t-39.5 134.5t39.5 134.5t112.5 58.5t201 14h97zM680 -150v950h97v-950h-97z" />
    <glyph glyph-name="periodcentered" unicode="&#xb7;" horiz-adv-x="292" 
d="M90 263v91h101v-91h-101z" />
    <glyph glyph-name="cedilla" unicode="&#xb8;" horiz-adv-x="489" 
d="M369.5 -76q27.5 -19 27.5 -55q0 -54 -57.5 -80t-148.5 -26q-41 0 -99 7v72q75 -11 120 -11q80 0 80 37q0 28 -41 28q-32 0 -71 -16l-63 24l19 96h95l-15 -76q33 19 83 19q43 0 70.5 -19z" />
    <glyph glyph-name="guillemotright" unicode="&#xbb;" horiz-adv-x="934" 
d="M125 580h141l260 -290l-260 -290h-141l260 290zM442 580h140l260 -290l-260 -290h-140l260 290z" />
    <glyph glyph-name="questiondown" unicode="&#xbf;" horiz-adv-x="923" 
d="M567 600v-91h-101v91h101zM563 402q0 -65 -29.5 -104t-71.5 -59t-110 -41q-52 -16 -82 -29t-50 -35t-20 -56q0 -110 240 -110q151 0 219 43.5t68 145.5h106q0 -149 -101.5 -213t-281.5 -64q-173 0 -264 48.5t-91 152.5q0 57 28 92.5t67.5 54.5t105.5 41q55 18 87 32.5
t53.5 39t21.5 61.5h105z" />
    <glyph glyph-name="Agrave" unicode="&#xc0;" horiz-adv-x="1114" 
d="M1032 0h-112l-96 162h-534l-96 -162h-112l416 700h118zM557 613l-215 -363h430zM366 969l382 -80v-90l-382 80v90z" />
    <glyph glyph-name="Aacute" unicode="&#xc1;" horiz-adv-x="1114" 
d="M1032 0h-112l-96 162h-534l-96 -162h-112l416 700h118zM557 613l-215 -363h430zM366 799v90l382 80v-90z" />
    <glyph glyph-name="Acircumflex" unicode="&#xc2;" horiz-adv-x="1114" 
d="M1032 0h-112l-96 162h-534l-96 -162h-112l416 700h118zM557 613l-215 -363h430zM357 888l200 80l200 -80v-95l-200 80l-200 -80v95z" />
    <glyph glyph-name="Atilde" unicode="&#xc3;" horiz-adv-x="1114" 
d="M1032 0h-112l-96 162h-534l-96 -162h-112l416 700h118zM557 613l-215 -363h430zM275 798q0 75 40.5 127.5t121.5 52.5q45 0 75.5 -15t64.5 -43q30 -23 48.5 -33t43.5 -10q66 0 66 91h105q0 -75 -41 -127.5t-122 -52.5q-45 0 -74.5 15t-65.5 43q-27 22 -46.5 33t-44.5 11
q-66 0 -66 -92h-105z" />
    <glyph glyph-name="Adieresis" unicode="&#xc4;" horiz-adv-x="1114" 
d="M1032 0h-112l-96 162h-534l-96 -162h-112l416 700h118zM557 613l-215 -363h430zM360 819v92h142v-92h-142zM611 819v92h143v-92h-143z" />
    <glyph glyph-name="Aring" unicode="&#xc5;" horiz-adv-x="1114" 
d="M1032 0h-112l-96 162h-534l-96 -162h-112l416 700h118zM557 613l-215 -363h430zM353 905q0 127 204 127q205 0 205 -127t-205 -127q-204 0 -204 127zM646.5 857.5q27.5 15.5 27.5 47.5t-28 48t-89 16t-88.5 -16t-27.5 -48t27.5 -47.5t88.5 -15.5q62 0 89.5 15.5z" />
    <glyph glyph-name="AE" unicode="&#xc6;" horiz-adv-x="1501" 
d="M1419 700v-88h-629v-218h609v-88h-609v-218h629v-88h-726v172h-398l-93 -172h-120l378 700h959zM693 260v352h-160l-190 -352h350z" />
    <glyph glyph-name="Ccedilla" unicode="&#xc7;" horiz-adv-x="1027" 
d="M945 251q-12 -75 -60.5 -135.5t-135.5 -97t-208 -38.5l-13 -66q33 19 83 19q43 0 70.5 -19t27.5 -55q0 -54 -57.5 -80t-148.5 -26q-41 0 -99 7v72q75 -11 120 -11q80 0 80 37q0 28 -41 28q-32 0 -71 -16l-63 24l18 90q-180 18 -272.5 114.5t-92.5 252.5q0 113 50 196
t149.5 128t246.5 45q125 0 214.5 -35.5t140 -96.5t61.5 -137h-105q-16 84 -95.5 132.5t-215.5 48.5q-163 0 -252 -69.5t-89 -211.5q0 -143 89 -213t252 -70q135 0 215 49.5t96 133.5h106z" />
    <glyph glyph-name="Egrave" unicode="&#xc8;" horiz-adv-x="900" 
d="M818 700v-88h-629v-218h609v-88h-609v-218h629v-88h-726v700h726zM264 969l382 -80v-90l-382 80v90z" />
    <glyph glyph-name="Eacute" unicode="&#xc9;" horiz-adv-x="900" 
d="M818 700v-88h-629v-218h609v-88h-609v-218h629v-88h-726v700h726zM264 799v90l382 80v-90z" />
    <glyph glyph-name="Ecircumflex" unicode="&#xca;" horiz-adv-x="900" 
d="M818 700v-88h-629v-218h609v-88h-609v-218h629v-88h-726v700h726zM255 888l200 80l200 -80v-95l-200 80l-200 -80v95z" />
    <glyph glyph-name="Edieresis" unicode="&#xcb;" horiz-adv-x="900" 
d="M818 700v-88h-629v-218h609v-88h-609v-218h629v-88h-726v700h726zM258 819v92h142v-92h-142zM509 819v92h143v-92h-143z" />
    <glyph glyph-name="Igrave" unicode="&#xcc;" horiz-adv-x="280" 
d="M-42 969l363 -80v-90l-363 80v90zM92 700h97v-700h-97v700z" />
    <glyph glyph-name="Iacute" unicode="&#xcd;" horiz-adv-x="280" 
d="M92 700h97v-700h-97v700zM-51 799v90l382 80v-90z" />
    <glyph glyph-name="Icircumflex" unicode="&#xce;" horiz-adv-x="280" 
d="M-50 888l190 80l191 -80v-95l-191 80l-190 -80v95zM189 0h-97v700h97v-700z" />
    <glyph glyph-name="Idieresis" unicode="&#xcf;" horiz-adv-x="280" 
d="M-47 819v92h135v-92h-135zM192 819v92h135v-92h-135zM92 700h97v-700h-97v700z" />
    <glyph glyph-name="Eth" unicode="&#xd0;" horiz-adv-x="1037" 
d="M782.5 661q79.5 -39 126 -117.5t46.5 -193.5t-46.5 -193.5t-126 -117.5t-176.5 -39h-486v321h-82v58h82v321h486q97 0 176.5 -39zM554 88q102 0 166.5 24.5t97 81.5t32.5 156t-32.5 156t-97 81.5t-166.5 24.5h-336v-233h287v-58h-287v-233h336z" />
    <glyph glyph-name="Ntilde" unicode="&#xd1;" horiz-adv-x="1032" 
d="M843 95v605h97v-700h-137l-614 605v-605h-97v700h137zM250 798q0 75 40.5 127.5t121.5 52.5q45 0 75.5 -15t64.5 -43q30 -23 48.5 -33t43.5 -10q66 0 66 91h105q0 -75 -41 -127.5t-122 -52.5q-45 0 -74.5 15t-65.5 43q-27 22 -46.5 33t-44.5 11q-66 0 -66 -92h-105z" />
    <glyph glyph-name="Ograve" unicode="&#xd2;" horiz-adv-x="1053" 
d="M194.5 79q-112.5 99 -112.5 272q0 172 112.5 270.5t332.5 98.5q146 0 246 -45.5t149.5 -128t49.5 -195.5t-49.5 -196.5t-149.5 -129t-246 -45.5q-220 0 -332.5 99zM777.5 138q88.5 70 88.5 213q0 142 -88 211.5t-251 69.5q-164 0 -252 -69t-88 -212t88.5 -213t251.5 -70
q162 0 250.5 70zM335 969l382 -80v-90l-382 80v90z" />
    <glyph glyph-name="Oacute" unicode="&#xd3;" horiz-adv-x="1053" 
d="M194.5 79q-112.5 99 -112.5 272q0 172 112.5 270.5t332.5 98.5q146 0 246 -45.5t149.5 -128t49.5 -195.5t-49.5 -196.5t-149.5 -129t-246 -45.5q-220 0 -332.5 99zM777.5 138q88.5 70 88.5 213q0 142 -88 211.5t-251 69.5q-164 0 -252 -69t-88 -212t88.5 -213t251.5 -70
q162 0 250.5 70zM335 799v90l382 80v-90z" />
    <glyph glyph-name="Ocircumflex" unicode="&#xd4;" horiz-adv-x="1053" 
d="M194.5 79q-112.5 99 -112.5 272q0 172 112.5 270.5t332.5 98.5q146 0 246 -45.5t149.5 -128t49.5 -195.5t-49.5 -196.5t-149.5 -129t-246 -45.5q-220 0 -332.5 99zM777.5 138q88.5 70 88.5 213q0 142 -88 211.5t-251 69.5q-164 0 -252 -69t-88 -212t88.5 -213t251.5 -70
q162 0 250.5 70zM327 888l200 80l200 -80v-95l-200 80l-200 -80v95z" />
    <glyph glyph-name="Otilde" unicode="&#xd5;" horiz-adv-x="1053" 
d="M194.5 79q-112.5 99 -112.5 272q0 172 112.5 270.5t332.5 98.5q146 0 246 -45.5t149.5 -128t49.5 -195.5t-49.5 -196.5t-149.5 -129t-246 -45.5q-220 0 -332.5 99zM777.5 138q88.5 70 88.5 213q0 142 -88 211.5t-251 69.5q-164 0 -252 -69t-88 -212t88.5 -213t251.5 -70
q162 0 250.5 70zM244 798q0 75 40.5 127.5t121.5 52.5q45 0 75.5 -15t64.5 -43q30 -23 48.5 -33t43.5 -10q66 0 66 91h105q0 -75 -41 -127.5t-122 -52.5q-45 0 -74.5 15t-65.5 43q-27 22 -46.5 33t-44.5 11q-66 0 -66 -92h-105z" />
    <glyph glyph-name="Odieresis" unicode="&#xd6;" horiz-adv-x="1053" 
d="M194.5 79q-112.5 99 -112.5 272q0 172 112.5 270.5t332.5 98.5q146 0 246 -45.5t149.5 -128t49.5 -195.5t-49.5 -196.5t-149.5 -129t-246 -45.5q-220 0 -332.5 99zM777.5 138q88.5 70 88.5 213q0 142 -88 211.5t-251 69.5q-164 0 -252 -69t-88 -212t88.5 -213t251.5 -70
q162 0 250.5 70zM330 819v92h142v-92h-142zM581 819v92h143v-92h-143z" />
    <glyph glyph-name="multiply" unicode="&#xd7;" horiz-adv-x="909" 
d="M773 577l44 -76l-274 -159l274 -158l-44 -77l-318 184l-319 -184l-44 77l274 158l-274 159l44 76l319 -184z" />
    <glyph glyph-name="Oslash" unicode="&#xd8;" horiz-adv-x="1053" 
d="M675 706q147 -31 222 -123.5t75 -231.5q0 -113 -49.5 -196.5t-149.5 -129t-246 -45.5q-18 0 -52 2l-28 -103h-101l32 115q-147 31 -221.5 124t-74.5 233q0 172 112.5 270.5t332.5 98.5q34 0 51 -1l28 102h101zM242.5 171q55.5 -67 159.5 -90l152 551h-27q-164 0 -252 -69
t-88 -212q0 -113 55.5 -180zM777.5 138q88.5 70 88.5 213q0 112 -55.5 179t-159.5 90l-152 -551q9 -1 28 -1q162 0 250.5 70z" />
    <glyph glyph-name="Ugrave" unicode="&#xd9;" horiz-adv-x="1047" 
d="M955 341q0 -180 -103.5 -270.5t-328.5 -90.5q-226 0 -328.5 90t-102.5 271v359h97v-359q0 -76 23.5 -135t97 -98.5t213.5 -39.5q141 0 214.5 40t97 98.5t23.5 134.5v359h97v-359zM332 969l382 -80v-90l-382 80v90z" />
    <glyph glyph-name="Uacute" unicode="&#xda;" horiz-adv-x="1047" 
d="M955 341q0 -180 -103.5 -270.5t-328.5 -90.5q-226 0 -328.5 90t-102.5 271v359h97v-359q0 -76 23.5 -135t97 -98.5t213.5 -39.5q141 0 214.5 40t97 98.5t23.5 134.5v359h97v-359zM332 799v90l382 80v-90z" />
    <glyph glyph-name="Ucircumflex" unicode="&#xdb;" horiz-adv-x="1047" 
d="M955 341q0 -180 -103.5 -270.5t-328.5 -90.5q-226 0 -328.5 90t-102.5 271v359h97v-359q0 -76 23.5 -135t97 -98.5t213.5 -39.5q141 0 214.5 40t97 98.5t23.5 134.5v359h97v-359zM323 888l200 80l200 -80v-95l-200 80l-200 -80v95z" />
    <glyph glyph-name="Udieresis" unicode="&#xdc;" horiz-adv-x="1047" 
d="M955 341q0 -180 -103.5 -270.5t-328.5 -90.5q-226 0 -328.5 90t-102.5 271v359h97v-359q0 -76 23.5 -135t97 -98.5t213.5 -39.5q141 0 214.5 40t97 98.5t23.5 134.5v359h97v-359zM327 819v92h142v-92h-142zM578 819v92h143v-92h-143z" />
    <glyph glyph-name="Yacute" unicode="&#xdd;" horiz-adv-x="1116" 
d="M558 318l345 382h132l-424 -469v-231h-106v231l-423 469h131zM367 799v90l382 80v-90z" />
    <glyph glyph-name="Thorn" unicode="&#xde;" horiz-adv-x="976" 
d="M627 598q80 0 140.5 -29t94 -84.5t33.5 -132.5t-33.5 -132.5t-94 -84.5t-140.5 -29h-430v-106h-105v700h105v-102h430zM585 194q57 0 100 10t73.5 44.5t30.5 103.5t-30.5 103.5t-73.5 44.5t-100 10h-388v-316h388z" />
    <glyph glyph-name="germandbls" unicode="&#xdf;" horiz-adv-x="949" 
d="M822 317.5q46 -42.5 46 -123.5q0 -92 -53.5 -133t-155.5 -51t-319 -10v88q182 0 266 7t120 29.5t36 73.5q0 50 -36 72.5t-119.5 29t-266.5 6.5v88q127 0 191 8t93.5 33.5t29.5 79.5q0 62 -50 89.5t-154 27.5q-95 0 -149 -18.5t-79 -65t-25 -133.5v-415h-105v415
q0 117 38.5 183.5t116 94t203.5 27.5q148 0 228.5 -45.5t80.5 -150.5q0 -93 -78 -147q95 -17 141 -59.5z" />
    <glyph glyph-name="agrave" unicode="&#xe0;" horiz-adv-x="930" 
d="M685.5 572q79.5 -28 120.5 -92.5t42 -171.5v-308h-97v73q-110 -45 -200.5 -69t-198.5 -24q-142 0 -210.5 50t-68.5 151q0 107 96 156t255 49q155 0 327 -52v6q0 103 -86.5 137.5t-188.5 34.5q-70 0 -144.5 -11t-167.5 -42l-42 80q94 31 180.5 46t180.5 15
q123 0 202.5 -28zM551.5 95q100.5 27 199.5 66v85q-77 24 -154 38t-169 14q-115 0 -182 -28t-67 -91t50 -87t149 -24q73 0 173.5 27zM290 849l382 -80v-90l-382 80v90z" />
    <glyph glyph-name="aacute" unicode="&#xe1;" horiz-adv-x="930" 
d="M685.5 572q79.5 -28 120.5 -92.5t42 -171.5v-308h-97v73q-110 -45 -200.5 -69t-198.5 -24q-142 0 -210.5 50t-68.5 151q0 107 96 156t255 49q155 0 327 -52v6q0 103 -86.5 137.5t-188.5 34.5q-70 0 -144.5 -11t-167.5 -42l-42 80q94 31 180.5 46t180.5 15
q123 0 202.5 -28zM551.5 95q100.5 27 199.5 66v85q-77 24 -154 38t-169 14q-115 0 -182 -28t-67 -91t50 -87t149 -24q73 0 173.5 27zM290 679v90l382 80v-90z" />
    <glyph glyph-name="acircumflex" unicode="&#xe2;" horiz-adv-x="930" 
d="M685.5 572q79.5 -28 120.5 -92.5t42 -171.5v-308h-97v73q-110 -45 -200.5 -69t-198.5 -24q-142 0 -210.5 50t-68.5 151q0 107 96 156t255 49q155 0 327 -52v6q0 103 -86.5 137.5t-188.5 34.5q-70 0 -144.5 -11t-167.5 -42l-42 80q94 31 180.5 46t180.5 15
q123 0 202.5 -28zM551.5 95q100.5 27 199.5 66v85q-77 24 -154 38t-169 14q-115 0 -182 -28t-67 -91t50 -87t149 -24q73 0 173.5 27zM282 768l200 80l200 -80v-95l-200 80l-200 -80v95z" />
    <glyph glyph-name="atilde" unicode="&#xe3;" horiz-adv-x="930" 
d="M685.5 572q79.5 -28 120.5 -92.5t42 -171.5v-308h-97v73q-110 -45 -200.5 -69t-198.5 -24q-142 0 -210.5 50t-68.5 151q0 107 96 156t255 49q155 0 327 -52v6q0 103 -86.5 137.5t-188.5 34.5q-70 0 -144.5 -11t-167.5 -42l-42 80q94 31 180.5 46t180.5 15
q123 0 202.5 -28zM551.5 95q100.5 27 199.5 66v85q-77 24 -154 38t-169 14q-115 0 -182 -28t-67 -91t50 -87t149 -24q73 0 173.5 27zM199 678q0 75 40.5 127.5t121.5 52.5q45 0 75.5 -15t64.5 -43q30 -23 48.5 -33t43.5 -10q66 0 66 91h105q0 -75 -41 -127.5t-122 -52.5
q-45 0 -74.5 15t-65.5 43q-27 22 -46.5 33t-44.5 11q-66 0 -66 -92h-105z" />
    <glyph glyph-name="adieresis" unicode="&#xe4;" horiz-adv-x="930" 
d="M685.5 572q79.5 -28 120.5 -92.5t42 -171.5v-308h-97v73q-110 -45 -200.5 -69t-198.5 -24q-142 0 -210.5 50t-68.5 151q0 107 96 156t255 49q155 0 327 -52v6q0 103 -86.5 137.5t-188.5 34.5q-70 0 -144.5 -11t-167.5 -42l-42 80q94 31 180.5 46t180.5 15
q123 0 202.5 -28zM551.5 95q100.5 27 199.5 66v85q-77 24 -154 38t-169 14q-115 0 -182 -28t-67 -91t50 -87t149 -24q73 0 173.5 27zM285 699v92h142v-92h-142zM536 699v92h143v-92h-143z" />
    <glyph glyph-name="aring" unicode="&#xe5;" horiz-adv-x="930" 
d="M685.5 572q79.5 -28 120.5 -92.5t42 -171.5v-308h-97v73q-110 -45 -200.5 -69t-198.5 -24q-142 0 -210.5 50t-68.5 151q0 107 96 156t255 49q155 0 327 -52v6q0 103 -86.5 137.5t-188.5 34.5q-70 0 -144.5 -11t-167.5 -42l-42 80q94 31 180.5 46t180.5 15
q123 0 202.5 -28zM551.5 95q100.5 27 199.5 66v85q-77 24 -154 38t-169 14q-115 0 -182 -28t-67 -91t50 -87t149 -24q73 0 173.5 27zM277 785q0 127 204 127q205 0 205 -127t-205 -127q-204 0 -204 127zM570.5 737.5q27.5 15.5 27.5 47.5t-28 48t-89 16t-88.5 -16t-27.5 -48
t27.5 -47.5t88.5 -15.5q62 0 89.5 15.5z" />
    <glyph glyph-name="ae" unicode="&#xe6;" horiz-adv-x="1620" 
d="M1331.5 99.5q63.5 31.5 89.5 87.5h107q-26 -97 -124 -152t-250 -55q-129 0 -223 40t-140 118q-48 -55 -125 -90.5t-158.5 -51.5t-150.5 -16q-138 0 -211 48t-73 141q0 80 45.5 123.5t123 59t191.5 15.5h314q0 83 -88.5 114t-189.5 31q-149 0 -306 -53l-41 80
q91 30 176 45.5t178 15.5q128 0 211 -30.5t125 -98.5q50 64 136.5 96.5t196.5 32.5q182 0 288 -79t106 -255h-680q16 -198 295 -198q114 0 177.5 31.5zM957.5 473q-72.5 -39 -92.5 -119h562q-18 80 -89.5 119t-192.5 39q-115 0 -187.5 -39zM747 278l-310 1q-95 0 -146 -5.5
t-81.5 -28t-30.5 -71.5q0 -57 51.5 -81.5t144.5 -24.5q102 0 201 33.5t171 99.5v77z" />
    <glyph glyph-name="ccedilla" unicode="&#xe7;" horiz-adv-x="938" 
d="M660.5 104q66.5 36 88.5 109h107q-25 -112 -119 -171t-244 -62l-13 -66q33 19 83 19q43 0 70.5 -19t27.5 -55q0 -54 -57.5 -80t-148.5 -26q-41 0 -99 7v72q75 -11 120 -11q80 0 80 37q0 28 -41 28q-32 0 -71 -16l-63 24l18 90q-148 16 -232.5 94t-84.5 212
q0 152 107.5 231t289.5 79q156 0 253.5 -59t123.5 -174h-107q-22 73 -88.5 109t-181.5 36q-139 0 -215.5 -54.5t-76.5 -167.5t76.5 -167.5t215.5 -54.5q115 0 181.5 36z" />
    <glyph glyph-name="egrave" unicode="&#xe8;" horiz-adv-x="949" 
d="M660.5 99.5q63.5 31.5 89.5 87.5h107q-26 -97 -124 -152t-250 -55q-183 0 -292 79t-109 231q0 101 50.5 171t139 104.5t202.5 34.5q182 0 288 -79t106 -255h-680q16 -198 295 -198q114 0 177.5 31.5zM286.5 473q-72.5 -39 -92.5 -119h562q-18 80 -89.5 119t-192.5 39
q-115 0 -187.5 -39zM292 849l382 -80v-90l-382 80v90z" />
    <glyph glyph-name="eacute" unicode="&#xe9;" horiz-adv-x="949" 
d="M660.5 99.5q63.5 31.5 89.5 87.5h107q-26 -97 -124 -152t-250 -55q-183 0 -292 79t-109 231q0 101 50.5 171t139 104.5t202.5 34.5q182 0 288 -79t106 -255h-680q16 -198 295 -198q114 0 177.5 31.5zM286.5 473q-72.5 -39 -92.5 -119h562q-18 80 -89.5 119t-192.5 39
q-115 0 -187.5 -39zM292 679v90l382 80v-90z" />
    <glyph glyph-name="ecircumflex" unicode="&#xea;" horiz-adv-x="949" 
d="M660.5 99.5q63.5 31.5 89.5 87.5h107q-26 -97 -124 -152t-250 -55q-183 0 -292 79t-109 231q0 101 50.5 171t139 104.5t202.5 34.5q182 0 288 -79t106 -255h-680q16 -198 295 -198q114 0 177.5 31.5zM286.5 473q-72.5 -39 -92.5 -119h562q-18 80 -89.5 119t-192.5 39
q-115 0 -187.5 -39zM283 768l200 80l200 -80v-95l-200 80l-200 -80v95z" />
    <glyph glyph-name="edieresis" unicode="&#xeb;" horiz-adv-x="949" 
d="M660.5 99.5q63.5 31.5 89.5 87.5h107q-26 -97 -124 -152t-250 -55q-183 0 -292 79t-109 231q0 101 50.5 171t139 104.5t202.5 34.5q182 0 288 -79t106 -255h-680q16 -198 295 -198q114 0 177.5 31.5zM286.5 473q-72.5 -39 -92.5 -119h562q-18 80 -89.5 119t-192.5 39
q-115 0 -187.5 -39zM286 699v92h142v-92h-142zM537 699v92h143v-92h-143z" />
    <glyph glyph-name="igrave" unicode="&#xec;" horiz-adv-x="289" 
d="M92 0v580h105v-580h-105zM-47 849l382 -80v-90l-382 80v90z" />
    <glyph glyph-name="iacute" unicode="&#xed;" horiz-adv-x="289" 
d="M92 0v580h105v-580h-105zM-47 679v90l382 80v-90z" />
    <glyph glyph-name="icircumflex" unicode="&#xee;" horiz-adv-x="289" 
d="M92 0v580h105v-580h-105zM-56 768l200 80l200 -80v-95l-200 80l-200 -80v95z" />
    <glyph glyph-name="idieresis" unicode="&#xef;" horiz-adv-x="289" 
d="M92 0v580h105v-580h-105zM-52 699v92h142v-92h-142zM199 699v92h143v-92h-143z" />
    <glyph glyph-name="ntilde" unicode="&#xf1;" horiz-adv-x="966" 
d="M786 526q87 -74 89 -241v-285h-97v269q0 125 -60 184t-201 59q-95 0 -169 -31.5t-116.5 -93.5t-42.5 -150v-237h-97v580h97v-134q114 154 347 154q163 0 250 -74zM239 678q0 75 40.5 127.5t121.5 52.5q45 0 75.5 -15t64.5 -43q30 -23 48.5 -33t43.5 -10q66 0 66 91h105
q0 -75 -41 -127.5t-122 -52.5q-45 0 -74.5 15t-65.5 43q-27 22 -46.5 33t-44.5 11q-66 0 -66 -92h-105z" />
    <glyph glyph-name="ograve" unicode="&#xf2;" horiz-adv-x="965" 
d="M273 14.5q-90 34.5 -140.5 104t-50.5 171.5t50.5 171.5t140.5 104t209 34.5t209.5 -34.5t141 -104t50.5 -171.5t-50.5 -171.5t-141 -104t-209.5 -34.5t-209 34.5zM701 124q77 56 77 166t-77 166t-219 56t-218.5 -56t-76.5 -166t76.5 -166t218.5 -56t219 56zM291 849
l382 -80v-90l-382 80v90z" />
    <glyph glyph-name="oacute" unicode="&#xf3;" horiz-adv-x="965" 
d="M273 14.5q-90 34.5 -140.5 104t-50.5 171.5t50.5 171.5t140.5 104t209 34.5t209.5 -34.5t141 -104t50.5 -171.5t-50.5 -171.5t-141 -104t-209.5 -34.5t-209 34.5zM701 124q77 56 77 166t-77 166t-219 56t-218.5 -56t-76.5 -166t76.5 -166t218.5 -56t219 56zM291 679v90
l382 80v-90z" />
    <glyph glyph-name="ocircumflex" unicode="&#xf4;" horiz-adv-x="965" 
d="M273 14.5q-90 34.5 -140.5 104t-50.5 171.5t50.5 171.5t140.5 104t209 34.5t209.5 -34.5t141 -104t50.5 -171.5t-50.5 -171.5t-141 -104t-209.5 -34.5t-209 34.5zM701 124q77 56 77 166t-77 166t-219 56t-218.5 -56t-76.5 -166t76.5 -166t218.5 -56t219 56zM282 768
l200 80l200 -80v-95l-200 80l-200 -80v95z" />
    <glyph glyph-name="otilde" unicode="&#xf5;" horiz-adv-x="965" 
d="M273 14.5q-90 34.5 -140.5 104t-50.5 171.5t50.5 171.5t140.5 104t209 34.5t209.5 -34.5t141 -104t50.5 -171.5t-50.5 -171.5t-141 -104t-209.5 -34.5t-209 34.5zM701 124q77 56 77 166t-77 166t-219 56t-218.5 -56t-76.5 -166t76.5 -166t218.5 -56t219 56zM200 678
q0 75 40.5 127.5t121.5 52.5q45 0 75.5 -15t64.5 -43q30 -23 48.5 -33t43.5 -10q66 0 66 91h105q0 -75 -41 -127.5t-122 -52.5q-45 0 -74.5 15t-65.5 43q-27 22 -46.5 33t-44.5 11q-66 0 -66 -92h-105z" />
    <glyph glyph-name="odieresis" unicode="&#xf6;" horiz-adv-x="965" 
d="M273 14.5q-90 34.5 -140.5 104t-50.5 171.5t50.5 171.5t140.5 104t209 34.5t209.5 -34.5t141 -104t50.5 -171.5t-50.5 -171.5t-141 -104t-209.5 -34.5t-209 34.5zM701 124q77 56 77 166t-77 166t-219 56t-218.5 -56t-76.5 -166t76.5 -166t218.5 -56t219 56zM286 699v92
h142v-92h-142zM537 699v92h143v-92h-143z" />
    <glyph glyph-name="divide" unicode="&#xf7;" horiz-adv-x="970" 
d="M92 296v88h786v-88h-786zM430 89v91h101v-91h-101zM430 500v91h101v-91h-101z" />
    <glyph glyph-name="oslash" unicode="&#xf8;" horiz-adv-x="965" 
d="M622 586q122 -26 191.5 -101t69.5 -195q0 -102 -50.5 -171.5t-141 -104t-209.5 -34.5q-28 0 -41 1l-38 -126h-101l41 139q-122 26 -191.5 101t-69.5 195q0 102 50.5 171.5t140.5 104t209 34.5q28 0 42 -1l38 126h101zM233.5 151q46.5 -53 135.5 -72l129 433h-16
q-142 0 -218.5 -56t-76.5 -166q0 -86 46.5 -139zM701 124q77 56 77 166q0 85 -46.5 138t-135.5 73l-129 -433h15q142 0 219 56z" />
    <glyph glyph-name="ugrave" unicode="&#xf9;" horiz-adv-x="966" 
d="M778 580h97v-580h-97v135q-114 -155 -347 -155q-163 0 -250 74t-89 241v285h97v-269q0 -125 59.5 -184t200.5 -59q95 0 169.5 31.5t117 93.5t42.5 150v237zM286 849l382 -80v-90l-382 80v90z" />
    <glyph glyph-name="uacute" unicode="&#xfa;" horiz-adv-x="966" 
d="M778 580h97v-580h-97v135q-114 -155 -347 -155q-163 0 -250 74t-89 241v285h97v-269q0 -125 59.5 -184t200.5 -59q95 0 169.5 31.5t117 93.5t42.5 150v237zM286 679v90l382 80v-90z" />
    <glyph glyph-name="ucircumflex" unicode="&#xfb;" horiz-adv-x="966" 
d="M778 580h97v-580h-97v135q-114 -155 -347 -155q-163 0 -250 74t-89 241v285h97v-269q0 -125 59.5 -184t200.5 -59q95 0 169.5 31.5t117 93.5t42.5 150v237zM277 768l200 80l200 -80v-95l-200 80l-200 -80v95z" />
    <glyph glyph-name="udieresis" unicode="&#xfc;" horiz-adv-x="966" 
d="M778 580h97v-580h-97v135q-114 -155 -347 -155q-163 0 -250 74t-89 241v285h97v-269q0 -125 59.5 -184t200.5 -59q95 0 169.5 31.5t117 93.5t42.5 150v237zM281 699v92h142v-92h-142zM532 699v92h143v-92h-143z" />
    <glyph glyph-name="yacute" unicode="&#xfd;" horiz-adv-x="1000" 
d="M806 580h112l-366 -640q-39 -70 -74 -112t-80.5 -65t-109.5 -23q-50 0 -88.5 4t-88.5 13v89q87 -18 158 -18q62 0 103.5 31.5t84.5 106.5l19 34h-60l-334 580h114l307 -532zM319 679v90l382 80v-90z" />
    <glyph glyph-name="thorn" unicode="&#xfe;" horiz-adv-x="971" 
d="M701.5 567.5q84.5 -32.5 136.5 -102.5t52 -177q0 -106 -51.5 -175t-136.5 -101t-186 -32q-107 0 -189 29.5t-130 92.5v-309h-105v1007h105v-325q48 64 130.5 94.5t188.5 30.5q101 0 185.5 -32.5zM711.5 125.5q72.5 57.5 72.5 162.5q0 106 -72.5 165t-220.5 59t-221 -58.5
t-73 -165.5q0 -106 72.5 -163t221.5 -57q148 0 220.5 57.5z" />
    <glyph glyph-name="ydieresis" unicode="&#xff;" horiz-adv-x="1000" 
d="M806 580h112l-366 -640q-39 -70 -74 -112t-80.5 -65t-109.5 -23q-50 0 -88.5 4t-88.5 13v89q87 -18 158 -18q62 0 103.5 31.5t84.5 106.5l19 34h-60l-334 580h114l307 -532zM314 699v92h142v-92h-142zM565 699v92h143v-92h-143z" />
    <glyph glyph-name="Amacron" unicode="&#x100;" horiz-adv-x="1114" 
d="M1032 0h-112l-96 162h-534l-96 -162h-112l416 700h118zM557 613l-215 -363h430zM329 823v88h455v-88h-455z" />
    <glyph glyph-name="amacron" unicode="&#x101;" horiz-adv-x="930" 
d="M685.5 572q79.5 -28 120.5 -92.5t42 -171.5v-308h-97v73q-110 -45 -200.5 -69t-198.5 -24q-142 0 -210.5 50t-68.5 151q0 107 96 156t255 49q155 0 327 -52v6q0 103 -86.5 137.5t-188.5 34.5q-70 0 -144.5 -11t-167.5 -42l-42 80q94 31 180.5 46t180.5 15
q123 0 202.5 -28zM551.5 95q100.5 27 199.5 66v85q-77 24 -154 38t-169 14q-115 0 -182 -28t-67 -91t50 -87t149 -24q73 0 173.5 27zM254 703v88h455v-88h-455z" />
    <glyph glyph-name="Abreve" unicode="&#x102;" horiz-adv-x="1114" 
d="M1032 0h-112l-96 162h-534l-96 -162h-112l416 700h118zM557 613l-215 -363h430zM424 967q0 -59 34.5 -81.5t98.5 -22.5t98.5 22.5t34.5 81.5h88q0 -106 -58 -145t-163 -39t-163 39t-58 145h88z" />
    <glyph glyph-name="abreve" unicode="&#x103;" horiz-adv-x="930" 
d="M685.5 572q79.5 -28 120.5 -92.5t42 -171.5v-308h-97v73q-110 -45 -200.5 -69t-198.5 -24q-142 0 -210.5 50t-68.5 151q0 107 96 156t255 49q155 0 327 -52v6q0 103 -86.5 137.5t-188.5 34.5q-70 0 -144.5 -11t-167.5 -42l-42 80q94 31 180.5 46t180.5 15
q123 0 202.5 -28zM551.5 95q100.5 27 199.5 66v85q-77 24 -154 38t-169 14q-115 0 -182 -28t-67 -91t50 -87t149 -24q73 0 173.5 27zM349 847q0 -59 34.5 -81.5t98.5 -22.5t98.5 22.5t34.5 81.5h88q0 -106 -58 -145t-163 -39t-163 39t-58 145h88z" />
    <glyph glyph-name="Aogonek" unicode="&#x104;" horiz-adv-x="1114" 
d="M954.5 -142.5q32.5 -15.5 77.5 -15.5v-89q-102 0 -158.5 28.5t-56.5 95.5q0 45 31.5 76t71.5 47l-96 162h-534l-96 -162h-112l416 700h118l416 -700q-53 -14 -81.5 -34.5t-28.5 -53.5q0 -39 32.5 -54.5zM557 613l-215 -363h430z" />
    <glyph glyph-name="aogonek" unicode="&#x105;" horiz-adv-x="971" 
d="M848 0q-53 -5 -82.5 -29t-29.5 -60q0 -69 112 -69v-89q-107 0 -162 28t-55 90q0 83 120 129v73q-110 -45 -200.5 -69t-198.5 -24q-142 0 -210.5 50t-68.5 151q0 107 96 156t255 49q155 0 327 -52v6q0 103 -86.5 137.5t-188.5 34.5q-70 0 -144.5 -11t-167.5 -42l-42 80
q94 31 180.5 46t180.5 15q123 0 202.5 -28t120.5 -92.5t42 -171.5v-308zM551.5 95q100.5 27 199.5 66v85q-77 24 -154 38t-169 14q-115 0 -182 -28t-67 -91t50 -87t149 -24q73 0 173.5 27z" />
    <glyph glyph-name="Cacute" unicode="&#x106;" horiz-adv-x="1027" 
d="M132 547q50 83 149.5 128t246.5 45q125 0 214.5 -35.5t140 -96.5t61.5 -137h-105q-16 84 -95.5 132.5t-215.5 48.5q-163 0 -252 -69.5t-89 -211.5q0 -143 89 -213t252 -70q135 0 215 49.5t96 133.5h106q-12 -76 -62.5 -137.5t-140 -97.5t-214.5 -36q-147 0 -246.5 45.5
t-149.5 129t-50 196.5t50 196zM335 799v90l382 80v-90z" />
    <glyph glyph-name="cacute" unicode="&#x107;" horiz-adv-x="938" 
d="M189.5 521q107.5 79 289.5 79q156 0 253.5 -59t123.5 -174h-107q-22 73 -88.5 109t-181.5 36q-139 0 -215.5 -54.5t-76.5 -167.5t76.5 -167.5t215.5 -54.5q115 0 181.5 36t88.5 109h107q-26 -115 -123.5 -174t-253.5 -59q-182 0 -289.5 79t-107.5 231t107.5 231zM292 679
v90l382 80v-90z" />
    <glyph glyph-name="Cdotaccent" unicode="&#x10a;" horiz-adv-x="1027" 
d="M132 547q50 83 149.5 128t246.5 45q125 0 214.5 -35.5t140 -96.5t61.5 -137h-105q-16 84 -95.5 132.5t-215.5 48.5q-163 0 -252 -69.5t-89 -211.5q0 -143 89 -213t252 -70q135 0 215 49.5t96 133.5h106q-12 -76 -62.5 -137.5t-140 -97.5t-214.5 -36q-147 0 -246.5 45.5
t-149.5 129t-50 196.5t50 196zM455 819v92h142v-92h-142z" />
    <glyph glyph-name="cdotaccent" unicode="&#x10b;" horiz-adv-x="938" 
d="M189.5 521q107.5 79 289.5 79q156 0 253.5 -59t123.5 -174h-107q-22 73 -88.5 109t-181.5 36q-139 0 -215.5 -54.5t-76.5 -167.5t76.5 -167.5t215.5 -54.5q115 0 181.5 36t88.5 109h107q-26 -115 -123.5 -174t-253.5 -59q-182 0 -289.5 79t-107.5 231t107.5 231zM413 699
v92h142v-92h-142z" />
    <glyph glyph-name="Ccaron" unicode="&#x10c;" horiz-adv-x="1027" 
d="M132 547q50 83 149.5 128t246.5 45q125 0 214.5 -35.5t140 -96.5t61.5 -137h-105q-16 84 -95.5 132.5t-215.5 48.5q-163 0 -252 -69.5t-89 -211.5q0 -143 89 -213t252 -70q135 0 215 49.5t96 133.5h106q-12 -76 -62.5 -137.5t-140 -97.5t-214.5 -36q-147 0 -246.5 45.5
t-149.5 129t-50 196.5t50 196zM326 959l200 -80l200 80v-94l-200 -80l-200 80v94z" />
    <glyph glyph-name="ccaron" unicode="&#x10d;" horiz-adv-x="938" 
d="M189.5 521q107.5 79 289.5 79q156 0 253.5 -59t123.5 -174h-107q-22 73 -88.5 109t-181.5 36q-139 0 -215.5 -54.5t-76.5 -167.5t76.5 -167.5t215.5 -54.5q115 0 181.5 36t88.5 109h107q-26 -115 -123.5 -174t-253.5 -59q-182 0 -289.5 79t-107.5 231t107.5 231zM283 839
l200 -80l200 80v-94l-200 -80l-200 80v94z" />
    <glyph glyph-name="Dcaron" unicode="&#x10e;" horiz-adv-x="1008" 
d="M753.5 661q79.5 -39 126 -117.5t46.5 -193.5t-46.5 -193.5t-126 -117.5t-176.5 -39h-485v700h485q97 0 176.5 -39zM525 88q102 0 166.5 24.5t97 81.5t32.5 156t-32.5 156t-97 81.5t-166.5 24.5h-336v-524h336zM239 959l200 -80l200 80v-94l-200 -80l-200 80v94z" />
    <glyph glyph-name="dcaron" unicode="&#x10f;" horiz-adv-x="1135" 
d="M774 800h97v-800h-97v107q-45 -61 -125 -94t-194 -33q-109 0 -193.5 35.5t-132 105.5t-47.5 169q0 100 47.5 169.5t131.5 105t194 35.5q114 0 194 -33t125 -94v327zM695 127q79 59 79 163t-79 163t-219 59q-138 0 -213.5 -59t-75.5 -163t75.5 -163t213.5 -59
q140 0 219 59zM934 709v91h101v-91l-53 -173h-48l36 173h-36z" />
    <glyph glyph-name="Dcroat" unicode="&#x110;" horiz-adv-x="1037" 
d="M782.5 661q79.5 -39 126 -117.5t46.5 -193.5t-46.5 -193.5t-126 -117.5t-176.5 -39h-486v321h-82v58h82v321h486q97 0 176.5 -39zM554 88q102 0 166.5 24.5t97 81.5t32.5 156t-32.5 156t-97 81.5t-166.5 24.5h-336v-233h287v-58h-287v-233h336z" />
    <glyph glyph-name="dcroat" unicode="&#x111;" horiz-adv-x="1036" 
d="M965 733v-88h-94v-645h-97v107q-45 -61 -125 -94t-194 -33q-109 0 -193.5 35.5t-132 105.5t-47.5 169q0 100 47.5 169.5t131.5 105t194 35.5q114 0 194 -33t125 -94v172h-312v88h312v67h97v-67h94zM695 127q79 59 79 163t-79 163t-219 59q-138 0 -213.5 -59t-75.5 -163
t75.5 -163t213.5 -59q140 0 219 59z" />
    <glyph glyph-name="Emacron" unicode="&#x112;" horiz-adv-x="900" 
d="M818 700v-88h-629v-218h609v-88h-609v-218h629v-88h-726v700h726zM227 823v88h455v-88h-455z" />
    <glyph glyph-name="emacron" unicode="&#x113;" horiz-adv-x="949" 
d="M660.5 99.5q63.5 31.5 89.5 87.5h107q-26 -97 -124 -152t-250 -55q-183 0 -292 79t-109 231q0 101 50.5 171t139 104.5t202.5 34.5q182 0 288 -79t106 -255h-680q16 -198 295 -198q114 0 177.5 31.5zM286.5 473q-72.5 -39 -92.5 -119h562q-18 80 -89.5 119t-192.5 39
q-115 0 -187.5 -39zM255 703v88h455v-88h-455z" />
    <glyph glyph-name="Edotaccent" unicode="&#x116;" horiz-adv-x="900" 
d="M818 700v-88h-629v-218h609v-88h-609v-218h629v-88h-726v700h726zM384 819v92h142v-92h-142z" />
    <glyph glyph-name="edotaccent" unicode="&#x117;" horiz-adv-x="949" 
d="M660.5 99.5q63.5 31.5 89.5 87.5h107q-26 -97 -124 -152t-250 -55q-183 0 -292 79t-109 231q0 101 50.5 171t139 104.5t202.5 34.5q182 0 288 -79t106 -255h-680q16 -198 295 -198q114 0 177.5 31.5zM286.5 473q-72.5 -39 -92.5 -119h562q-18 80 -89.5 119t-192.5 39
q-115 0 -187.5 -39zM412 699v92h142v-92h-142z" />
    <glyph glyph-name="Eogonek" unicode="&#x118;" horiz-adv-x="900" 
d="M818 612h-629v-218h609v-88h-609v-218h629v-88h-16q-48 -13 -72 -33.5t-24 -53.5q0 -71 112 -71v-89q-108 0 -162.5 29t-54.5 96q0 48 34.5 78.5t92.5 43.5h-636v700h726v-88z" />
    <glyph glyph-name="eogonek" unicode="&#x119;" horiz-adv-x="949" 
d="M660.5 99.5q63.5 31.5 89.5 87.5h107q-19 -73 -80.5 -123t-157.5 -70q-52 -16 -70 -32t-18 -42q0 -38 42 -50t123 -12v-88q-95 0 -152.5 9.5t-87.5 34.5t-30 71q0 35 23.5 58t78.5 38q-14 -1 -45 -1q-183 0 -292 79t-109 231q0 101 50.5 171t139 104.5t202.5 34.5
q182 0 288 -79t106 -255h-680q16 -198 295 -198q114 0 177.5 31.5zM286.5 473q-72.5 -39 -92.5 -119h562q-18 80 -89.5 119t-192.5 39q-115 0 -187.5 -39z" />
    <glyph glyph-name="Ecaron" unicode="&#x11a;" horiz-adv-x="900" 
d="M818 700v-88h-629v-218h609v-88h-609v-218h629v-88h-726v700h726zM255 959l200 -80l200 80v-94l-200 -80l-200 80v94z" />
    <glyph glyph-name="ecaron" unicode="&#x11b;" horiz-adv-x="949" 
d="M660.5 99.5q63.5 31.5 89.5 87.5h107q-26 -97 -124 -152t-250 -55q-183 0 -292 79t-109 231q0 101 50.5 171t139 104.5t202.5 34.5q182 0 288 -79t106 -255h-680q16 -198 295 -198q114 0 177.5 31.5zM286.5 473q-72.5 -39 -92.5 -119h562q-18 80 -89.5 119t-192.5 39
q-115 0 -187.5 -39zM283 839l200 -80l200 80v-94l-200 -80l-200 80v94z" />
    <glyph glyph-name="Gbreve" unicode="&#x11e;" horiz-adv-x="1027" 
d="M135 545q53 84 153 129.5t238 45.5q126 0 217 -36t141 -97t61 -136h-105q-15 81 -95.5 131t-218.5 50q-133 0 -208.5 -46.5t-103 -110t-27.5 -125.5q0 -61 29.5 -125t106.5 -110.5t210 -46.5q98 0 164.5 14.5t142.5 49.5v135h-325v88h430v-263q-112 -61 -205 -86.5
t-207 -25.5q-138 0 -240 45.5t-156.5 129.5t-54.5 195t53 195zM392 967q0 -59 34.5 -81.5t98.5 -22.5t98.5 22.5t34.5 81.5h88q0 -106 -58 -145t-163 -39t-163 39t-58 145h88z" />
    <glyph glyph-name="gbreve" unicode="&#x11f;" horiz-adv-x="963" 
d="M774 580h97v-513q0 -168 -92.5 -247.5t-274.5 -79.5q-97 0 -176.5 10.5t-163.5 27.5l-22 4v85l43 -7q81 -15 149.5 -23.5t140.5 -8.5q116 0 181.5 29t91.5 85.5t26 148.5v14q-44 -60 -122 -92.5t-189 -32.5q-110 0 -196.5 34.5t-135.5 104.5t-49 171t49 171t135.5 104.5
t196.5 34.5q111 0 189 -32.5t122 -92.5v105zM697 127q77 59 77 163t-77 163t-216 59t-216.5 -59t-77.5 -163t77.5 -163t216.5 -59t216 59zM348 847q0 -59 34.5 -81.5t98.5 -22.5t98.5 22.5t34.5 81.5h88q0 -106 -58 -145t-163 -39t-163 39t-58 145h88z" />
    <glyph glyph-name="Gdotaccent" unicode="&#x120;" horiz-adv-x="1027" 
d="M135 545q53 84 153 129.5t238 45.5q126 0 217 -36t141 -97t61 -136h-105q-15 81 -95.5 131t-218.5 50q-133 0 -208.5 -46.5t-103 -110t-27.5 -125.5q0 -61 29.5 -125t106.5 -110.5t210 -46.5q98 0 164.5 14.5t142.5 49.5v135h-325v88h430v-263q-112 -61 -205 -86.5
t-207 -25.5q-138 0 -240 45.5t-156.5 129.5t-54.5 195t53 195zM454 819v92h142v-92h-142z" />
    <glyph glyph-name="gdotaccent" unicode="&#x121;" horiz-adv-x="963" 
d="M774 580h97v-513q0 -168 -92.5 -247.5t-274.5 -79.5q-97 0 -176.5 10.5t-163.5 27.5l-22 4v85l43 -7q81 -15 149.5 -23.5t140.5 -8.5q116 0 181.5 29t91.5 85.5t26 148.5v14q-44 -60 -122 -92.5t-189 -32.5q-110 0 -196.5 34.5t-135.5 104.5t-49 171t49 171t135.5 104.5
t196.5 34.5q111 0 189 -32.5t122 -92.5v105zM697 127q77 59 77 163t-77 163t-216 59t-216.5 -59t-77.5 -163t77.5 -163t216.5 -59t216 59zM410 699v92h142v-92h-142z" />
    <glyph glyph-name="uni0122" unicode="&#x122;" horiz-adv-x="1027" 
d="M135 545q53 84 153 129.5t238 45.5q126 0 217 -36t141 -97t61 -136h-105q-15 81 -95.5 131t-218.5 50q-133 0 -208.5 -46.5t-103 -110t-27.5 -125.5q0 -61 29.5 -125t106.5 -110.5t210 -46.5q98 0 164.5 14.5t142.5 49.5v135h-325v88h430v-263q-112 -61 -205 -86.5
t-207 -25.5q-138 0 -240 45.5t-156.5 129.5t-54.5 195t53 195zM495 -172v91h109v-91l-59 -108h-51l45 108h-44z" />
    <glyph glyph-name="uni0123" unicode="&#x123;" horiz-adv-x="963" 
d="M774 580h97v-513q0 -168 -92.5 -247.5t-274.5 -79.5q-97 0 -176.5 10.5t-163.5 27.5l-22 4v85l43 -7q81 -15 149.5 -23.5t140.5 -8.5q116 0 181.5 29t91.5 85.5t26 148.5v14q-44 -60 -122 -92.5t-189 -32.5q-110 0 -196.5 34.5t-135.5 104.5t-49 171t49 171t135.5 104.5
t196.5 34.5q111 0 189 -32.5t122 -92.5v105zM697 127q77 59 77 163t-77 163t-216 59t-216.5 -59t-77.5 -163t77.5 -163t216.5 -59t216 59zM535 802v-91h-109v91l59 108h51l-45 -108h44z" />
    <glyph glyph-name="Hbar" unicode="&#x126;" horiz-adv-x="1080" 
d="M958 597h72v-89h-72v-508h-97v306h-642v-306h-97v508h-72v89h72v103h97v-103h642v103h97v-103zM219 394h642v114h-642v-114z" />
    <glyph glyph-name="hbar" unicode="&#x127;" horiz-adv-x="1031" 
d="M851 526q87 -74 89 -241v-285h-97v269q0 125 -60 184t-201 59q-95 0 -169 -31.5t-116.5 -93.5t-42.5 -150v-237h-97v645h-85v88h85v67h97v-67h321v-88h-321v-199q114 154 347 154q163 0 250 -74z" />
    <glyph glyph-name="Imacron" unicode="&#x12a;" horiz-adv-x="280" 
d="M-69 823v88h418v-88h-418zM92 700h97v-700h-97v700z" />
    <glyph glyph-name="imacron" unicode="&#x12b;" horiz-adv-x="289" 
d="M92 0v580h105v-580h-105zM-84 703v88h455v-88h-455z" />
    <glyph glyph-name="Iogonek" unicode="&#x12e;" horiz-adv-x="287" 
d="M209 -158v-89q-108 0 -162.5 29t-54.5 96q0 44 26 70.5t72 51.5v700h97v-700q-44 -14 -67 -34t-23 -53q0 -71 112 -71z" />
    <glyph glyph-name="iogonek" unicode="&#x12f;" horiz-adv-x="289" 
d="M53 791h143v-92h-143v92zM219 -158v-89q-108 0 -163 29t-55 96q0 31 14 53.5t30 35t47 33.5v580h105v-580q-44 -14 -67 -34t-23 -53q0 -71 112 -71z" />
    <glyph glyph-name="Idotaccent" unicode="&#x130;" horiz-adv-x="280" 
d="M92 700h97v-700h-97v700zM69 819v92h142v-92h-142z" />
    <glyph glyph-name="dotlessi" unicode="&#x131;" horiz-adv-x="289" 
d="M92 0v580h105v-580h-105z" />
    <glyph glyph-name="uni0136" unicode="&#x136;" horiz-adv-x="999" 
d="M759 700h159l-412 -315l412 -385h-143l-347 325l-239 -182v-143h-97v700h97v-435zM411 -172v91h109v-91l-59 -108h-51l45 108h-44z" />
    <glyph glyph-name="uni0137" unicode="&#x137;" horiz-adv-x="917" 
d="M660 580h175l-382 -253l382 -327h-152l-314 271l-180 -120v-151h-97v800h97v-533zM368 -172v91h109v-91l-59 -108h-51l45 108h-44z" />
    <glyph glyph-name="Lacute" unicode="&#x139;" horiz-adv-x="827" 
d="M189 700v-612h556v-88h-653v700h97zM92 799v90l382 80v-90z" />
    <glyph glyph-name="lacute" unicode="&#x13a;" horiz-adv-x="280" 
d="M92 0v800h97v-800h-97zM-51 899v90l382 80v-90z" />
    <glyph glyph-name="uni013B" unicode="&#x13b;" horiz-adv-x="827" 
d="M189 700v-612h556v-88h-653v700h97zM369 -172v91h109v-91l-59 -108h-51l45 108h-44z" />
    <glyph glyph-name="uni013C" unicode="&#x13c;" horiz-adv-x="280" 
d="M92 0v800h97v-800h-97zM86 -172v91h109v-91l-59 -108h-51l45 108h-44z" />
    <glyph glyph-name="Lcaron" unicode="&#x13d;" horiz-adv-x="827" 
d="M189 700v-612h556v-88h-653v700h97zM534 589v91h109v-91l-59 -108h-51l45 108h-44z" />
    <glyph glyph-name="lcaron" unicode="&#x13e;" horiz-adv-x="406" 
d="M92 0v800h97v-800h-97zM255 689v91h109v-91l-59 -108h-51l45 108h-44z" />
    <glyph glyph-name="Lslash" unicode="&#x141;" horiz-adv-x="997" 
d="M289 287v-199h556v-88h-653v239l-104 -52v102l104 52v359h97v-311l321 160v-102z" />
    <glyph glyph-name="lslash" unicode="&#x142;" horiz-adv-x="505" 
d="M297 492l133 60v-97l-133 -60v-395h-97v351l-125 -57v97l125 57v352h97v-308z" />
    <glyph glyph-name="Nacute" unicode="&#x143;" horiz-adv-x="1032" 
d="M843 95v605h97v-700h-137l-614 605v-605h-97v700h137zM341 799v90l382 80v-90z" />
    <glyph glyph-name="nacute" unicode="&#x144;" horiz-adv-x="966" 
d="M786 526q87 -74 89 -241v-285h-97v269q0 125 -60 184t-201 59q-95 0 -169 -31.5t-116.5 -93.5t-42.5 -150v-237h-97v580h97v-134q114 154 347 154q163 0 250 -74zM330 679v90l382 80v-90z" />
    <glyph glyph-name="uni0145" unicode="&#x145;" horiz-adv-x="1032" 
d="M843 95v605h97v-700h-137l-614 605v-605h-97v700h137zM446 -172v91h109v-91l-59 -108h-51l45 108h-44z" />
    <glyph glyph-name="uni0146" unicode="&#x146;" horiz-adv-x="966" 
d="M786 526q87 -74 89 -241v-285h-97v269q0 125 -60 184t-201 59q-95 0 -169 -31.5t-116.5 -93.5t-42.5 -150v-237h-97v580h97v-134q114 154 347 154q163 0 250 -74zM431 -172v91h109v-91l-59 -108h-51l45 108h-44z" />
    <glyph glyph-name="Ncaron" unicode="&#x147;" horiz-adv-x="1032" 
d="M843 95v605h97v-700h-137l-614 605v-605h-97v700h137zM333 959l200 -80l200 80v-94l-200 -80l-200 80v94z" />
    <glyph glyph-name="ncaron" unicode="&#x148;" horiz-adv-x="966" 
d="M786 526q87 -74 89 -241v-285h-97v269q0 125 -60 184t-201 59q-95 0 -169 -31.5t-116.5 -93.5t-42.5 -150v-237h-97v580h97v-134q114 154 347 154q163 0 250 -74zM322 839l200 -80l200 80v-94l-200 -80l-200 80v94z" />
    <glyph glyph-name="Eng" unicode="&#x14a;" horiz-adv-x="1032" 
d="M843 700h97v-700q0 -132 -63 -199.5t-205 -67.5q-88 0 -177 25v84q47 -11 80 -15.5t94 -4.5q67 0 103.5 20.5t49.5 58.5t13 99h-32l-614 605v-605h-97v700h137l614 -605v605z" />
    <glyph glyph-name="eng" unicode="&#x14b;" horiz-adv-x="966" 
d="M786 526q87 -74 89 -241v-285q0 -129 -61 -189.5t-199 -60.5q-89 0 -177 17v75q35 -5 66 -8.5t58 -3.5q80 0 125 12.5t68 49.5t23 108v269q0 125 -60 184t-201 59q-95 0 -169 -31.5t-116.5 -93.5t-42.5 -150v-237h-97v580h97v-134q114 154 347 154q163 0 250 -74z" />
    <glyph glyph-name="Omacron" unicode="&#x14c;" horiz-adv-x="1053" 
d="M194.5 79q-112.5 99 -112.5 272q0 172 112.5 270.5t332.5 98.5q146 0 246 -45.5t149.5 -128t49.5 -195.5t-49.5 -196.5t-149.5 -129t-246 -45.5q-220 0 -332.5 99zM777.5 138q88.5 70 88.5 213q0 142 -88 211.5t-251 69.5q-164 0 -252 -69t-88 -212t88.5 -213t251.5 -70
q162 0 250.5 70zM299 823v88h455v-88h-455z" />
    <glyph glyph-name="omacron" unicode="&#x14d;" horiz-adv-x="965" 
d="M273 14.5q-90 34.5 -140.5 104t-50.5 171.5t50.5 171.5t140.5 104t209 34.5t209.5 -34.5t141 -104t50.5 -171.5t-50.5 -171.5t-141 -104t-209.5 -34.5t-209 34.5zM701 124q77 56 77 166t-77 166t-219 56t-218.5 -56t-76.5 -166t76.5 -166t218.5 -56t219 56zM254 703v88
h455v-88h-455z" />
    <glyph glyph-name="Ohungarumlaut" unicode="&#x150;" horiz-adv-x="1053" 
d="M194.5 79q-112.5 99 -112.5 272q0 172 112.5 270.5t332.5 98.5q146 0 246 -45.5t149.5 -128t49.5 -195.5t-49.5 -196.5t-149.5 -129t-246 -45.5q-220 0 -332.5 99zM777.5 138q88.5 70 88.5 213q0 142 -88 211.5t-251 69.5q-164 0 -252 -69t-88 -212t88.5 -213t251.5 -70
q162 0 250.5 70zM315 808v94l203 80v-94zM575 808v94l204 80v-94z" />
    <glyph glyph-name="ohungarumlaut" unicode="&#x151;" horiz-adv-x="965" 
d="M273 14.5q-90 34.5 -140.5 104t-50.5 171.5t50.5 171.5t140.5 104t209 34.5t209.5 -34.5t141 -104t50.5 -171.5t-50.5 -171.5t-141 -104t-209.5 -34.5t-209 34.5zM701 124q77 56 77 166t-77 166t-219 56t-218.5 -56t-76.5 -166t76.5 -166t218.5 -56t219 56zM271 688v94
l203 80v-94zM531 688v94l204 80v-94z" />
    <glyph glyph-name="OE" unicode="&#x152;" horiz-adv-x="1710" 
d="M1628 612h-630v-218h610v-88h-610v-218h630v-88h-727v123q-54 -69 -148 -106t-226 -37q-220 0 -332.5 99t-112.5 272q0 172 112.5 270.5t332.5 98.5q132 0 226 -37t148 -106v123h727v-88zM777.5 138q88.5 70 88.5 213q0 142 -88 211.5t-251 69.5q-164 0 -252 -69
t-88 -212t88.5 -213t251.5 -70q162 0 250.5 70z" />
    <glyph glyph-name="oe" unicode="&#x153;" horiz-adv-x="1670" 
d="M1381.5 99.5q63.5 31.5 89.5 87.5h107q-26 -97 -124 -152t-250 -55q-128 0 -221.5 39t-139.5 115q-46 -76 -140 -115t-221 -39q-119 0 -209 34.5t-140.5 104t-50.5 171.5t50.5 171.5t140.5 104t209 34.5q127 0 221 -39t140 -116q46 76 138.5 115.5t213.5 39.5
q182 0 288 -79t106 -255h-680q16 -198 295 -198q114 0 177.5 31.5zM701 124q77 56 77 166t-77 166t-219 56t-218.5 -56t-76.5 -166t76.5 -166t218.5 -56t219 56zM1007.5 473q-72.5 -39 -92.5 -119h562q-18 80 -89.5 119t-192.5 39q-115 0 -187.5 -39z" />
    <glyph glyph-name="Racute" unicode="&#x154;" horiz-adv-x="970" 
d="M831.5 271.5q26.5 -32.5 26.5 -85.5v-186h-97v161q0 36 -9 55.5t-30.5 27.5t-62.5 8h-470v-252h-97v700h510q127 0 196.5 -50t69.5 -156q0 -134 -112 -181q49 -9 75.5 -41.5zM189 612v-271h388q56 0 95 8.5t65 38.5t26 89t-26 88.5t-65 38t-95 8.5h-388zM256 799v90
l382 80v-90z" />
    <glyph glyph-name="racute" unicode="&#x155;" horiz-adv-x="711" 
d="M641 580v-88q-80 20 -156 20q-70 0 -138.5 -25t-157.5 -93v-394h-97v580h97v-100q72 69 141.5 94.5t150.5 25.5q80 0 160 -20zM166 679v90l382 80v-90z" />
    <glyph glyph-name="uni0156" unicode="&#x156;" horiz-adv-x="970" 
d="M831.5 271.5q26.5 -32.5 26.5 -85.5v-186h-97v161q0 36 -9 55.5t-30.5 27.5t-62.5 8h-470v-252h-97v700h510q127 0 196.5 -50t69.5 -156q0 -134 -112 -181q49 -9 75.5 -41.5zM189 612v-271h388q56 0 95 8.5t65 38.5t26 89t-26 88.5t-65 38t-95 8.5h-388zM440 -172v91h109
v-91l-59 -108h-51l45 108h-44z" />
    <glyph glyph-name="uni0157" unicode="&#x157;" horiz-adv-x="711" 
d="M641 580v-88q-80 20 -156 20q-70 0 -138.5 -25t-157.5 -93v-394h-97v580h97v-100q72 69 141.5 94.5t150.5 25.5q80 0 160 -20zM86 -172v91h109v-91l-59 -108h-51l45 108h-44z" />
    <glyph glyph-name="Rcaron" unicode="&#x158;" horiz-adv-x="970" 
d="M831.5 271.5q26.5 -32.5 26.5 -85.5v-186h-97v161q0 36 -9 55.5t-30.5 27.5t-62.5 8h-470v-252h-97v700h510q127 0 196.5 -50t69.5 -156q0 -134 -112 -181q49 -9 75.5 -41.5zM189 612v-271h388q56 0 95 8.5t65 38.5t26 89t-26 88.5t-65 38t-95 8.5h-388zM247 959l200 -80
l200 80v-94l-200 -80l-200 80v94z" />
    <glyph glyph-name="rcaron" unicode="&#x159;" horiz-adv-x="711" 
d="M641 580v-88q-80 20 -156 20q-70 0 -138.5 -25t-157.5 -93v-394h-97v580h97v-100q72 69 141.5 94.5t150.5 25.5q80 0 160 -20zM157 839l200 -80l200 80v-94l-200 -80l-200 80v94z" />
    <glyph glyph-name="Sacute" unicode="&#x15a;" horiz-adv-x="1039" 
d="M185 229q0 -56 34.5 -91t114.5 -52.5t216 -17.5q159 0 231.5 30.5t72.5 95.5q0 45 -26.5 66.5t-93 31.5t-214.5 19q-154 9 -241.5 30t-128 64t-40.5 118q0 108 102.5 152.5t302.5 44.5q198 0 306 -59.5t108 -177.5h-105q0 55 -34 87.5t-105.5 47t-189.5 14.5
q-107 0 -168 -12.5t-86.5 -37t-25.5 -64.5q0 -43 26 -65t89 -34t190 -20q170 -11 255 -25t134.5 -54t49.5 -121q0 -124 -108.5 -171.5t-302.5 -47.5q-228 0 -345 56.5t-123 192.5h105zM328 799v90l382 80v-90z" />
    <glyph glyph-name="sacute" unicode="&#x15b;" horiz-adv-x="962" 
d="M187 194q6 -46 40 -73.5t102.5 -40t181.5 -12.5q109 0 166 10t77.5 30t20.5 56q0 34 -20.5 49.5t-77.5 24t-196 18.5t-215 24.5t-115.5 47.5t-39.5 96q0 97 97.5 136.5t271.5 39.5q116 0 195.5 -14.5t128.5 -55t56 -114.5h-105q-6 40 -37 60.5t-89.5 28t-160.5 7.5
q-139 0 -195 -20.5t-56 -61.5q0 -28 21 -42t78.5 -23.5t184.5 -20.5l48 -4q126 -11 190 -23t103 -46t39 -102q0 -106 -90 -147.5t-272 -41.5q-128 0 -220.5 16.5t-151.5 63.5t-65 134h105zM290 679v90l382 80v-90z" />
    <glyph glyph-name="Scedilla" unicode="&#x15e;" horiz-adv-x="1039" 
d="M546 -20l-13 -66q33 19 83 19q43 0 70.5 -19t27.5 -55q0 -54 -57.5 -80t-148.5 -26q-41 0 -99 7v72q75 -11 120 -11q80 0 80 37q0 28 -41 28q-32 0 -71 -16l-63 24l18 89q-180 10 -273.5 67.5t-98.5 178.5h105q0 -56 34.5 -91t114.5 -52.5t216 -17.5q159 0 231.5 30.5
t72.5 95.5q0 45 -26.5 66.5t-93 31.5t-214.5 19q-154 9 -241.5 30t-128 64t-40.5 118q0 108 102.5 152.5t302.5 44.5q198 0 306 -59.5t108 -177.5h-105q0 55 -34 87.5t-105.5 47t-189.5 14.5q-107 0 -168 -12.5t-86.5 -37t-25.5 -64.5q0 -43 26 -65t89 -34t190 -20
q170 -11 255 -25t134.5 -54t49.5 -121q0 -124 -108.5 -171.5t-302.5 -47.5h-2z" />
    <glyph glyph-name="scedilla" unicode="&#x15f;" horiz-adv-x="962" 
d="M508 -20l-13 -66q33 19 83 19q43 0 70.5 -19t27.5 -55q0 -54 -57.5 -80t-148.5 -26q-41 0 -99 7v72q75 -11 120 -11q80 0 80 37q0 28 -41 28q-32 0 -71 -16l-63 24l18 89q-151 9 -238 56.5t-94 154.5h105q6 -46 40 -73.5t102.5 -40t181.5 -12.5q109 0 166 10t77.5 30
t20.5 56q0 34 -20.5 49.5t-77.5 24t-196 18.5t-215 24.5t-115.5 47.5t-39.5 96q0 97 97.5 136.5t271.5 39.5q116 0 195.5 -14.5t128.5 -55t56 -114.5h-105q-6 40 -37 60.5t-89.5 28t-160.5 7.5q-139 0 -195 -20.5t-56 -61.5q0 -28 21 -42t78.5 -23.5t184.5 -20.5l48 -4
q126 -11 190 -23t103 -46t39 -102q0 -106 -90 -147.5t-272 -41.5h-11z" />
    <glyph glyph-name="Scaron" unicode="&#x160;" horiz-adv-x="1039" 
d="M185 229q0 -56 34.5 -91t114.5 -52.5t216 -17.5q159 0 231.5 30.5t72.5 95.5q0 45 -26.5 66.5t-93 31.5t-214.5 19q-154 9 -241.5 30t-128 64t-40.5 118q0 108 102.5 152.5t302.5 44.5q198 0 306 -59.5t108 -177.5h-105q0 55 -34 87.5t-105.5 47t-189.5 14.5
q-107 0 -168 -12.5t-86.5 -37t-25.5 -64.5q0 -43 26 -65t89 -34t190 -20q170 -11 255 -25t134.5 -54t49.5 -121q0 -124 -108.5 -171.5t-302.5 -47.5q-228 0 -345 56.5t-123 192.5h105zM320 959l200 -80l200 80v-94l-200 -80l-200 80v94z" />
    <glyph glyph-name="scaron" unicode="&#x161;" horiz-adv-x="962" 
d="M187 194q6 -46 40 -73.5t102.5 -40t181.5 -12.5q109 0 166 10t77.5 30t20.5 56q0 34 -20.5 49.5t-77.5 24t-196 18.5t-215 24.5t-115.5 47.5t-39.5 96q0 97 97.5 136.5t271.5 39.5q116 0 195.5 -14.5t128.5 -55t56 -114.5h-105q-6 40 -37 60.5t-89.5 28t-160.5 7.5
q-139 0 -195 -20.5t-56 -61.5q0 -28 21 -42t78.5 -23.5t184.5 -20.5l48 -4q126 -11 190 -23t103 -46t39 -102q0 -106 -90 -147.5t-272 -41.5q-128 0 -220.5 16.5t-151.5 63.5t-65 134h105zM281 839l200 -80l200 80v-94l-200 -80l-200 80v94z" />
    <glyph glyph-name="uni0162" unicode="&#x162;" horiz-adv-x="1010" 
d="M928 700v-88h-374v-612h-97v612h-375v88h846zM690.5 -76q27.5 -19 27.5 -55q0 -54 -57.5 -80t-148.5 -26q-41 0 -99 7v72q75 -11 120 -11q80 0 80 37q0 28 -41 28q-32 0 -71 -16l-63 24l19 96h95l-15 -76q33 19 83 19q43 0 70.5 -19z" />
    <glyph glyph-name="uni0163" unicode="&#x163;" horiz-adv-x="758" 
d="M668 492h-309v-255q0 -73 12.5 -108t45.5 -48t100 -13q58 0 151 11v-84q-99 -15 -171 -15q-21 0 -31 1l-13 -67q33 19 83 19q43 0 70.5 -19t27.5 -55q0 -54 -57.5 -80t-148.5 -26q-41 0 -99 7v72q75 -11 120 -11q80 0 80 37q0 28 -41 28q-32 0 -71 -16l-63 24l19 96h17
q-48 12 -75.5 40t-40 77.5t-12.5 129.5v255h-182v88h182v143l97 37v-180h309v-88z" />
    <glyph glyph-name="Tcaron" unicode="&#x164;" horiz-adv-x="1010" 
d="M928 700v-88h-374v-612h-97v612h-375v88h846zM305 959l200 -80l200 80v-94l-200 -80l-200 80v94z" />
    <glyph glyph-name="tcaron" unicode="&#x165;" horiz-adv-x="758" 
d="M668 492h-309v-255q0 -73 12.5 -108t45.5 -48t100 -13q58 0 151 11v-84q-99 -15 -171 -15q-93 0 -142.5 22t-71 76.5t-21.5 158.5v255h-182v88h182v143l97 37v-180h309v-88zM465 727v91h109v-91l-59 -108h-51l45 108h-44z" />
    <glyph glyph-name="Tbar" unicode="&#x166;" horiz-adv-x="1010" 
d="M928 700v-88h-374v-232h243v-89h-243v-291h-97v291h-244v89h244v232h-375v88h846z" />
    <glyph glyph-name="tbar" unicode="&#x167;" horiz-adv-x="758" 
d="M668 492h-309v-126h309v-88h-309v-41q0 -73 12.5 -108t45.5 -48t100 -13q58 0 151 11v-84q-99 -15 -171 -15q-93 0 -142.5 22t-71 76.5t-21.5 158.5v41h-182v88h182v126h-182v88h182v143l97 37v-180h309v-88z" />
    <glyph glyph-name="Umacron" unicode="&#x16a;" horiz-adv-x="1047" 
d="M955 341q0 -180 -103.5 -270.5t-328.5 -90.5q-226 0 -328.5 90t-102.5 271v359h97v-359q0 -76 23.5 -135t97 -98.5t213.5 -39.5q141 0 214.5 40t97 98.5t23.5 134.5v359h97v-359zM295 823v88h455v-88h-455z" />
    <glyph glyph-name="umacron" unicode="&#x16b;" horiz-adv-x="966" 
d="M778 580h97v-580h-97v135q-114 -155 -347 -155q-163 0 -250 74t-89 241v285h97v-269q0 -125 59.5 -184t200.5 -59q95 0 169.5 31.5t117 93.5t42.5 150v237zM249 703v88h455v-88h-455z" />
    <glyph glyph-name="Uring" unicode="&#x16e;" horiz-adv-x="1047" 
d="M955 341q0 -180 -103.5 -270.5t-328.5 -90.5q-226 0 -328.5 90t-102.5 271v359h97v-359q0 -76 23.5 -135t97 -98.5t213.5 -39.5q141 0 214.5 40t97 98.5t23.5 134.5v359h97v-359zM319 905q0 127 204 127q205 0 205 -127t-205 -127q-204 0 -204 127zM612.5 857.5
q27.5 15.5 27.5 47.5t-28 48t-89 16t-88.5 -16t-27.5 -48t27.5 -47.5t88.5 -15.5q62 0 89.5 15.5z" />
    <glyph glyph-name="uring" unicode="&#x16f;" horiz-adv-x="966" 
d="M778 580h97v-580h-97v135q-114 -155 -347 -155q-163 0 -250 74t-89 241v285h97v-269q0 -125 59.5 -184t200.5 -59q95 0 169.5 31.5t117 93.5t42.5 150v237zM273 785q0 127 204 127q205 0 205 -127t-205 -127q-204 0 -204 127zM566.5 737.5q27.5 15.5 27.5 47.5t-28 48
t-89 16t-88.5 -16t-27.5 -48t27.5 -47.5t88.5 -15.5q62 0 89.5 15.5z" />
    <glyph glyph-name="Uhungarumlaut" unicode="&#x170;" horiz-adv-x="1047" 
d="M955 341q0 -180 -103.5 -270.5t-328.5 -90.5q-226 0 -328.5 90t-102.5 271v359h97v-359q0 -76 23.5 -135t97 -98.5t213.5 -39.5q141 0 214.5 40t97 98.5t23.5 134.5v359h97v-359zM312 808v94l203 80v-94zM572 808v94l204 80v-94z" />
    <glyph glyph-name="uhungarumlaut" unicode="&#x171;" horiz-adv-x="966" 
d="M778 580h97v-580h-97v135q-114 -155 -347 -155q-163 0 -250 74t-89 241v285h97v-269q0 -125 59.5 -184t200.5 -59q95 0 169.5 31.5t117 93.5t42.5 150v237zM266 688v94l203 80v-94zM526 688v94l204 80v-94z" />
    <glyph glyph-name="Uogonek" unicode="&#x172;" horiz-adv-x="1050" 
d="M858 700h97v-359q0 -138 -60 -223.5t-188 -117.5h1q-67 -17 -89.5 -34.5t-22.5 -45.5q0 -38 42 -50t123 -12v-88q-98 0 -154.5 7.5t-86.5 30.5t-30 69q0 76 109 106q-36 -3 -76 -3q-226 0 -328.5 90t-102.5 271v359h97v-359q0 -76 23.5 -135t97 -98.5t213.5 -39.5
q141 0 214.5 40t97 98.5t23.5 134.5v359z" />
    <glyph glyph-name="uogonek" unicode="&#x173;" horiz-adv-x="966" 
d="M875 0q-53 -5 -82.5 -29t-29.5 -60q0 -69 112 -69v-89q-105 0 -161.5 32t-56.5 95q0 44 32 71t89 49v135q-114 -155 -347 -155q-163 0 -250 74t-89 241v285h97v-269q0 -125 59.5 -184t200.5 -59q95 0 169.5 31.5t117 93.5t42.5 150v237h97v-580z" />
    <glyph glyph-name="Wcircumflex" unicode="&#x174;" horiz-adv-x="1610" 
d="M1146 94l276 606h106l-321 -700h-122l-281 631l-296 -631h-123l-303 700h106l259 -607l284 607h148zM605 888l200 80l200 -80v-95l-200 80l-200 -80v95z" />
    <glyph glyph-name="wcircumflex" unicode="&#x175;" horiz-adv-x="1476" 
d="M1052 68l236 512h106l-268 -580h-148l-240 488l-240 -488h-148l-268 580h105l237 -513l251 513h126zM538 768l200 80l200 -80v-95l-200 80l-200 -80v95z" />
    <glyph glyph-name="Ycircumflex" unicode="&#x176;" horiz-adv-x="1116" 
d="M558 318l345 382h132l-424 -469v-231h-106v231l-423 469h131zM358 888l200 80l200 -80v-95l-200 80l-200 -80v95z" />
    <glyph glyph-name="ycircumflex" unicode="&#x177;" horiz-adv-x="1000" 
d="M806 580h112l-366 -640q-39 -70 -74 -112t-80.5 -65t-109.5 -23q-50 0 -88.5 4t-88.5 13v89q87 -18 158 -18q62 0 103.5 31.5t84.5 106.5l19 34h-60l-334 580h114l307 -532zM310 768l200 80l200 -80v-95l-200 80l-200 -80v95z" />
    <glyph glyph-name="Ydieresis" unicode="&#x178;" horiz-adv-x="1116" 
d="M558 318l345 382h132l-424 -469v-231h-106v231l-423 469h131zM361 819v92h142v-92h-142zM612 819v92h143v-92h-143z" />
    <glyph glyph-name="Zacute" unicode="&#x179;" horiz-adv-x="960" 
d="M92 700h776v-88l-623 -524h623v-88h-776v88l623 524h-623v88zM289 799v90l382 80v-90z" />
    <glyph glyph-name="zacute" unicode="&#x17a;" horiz-adv-x="864" 
d="M92 580h680v-88l-523 -404h523v-88h-680v88l523 404h-523v88zM241 679v90l382 80v-90z" />
    <glyph glyph-name="Zdotaccent" unicode="&#x17b;" horiz-adv-x="960" 
d="M92 700h776v-88l-623 -524h623v-88h-776v88l623 524h-623v88zM409 819v92h142v-92h-142z" />
    <glyph glyph-name="zdotaccent" unicode="&#x17c;" horiz-adv-x="864" 
d="M92 580h680v-88l-523 -404h523v-88h-680v88l523 404h-523v88zM361 699v92h142v-92h-142z" />
    <glyph glyph-name="Zcaron" unicode="&#x17d;" horiz-adv-x="960" 
d="M92 700h776v-88l-623 -524h623v-88h-776v88l623 524h-623v88zM280 959l200 -80l200 80v-94l-200 -80l-200 80v94z" />
    <glyph glyph-name="zcaron" unicode="&#x17e;" horiz-adv-x="864" 
d="M92 580h680v-88l-523 -404h523v-88h-680v88l523 404h-523v88zM232 839l200 -80l200 80v-94l-200 -80l-200 80v94z" />
    <glyph glyph-name="uni0218" unicode="&#x218;" horiz-adv-x="1039" 
d="M185 229q0 -56 34.5 -91t114.5 -52.5t216 -17.5q159 0 231.5 30.5t72.5 95.5q0 45 -26.5 66.5t-93 31.5t-214.5 19q-154 9 -241.5 30t-128 64t-40.5 118q0 108 102.5 152.5t302.5 44.5q198 0 306 -59.5t108 -177.5h-105q0 55 -34 87.5t-105.5 47t-189.5 14.5
q-107 0 -168 -12.5t-86.5 -37t-25.5 -64.5q0 -43 26 -65t89 -34t190 -20q170 -11 255 -25t134.5 -54t49.5 -121q0 -124 -108.5 -171.5t-302.5 -47.5q-228 0 -345 56.5t-123 192.5h105zM466 -182v91h109v-91l-59 -108h-51l45 108h-44z" />
    <glyph glyph-name="uni0219" unicode="&#x219;" horiz-adv-x="962" 
d="M187 194q6 -46 40 -73.5t102.5 -40t181.5 -12.5q109 0 166 10t77.5 30t20.5 56q0 34 -20.5 49.5t-77.5 24t-196 18.5t-215 24.5t-115.5 47.5t-39.5 96q0 97 97.5 136.5t271.5 39.5q116 0 195.5 -14.5t128.5 -55t56 -114.5h-105q-6 40 -37 60.5t-89.5 28t-160.5 7.5
q-139 0 -195 -20.5t-56 -61.5q0 -28 21 -42t78.5 -23.5t184.5 -20.5l48 -4q126 -11 190 -23t103 -46t39 -102q0 -106 -90 -147.5t-272 -41.5q-128 0 -220.5 16.5t-151.5 63.5t-65 134h105zM427 -182v91h109v-91l-59 -108h-51l45 108h-44z" />
    <glyph glyph-name="uni021A" unicode="&#x21a;" horiz-adv-x="1010" 
d="M928 700v-88h-374v-612h-97v612h-375v88h846zM451 -172v91h109v-91l-59 -108h-51l45 108h-44z" />
    <glyph glyph-name="uni021B" unicode="&#x21b;" horiz-adv-x="758" 
d="M668 492h-309v-255q0 -73 12.5 -108t45.5 -48t100 -13q58 0 151 11v-84q-99 -15 -171 -15q-93 0 -142.5 22t-71 76.5t-21.5 158.5v255h-182v88h182v143l97 37v-180h309v-88zM412 -172v91h109v-91l-59 -108h-51l45 108h-44z" />
    <glyph glyph-name="circumflex" unicode="&#x2c6;" horiz-adv-x="584" 
d="M92 768l200 80l200 -80v-95l-200 80l-200 -80v95z" />
    <glyph glyph-name="caron" unicode="&#x2c7;" horiz-adv-x="584" 
d="M92 839l200 -80l200 80v-94l-200 -80l-200 80v94z" />
    <glyph glyph-name="breve" unicode="&#x2d8;" horiz-adv-x="626" 
d="M180 847q0 -59 34.5 -81.5t98.5 -22.5t98.5 22.5t34.5 81.5h88q0 -106 -58 -145t-163 -39t-163 39t-58 145h88z" />
    <glyph glyph-name="dotaccent" unicode="&#x2d9;" horiz-adv-x="326" 
d="M92 699v92h142v-92h-142z" />
    <glyph glyph-name="ring" unicode="&#x2da;" horiz-adv-x="593" 
d="M92 785q0 127 204 127q205 0 205 -127t-205 -127q-204 0 -204 127zM385.5 737.5q27.5 15.5 27.5 47.5t-28 48t-89 16t-88.5 -16t-27.5 -48t27.5 -47.5t88.5 -15.5q62 0 89.5 15.5z" />
    <glyph glyph-name="ogonek" unicode="&#x2db;" horiz-adv-x="454" 
d="M362 -230q-95 0 -152.5 9.5t-87.5 34.5t-30 71q0 35 20.5 60.5t64.5 54.5h77q-27 -21 -42 -38.5t-15 -41.5q0 -38 42 -50t123 -12v-88z" />
    <glyph glyph-name="tilde" unicode="&#x2dc;" horiz-adv-x="749" 
d="M92 678q0 75 40.5 127.5t121.5 52.5q45 0 75.5 -15t64.5 -43q30 -23 48.5 -33t43.5 -10q66 0 66 91h105q0 -75 -41 -127.5t-122 -52.5q-45 0 -74.5 15t-65.5 43q-27 22 -46.5 33t-44.5 11q-66 0 -66 -92h-105z" />
    <glyph glyph-name="hungarumlaut" unicode="&#x2dd;" horiz-adv-x="647" 
d="M92 688v94l203 80v-94zM352 688v94l204 80v-94z" />
    <glyph glyph-name="gravecomb" unicode="&#x300;" 
d="M-494 849l382 -80v-90l-382 80v90z" />
    <glyph glyph-name="acutecomb" unicode="&#x301;" 
d="M-474 679v90l382 80v-90z" />
    <glyph glyph-name="uni0302" unicode="&#x302;" 
d="M-492 768l200 80l200 -80v-95l-200 80l-200 -80v95z" />
    <glyph glyph-name="tildecomb" unicode="&#x303;" 
d="M-657 678q0 75 40.5 127.5t121.5 52.5q45 0 75.5 -15t64.5 -43q30 -23 48.5 -33t43.5 -10q66 0 66 91h105q0 -75 -41 -127.5t-122 -52.5q-45 0 -74.5 15t-65.5 43q-27 22 -46.5 33t-44.5 11q-66 0 -66 -92h-105z" />
    <glyph glyph-name="uni0304" unicode="&#x304;" 
d="M-547 703v88h455v-88h-455z" />
    <glyph glyph-name="uni0306" unicode="&#x306;" 
d="M-446 847q0 -59 34.5 -81.5t98.5 -22.5t98.5 22.5t34.5 81.5h88q0 -106 -58 -145t-163 -39t-163 39t-58 145h88z" />
    <glyph glyph-name="uni0307" unicode="&#x307;" 
d="M-234 699v92h142v-92h-142z" />
    <glyph glyph-name="uni0308" unicode="&#x308;" 
d="M-485 699v92h142v-92h-142zM-234 699v92h143v-92h-143z" />
    <glyph glyph-name="uni030A" unicode="&#x30a;" 
d="M-501 785q0 127 204 127q205 0 205 -127t-205 -127q-204 0 -204 127zM-207.5 737.5q27.5 15.5 27.5 47.5t-28 48t-89 16t-88.5 -16t-27.5 -48t27.5 -47.5t88.5 -15.5q62 0 89.5 15.5z" />
    <glyph glyph-name="uni030B" unicode="&#x30b;" 
d="M-555 688v94l203 80v-94zM-295 688v94l204 80v-94z" />
    <glyph glyph-name="uni030C" unicode="&#x30c;" 
d="M-492 839l200 -80l200 80v-94l-200 -80l-200 80v94z" />
    <glyph glyph-name="uni0312" unicode="&#x312;" 
d="M-93 802v-91h-109v91l59 108h51l-45 -108h44z" />
    <glyph glyph-name="uni0326" unicode="&#x326;" 
d="M-201 -172v91h109v-91l-59 -108h-51l45 108h-44z" />
    <glyph glyph-name="uni0327" unicode="&#x327;" 
d="M-119.5 -76q27.5 -19 27.5 -55q0 -54 -57.5 -80t-148.5 -26q-41 0 -99 7v72q75 -11 120 -11q80 0 80 37q0 28 -41 28q-32 0 -71 -16l-63 24l19 96h95l-15 -76q33 19 83 19q43 0 70.5 -19z" />
    <glyph glyph-name="uni0328" unicode="&#x328;" 
d="M-92 -230q-95 0 -152.5 9.5t-87.5 34.5t-30 71q0 35 20.5 60.5t64.5 54.5h77q-27 -21 -42 -38.5t-15 -41.5q0 -38 42 -50t123 -12v-88z" />
    <glyph glyph-name="uni0335" unicode="&#x335;" 
d="M-558 296v88h466v-88h-466z" />
    <glyph glyph-name="uni0336" unicode="&#x336;" 
d="M-1078 296v88h986v-88h-986z" />
    <glyph glyph-name="uni0337" unicode="&#x337;" 
d="M-193 720h101l-260 -870h-101z" />
    <glyph glyph-name="uni0338" unicode="&#x338;" 
d="M-193 728h101l-260 -870h-101z" />
    <glyph glyph-name="Wgrave" unicode="&#x1e80;" horiz-adv-x="1610" 
d="M1146 94l276 606h106l-321 -700h-122l-281 631l-296 -631h-123l-303 700h106l259 -607l284 607h148zM613 969l382 -80v-90l-382 80v90z" />
    <glyph glyph-name="wgrave" unicode="&#x1e81;" horiz-adv-x="1476" 
d="M1052 68l236 512h106l-268 -580h-148l-240 488l-240 -488h-148l-268 580h105l237 -513l251 513h126zM547 849l382 -80v-90l-382 80v90z" />
    <glyph glyph-name="Wacute" unicode="&#x1e82;" horiz-adv-x="1610" 
d="M1146 94l276 606h106l-321 -700h-122l-281 631l-296 -631h-123l-303 700h106l259 -607l284 607h148zM613 799v90l382 80v-90z" />
    <glyph glyph-name="wacute" unicode="&#x1e83;" horiz-adv-x="1476" 
d="M1052 68l236 512h106l-268 -580h-148l-240 488l-240 -488h-148l-268 580h105l237 -513l251 513h126zM547 679v90l382 80v-90z" />
    <glyph glyph-name="Wdieresis" unicode="&#x1e84;" horiz-adv-x="1610" 
d="M1146 94l276 606h106l-321 -700h-122l-281 631l-296 -631h-123l-303 700h106l259 -607l284 607h148zM608 819v92h142v-92h-142zM859 819v92h143v-92h-143z" />
    <glyph glyph-name="wdieresis" unicode="&#x1e85;" horiz-adv-x="1476" 
d="M1052 68l236 512h106l-268 -580h-148l-240 488l-240 -488h-148l-268 580h105l237 -513l251 513h126zM541 699v92h142v-92h-142zM792 699v92h143v-92h-143z" />
    <glyph glyph-name="Ygrave" unicode="&#x1ef2;" horiz-adv-x="1116" 
d="M558 318l345 382h132l-424 -469v-231h-106v231l-423 469h131zM367 969l382 -80v-90l-382 80v90z" />
    <glyph glyph-name="ygrave" unicode="&#x1ef3;" horiz-adv-x="1000" 
d="M806 580h112l-366 -640q-39 -70 -74 -112t-80.5 -65t-109.5 -23q-50 0 -88.5 4t-88.5 13v89q87 -18 158 -18q62 0 103.5 31.5t84.5 106.5l19 34h-60l-334 580h114l307 -532zM319 849l382 -80v-90l-382 80v90z" />
    <glyph glyph-name="endash" unicode="&#x2013;" horiz-adv-x="1210" 
d="M112 296v88h986v-88h-986z" />
    <glyph glyph-name="emdash" unicode="&#x2014;" horiz-adv-x="1410" 
d="M112 296v88h1186v-88h-1186z" />
    <glyph glyph-name="quoteleft" unicode="&#x2018;" horiz-adv-x="349" 
d="M207 440h-105l58 320h87z" />
    <glyph glyph-name="quoteright" unicode="&#x2019;" horiz-adv-x="349" 
d="M143 760h105l-59 -320h-87z" />
    <glyph glyph-name="quotesinglbase" unicode="&#x201a;" horiz-adv-x="292" 
d="M90 0v91h101v-91l-53 -173h-48l36 173h-36z" />
    <glyph glyph-name="quotedblleft" unicode="&#x201c;" horiz-adv-x="543" 
d="M207 440h-105l58 320h87zM400 440h-105l58 320h88z" />
    <glyph glyph-name="quotedblright" unicode="&#x201d;" horiz-adv-x="543" 
d="M143 760h105l-59 -320h-87zM336 760h105l-59 -320h-87z" />
    <glyph glyph-name="quotedblbase" unicode="&#x201e;" horiz-adv-x="479" 
d="M277 0v91h101v-91l-53 -173h-48l36 173h-36zM90 0v91h101v-91l-53 -173h-48l36 173h-36z" />
    <glyph glyph-name="dagger" unicode="&#x2020;" horiz-adv-x="873" 
d="M486 580h296v-88h-296v-642h-97v642h-297v88h297v207h97v-207z" />
    <glyph glyph-name="daggerdbl" unicode="&#x2021;" horiz-adv-x="873" 
d="M782 580v-88h-296v-315h296v-89h-296v-238h-97v238h-297v89h297v315h-297v88h297v207h97v-207h296z" />
    <glyph glyph-name="bullet" unicode="&#x2022;" horiz-adv-x="409" 
d="M119.5 258.5q-27.5 19.5 -27.5 61.5q0 41 27.5 60.5t85.5 19.5q57 0 84.5 -19.5t27.5 -60.5q0 -42 -27.5 -61.5t-84.5 -19.5q-58 0 -85.5 19.5z" />
    <glyph glyph-name="ellipsis" unicode="&#x2026;" horiz-adv-x="742" 
d="M90 0v91h101v-91h-101zM315 0v91h101v-91h-101zM540 0v91h101v-91h-101z" />
    <glyph glyph-name="perthousand" unicode="&#x2030;" horiz-adv-x="2038" 
d="M200.5 292.5q-57.5 33.5 -83 85.5t-25.5 112q0 59 25.5 111.5t83.5 85.5t149 33q92 0 150 -33t83.5 -85t25.5 -112t-25.5 -112.5t-83.5 -85.5t-150 -33t-149.5 33.5zM953 700h125l-575 -700h-125zM462.5 384q41.5 37 41.5 106t-41.5 105.5t-112.5 36.5
q-70 0 -111.5 -36.5t-41.5 -105.5t41.5 -106t111.5 -37q71 0 112.5 37zM956 13.5q-58 33.5 -83.5 85.5t-25.5 112q0 59 25.5 111.5t83.5 85.5t150 33t150 -33t83.5 -85.5t25.5 -111.5q0 -60 -25.5 -112t-83.5 -85.5t-150 -33.5t-150 33.5zM1537 13.5q-58 33.5 -83.5 85.5
t-25.5 112q0 59 25.5 111.5t83.5 85.5t150 33t150 -33t83.5 -85.5t25.5 -111.5q0 -60 -25.5 -112t-83.5 -85.5t-150 -33.5t-150 33.5zM1218.5 105q41.5 37 41.5 106t-41.5 105.5t-112.5 36.5q-70 0 -112 -36.5t-42 -105.5t42 -106t112 -37q71 0 112.5 37zM1799.5 105
q41.5 37 41.5 106t-41.5 105.5t-112.5 36.5q-70 0 -112 -36.5t-42 -105.5t42 -106t112 -37q71 0 112.5 37z" />
    <glyph glyph-name="guilsinglleft" unicode="&#x2039;" horiz-adv-x="584" 
d="M92 290l260 290h140l-260 -290l260 -290h-140z" />
    <glyph glyph-name="guilsinglright" unicode="&#x203a;" horiz-adv-x="584" 
d="M92 580h140l260 -290l-260 -290h-140l260 290z" />
    <glyph glyph-name="fraction" unicode="&#x2044;" horiz-adv-x="549" 
d="M352 720h101l-260 -870h-101z" />
    <glyph glyph-name="Euro" unicode="&#x20ac;" horiz-adv-x="910" 
d="M375 591.5q-64 -40.5 -85 -126.5h412v-71h-423q-1 -14 -1 -43t1 -42h423v-72h-413q20 -87 85 -128t187 -41q54 0 113 7.5t144 24.5v-88q-86 -17 -148 -24.5t-131 -7.5q-305 0 -357 257h-90v72h81q-1 14 -1 42q0 29 1 43h-81v71h91q26 121 113 188t243 67q69 0 131 -7.5
t148 -24.5v-88q-85 17 -144 24.5t-113 7.5q-122 0 -186 -40.5z" />
    <glyph glyph-name="trademark" unicode="&#x2122;" horiz-adv-x="1120" 
d="M261 645h-176v55h411v-55h-176v-287h-59v287zM610 358h-59v342h90l149 -290l148 290h90v-342h-59v276l-143 -276h-73l-143 276v-276z" />
    <glyph glyph-name="arrowleft" unicode="&#x2190;" horiz-adv-x="870" 
d="M778 394v-88h-517l172 -181l-70 -68l-271 294l271 292l70 -68l-172 -181h517z" />
    <glyph glyph-name="arrowup" unicode="&#x2191;" horiz-adv-x="769" 
d="M429 556v-518h-89v518l-180 -172l-68 70l292 271l293 -271l-68 -70z" />
    <glyph glyph-name="arrowright" unicode="&#x2192;" horiz-adv-x="870" 
d="M609 306h-517v88h517l-172 181l70 68l271 -292l-271 -294l-70 68z" />
    <glyph glyph-name="arrowdown" unicode="&#x2193;" horiz-adv-x="769" 
d="M340 665h89v-517l180 171l68 -69l-293 -272l-292 272l68 69l180 -171v517z" />
    <glyph glyph-name="arrowboth" unicode="&#x2194;" horiz-adv-x="1471" 
d="M1039 575l69 68l272 -292l-272 -294l-69 68l171 181h-949l172 -181l-70 -68l-271 294l271 292l70 -68l-172 -181h949z" />
    <glyph glyph-name="arrowupdn" unicode="&#x2195;" horiz-adv-x="769" 
d="M429 8l180 172l68 -70l-293 -271l-292 271l68 70l180 -172v631l-180 -172l-68 70l292 271l293 -271l-68 -70l-180 172v-631z" />
    <glyph glyph-name="uni2196" unicode="&#x2196;" horiz-adv-x="715" 
d="M624 167l-63 -63l-366 366l-6 -249l-97 1l15 400l399 14l1 -97l-249 -6z" />
    <glyph glyph-name="uni2197" unicode="&#x2197;" horiz-adv-x="715" 
d="M520 471l-366 -366l-63 63l366 365l-249 7l1 97l399 -14l15 -400l-97 -1z" />
    <glyph glyph-name="uni2198" unicode="&#x2198;" horiz-adv-x="715" 
d="M91 532l63 63l366 -366l6 249l97 -1l-15 -400l-399 -14l-1 97l249 7z" />
    <glyph glyph-name="uni2199" unicode="&#x2199;" horiz-adv-x="715" 
d="M195 229l366 366l63 -63l-366 -365l249 -7l-1 -97l-399 14l-15 400l97 1z" />
    <glyph glyph-name="emptyset" unicode="&#x2205;" horiz-adv-x="1178" 
d="M962 672q60 -60 91 -142t31 -179q0 -131 -57 -234t-168 -162t-269 -59q-190 0 -317 87l-118 -118l-52 51l114 114q-60 60 -91.5 142.5t-31.5 178.5q0 131 57.5 233.5t169.5 161t269 58.5q191 0 315 -86l117 117l52 -51zM286 99l552 552q-99 65 -248 65q-121 0 -209 -43.5
t-135 -125.5t-47 -196q0 -156 87 -252zM798.5 27.5q87.5 43.5 134 126t46.5 197.5q0 157 -86 252l-552 -552q97 -67 249 -67q121 0 208.5 43.5z" />
    <glyph glyph-name="product" unicode="&#x220f;" horiz-adv-x="1201" 
d="M1109 800v-88h-227v-862h-97v862h-411v-862h-97v862h-185v88h1017z" />
    <glyph glyph-name="minus" unicode="&#x2212;" horiz-adv-x="970" 
d="M92 296v88h786v-88h-786z" />
    <glyph glyph-name="integral" unicode="&#x222b;" horiz-adv-x="1043" 
d="M92 -62q103 0 169 12.5t119.5 69.5t70.5 178l36 254q23 162 91.5 237.5t153 93t219.5 17.5v-88q-102 0 -168 -13t-120.5 -69.5t-71.5 -177.5l-36 -254q-23 -163 -91.5 -239t-152 -92.5t-219.5 -16.5v88z" />
    <glyph glyph-name="approxequal" unicode="&#x2248;" horiz-adv-x="969" 
d="M92 375q0 274 212 274q48 0 86 -14.5t65 -35.5t62 -54q44 -42 74.5 -61.5t72.5 -19.5q57 0 82.5 44t25.5 141h105q0 -274 -213 -274q-48 0 -85.5 14.5t-64.5 35.5t-62 54q-43 41 -74.5 61t-73.5 20q-56 0 -81.5 -44t-25.5 -141h-105zM92 25q0 274 212 274q48 0 86 -14.5
t65 -35.5t62 -54q44 -42 74.5 -61.5t72.5 -19.5q57 0 82.5 44t25.5 141h105q0 -274 -213 -274q-48 0 -85.5 14.5t-64.5 35.5t-62 54q-43 41 -74.5 61t-73.5 20q-56 0 -81.5 -44t-25.5 -141h-105z" />
    <glyph glyph-name="notequal" unicode="&#x2260;" horiz-adv-x="970" 
d="M878 544v-88h-304l-70 -232h374v-88h-400l-69 -231h-101l69 231h-285v88h311l70 232h-381v88h407l69 231h101l-69 -231h278z" />
    <glyph glyph-name="lessequal" unicode="&#x2264;" horiz-adv-x="987" 
d="M212 482l663 -154v-99l-783 184v139l783 183v-98zM108 41v88h787v-88h-787z" />
    <glyph glyph-name="greaterequal" unicode="&#x2265;" horiz-adv-x="987" 
d="M92 41v88h786v-88h-786zM112 637v98l783 -183v-139l-783 -184v99l663 154z" />
    <glyph glyph-name="lozenge" unicode="&#x25ca;" horiz-adv-x="949" 
d="M539 800l319 -467l-319 -466h-128l-319 466l319 467h128zM209 333l266 -388l264 388l-264 389z" />
    <glyph glyph-name="A.ss01" horiz-adv-x="1263" 
d="M1182 0h-113l-103 172h-668l-104 -172h-112l416 700h268zM563 612l-212 -352h562l-212 352h-138z" />
    <glyph glyph-name="Aacute.ss01" horiz-adv-x="1263" 
d="M1182 0h-113l-103 172h-668l-104 -172h-112l416 700h268zM563 612l-212 -352h562l-212 352h-138zM440 799v90l382 80v-90z" />
    <glyph glyph-name="Abreve.ss01" horiz-adv-x="1263" 
d="M1182 0h-113l-103 172h-668l-104 -172h-112l416 700h268zM563 612l-212 -352h562l-212 352h-138zM499 967q0 -59 34.5 -81.5t98.5 -22.5t98.5 22.5t34.5 81.5h88q0 -106 -58 -145t-163 -39t-163 39t-58 145h88z" />
    <glyph glyph-name="Acircumflex.ss01" horiz-adv-x="1263" 
d="M1182 0h-113l-103 172h-668l-104 -172h-112l416 700h268zM563 612l-212 -352h562l-212 352h-138zM432 888l200 80l200 -80v-95l-200 80l-200 -80v95z" />
    <glyph glyph-name="Adieresis.ss01" horiz-adv-x="1263" 
d="M1182 0h-113l-103 172h-668l-104 -172h-112l416 700h268zM563 612l-212 -352h562l-212 352h-138zM435 819v92h142v-92h-142zM686 819v92h143v-92h-143z" />
    <glyph glyph-name="Agrave.ss01" horiz-adv-x="1263" 
d="M1182 0h-113l-103 172h-668l-104 -172h-112l416 700h268zM563 612l-212 -352h562l-212 352h-138zM440 969l382 -80v-90l-382 80v90z" />
    <glyph glyph-name="Amacron.ss01" horiz-adv-x="1263" 
d="M1182 0h-113l-103 172h-668l-104 -172h-112l416 700h268zM563 612l-212 -352h562l-212 352h-138zM404 823v88h455v-88h-455z" />
    <glyph glyph-name="Aogonek.ss01" horiz-adv-x="1263" 
d="M1182 0h-113l-103 172h-668l-104 -172h-112l416 700h268zM563 612l-212 -352h562l-212 352h-138zM1268 -230q-95 0 -152.5 9.5t-87.5 34.5t-30 71q0 35 20.5 60.5t64.5 54.5h77q-27 -21 -42 -38.5t-15 -41.5q0 -38 42 -50t123 -12v-88z" />
    <glyph glyph-name="Aring.ss01" horiz-adv-x="1263" 
d="M1182 0h-113l-103 172h-668l-104 -172h-112l416 700h268zM563 612l-212 -352h562l-212 352h-138zM427 905q0 127 204 127q205 0 205 -127t-205 -127q-204 0 -204 127zM720.5 857.5q27.5 15.5 27.5 47.5t-28 48t-89 16t-88.5 -16t-27.5 -48t27.5 -47.5t88.5 -15.5
q62 0 89.5 15.5z" />
    <glyph glyph-name="Atilde.ss01" horiz-adv-x="1263" 
d="M1182 0h-113l-103 172h-668l-104 -172h-112l416 700h268zM563 612l-212 -352h562l-212 352h-138zM349 798q0 75 40.5 127.5t121.5 52.5q45 0 75.5 -15t64.5 -43q30 -23 48.5 -33t43.5 -10q66 0 66 91h105q0 -75 -41 -127.5t-122 -52.5q-45 0 -74.5 15t-65.5 43
q-27 22 -46.5 33t-44.5 11q-66 0 -66 -92h-105z" />
    <glyph glyph-name="K.ss01" horiz-adv-x="999" 
d="M774 700h144l-382 -350l382 -350h-144l-332 306h-253v-306h-97v700h97v-306h253z" />
    <glyph glyph-name="uni0136.ss01" horiz-adv-x="999" 
d="M774 700h144l-382 -350l382 -350h-144l-332 306h-253v-306h-97v700h97v-306h253zM399 -172v91h109v-91l-59 -108h-51l45 108h-44z" />
    <glyph glyph-name="R.ss01" horiz-adv-x="968" 
d="M839.5 314.5q-46.5 -59.5 -128.5 -81.5l166 -233h-118l-158 222h-412v-222h-97v700h528q80 0 140.5 -29t93 -83t32.5 -127q0 -87 -46.5 -146.5zM189 311h389q57 0 100 9.5t73 43t30 97.5q0 93 -57 122t-146 29h-389v-301z" />
    <glyph glyph-name="Racute.ss01" horiz-adv-x="968" 
d="M839.5 314.5q-46.5 -59.5 -128.5 -81.5l166 -233h-118l-158 222h-412v-222h-97v700h528q80 0 140.5 -29t93 -83t32.5 -127q0 -87 -46.5 -146.5zM189 311h389q57 0 100 9.5t73 43t30 97.5q0 93 -57 122t-146 29h-389v-301zM254 799v90l382 80v-90z" />
    <glyph glyph-name="Rcaron.ss01" horiz-adv-x="968" 
d="M839.5 314.5q-46.5 -59.5 -128.5 -81.5l166 -233h-118l-158 222h-412v-222h-97v700h528q80 0 140.5 -29t93 -83t32.5 -127q0 -87 -46.5 -146.5zM189 311h389q57 0 100 9.5t73 43t30 97.5q0 93 -57 122t-146 29h-389v-301zM246 959l200 -80l200 80v-94l-200 -80l-200 80
v94z" />
    <glyph glyph-name="uni0156.ss01" horiz-adv-x="968" 
d="M839.5 314.5q-46.5 -59.5 -128.5 -81.5l166 -233h-118l-158 222h-412v-222h-97v700h528q80 0 140.5 -29t93 -83t32.5 -127q0 -87 -46.5 -146.5zM189 311h389q57 0 100 9.5t73 43t30 97.5q0 93 -57 122t-146 29h-389v-301zM409 -172v91h109v-91l-59 -108h-51l45 108h-44z
" />
    <glyph glyph-name="V.ss01" horiz-adv-x="1263" 
d="M1069 700h113l-416 -700h-268l-416 700h112l369 -612h138z" />
    <glyph glyph-name="W.ss01" horiz-adv-x="1825" 
d="M1358 88l279 612h107l-321 -700h-261l-248 595l-249 -595h-261l-322 700h106l281 -612h131l252 612h123l252 -612h131z" />
    <glyph glyph-name="Wacute.ss01" horiz-adv-x="1825" 
d="M1358 88l279 612h107l-321 -700h-261l-248 595l-249 -595h-261l-322 700h106l281 -612h131l252 612h123l252 -612h131zM723 799v90l382 80v-90z" />
    <glyph glyph-name="Wcircumflex.ss01" horiz-adv-x="1825" 
d="M1358 88l279 612h107l-321 -700h-261l-248 595l-249 -595h-261l-322 700h106l281 -612h131l252 612h123l252 -612h131zM714 888l200 80l200 -80v-95l-200 80l-200 -80v95z" />
    <glyph glyph-name="Wdieresis.ss01" horiz-adv-x="1825" 
d="M1358 88l279 612h107l-321 -700h-261l-248 595l-249 -595h-261l-322 700h106l281 -612h131l252 612h123l252 -612h131zM717 819v92h142v-92h-142zM968 819v92h143v-92h-143z" />
    <glyph glyph-name="Wgrave.ss01" horiz-adv-x="1825" 
d="M1358 88l279 612h107l-321 -700h-261l-248 595l-249 -595h-261l-322 700h106l281 -612h131l252 612h123l252 -612h131zM723 969l382 -80v-90l-382 80v90z" />
    <glyph glyph-name="i.loclTRK" horiz-adv-x="289" 
d="M92 0v580h105v-580h-105zM73 699v92h142v-92h-142z" />
    <glyph glyph-name="a.001" horiz-adv-x="930" 
d="M685.5 572q79.5 -28 120.5 -92.5t42 -171.5v-308h-97v73q-110 -45 -200.5 -69t-198.5 -24q-142 0 -210.5 50t-68.5 151q0 107 96 156t255 49q155 0 327 -52v6q0 103 -86.5 137.5t-188.5 34.5q-70 0 -144.5 -11t-167.5 -42l-42 80q94 31 180.5 46t180.5 15
q123 0 202.5 -28zM551.5 95q100.5 27 199.5 66v85q-77 24 -154 38t-169 14q-115 0 -182 -28t-67 -91t50 -87t149 -24q73 0 173.5 27z" />
    <glyph glyph-name="a.ss01" horiz-adv-x="971" 
d="M774 580h106v-580h-106v107q-45 -61 -125 -94t-194 -33q-109 0 -193.5 35.5t-132 105.5t-47.5 169q0 100 47.5 169.5t131.5 105t194 35.5q114 0 194 -33t125 -94v107zM695 127q79 59 79 163t-79 163t-219 59q-138 0 -213.5 -59t-75.5 -163t75.5 -163t213.5 -59
q140 0 219 59z" />
    <glyph glyph-name="aacute.ss01" horiz-adv-x="971" 
d="M774 580h106v-580h-106v107q-45 -61 -125 -94t-194 -33q-109 0 -193.5 35.5t-132 105.5t-47.5 169q0 100 47.5 169.5t131.5 105t194 35.5q114 0 194 -33t125 -94v107zM695 127q79 59 79 163t-79 163t-219 59q-138 0 -213.5 -59t-75.5 -163t75.5 -163t213.5 -59
q140 0 219 59zM294 679v90l382 80v-90z" />
    <glyph glyph-name="abreve.ss01" horiz-adv-x="971" 
d="M774 580h106v-580h-106v107q-45 -61 -125 -94t-194 -33q-109 0 -193.5 35.5t-132 105.5t-47.5 169q0 100 47.5 169.5t131.5 105t194 35.5q114 0 194 -33t125 -94v107zM695 127q79 59 79 163t-79 163t-219 59q-138 0 -213.5 -59t-75.5 -163t75.5 -163t213.5 -59
q140 0 219 59zM353 847q0 -59 34.5 -81.5t98.5 -22.5t98.5 22.5t34.5 81.5h88q0 -106 -58 -145t-163 -39t-163 39t-58 145h88z" />
    <glyph glyph-name="acircumflex.ss01" horiz-adv-x="971" 
d="M774 580h106v-580h-106v107q-45 -61 -125 -94t-194 -33q-109 0 -193.5 35.5t-132 105.5t-47.5 169q0 100 47.5 169.5t131.5 105t194 35.5q114 0 194 -33t125 -94v107zM695 127q79 59 79 163t-79 163t-219 59q-138 0 -213.5 -59t-75.5 -163t75.5 -163t213.5 -59
q140 0 219 59zM286 768l200 80l200 -80v-95l-200 80l-200 -80v95z" />
    <glyph glyph-name="adieresis.ss01" horiz-adv-x="971" 
d="M774 580h106v-580h-106v107q-45 -61 -125 -94t-194 -33q-109 0 -193.5 35.5t-132 105.5t-47.5 169q0 100 47.5 169.5t131.5 105t194 35.5q114 0 194 -33t125 -94v107zM695 127q79 59 79 163t-79 163t-219 59q-138 0 -213.5 -59t-75.5 -163t75.5 -163t213.5 -59
q140 0 219 59zM289 699v92h142v-92h-142zM540 699v92h143v-92h-143z" />
    <glyph glyph-name="agrave.ss01" horiz-adv-x="971" 
d="M774 580h106v-580h-106v107q-45 -61 -125 -94t-194 -33q-109 0 -193.5 35.5t-132 105.5t-47.5 169q0 100 47.5 169.5t131.5 105t194 35.5q114 0 194 -33t125 -94v107zM695 127q79 59 79 163t-79 163t-219 59q-138 0 -213.5 -59t-75.5 -163t75.5 -163t213.5 -59
q140 0 219 59zM294 849l382 -80v-90l-382 80v90z" />
    <glyph glyph-name="amacron.ss01" horiz-adv-x="971" 
d="M774 580h106v-580h-106v107q-45 -61 -125 -94t-194 -33q-109 0 -193.5 35.5t-132 105.5t-47.5 169q0 100 47.5 169.5t131.5 105t194 35.5q114 0 194 -33t125 -94v107zM695 127q79 59 79 163t-79 163t-219 59q-138 0 -213.5 -59t-75.5 -163t75.5 -163t213.5 -59
q140 0 219 59zM258 703v88h455v-88h-455z" />
    <glyph glyph-name="aogonek.ss01" horiz-adv-x="971" 
d="M830 -130q42 -12 123 -12v-88q-95 0 -152.5 9.5t-87.5 34.5t-30 71q0 35 20.5 60.5t64.5 54.5h6v107q-45 -61 -125 -94t-194 -33q-109 0 -193.5 35.5t-132 105.5t-47.5 169q0 100 47.5 169.5t131.5 105t194 35.5q114 0 194 -33t125 -94v107h106v-580h-35
q-27 -21 -42 -38.5t-15 -41.5q0 -38 42 -50zM695 127q79 59 79 163t-79 163t-219 59q-138 0 -213.5 -59t-75.5 -163t75.5 -163t213.5 -59q140 0 219 59z" />
    <glyph glyph-name="aring.ss01" horiz-adv-x="971" 
d="M774 580h106v-580h-106v107q-45 -61 -125 -94t-194 -33q-109 0 -193.5 35.5t-132 105.5t-47.5 169q0 100 47.5 169.5t131.5 105t194 35.5q114 0 194 -33t125 -94v107zM695 127q79 59 79 163t-79 163t-219 59q-138 0 -213.5 -59t-75.5 -163t75.5 -163t213.5 -59
q140 0 219 59zM281 785q0 127 204 127q205 0 205 -127t-205 -127q-204 0 -204 127zM574.5 737.5q27.5 15.5 27.5 47.5t-28 48t-89 16t-88.5 -16t-27.5 -48t27.5 -47.5t88.5 -15.5q62 0 89.5 15.5z" />
    <glyph glyph-name="atilde.ss01" horiz-adv-x="971" 
d="M774 580h106v-580h-106v107q-45 -61 -125 -94t-194 -33q-109 0 -193.5 35.5t-132 105.5t-47.5 169q0 100 47.5 169.5t131.5 105t194 35.5q114 0 194 -33t125 -94v107zM695 127q79 59 79 163t-79 163t-219 59q-138 0 -213.5 -59t-75.5 -163t75.5 -163t213.5 -59
q140 0 219 59zM203 678q0 75 40.5 127.5t121.5 52.5q45 0 75.5 -15t64.5 -43q30 -23 48.5 -33t43.5 -10q66 0 66 91h105q0 -75 -41 -127.5t-122 -52.5q-45 0 -74.5 15t-65.5 43q-27 22 -46.5 33t-44.5 11q-66 0 -66 -92h-105z" />
    <glyph glyph-name="g.ss01" horiz-adv-x="990" 
d="M940 580v-72q-40 0 -108 10q48 -47 48 -125q0 -66 -35 -111.5t-123 -71t-241 -25.5q-125 0 -179.5 -2.5t-78.5 -12t-24 -31.5q0 -24 25.5 -34t85.5 -12.5t200 -2.5q131 0 217 -13t134.5 -49.5t48.5 -104.5q0 -107 -106.5 -145t-293.5 -38q-127 0 -218.5 11t-150.5 45
t-59 100q0 55 39.5 83.5t99.5 39.5q-128 28 -128 107q0 73 117 94q-69 26 -98.5 69t-29.5 104q0 66 35 111t123 70.5t241 25.5q133 0 219 -20h240zM654 285.5q64 12.5 92.5 38.5t28.5 69t-28.5 69t-92.5 38t-173 12t-173 -12t-92.5 -38t-28.5 -69t28.5 -69t92.5 -38.5
t173 -12.5t173 12.5zM770 -26.5q-35 18.5 -95.5 23.5t-164.5 5h-18q-115 -1 -178.5 -7t-95 -24t-31.5 -54q0 -53 81 -71t242 -18q100 0 162 6.5t97.5 25.5t35.5 57t-35 56.5z" />
    <glyph glyph-name="gbreve.ss01" horiz-adv-x="990" 
d="M940 580v-72q-40 0 -108 10q48 -47 48 -125q0 -66 -35 -111.5t-123 -71t-241 -25.5q-125 0 -179.5 -2.5t-78.5 -12t-24 -31.5q0 -24 25.5 -34t85.5 -12.5t200 -2.5q131 0 217 -13t134.5 -49.5t48.5 -104.5q0 -107 -106.5 -145t-293.5 -38q-127 0 -218.5 11t-150.5 45
t-59 100q0 55 39.5 83.5t99.5 39.5q-128 28 -128 107q0 73 117 94q-69 26 -98.5 69t-29.5 104q0 66 35 111t123 70.5t241 25.5q133 0 219 -20h240zM654 285.5q64 12.5 92.5 38.5t28.5 69t-28.5 69t-92.5 38t-173 12t-173 -12t-92.5 -38t-28.5 -69t28.5 -69t92.5 -38.5
t173 -12.5t173 12.5zM770 -26.5q-35 18.5 -95.5 23.5t-164.5 5h-18q-115 -1 -178.5 -7t-95 -24t-31.5 -54q0 -53 81 -71t242 -18q100 0 162 6.5t97.5 25.5t35.5 57t-35 56.5zM344 847q0 -59 34.5 -81.5t98.5 -22.5t98.5 22.5t34.5 81.5h88q0 -106 -58 -145t-163 -39t-163 39
t-58 145h88z" />
    <glyph glyph-name="uni0123.ss01" horiz-adv-x="990" 
d="M940 580v-72q-40 0 -108 10q48 -47 48 -125q0 -66 -35 -111.5t-123 -71t-241 -25.5q-125 0 -179.5 -2.5t-78.5 -12t-24 -31.5q0 -24 25.5 -34t85.5 -12.5t200 -2.5q131 0 217 -13t134.5 -49.5t48.5 -104.5q0 -107 -106.5 -145t-293.5 -38q-127 0 -218.5 11t-150.5 45
t-59 100q0 55 39.5 83.5t99.5 39.5q-128 28 -128 107q0 73 117 94q-69 26 -98.5 69t-29.5 104q0 66 35 111t123 70.5t241 25.5q133 0 219 -20h240zM654 285.5q64 12.5 92.5 38.5t28.5 69t-28.5 69t-92.5 38t-173 12t-173 -12t-92.5 -38t-28.5 -69t28.5 -69t92.5 -38.5
t173 -12.5t173 12.5zM770 -26.5q-35 18.5 -95.5 23.5t-164.5 5h-18q-115 -1 -178.5 -7t-95 -24t-31.5 -54q0 -53 81 -71t242 -18q100 0 162 6.5t97.5 25.5t35.5 57t-35 56.5zM531 802v-91h-109v91l59 108h51l-45 -108h44z" />
    <glyph glyph-name="gdotaccent.ss01" horiz-adv-x="990" 
d="M940 580v-72q-40 0 -108 10q48 -47 48 -125q0 -66 -35 -111.5t-123 -71t-241 -25.5q-125 0 -179.5 -2.5t-78.5 -12t-24 -31.5q0 -24 25.5 -34t85.5 -12.5t200 -2.5q131 0 217 -13t134.5 -49.5t48.5 -104.5q0 -107 -106.5 -145t-293.5 -38q-127 0 -218.5 11t-150.5 45
t-59 100q0 55 39.5 83.5t99.5 39.5q-128 28 -128 107q0 73 117 94q-69 26 -98.5 69t-29.5 104q0 66 35 111t123 70.5t241 25.5q133 0 219 -20h240zM654 285.5q64 12.5 92.5 38.5t28.5 69t-28.5 69t-92.5 38t-173 12t-173 -12t-92.5 -38t-28.5 -69t28.5 -69t92.5 -38.5
t173 -12.5t173 12.5zM770 -26.5q-35 18.5 -95.5 23.5t-164.5 5h-18q-115 -1 -178.5 -7t-95 -24t-31.5 -54q0 -53 81 -71t242 -18q100 0 162 6.5t97.5 25.5t35.5 57t-35 56.5zM406 699v92h142v-92h-142z" />
    </font>
</defs>
</svg>
