<?xml version="1.0" standalone="no"?>
<!DOCTYPE svg PUBLIC "-//W3C//DTD SVG 1.1//EN" "http://www.w3.org/Graphics/SVG/1.1/DTD/svg11.dtd" >
<svg xmlns="http://www.w3.org/2000/svg" xmlns:xlink="http://www.w3.org/1999/xlink" version="1.1">
<metadata>
Created by FontForge 20170731 at Fri Oct  2 23:02:24 2020
 By Aleksey,,,
Pangram Pangram
</metadata>
<defs>
<font id="MonumentExtended-Heavy" horiz-adv-x="0" >
  <font-face 
    font-family="Monument Extended Heavy"
    font-weight="900"
    font-stretch="normal"
    units-per-em="1000"
    panose-1="0 0 10 0 0 0 0 0 0 0"
    ascent="800"
    descent="-200"
    x-height="604"
    cap-height="724"
    bbox="-1060 -318 2118 1061"
    underline-thickness="107"
    underline-position="-166"
    unicode-range="U+0020-25CA"
  />
<missing-glyph horiz-adv-x="550" 
d="M102 800h349v-1100h-349v1100zM366 690v36h-181v-36h71v-41h-72v-36h182v36h-72v41h72zM294 507v77h-110v-114h182v37h-72zM220 547h36v-40h-36v40zM366 404v36h-182v-36h72v-41h-72v-36h110v77h72zM366 264v110h-36v-72h-146v-38h182zM366 116v124h-110v-61h38v25h36
v-52h-110v88h-36v-124h182zM366 -74v124h-182v-124h182zM220 14h110v-52h-110v52zM366 -136v36h-182v-36h77l-77 -52v-36h182v36h-112l77 52h35z" />
    <glyph glyph-name="f_f" unicode="ff" horiz-adv-x="1198" 
d="M1006 647q-49 0 -68.5 -9t-22.5 -34h250v-189h-250v-415h-260v415h-231v-415h-259v415h-133v189h133v23q0 88 68 130.5t212 42.5h158v-153h-87q-49 0 -69 -9t-23 -34h231v23q0 88 68.5 130.5t212.5 42.5h229v-153h-159z" />
    <glyph glyph-name="f_f_i" unicode="ffi" horiz-adv-x="1458" 
d="M1006 647q-49 0 -69 -9t-23 -34h490v-604h-259v415h-231v-415h-259v415h-231v-415h-259v415h-133v189h133v23q0 88 68 130.5t212 42.5h171v-153h-100q-49 0 -69 -9t-23 -34h231v23q0 88 68 130.5t212 42.5h469v-153h-398z" />
    <glyph glyph-name="f_i" unicode="fi" horiz-adv-x="968" 
d="M516 647q-49 0 -69 -9t-23 -34h491v-604h-260v415h-231v-415h-259v415h-133v189h133v23q0 88 68 130.5t212 42.5h470v-153h-399z" />
    <glyph glyph-name="f_l" unicode="fl" horiz-adv-x="964" 
d="M911 800v-800h-259v647h-136q-49 0 -69 -9t-23 -34h131v-189h-131v-415h-259v415h-133v189h133v23q0 88 68 130.5t212 42.5h466z" />
    <glyph glyph-name=".notdef" horiz-adv-x="550" 
d="M102 800h349v-1100h-349v1100zM366 690v36h-181v-36h71v-41h-72v-36h182v36h-72v41h72zM294 507v77h-110v-114h182v37h-72zM220 547h36v-40h-36v40zM366 404v36h-182v-36h72v-41h-72v-36h110v77h72zM366 264v110h-36v-72h-146v-38h182zM366 116v124h-110v-61h38v25h36
v-52h-110v88h-36v-124h182zM366 -74v124h-182v-124h182zM220 14h110v-52h-110v52zM366 -136v36h-182v-36h77l-77 -52v-36h182v36h-112l77 52h35z" />
    <glyph glyph-name=".null" 
 />
    <glyph glyph-name="nonmarkingreturn" horiz-adv-x="333" 
 />
    <glyph glyph-name="space" unicode=" " horiz-adv-x="388" 
 />
    <glyph glyph-name="exclam" unicode="!" horiz-adv-x="400" 
d="M53 700h295l-12 -452h-271zM65 0v199h270v-199h-270z" />
    <glyph glyph-name="quotedbl" unicode="&#x22;" horiz-adv-x="744" 
d="M396 784h294l-22 -392h-249zM53 784h294l-22 -392h-249z" />
    <glyph glyph-name="numbersign" unicode="#" horiz-adv-x="1330" 
d="M1256 580v-188h-213l-55 -184h165v-188h-221l-51 -170h-247l51 170h-221l-51 -170h-246l51 170h-143v188h199l55 184h-151v188h207l70 236h247l-71 -236h221l71 236h247l-71 -236h157zM520 208h221l55 184h-221z" />
    <glyph glyph-name="dollar" unicode="$" horiz-adv-x="1007" 
d="M854.5 42.5q-99.5 -57.5 -297.5 -62.5v-80h-107v82q-189 9 -289 70t-107 186h294q0 -19 24.5 -33.5t77.5 -20.5v82q-135 12 -220.5 41t-127.5 80t-42 128q0 70 48.5 121t136.5 78.5t205 29.5v56h107v-59q173 -13 266 -75t101 -168h-293q0 32 -74 41v-71
q139 -13 220.5 -33t129 -68.5t47.5 -139.5q0 -127 -99.5 -184.5zM372 494.5q18 -7.5 78 -15.5v64q-96 -2 -96 -28q0 -13 18 -20.5zM557 182q46 1 68.5 6t29 11.5t6.5 16.5q0 13 -6.5 19.5t-28 11t-69.5 9.5v-74z" />
    <glyph glyph-name="percent" unicode="%" horiz-adv-x="1540" 
d="M188 280q-66 35 -100.5 92.5t-34.5 122.5q0 64 34.5 121.5t100.5 92.5t157 35t157.5 -35t101 -92.5t34.5 -121.5q0 -65 -34.5 -122.5t-101 -92.5t-157.5 -35t-157 35zM879 724h212l-431 -724h-212zM418.5 427q21.5 29 21.5 69q0 38 -21.5 66.5t-73.5 28.5
q-51 0 -72 -28.5t-21 -66.5q0 -40 21 -69t72 -29q52 0 73.5 29zM1037 15.5q-66 35.5 -100.5 92.5t-34.5 122t34.5 122t100.5 92t157 35t157.5 -35t101 -92t34.5 -122t-34.5 -122t-101 -92.5t-157.5 -35.5t-157 35.5zM1267.5 162.5q21.5 29.5 21.5 68.5t-21.5 67t-73.5 28
q-51 0 -72.5 -28t-21.5 -67t21.5 -68.5t72.5 -29.5q52 0 73.5 29.5z" />
    <glyph glyph-name="ampersand" unicode="&#x26;" horiz-adv-x="1139" 
d="M1085 0h-307l-57 40q-125 -60 -279 -60q-389 0 -389 193q0 75 51.5 120t146.5 76q-46 38 -69.5 76t-23.5 87q0 64 44 106t113 62t144 20q136 0 217.5 -48t81.5 -135q0 -63 -50 -102t-133 -63l154 -113q30 51 42 127h198q-12 -134 -96 -232zM417.5 553
q-25.5 -14 -25.5 -42q0 -26 20 -45t57 -37q50 18 70.5 38t20.5 45q0 28 -24 41.5t-57 13.5q-36 0 -61.5 -14zM563 151l-133 93l-76 52q-43 -34 -43 -73q0 -41 40.5 -59.5t132.5 -18.5q42 0 79 6z" />
    <glyph glyph-name="quotesingle" unicode="'" horiz-adv-x="401" 
d="M53 784h294l-22 -392h-249z" />
    <glyph glyph-name="parenleft" unicode="(" horiz-adv-x="659" 
d="M120.5 599.5q67.5 110.5 188.5 155.5t296 45v-213q-101 0 -158.5 -24.5t-84.5 -86t-27 -176.5t27 -177t84.5 -86t158.5 -24v-213q-175 0 -296 45t-188.5 155t-67.5 300q0 189 67.5 299.5z" />
    <glyph glyph-name="parenright" unicode=")" horiz-adv-x="659" 
d="M537.5 0q-67.5 -110 -188.5 -155t-296 -45v213q102 0 159 24t84 85.5t27 177.5q0 115 -26.5 176.5t-84 86t-159.5 24.5v213q175 0 296 -45t188.5 -155.5t67.5 -299.5q0 -190 -67.5 -300z" />
    <glyph glyph-name="asterisk" unicode="*" horiz-adv-x="660" 
d="M118 385l-65 125l193 64l-193 65l65 124l163 -108l-28 169h153l-26 -169l163 109l64 -125l-194 -65l194 -64l-65 -124l-162 107l26 -169h-153l28 169z" />
    <glyph glyph-name="plus" unicode="+" horiz-adv-x="913" 
d="M574 434h285v-188h-285v-246h-236v246h-285v188h285v246h236v-246z" />
    <glyph glyph-name="comma" unicode="," horiz-adv-x="378" 
d="M54 0v199h270v-199l-126 -231h-120l75 231h-99z" />
    <glyph glyph-name="hyphen" unicode="-" horiz-adv-x="952" 
d="M73 246v188h806v-188h-806z" />
    <glyph glyph-name="period" unicode="." horiz-adv-x="378" 
d="M54 0v199h270v-199h-270z" />
    <glyph glyph-name="slash" unicode="/" horiz-adv-x="654" 
d="M354 816h247l-289 -966h-247z" />
    <glyph glyph-name="zero" unicode="0" horiz-adv-x="961" 
d="M243.5 28.5q-98.5 48.5 -149.5 135.5t-51 199t51 198t149.5 134.5t236.5 48.5t236.5 -48.5t150 -135t51.5 -197.5q0 -112 -51.5 -198.5t-150 -135.5t-236.5 -49t-236.5 48.5zM596 244.5q40 39.5 40 118.5q0 78 -40 117t-116 39q-155 0 -155 -156q0 -80 40 -119t115 -39
q76 0 116 39.5z" />
    <glyph glyph-name="one" unicode="1" horiz-adv-x="822" 
d="M552 724v-511h216v-213h-715v213h216v285l-161 -41l-55 204l247 63h252z" />
    <glyph glyph-name="two" unicode="2" horiz-adv-x="912" 
d="M804 382.5q-54 -53.5 -125 -80t-171 -51.5q-53 -13 -77.5 -20.5t-34.5 -17.5h450v-213h-791v122q0 81 49 135t117 84t171 62q90 29 131.5 49.5t41.5 51.5q0 25 -18.5 38t-63.5 13q-128 0 -128 -89h-294q17 143 135.5 210.5t294.5 67.5q112 0 194.5 -26t127.5 -76.5
t45 -120.5q0 -85 -54 -138.5z" />
    <glyph glyph-name="three" unicode="3" horiz-adv-x="924" 
d="M881 216q0 -113 -99 -174.5t-283 -61.5q-157 0 -253 30t-143.5 91t-59.5 159h282q0 -40 34.5 -59.5t113.5 -19.5q67 0 92 14.5t25 43.5q0 22 -11.5 33.5t-44.5 17.5t-99 6v155q60 0 91.5 6t42.5 16.5t11 28.5q0 26 -25.5 39.5t-87.5 13.5q-73 0 -107.5 -21.5t-34.5 -69.5
h-270q18 143 127.5 211.5t319.5 68.5q178 0 273.5 -57t95.5 -163q0 -107 -103 -150q113 -46 113 -158z" />
    <glyph glyph-name="four" unicode="4" horiz-adv-x="974" 
d="M811 278h110v-200h-110v-78h-283v78h-475v200l475 446h283v-446zM528 482l-217 -204h217v204z" />
    <glyph glyph-name="five" unicode="5" horiz-adv-x="887" 
d="M771 421.5q73 -61.5 73 -171.5q0 -82 -43 -142.5t-129.5 -94t-211.5 -33.5q-114 0 -206 28t-149 88t-62 150h294q16 -65 111 -65q49 0 75.5 17.5t26.5 58.5q0 35 -23 54t-65 19q-40 0 -65 -9.5t-52 -35.5l-259 48l52 391h642v-201h-415l-7 -80q44 18 93 29t116 11
q131 0 204 -61.5z" />
    <glyph glyph-name="six" unicode="6" horiz-adv-x="901" 
d="M775.5 422q72.5 -61 72.5 -175q0 -134 -96 -200.5t-282 -66.5q-208 0 -312.5 93.5t-104.5 271.5l11 4l-11 -2q0 204 132 300.5t352 96.5q77 0 125 -3t124 -14v-201q-69 9 -117 13t-108 4q-101 0 -149 -22t-60 -78q53 19 102.5 29.5t113.5 10.5q135 0 207.5 -61zM554 256
q0 74 -105 74q-57 0 -80 -18.5t-23 -55.5q0 -36 24.5 -55.5t80.5 -19.5q103 0 103 75z" />
    <glyph glyph-name="seven" unicode="7" horiz-adv-x="871" 
d="M61 724h749v-213q-121 -81 -193 -161t-104 -165t-32 -185h-282q0 151 70 280.5t241 230.5h-449v213z" />
    <glyph glyph-name="eight" unicode="8" horiz-adv-x="985" 
d="M881 313.5q49 -44.5 49 -116.5q0 -69 -39 -116.5t-135.5 -74t-263.5 -26.5t-263 26.5t-135 73.5t-39 117q0 72 49 116.5t152 65.5q-71 23 -106.5 65.5t-35.5 107.5q0 93 99 142.5t279 49.5t279.5 -50t99.5 -142q0 -65 -36 -107.5t-107 -65.5q104 -21 153 -65.5zM408 567
q-24 -12 -24 -37t24 -37t84 -12q61 0 85 12t24 37t-24.5 37t-84.5 12t-84 -12zM624 218q0 31 -32 46.5t-100 15.5t-99.5 -15t-31.5 -47q0 -31 32 -46t99 -15q132 0 132 61z" />
    <glyph glyph-name="nine" unicode="9" horiz-adv-x="913" 
d="M849 375l11 2q0 -204 -132 -300.5t-351 -96.5q-77 0 -125.5 3t-124.5 14v201q70 -9 118 -13t107 -4q101 0 149 22t60 78q-53 -19 -102 -29.5t-114 -10.5q-135 0 -207.5 61t-72.5 175q0 134 96 200.5t282 66.5q208 0 312.5 -93.5t104.5 -271.5zM544.5 412.5
q22.5 18.5 22.5 55.5q0 36 -24.5 55.5t-79.5 19.5q-104 0 -104 -75q0 -74 105 -74q58 0 80.5 18.5z" />
    <glyph glyph-name="colon" unicode=":" horiz-adv-x="378" 
d="M54 0v199h270v-199h-270zM54 300v199h270v-199h-270z" />
    <glyph glyph-name="semicolon" unicode=";" horiz-adv-x="378" 
d="M54 0v199h270v-199l-126 -231h-120l75 231h-99zM54 300v199h270v-199h-270z" />
    <glyph glyph-name="less" unicode="&#x3c;" horiz-adv-x="914" 
d="M53 508l808 95v-215l-579 -48l579 -48v-215l-808 95v336z" />
    <glyph glyph-name="equal" unicode="=" horiz-adv-x="913" 
d="M53 406v188h806v-188h-806zM53 86v188h806v-188h-806z" />
    <glyph glyph-name="greater" unicode="&#x3e;" horiz-adv-x="914" 
d="M53 388v215l808 -95v-336l-808 -95v215l579 48z" />
    <glyph glyph-name="question" unicode="?" horiz-adv-x="857" 
d="M278 249q0 62 24.5 103.5t57.5 64t82 46.5q35 17 51 28t16 27q0 15 -15 26t-52 11q-118 0 -118 -98h-270q9 144 114.5 215.5t287.5 71.5q172 0 259.5 -44t87.5 -134q0 -46 -18.5 -77.5t-46 -52t-71.5 -44.5q-41 -23 -64 -40t-39 -42.5t-16 -60.5h-270zM279 0v199h270
v-199h-270z" />
    <glyph glyph-name="at" unicode="@" horiz-adv-x="1390" 
d="M1013 -107.5q117 23.5 230 63.5l70 -146q-94 -40 -159 -63t-164.5 -39t-235.5 -16q-362 0 -531.5 146.5t-169.5 429.5q0 269 172 419t532 150q196 0 325.5 -63t191.5 -174t62 -258q0 -182 -73.5 -265.5t-214.5 -83.5q-78 0 -134 31.5t-85 84.5q-27 -50 -75.5 -77.5
t-117.5 -27.5q-124 0 -187.5 72t-63.5 188t63.5 188.5t187.5 72.5q105 0 165 -66v52h175v-295q0 -41 4.5 -64.5t22 -38.5t55.5 -15q53 0 72.5 53.5t19.5 151.5q0 139 -37 215.5t-121.5 109t-234.5 32.5q-192 0 -305 -41.5t-162.5 -127t-49.5 -223.5q0 -144 49 -230.5
t161 -127.5t304 -41q142 0 259 23.5zM772 192q29 23 29 72q0 96 -115 96t-115 -96q0 -49 29 -72t86 -23t86 23z" />
    <glyph glyph-name="A" unicode="A" horiz-adv-x="1155" 
d="M1112 0h-300l-52 118h-365l-52 -118h-300l331 724h407zM578 528l-94 -210h187z" />
    <glyph glyph-name="B" unicode="B" horiz-adv-x="949" 
d="M858 319q48 -43 48 -119q0 -93 -61 -146.5t-193 -53.5h-599v724h555q139 0 197 -45.5t58 -130.5q0 -65 -36 -106.5t-97 -61.5q80 -18 128 -61zM336 523v-78h181q27 0 38 1.5t18.5 9.5t7.5 28q0 21 -7.5 29t-17.5 9t-39 1h-181zM560 201q4 0 20 -0.5t24 9t8 29.5t-7 28
t-16 9.5t-29 1.5h-224v-77h224z" />
    <glyph glyph-name="C" unicode="C" horiz-adv-x="970" 
d="M157.5 649q114.5 95 326.5 95q199 0 313 -80t129 -237h-301q-6 31 -42 55.5t-99 24.5q-78 0 -112.5 -40.5t-34.5 -103.5t35 -104.5t112 -41.5q63 0 99 25.5t42 56.5h301q-15 -158 -128.5 -238.5t-313.5 -80.5q-211 0 -326 96t-115 287t114.5 286z" />
    <glyph glyph-name="D" unicode="D" horiz-adv-x="951" 
d="M743.5 684.5q73.5 -39.5 118.5 -121.5t45 -201t-45 -201t-118.5 -121.5t-159.5 -39.5h-531v724h531q86 0 159.5 -39.5zM472 237h30q50 0 80.5 24t30.5 101t-30.5 101t-80.5 24h-30h-136v-250h136z" />
    <glyph glyph-name="E" unicode="E" horiz-adv-x="854" 
d="M799 724v-210h-463v-57h443v-190h-443v-57h463v-210h-746v724h746z" />
    <glyph glyph-name="F" unicode="F" horiz-adv-x="854" 
d="M799 724v-237h-463v-69h403v-237h-403v-181h-283v724h746z" />
    <glyph glyph-name="G" unicode="G" horiz-adv-x="970" 
d="M101.5 574.5q58.5 85.5 161.5 127.5t235 42q122 0 217.5 -36t151 -101t59.5 -150h-301q-8 19 -37.5 34.5t-86.5 15.5q-164 0 -164 -156q0 -54 17.5 -88.5t61.5 -52t121 -17.5q88 0 167 31v23h-202v164h424v-333q-102 -57 -198.5 -77.5t-208.5 -20.5q-143 0 -250 42.5
t-166.5 128t-59.5 212.5q0 126 58.5 211.5z" />
    <glyph glyph-name="H" unicode="H" horiz-adv-x="1034" 
d="M698 480v244h283v-724h-283v244h-362v-244h-283v724h283v-244h362z" />
    <glyph glyph-name="I" unicode="I" horiz-adv-x="390" 
d="M53 724h283v-724h-283v724z" />
    <glyph glyph-name="J" unicode="J" horiz-adv-x="954" 
d="M901 351q0 -187 -101.5 -280t-322.5 -93q-215 0 -319.5 93.5t-104.5 279.5h283q0 -57 31 -96.5t110 -39.5q78 0 109 39.5t31 96.5v136h-236v237h520v-373z" />
    <glyph glyph-name="K" unicode="K" horiz-adv-x="1029" 
d="M572 724h414l-321 -284l321 -440h-340l-180 263l-130 -115v-148h-283v724h283v-237z" />
    <glyph glyph-name="L" unicode="L" horiz-adv-x="819" 
d="M336 724v-487h452v-237h-735v724h283z" />
    <glyph glyph-name="M" unicode="M" horiz-adv-x="1306" 
d="M1253 724v-724h-283v438l-185 -438h-263l-186 439v-439h-283v724h443l158 -387l157 387h442z" />
    <glyph glyph-name="N" unicode="N" horiz-adv-x="1094" 
d="M758 292v432h283v-724h-420l-285 432v-432h-283v724h420z" />
    <glyph glyph-name="O" unicode="O" horiz-adv-x="1039" 
d="M262.5 24q-106.5 44 -163 130t-56.5 209q0 184 125 282.5t351 98.5q149 0 256.5 -44t164 -129.5t56.5 -207.5t-56.5 -208t-164 -130.5t-256.5 -44.5q-150 0 -256.5 44zM662.5 257q39.5 40 39.5 106q0 65 -39 104.5t-144 39.5q-104 0 -143 -39.5t-39 -104.5q0 -66 39 -106
t143 -40t143.5 40z" />
    <glyph glyph-name="P" unicode="P" horiz-adv-x="970" 
d="M849 650q77 -74 77 -205q0 -130 -77 -204t-214 -74h-299v-167h-283v724h582q137 0 214 -74zM569 403q5 0 25 -0.5t29 10t9 32.5t-7.5 31t-17.5 10t-38 1h-233v-84h233z" />
    <glyph glyph-name="Q" unicode="Q" horiz-adv-x="1078" 
d="M1043 71l-131 -131l-111 96q-114 -56 -282 -56q-150 0 -256.5 44t-163 130t-56.5 209q0 184 125 282.5t351 98.5q149 0 256.5 -44t164 -129.5t56.5 -207.5q0 -119 -54 -205zM583 222l-74 64l131 131l62 -53q0 64 -39.5 103.5t-143.5 39.5t-143 -39.5t-39 -104.5
q0 -66 39 -106t143 -40q34 0 64 5z" />
    <glyph glyph-name="R" unicode="R" horiz-adv-x="994" 
d="M894.5 238q37.5 -36 37.5 -103v-135h-283v89q0 48 -15 64t-60 16h-238v-169h-283v724h573q152 0 228 -61.5t76 -177.5q0 -85 -35 -136t-105 -72q67 -3 104.5 -39zM336 499v-106h222q32 0 45.5 2t23 13t9.5 38t-9.5 38t-23 13t-45.5 2h-222z" />
    <glyph glyph-name="S" unicode="S" horiz-adv-x="989" 
d="M338 238q0 -24 38.5 -40.5t123.5 -16.5q67 0 100 4.5t42 12t9 18.5q0 15 -11 22t-47 12.5t-123 12.5q-146 11 -237.5 39.5t-137 80.5t-45.5 132q0 72 50.5 123.5t143 78.5t215.5 27q215 0 330.5 -63.5t124.5 -182.5h-293q0 24 -38.5 34.5t-119.5 10.5q-119 0 -119 -28
q0 -11 11.5 -17.5t48.5 -13t114 -13.5q153 -14 238.5 -33t136.5 -68t51 -143q0 -133 -108 -190t-323 -57q-225 0 -343 61t-126 197h294z" />
    <glyph glyph-name="T" unicode="T" horiz-adv-x="952" 
d="M909 724v-237h-291v-487h-283v487h-292v237h866z" />
    <glyph glyph-name="U" unicode="U" horiz-adv-x="994" 
d="M941 353q0 -187 -108 -280t-336 -93q-229 0 -336.5 92.5t-107.5 280.5v371h283v-359q0 -64 37.5 -106t123.5 -42t123 42t37 106v359h284v-371z" />
    <glyph glyph-name="V" unicode="V" horiz-adv-x="1155" 
d="M578 196l234 528h300l-331 -724h-407l-331 724h300z" />
    <glyph glyph-name="W" unicode="W" horiz-adv-x="1675" 
d="M1205 220l143 504h284l-215 -724h-411l-168 481l-166 -481h-411l-218 724h284l146 -504l179 504h371z" />
    <glyph glyph-name="X" unicode="X" horiz-adv-x="1165" 
d="M420 0h-378l348 362l-348 362h378l163 -194l163 194h377l-348 -362l348 -362h-377l-163 194z" />
    <glyph glyph-name="Y" unicode="Y" horiz-adv-x="1129" 
d="M565 481l172 243h349l-380 -483v-241h-282v241l-381 483h350z" />
    <glyph glyph-name="Z" unicode="Z" horiz-adv-x="926" 
d="M53 724h820v-237l-412 -250h412v-237h-820v237l412 250h-412v237z" />
    <glyph glyph-name="bracketleft" unicode="[" horiz-adv-x="659" 
d="M605 800v-213h-270v-574h270v-213h-552v1000h552z" />
    <glyph glyph-name="backslash" unicode="\" horiz-adv-x="642" 
d="M342 -150l-289 966h247l289 -966h-247z" />
    <glyph glyph-name="bracketright" unicode="]" horiz-adv-x="659" 
d="M53 800h552v-1000h-552v213h270v574h-270v213z" />
    <glyph glyph-name="asciicircum" unicode="^" horiz-adv-x="915" 
d="M627 800l235 -450h-241l-163 325l-164 -325h-241l236 450h338z" />
    <glyph glyph-name="underscore" unicode="_" horiz-adv-x="1153" 
d="M73 -230v200h1006v-200h-1006z" />
    <glyph glyph-name="grave" unicode="`" horiz-adv-x="499" 
d="M53 865l392 -80v-109l-392 80v109z" />
    <glyph glyph-name="a" unicode="a" horiz-adv-x="949" 
d="M737 592.5q82 -31.5 123 -101.5t42 -185v-306h-259v82q-72 -48 -160.5 -69t-169.5 -21q-124 0 -200 44t-76 145q0 114 99.5 159.5t244.5 45.5q136 0 262 -29q-4 49 -44.5 69.5t-124.5 20.5q-81 0 -163 -11t-194 -36l-31 175q240 49 439 49q130 0 212 -31.5zM590 183l53 5
v42q-123 13 -221 13q-65 0 -90.5 -8.5t-25.5 -29.5q0 -19 22.5 -27.5t75.5 -8.5q46 0 186 14z" />
    <glyph glyph-name="b" unicode="b" horiz-adv-x="934" 
d="M734.5 593.5q72.5 -30.5 120 -102.5t47.5 -189t-47.5 -189t-120 -102.5t-152.5 -30.5q-83 0 -154.5 29t-114.5 95v-104h-260v800h260v-300q43 66 114.5 95t154.5 29q80 0 152.5 -30.5zM593 219q39 26 39 83t-39 83t-121 26q-83 0 -121 -26t-38 -83t38 -83t121 -26
q82 0 121 26z" />
    <glyph glyph-name="c" unicode="c" horiz-adv-x="936" 
d="M142.5 542.5q111.5 81.5 324.5 81.5q194 0 304.5 -68t132.5 -205h-263q-30 72 -174 72q-90 0 -134 -29t-44 -92t44 -92t134 -29q144 0 174 72h263q-22 -137 -132.5 -205t-304.5 -68q-213 0 -324.5 81.5t-111.5 240.5t111.5 240.5z" />
    <glyph glyph-name="d" unicode="d" horiz-adv-x="934" 
d="M621 800h260v-800h-260v104q-43 -66 -114.5 -95t-154.5 -29q-80 0 -152.5 30.5t-120 102.5t-47.5 189t47.5 189t120 102.5t152.5 30.5q83 0 154.5 -29t114.5 -95v300zM583 219q38 26 38 83t-38 83t-121 26q-82 0 -121 -26t-39 -83t39 -83t121 -26q83 0 121 26z" />
    <glyph glyph-name="e" unicode="e" horiz-adv-x="933" 
d="M595.5 182.5q36.5 13.5 51.5 38.5h251q-32 -119 -132 -180t-290 -61q-211 0 -328 82.5t-117 239.5q0 104 55 176.5t153.5 109t227.5 36.5q203 0 319 -92t116 -272h-609q12 -52 58.5 -71.5t134.5 -19.5q73 0 109.5 13.5zM359.5 441q-40.5 -18 -57.5 -59h332q-18 41 -59 59
t-108 18t-107.5 -18z" />
    <glyph glyph-name="f" unicode="f" horiz-adv-x="683" 
d="M452 644q-25 -13 -27 -40h225v-189h-226v-415h-259v415h-133v189h133v22q0 90 78 143t229 53q101 0 178 -10v-162q3 0 -51 4q-48 3 -62 3q-60 0 -85 -13z" />
    <glyph glyph-name="g" unicode="g" horiz-adv-x="934" 
d="M621 604h259v-539q-1 -172 -92.5 -248.5t-283.5 -76.5q-207 0 -440 54l39 191q115 -24 196.5 -34t157.5 -10q51 0 85.5 7.5t56.5 31.5t22 71v74q-43 -64 -115.5 -92.5t-155.5 -28.5q-79 0 -151.5 30t-120 99.5t-47.5 180.5t47.5 180.5t120 99.5t151.5 30
q83 0 155.5 -28.5t115.5 -92.5v101zM585 240.5q36 23.5 36 73.5t-36 73.5t-124 23.5t-124 -23.5t-36 -73.5t36 -73.5t124 -23.5t124 23.5z" />
    <glyph glyph-name="h" unicode="h" horiz-adv-x="1009" 
d="M876.5 553.5q79.5 -70.5 79.5 -225.5v-328h-260v228q0 95 -38 139t-134 44q-106 0 -158.5 -44t-52.5 -134v-233h-260v800h260v-335q61 76 142.5 117.5t200.5 41.5q141 0 220.5 -70.5z" />
    <glyph glyph-name="i" unicode="i" horiz-adv-x="366" 
d="M53 657v143h260v-143h-260zM53 0v604h260v-604h-260z" />
    <glyph glyph-name="j" unicode="j" horiz-adv-x="545" 
d="M230 657v143h260v-143h-260zM490 34q0 -141 -73.5 -217.5t-223.5 -76.5q-94 0 -180 15v195q75 -9 122 -9q39 0 58.5 8t28 29.5t8.5 65.5v560h260v-570z" />
    <glyph glyph-name="k" unicode="k" horiz-adv-x="986" 
d="M568 604h387l-335 -249l335 -355h-317l-198 222l-127 -94v-128h-260v800h260v-395z" />
    <glyph glyph-name="l" unicode="l" horiz-adv-x="366" 
d="M53 0v800h260v-800h-260z" />
    <glyph glyph-name="m" unicode="m" horiz-adv-x="1408" 
d="M1222.5 594.5q59.5 -29.5 95.5 -94.5t36 -165v-335h-259v293q0 66 -29.5 92t-92.5 26q-65 0 -102.5 -25.5t-37.5 -86.5v-299h-259v293q0 66 -29.5 92t-92.5 26q-64 0 -101.5 -25t-37.5 -87v-299h-260v604h260v-101q51 59 114 90t144 31q80 0 144 -37t95 -114
q54 73 122 112t160 39q71 0 130.5 -29.5z" />
    <glyph glyph-name="n" unicode="n" horiz-adv-x="1009" 
d="M876.5 553.5q79.5 -70.5 79.5 -225.5v-328h-260v228q0 95 -38 139t-134 44q-106 0 -158.5 -44t-52.5 -134v-233h-260v604h260v-139q61 76 142.5 117.5t200.5 41.5q141 0 220.5 -70.5z" />
    <glyph glyph-name="o" unicode="o" horiz-adv-x="933" 
d="M140.5 65q-109.5 85 -109.5 237t109.5 237t326.5 85q216 0 325.5 -85t109.5 -237t-109.5 -237t-325.5 -85q-217 0 -326.5 85zM593 209.5q39 28.5 39 92.5t-39 92.5t-126 28.5t-126.5 -28.5t-39.5 -92.5t39.5 -92.5t126.5 -28.5t126 28.5z" />
    <glyph glyph-name="p" unicode="p" horiz-adv-x="934" 
d="M734.5 593.5q72.5 -30.5 120.5 -102.5t48 -189t-48 -189t-120.5 -102.5t-152.5 -30.5q-83 0 -154.5 29t-114.5 95v-344h-259v844h259v-104q43 66 114.5 95t154.5 29q80 0 152.5 -30.5zM593.5 219q39.5 26 39.5 83t-38.5 83t-121.5 26t-121.5 -26t-38.5 -83t38 -83
t121 -26q82 0 121.5 26z" />
    <glyph glyph-name="q" unicode="q" horiz-adv-x="934" 
d="M621 604h259v-844h-259v344q-43 -66 -114.5 -95t-154.5 -29q-80 0 -152.5 30.5t-120.5 102.5t-48 189t48 189t120.5 102.5t152.5 30.5q83 0 154.5 -29t114.5 -95v104zM583 219q38 26 38 83t-38.5 83t-121.5 26t-121.5 -26t-38.5 -83t39.5 -83t121.5 -26q83 0 121 26z" />
    <glyph glyph-name="r" unicode="r" horiz-adv-x="727" 
d="M621.5 616.5q32.5 -7.5 70.5 -24.5v-225q-48 19 -82 25.5t-72 6.5q-60 0 -117.5 -27t-107.5 -100v-272h-260v604h260v-136q41 82 97.5 119t138.5 37q40 0 72.5 -7.5z" />
    <glyph glyph-name="s" unicode="s" horiz-adv-x="883" 
d="M301 203q-2 -20 8.5 -32.5t43 -19t95.5 -6.5q57 0 86 4.5t38.5 13.5t9.5 25q0 18 -13 26t-42 11.5t-109 8.5q-142 10 -218.5 25.5t-116 52t-39.5 105.5q0 116 107.5 161.5t287.5 45.5q172 0 279.5 -49t113.5 -157h-270q2 28 -29 40.5t-99 12.5q-66 0 -93 -9t-27 -27
q0 -14 10.5 -20.5t41.5 -10.5t108 -11q147 -12 220 -26.5t115.5 -52.5t42.5 -114q0 -87 -49 -135.5t-134.5 -66.5t-210.5 -18q-209 0 -319 52t-108 171h270z" />
    <glyph glyph-name="t" unicode="t" horiz-adv-x="662" 
d="M632 415h-232v-141q0 -34 18.5 -57.5t59.5 -23.5q40 0 69.5 4t84.5 17v-207q-108 -27 -216 -27q-133 0 -204 51.5t-71 147.5v236h-109v189h109v103l259 65v-168h232v-189z" />
    <glyph glyph-name="u" unicode="u" horiz-adv-x="1009" 
d="M696 604h260v-604h-260v139q-61 -76 -142.5 -117.5t-200.5 -41.5q-141 0 -220.5 70.5t-78.5 225.5v328h259v-228q0 -96 38 -139.5t135 -43.5q105 0 157.5 44t52.5 134v233z" />
    <glyph glyph-name="v" unicode="v" horiz-adv-x="1004" 
d="M502 144l211 460h260l-280 -604h-382l-280 604h261z" />
    <glyph glyph-name="w" unicode="w" horiz-adv-x="1625" 
d="M1164 177l175 427h254l-247 -604h-359l-175 368l-175 -368h-359l-247 604h255l175 -427l201 427h301z" />
    <glyph glyph-name="x" unicode="x" horiz-adv-x="1015" 
d="M366 0h-335l302 302l-302 302h335l141 -169l142 169h334l-301 -302l301 -302h-334l-142 169z" />
    <glyph glyph-name="y" unicode="y" horiz-adv-x="992" 
d="M712 604h260l-266 -575q-46 -98 -96.5 -160.5t-119.5 -95.5t-165 -33q-51 0 -115 10.5t-124 28.5v194q143 -32 202 -32q42 0 64 3t40.5 15.5t36.5 40.5h-120l-278 604h260l210 -456z" />
    <glyph glyph-name="z" unicode="z" horiz-adv-x="830" 
d="M53 604h724v-189l-384 -226h384v-189h-724v189l385 226h-385v189z" />
    <glyph glyph-name="braceleft" unicode="{" horiz-adv-x="659" 
d="M53 405q52 0 85 6.5t55 32t22 77.5q0 15 -1 24q-2 24 -2 35q0 84 40 131.5t125 68t229 20.5v-213q-71 0 -110.5 -8t-58 -31.5t-15.5 -68.5q1 -8 1 -22q0 -84 -41 -115t-92 -31v-20q55 0 97 -35.5t35 -132.5q-3 -46 15.5 -70t58 -32t110.5 -8v-213q-149 0 -234 20.5
t-122.5 67.5t-37.5 130q0 11 2 39q1 9 1 24q0 52 -22 77.5t-55 32t-85 6.5v208z" />
    <glyph glyph-name="bar" unicode="|" horiz-adv-x="342" 
d="M53 -150v950h236v-950h-236z" />
    <glyph glyph-name="braceright" unicode="}" horiz-adv-x="683" 
d="M629 197q-52 0 -84.5 -6.5t-54.5 -32t-22 -77.5q0 -15 1 -24q2 -28 2 -39q0 -83 -37.5 -130t-122.5 -67.5t-234 -20.5v213q71 0 110.5 8t58 32t15.5 70q-1 8 -1 22q0 85 41 115.5t92 30.5v20q-55 0 -97 35t-35 133q3 45 -15.5 68.5t-58 31.5t-110.5 8v213
q144 0 229 -20.5t125 -68t40 -131.5q0 -11 -2 -35q-1 -9 -1 -24q0 -52 22 -77.5t54.5 -32t84.5 -6.5v-208z" />
    <glyph glyph-name="asciitilde" unicode="~" horiz-adv-x="913" 
d="M53 175q0 158 56 244t156 86q49 0 90.5 -15.5t96.5 -45.5q45 -24 71.5 -34.5t53.5 -10.5q39 0 56 23t17 83h210q0 -158 -56 -244t-155 -86q-49 0 -91 15.5t-97 45.5q-45 24 -71.5 34.5t-53.5 10.5q-40 0 -56.5 -22.5t-16.5 -83.5h-210z" />
    <glyph glyph-name="exclamdown" unicode="&#xa1;" horiz-adv-x="399" 
d="M335 401h-270v199h270v-199zM336 352l12 -452h-295l12 452h271z" />
    <glyph glyph-name="cent" unicode="&#xa2;" horiz-adv-x="956" 
d="M531 232q96 12 120 69h263q-40 -254 -383 -272v-129h-107v129q-188 10 -285.5 91t-97.5 230t97.5 230t285.5 91v129h107v-129q343 -18 383 -272h-263q-24 57 -120 69v-236zM330 268.5q31 -28.5 94 -36.5v236q-63 -8 -94 -36.5t-31 -81.5t31 -81.5z" />
    <glyph glyph-name="sterling" unicode="&#xa3;" horiz-adv-x="854" 
d="M461 512.5q-33 -18.5 -33 -67.5q0 -16 7 -51h248v-59h-241q-4 -43 -44 -73.5t-129 -48.5h532v-213h-748v213l31 31q40 41 54.5 57.5t22.5 33.5h-108v59h113q-7 29 -12 44q-13 44 -13 79q0 67 41 118.5t125 80t208 28.5q73 0 134.5 -7t151.5 -23v-212q-84 16 -134.5 22.5
t-101.5 6.5q-71 0 -104 -18.5z" />
    <glyph glyph-name="currency" unicode="&#xa4;" horiz-adv-x="927" 
d="M811 123l63 -61l-91 -90l-90 88q-90 -30 -218 -30t-217 30l-90 -88l-91 90l62 61q-49 41 -74 99t-25 130q0 148 100 230l-63 62l91 90l91 -89q92 29 216 29q126 0 216 -29l92 89l91 -90l-64 -62q100 -84 100 -230q0 -148 -99 -229zM369 248q37 -17 106 -17
q87 0 126.5 28.5t39.5 92.5q0 42 -16 68l-47 38q-39 15 -103 15q-87 0 -126 -28.5t-39 -92.5q0 -30 9 -53l1 1z" />
    <glyph glyph-name="yen" unicode="&#xa5;" horiz-adv-x="1183" 
d="M747 724h349l-287 -365h216v-60h-263l-46 -58v-13h309v-60h-309v-168h-282v168h-276v60h276v13l-46 58h-230v60h183l-288 365h350l172 -243z" />
    <glyph glyph-name="brokenbar" unicode="&#xa6;" horiz-adv-x="342" 
d="M53 424v376h236v-376h-236zM53 -150v376h236v-376h-236z" />
    <glyph glyph-name="section" unicode="&#xa7;" horiz-adv-x="914" 
d="M820 166.5q39 -44.5 39 -118.5q0 -125 -108 -173t-289 -48q-377 0 -390 213h270q-1 -23 11 -34t38 -15t74 -4q67 0 95.5 12.5t28.5 37.5q0 18 -11 27t-45 15.5t-109 13.5q-135 11 -205.5 24t-112.5 45t-42 95q0 60 36 93.5t106 49.5q-78 22 -116.5 64t-38.5 111
q0 125 107 173t289 48q380 0 393 -213h-269q0 23 -12.5 34t-39 15t-75.5 4q-68 0 -95.5 -12.5t-27.5 -37.5q0 -12 11 -19t46.5 -13t108.5 -12q135 -11 205.5 -24t112.5 -45t42 -95q0 -60 -37 -94t-107 -49q78 -24 117 -68.5zM336.5 297q14.5 -10 48 -16t97.5 -11l30 -3
q41 -1 59 11t18 32q0 18 -14.5 28.5t-48.5 16.5t-97 11v-1q-21 3 -38 3q-36 0 -52.5 -12t-16.5 -31q0 -18 14.5 -28z" />
    <glyph glyph-name="dieresis" unicode="&#xa8;" horiz-adv-x="562" 
d="M53 700v104h192v-104h-192zM317 700v104h191v-104h-191z" />
    <glyph glyph-name="copyright" unicode="&#xa9;" horiz-adv-x="932" 
d="M241 34q-93 44 -140.5 125.5t-47.5 191.5t47.5 191t140.5 124.5t225 43.5q133 0 225.5 -43.5t139.5 -124.5t47 -191t-47 -191.5t-139.5 -125.5t-225.5 -44q-132 0 -225 44zM703.5 144q82.5 68 82.5 207q0 138 -82 205.5t-238 67.5q-155 0 -237.5 -67.5t-82.5 -205.5
t82.5 -206.5t237.5 -68.5t237.5 68zM301.5 489.5q64.5 46.5 174.5 46.5q189 0 220 -145h-93q-12 34 -41.5 46.5t-97.5 12.5q-66 0 -100 -23t-34 -77t34 -77t100 -23q68 0 97.5 12.5t41.5 46.5h93q-31 -145 -220 -145q-110 0 -174.5 46.5t-64.5 139.5t64.5 139.5z" />
    <glyph glyph-name="guillemotleft" unicode="&#xab;" horiz-adv-x="1120" 
d="M496 302l260 302h310l-260 -302l260 -302h-310zM53 302l260 302h310l-260 -302l260 -302h-310z" />
    <glyph glyph-name="logicalnot" unicode="&#xac;" horiz-adv-x="911" 
d="M859 470v-188h-1v-232h-236v232h-569v188h806z" />
    <glyph glyph-name="registered" unicode="&#xae;" horiz-adv-x="932" 
d="M241 26.5q-93 46.5 -140.5 130.5t-47.5 194q0 111 48 200.5t141 141t224 51.5t224 -51.5t140.5 -140.5t47.5 -201q0 -111 -47 -194.5t-139.5 -130t-225.5 -46.5q-132 0 -225 46.5zM702.5 139q83.5 73 83.5 212q0 94 -38 163t-110 106.5t-172 37.5t-172 -37.5t-110 -107
t-38 -162.5q0 -139 83.5 -212t236.5 -73t236.5 73zM308 194v324h199q73 0 108.5 -32t35.5 -91q0 -34 -17.5 -62.5t-50.5 -44.5l64 -94h-105l-55 80h-89v-80h-90zM512 360q26 0 37.5 7.5t11.5 27.5t-12 28.5t-37 8.5h-114v-72h114z" />
    <glyph glyph-name="macron" unicode="&#xaf;" horiz-adv-x="582" 
d="M53 699v105h475v-105h-475z" />
    <glyph glyph-name="degree" unicode="&#xb0;" horiz-adv-x="715" 
d="M123 293.5q-70 72.5 -70 189.5q0 116 70.5 188.5t233.5 72.5q164 0 234.5 -72.5t70.5 -188.5q0 -117 -70.5 -189.5t-234.5 -72.5t-234 72.5zM441 404.5q23 30.5 23 79.5q0 47 -23 77t-84 30q-105 0 -105 -107q0 -49 23 -79.5t82 -30.5q61 0 84 30.5z" />
    <glyph glyph-name="plusminus" unicode="&#xb1;" horiz-adv-x="913" 
d="M574 712v-148h285v-188h-285v-148h-236v148h-285v188h285v148h236zM859 6h-806v188h806v-188z" />
    <glyph glyph-name="acute" unicode="&#xb4;" horiz-adv-x="499" 
d="M53 676v109l392 80v-109z" />
    <glyph glyph-name="paragraph" unicode="&#xb6;" horiz-adv-x="969" 
d="M590 800v-950h-235v455q-86 0 -146 12t-108 66t-48 170q0 115 48 169.5t108 66t146 11.5h235zM680 -150v950h236v-950h-236z" />
    <glyph glyph-name="periodcentered" unicode="&#xb7;" horiz-adv-x="375" 
d="M54 223v199h270v-199h-270z" />
    <glyph glyph-name="cedilla" unicode="&#xb8;" horiz-adv-x="427" 
d="M346 -66q28 -21 28 -59q0 -58 -61 -85t-158 -27q-42 0 -102 7v95q82 -11 118 -11q28 0 40.5 5.5t12.5 18.5q0 10 -7.5 15.5t-20.5 5.5q-18 0 -37 -15l-72 21l19 95h102l-15 -56q33 11 76 11q49 0 77 -21z" />
    <glyph glyph-name="guillemotright" unicode="&#xbb;" horiz-adv-x="1115" 
d="M48 604h310l260 -302l-260 -302h-310l260 302zM492 604h309l260 -302l-260 -302h-309l260 302z" />
    <glyph glyph-name="questiondown" unicode="&#xbf;" horiz-adv-x="855" 
d="M576 600v-199h-270v199h270zM577 351q0 -62 -25 -103.5t-58 -64.5t-82 -46q-35 -17 -50.5 -28t-15.5 -26q0 -16 15 -27t52 -11q54 0 86 23t32 75h270q-9 -144 -114.5 -215.5t-287.5 -71.5q-172 0 -259.5 44t-87.5 134q0 46 18.5 77.5t46 52t71.5 44.5q41 23 64 40
t39 42.5t16 60.5h270z" />
    <glyph glyph-name="Agrave" unicode="&#xc0;" horiz-adv-x="1155" 
d="M1112 0h-300l-52 118h-365l-52 -118h-300l331 724h407zM578 528l-94 -210h187zM381 985l392 -80v-109l-392 80v109z" />
    <glyph glyph-name="Aacute" unicode="&#xc1;" horiz-adv-x="1155" 
d="M1112 0h-300l-52 118h-365l-52 -118h-300l331 724h407zM578 528l-94 -210h187zM381 796v109l392 80v-109z" />
    <glyph glyph-name="Acircumflex" unicode="&#xc2;" horiz-adv-x="1155" 
d="M1112 0h-300l-52 118h-365l-52 -118h-300l331 724h407zM578 528l-94 -210h187zM367 905l210 80l210 -80v-112l-210 80l-210 -80v112z" />
    <glyph glyph-name="Atilde" unicode="&#xc3;" horiz-adv-x="1155" 
d="M1112 0h-300l-52 118h-365l-52 -118h-300l331 724h407zM578 528l-94 -210h187zM260 777q0 101 36.5 165.5t125.5 64.5q47 0 85.5 -14t84.5 -39q32 -17 53.5 -25.5t41.5 -8.5q33 0 45 20.5t12 68.5h151q0 -101 -36.5 -165.5t-125.5 -64.5q-47 0 -85.5 14t-84.5 39
q-32 17 -53.5 25.5t-41.5 8.5q-33 0 -45 -20.5t-12 -68.5h-151z" />
    <glyph glyph-name="Adieresis" unicode="&#xc4;" horiz-adv-x="1155" 
d="M1112 0h-300l-52 118h-365l-52 -118h-300l331 724h407zM578 528l-94 -210h187zM350 820v104h192v-104h-192zM614 820v104h191v-104h-191z" />
    <glyph glyph-name="Aring" unicode="&#xc5;" horiz-adv-x="1155" 
d="M1112 0h-300l-52 118h-365l-52 -118h-300l331 724h407zM578 528l-94 -210h187zM406.5 815q-53.5 34 -53.5 100t53.5 100t171.5 34q117 0 170.5 -34t53.5 -100t-53.5 -100t-170.5 -34q-118 0 -171.5 34zM647.5 876.5q25.5 10.5 25.5 38.5q0 49 -95 49q-96 0 -96 -49
q0 -28 25.5 -38.5t70.5 -10.5q44 0 69.5 10.5z" />
    <glyph glyph-name="AE" unicode="&#xc6;" horiz-adv-x="1448" 
d="M1404 724v-210h-463v-57h443v-190h-443v-57h463v-210h-746v114h-279l-44 -114h-292l285 724h1076zM533 511l-76 -196h201v196h-125z" />
    <glyph glyph-name="Ccedilla" unicode="&#xc7;" horiz-adv-x="970" 
d="M583 242.5q36 25.5 42 56.5h301q-14 -153 -121.5 -233.5t-295.5 -85.5l-12 -46q33 11 76 11q49 0 77 -21t28 -59q0 -58 -61 -85t-158 -27q-42 0 -102 7v95q82 -11 118 -11q28 0 40.5 5.5t12.5 18.5q0 10 -7.5 15.5t-20.5 5.5q-18 0 -37 -15l-72 21l18 88
q-177 17 -271.5 112t-94.5 268q0 191 114.5 286t326.5 95q199 0 313 -80t129 -237h-301q-6 31 -42 55.5t-99 24.5q-78 0 -112.5 -40.5t-34.5 -103.5t35 -104.5t112 -41.5q63 0 99 25.5z" />
    <glyph glyph-name="Egrave" unicode="&#xc8;" horiz-adv-x="854" 
d="M799 724v-210h-463v-57h443v-190h-443v-57h463v-210h-746v724h746zM265 985l392 -80v-109l-392 80v109z" />
    <glyph glyph-name="Eacute" unicode="&#xc9;" horiz-adv-x="854" 
d="M799 724v-210h-463v-57h443v-190h-443v-57h463v-210h-746v724h746zM265 796v109l392 80v-109z" />
    <glyph glyph-name="Ecircumflex" unicode="&#xca;" horiz-adv-x="854" 
d="M799 724v-210h-463v-57h443v-190h-443v-57h463v-210h-746v724h746zM252 905l210 80l210 -80v-112l-210 80l-210 -80v112z" />
    <glyph glyph-name="Edieresis" unicode="&#xcb;" horiz-adv-x="854" 
d="M799 724v-210h-463v-57h443v-190h-443v-57h463v-210h-746v724h746zM234 820v104h192v-104h-192zM498 820v104h191v-104h-191z" />
    <glyph glyph-name="Igrave" unicode="&#xcc;" horiz-adv-x="390" 
d="M-5 985l400 -80v-109l-400 80v109zM53 724h283v-724h-283v724z" />
    <glyph glyph-name="Iacute" unicode="&#xcd;" horiz-adv-x="390" 
d="M53 724h283v-724h-283v724zM-2 796v109l392 80v-109z" />
    <glyph glyph-name="Icircumflex" unicode="&#xce;" horiz-adv-x="390" 
d="M-19 905l214 80l214 -80v-112l-214 80l-214 -80v112zM336 0h-283v724h283v-724z" />
    <glyph glyph-name="Idieresis" unicode="&#xcf;" horiz-adv-x="390" 
d="M-37 820v104h195v-104h-195zM232 820v104h195v-104h-195zM53 724h283v-724h-283v724z" />
    <glyph glyph-name="Eth" unicode="&#xd0;" horiz-adv-x="979" 
d="M771.5 684.5q73.5 -39.5 118.5 -121.5t45 -201t-45 -201t-118.5 -121.5t-159.5 -39.5h-530v332h-79v60h79v332h530q86 0 159.5 -39.5zM501 237q7 0 48 -1t67 30.5t26 95.5t-22.5 91t-45.5 30.5t-73 3.5h-136v-95h123v-60h-123v-95h136z" />
    <glyph glyph-name="Ntilde" unicode="&#xd1;" horiz-adv-x="1094" 
d="M758 292v432h283v-724h-420l-285 432v-432h-283v724h420zM227 777q0 101 36.5 165.5t125.5 64.5q47 0 85.5 -14t84.5 -39q32 -17 53.5 -25.5t41.5 -8.5q33 0 45 20.5t12 68.5h151q0 -101 -36.5 -165.5t-125.5 -64.5q-47 0 -85.5 14t-84.5 39q-32 17 -53.5 25.5t-41.5 8.5
q-33 0 -45 -20.5t-12 -68.5h-151z" />
    <glyph glyph-name="Ograve" unicode="&#xd2;" horiz-adv-x="1039" 
d="M262.5 24q-106.5 44 -163 130t-56.5 209q0 184 125 282.5t351 98.5q149 0 256.5 -44t164 -129.5t56.5 -207.5t-56.5 -208t-164 -130.5t-256.5 -44.5q-150 0 -256.5 44zM662.5 257q39.5 40 39.5 106q0 65 -39 104.5t-144 39.5q-104 0 -143 -39.5t-39 -104.5q0 -66 39 -106
t143 -40t143.5 40zM323 985l392 -80v-109l-392 80v109z" />
    <glyph glyph-name="Oacute" unicode="&#xd3;" horiz-adv-x="1039" 
d="M262.5 24q-106.5 44 -163 130t-56.5 209q0 184 125 282.5t351 98.5q149 0 256.5 -44t164 -129.5t56.5 -207.5t-56.5 -208t-164 -130.5t-256.5 -44.5q-150 0 -256.5 44zM662.5 257q39.5 40 39.5 106q0 65 -39 104.5t-144 39.5q-104 0 -143 -39.5t-39 -104.5q0 -66 39 -106
t143 -40t143.5 40zM323 796v109l392 80v-109z" />
    <glyph glyph-name="Ocircumflex" unicode="&#xd4;" horiz-adv-x="1039" 
d="M262.5 24q-106.5 44 -163 130t-56.5 209q0 184 125 282.5t351 98.5q149 0 256.5 -44t164 -129.5t56.5 -207.5t-56.5 -208t-164 -130.5t-256.5 -44.5q-150 0 -256.5 44zM662.5 257q39.5 40 39.5 106q0 65 -39 104.5t-144 39.5q-104 0 -143 -39.5t-39 -104.5q0 -66 39 -106
t143 -40t143.5 40zM309 905l210 80l210 -80v-112l-210 80l-210 -80v112z" />
    <glyph glyph-name="Otilde" unicode="&#xd5;" horiz-adv-x="1039" 
d="M262.5 24q-106.5 44 -163 130t-56.5 209q0 184 125 282.5t351 98.5q149 0 256.5 -44t164 -129.5t56.5 -207.5t-56.5 -208t-164 -130.5t-256.5 -44.5q-150 0 -256.5 44zM662.5 257q39.5 40 39.5 106q0 65 -39 104.5t-144 39.5q-104 0 -143 -39.5t-39 -104.5q0 -66 39 -106
t143 -40t143.5 40zM202 777q0 101 36.5 165.5t125.5 64.5q47 0 85.5 -14t84.5 -39q32 -17 53.5 -25.5t41.5 -8.5q33 0 45 20.5t12 68.5h151q0 -101 -36.5 -165.5t-125.5 -64.5q-47 0 -85.5 14t-84.5 39q-32 17 -53.5 25.5t-41.5 8.5q-33 0 -45 -20.5t-12 -68.5h-151z" />
    <glyph glyph-name="Odieresis" unicode="&#xd6;" horiz-adv-x="1039" 
d="M262.5 24q-106.5 44 -163 130t-56.5 209q0 184 125 282.5t351 98.5q149 0 256.5 -44t164 -129.5t56.5 -207.5t-56.5 -208t-164 -130.5t-256.5 -44.5q-150 0 -256.5 44zM662.5 257q39.5 40 39.5 106q0 65 -39 104.5t-144 39.5q-104 0 -143 -39.5t-39 -104.5q0 -66 39 -106
t143 -40t143.5 40zM292 820v104h192v-104h-192zM556 820v104h191v-104h-191z" />
    <glyph glyph-name="multiply" unicode="&#xd7;" horiz-adv-x="900" 
d="M752 611l94 -164l-207 -119l207 -120l-94 -163l-302 174l-302 -174l-94 163l207 120l-207 119l95 164l301 -174z" />
    <glyph glyph-name="Oslash" unicode="&#xd8;" horiz-adv-x="1039" 
d="M939.5 155.5q-56.5 -85.5 -163 -130.5t-254.5 -45l-26 -163h-120l27 171q-173 23 -266.5 119.5t-93.5 255.5q0 184 125 282.5t351 98.5h2l22 140h120l-23 -148q170 -25 263 -120.5t93 -252.5q0 -122 -56.5 -207.5zM360 276.5q23 -35.5 80 -50.5l44 280q-84 -8 -115.5 -46
t-31.5 -97q0 -51 23 -86.5zM559 219q81 8 112 46.5t31 97.5q0 49 -21.5 84.5t-77.5 50.5z" />
    <glyph glyph-name="Ugrave" unicode="&#xd9;" horiz-adv-x="994" 
d="M941 353q0 -187 -108 -280t-336 -93q-229 0 -336.5 92.5t-107.5 280.5v371h283v-359q0 -64 37.5 -106t123.5 -42t123 42t37 106v359h284v-371zM300 985l392 -80v-109l-392 80v109z" />
    <glyph glyph-name="Uacute" unicode="&#xda;" horiz-adv-x="994" 
d="M941 353q0 -187 -108 -280t-336 -93q-229 0 -336.5 92.5t-107.5 280.5v371h283v-359q0 -64 37.5 -106t123.5 -42t123 42t37 106v359h284v-371zM300 796v109l392 80v-109z" />
    <glyph glyph-name="Ucircumflex" unicode="&#xdb;" horiz-adv-x="994" 
d="M941 353q0 -187 -108 -280t-336 -93q-229 0 -336.5 92.5t-107.5 280.5v371h283v-359q0 -64 37.5 -106t123.5 -42t123 42t37 106v359h284v-371zM287 905l210 80l210 -80v-112l-210 80l-210 -80v112z" />
    <glyph glyph-name="Udieresis" unicode="&#xdc;" horiz-adv-x="994" 
d="M941 353q0 -187 -108 -280t-336 -93q-229 0 -336.5 92.5t-107.5 280.5v371h283v-359q0 -64 37.5 -106t123.5 -42t123 42t37 106v359h284v-371zM269 820v104h192v-104h-192zM533 820v104h191v-104h-191z" />
    <glyph glyph-name="Yacute" unicode="&#xdd;" horiz-adv-x="1129" 
d="M565 481l172 243h349l-380 -483v-241h-282v241l-381 483h350zM368 796v109l392 80v-109z" />
    <glyph glyph-name="Thorn" unicode="&#xde;" horiz-adv-x="957" 
d="M622 637q90 0 156 -33t101 -93t35 -141t-35 -141t-101 -93t-156 -33h-287v-103h-282v724h282v-87h287zM556 340h25.5t29.5 7t9 23t-8 22.5t-17.5 7t-38.5 0.5h-221v-60h221z" />
    <glyph glyph-name="germandbls" unicode="&#xdf;" horiz-adv-x="898" 
d="M800.5 325.5q54.5 -41.5 54.5 -124.5q0 -88 -46.5 -130.5t-141 -56.5t-269.5 -14v201q85 0 123 4t51 15t13 35t-13 35t-51 15t-123 4v129q63 0 87.5 9t24.5 39q0 28 -24 42.5t-62 14.5q-48 0 -80.5 -24t-32.5 -92v-427h-258v403q0 136 51 211.5t133.5 102.5t195.5 27
q347 0 347 -207q0 -116 -134 -156q100 -14 154.5 -55.5z" />
    <glyph glyph-name="agrave" unicode="&#xe0;" horiz-adv-x="949" 
d="M737 592.5q82 -31.5 123 -101.5t42 -185v-306h-259v82q-72 -48 -160.5 -69t-169.5 -21q-124 0 -200 44t-76 145q0 114 99.5 159.5t244.5 45.5q136 0 262 -29q-4 49 -44.5 69.5t-124.5 20.5q-81 0 -163 -11t-194 -36l-31 175q240 49 439 49q130 0 212 -31.5zM590 183l53 5
v42q-123 13 -221 13q-65 0 -90.5 -8.5t-25.5 -29.5q0 -19 22.5 -27.5t75.5 -8.5q46 0 186 14zM293 865l392 -80v-109l-392 80v109z" />
    <glyph glyph-name="aacute" unicode="&#xe1;" horiz-adv-x="949" 
d="M737 592.5q82 -31.5 123 -101.5t42 -185v-306h-259v82q-72 -48 -160.5 -69t-169.5 -21q-124 0 -200 44t-76 145q0 114 99.5 159.5t244.5 45.5q136 0 262 -29q-4 49 -44.5 69.5t-124.5 20.5q-81 0 -163 -11t-194 -36l-31 175q240 49 439 49q130 0 212 -31.5zM590 183l53 5
v42q-123 13 -221 13q-65 0 -90.5 -8.5t-25.5 -29.5q0 -19 22.5 -27.5t75.5 -8.5q46 0 186 14zM293 676v109l392 80v-109z" />
    <glyph glyph-name="acircumflex" unicode="&#xe2;" horiz-adv-x="949" 
d="M737 592.5q82 -31.5 123 -101.5t42 -185v-306h-259v82q-72 -48 -160.5 -69t-169.5 -21q-124 0 -200 44t-76 145q0 114 99.5 159.5t244.5 45.5q136 0 262 -29q-4 49 -44.5 69.5t-124.5 20.5q-81 0 -163 -11t-194 -36l-31 175q240 49 439 49q130 0 212 -31.5zM590 183l53 5
v42q-123 13 -221 13q-65 0 -90.5 -8.5t-25.5 -29.5q0 -19 22.5 -27.5t75.5 -8.5q46 0 186 14zM280 785l210 80l210 -80v-112l-210 80l-210 -80v112z" />
    <glyph glyph-name="atilde" unicode="&#xe3;" horiz-adv-x="949" 
d="M737 592.5q82 -31.5 123 -101.5t42 -185v-306h-259v82q-72 -48 -160.5 -69t-169.5 -21q-124 0 -200 44t-76 145q0 114 99.5 159.5t244.5 45.5q136 0 262 -29q-4 49 -44.5 69.5t-124.5 20.5q-81 0 -163 -11t-194 -36l-31 175q240 49 439 49q130 0 212 -31.5zM590 183l53 5
v42q-123 13 -221 13q-65 0 -90.5 -8.5t-25.5 -29.5q0 -19 22.5 -27.5t75.5 -8.5q46 0 186 14zM173 657q0 101 36.5 165.5t125.5 64.5q47 0 85.5 -14t84.5 -39q32 -17 53.5 -25.5t41.5 -8.5q33 0 45 20.5t12 68.5h151q0 -101 -36.5 -165.5t-125.5 -64.5q-47 0 -85.5 14
t-84.5 39q-32 17 -53.5 25.5t-41.5 8.5q-33 0 -45 -20.5t-12 -68.5h-151z" />
    <glyph glyph-name="adieresis" unicode="&#xe4;" horiz-adv-x="949" 
d="M737 592.5q82 -31.5 123 -101.5t42 -185v-306h-259v82q-72 -48 -160.5 -69t-169.5 -21q-124 0 -200 44t-76 145q0 114 99.5 159.5t244.5 45.5q136 0 262 -29q-4 49 -44.5 69.5t-124.5 20.5q-81 0 -163 -11t-194 -36l-31 175q240 49 439 49q130 0 212 -31.5zM590 183l53 5
v42q-123 13 -221 13q-65 0 -90.5 -8.5t-25.5 -29.5q0 -19 22.5 -27.5t75.5 -8.5q46 0 186 14zM262 700v104h192v-104h-192zM526 700v104h191v-104h-191z" />
    <glyph glyph-name="aring" unicode="&#xe5;" horiz-adv-x="949" 
d="M737 592.5q82 -31.5 123 -101.5t42 -185v-306h-259v82q-72 -48 -160.5 -69t-169.5 -21q-124 0 -200 44t-76 145q0 114 99.5 159.5t244.5 45.5q136 0 262 -29q-4 49 -44.5 69.5t-124.5 20.5q-81 0 -163 -11t-194 -36l-31 175q240 49 439 49q130 0 212 -31.5zM590 183l53 5
v42q-123 13 -221 13q-65 0 -90.5 -8.5t-25.5 -29.5q0 -19 22.5 -27.5t75.5 -8.5q46 0 186 14zM318.5 695q-53.5 34 -53.5 100t53.5 100t171.5 34q117 0 170.5 -34t53.5 -100t-53.5 -100t-170.5 -34q-118 0 -171.5 34zM559.5 756.5q25.5 10.5 25.5 38.5q0 49 -95 49
q-96 0 -96 -49q0 -28 25.5 -38.5t70.5 -10.5q44 0 69.5 10.5z" />
    <glyph glyph-name="ae" unicode="&#xe6;" horiz-adv-x="1493" 
d="M1155 182.5q36 13.5 51 38.5h251q-32 -119 -132 -180t-290 -61q-232 0 -348 98q-129 -86 -365 -86q-134 0 -211.5 42t-77.5 136q0 106 109 151t268 45h159q0 32 -34 44.5t-98 12.5q-62 0 -121.5 -12t-146.5 -38l-75 166q79 37 172 55t180 18q165 0 262 -73
q57 42 138 63.5t180 21.5q203 0 319 -92t116 -272h-608q12 -52 58.5 -71.5t134.5 -19.5q73 0 109 13.5zM919.5 441q-40.5 -18 -57.5 -59h332q-18 41 -59.5 59t-108.5 18q-66 0 -106.5 -18zM569 236h-131q-70 0 -102.5 -11.5t-32.5 -30.5q0 -16 13.5 -20.5t52.5 -4.5
q134 0 200 12v55z" />
    <glyph glyph-name="ccedilla" unicode="&#xe7;" horiz-adv-x="936" 
d="M641 253h263q-41 -261 -403 -272l-9 -35q33 11 76 11q49 0 77 -21t28 -59q0 -58 -61 -85t-158 -27q-43 0 -102 7v95q82 -11 118 -11q28 0 40.5 5.5t12.5 18.5q0 10 -7.5 15.5t-20.5 5.5q-18 0 -37 -15l-72 21l15 75q-182 12 -276 93t-94 227q0 159 111.5 240.5
t324.5 81.5q194 0 304.5 -68t132.5 -205h-263q-30 72 -174 72q-90 0 -134 -29t-44 -92t44 -92t134 -29q144 0 174 72z" />
    <glyph glyph-name="egrave" unicode="&#xe8;" horiz-adv-x="933" 
d="M595.5 182.5q36.5 13.5 51.5 38.5h251q-32 -119 -132 -180t-290 -61q-211 0 -328 82.5t-117 239.5q0 104 55 176.5t153.5 109t227.5 36.5q203 0 319 -92t116 -272h-609q12 -52 58.5 -71.5t134.5 -19.5q73 0 109.5 13.5zM359.5 441q-40.5 -18 -57.5 -59h332q-18 41 -59 59
t-108 18t-107.5 -18zM268 865l392 -80v-109l-392 80v109z" />
    <glyph glyph-name="eacute" unicode="&#xe9;" horiz-adv-x="933" 
d="M595.5 182.5q36.5 13.5 51.5 38.5h251q-32 -119 -132 -180t-290 -61q-211 0 -328 82.5t-117 239.5q0 104 55 176.5t153.5 109t227.5 36.5q203 0 319 -92t116 -272h-609q12 -52 58.5 -71.5t134.5 -19.5q73 0 109.5 13.5zM359.5 441q-40.5 -18 -57.5 -59h332q-18 41 -59 59
t-108 18t-107.5 -18zM268 676v109l392 80v-109z" />
    <glyph glyph-name="ecircumflex" unicode="&#xea;" horiz-adv-x="933" 
d="M595.5 182.5q36.5 13.5 51.5 38.5h251q-32 -119 -132 -180t-290 -61q-211 0 -328 82.5t-117 239.5q0 104 55 176.5t153.5 109t227.5 36.5q203 0 319 -92t116 -272h-609q12 -52 58.5 -71.5t134.5 -19.5q73 0 109.5 13.5zM359.5 441q-40.5 -18 -57.5 -59h332q-18 41 -59 59
t-108 18t-107.5 -18zM255 785l210 80l210 -80v-112l-210 80l-210 -80v112z" />
    <glyph glyph-name="edieresis" unicode="&#xeb;" horiz-adv-x="933" 
d="M595.5 182.5q36.5 13.5 51.5 38.5h251q-32 -119 -132 -180t-290 -61q-211 0 -328 82.5t-117 239.5q0 104 55 176.5t153.5 109t227.5 36.5q203 0 319 -92t116 -272h-609q12 -52 58.5 -71.5t134.5 -19.5q73 0 109.5 13.5zM359.5 441q-40.5 -18 -57.5 -59h332q-18 41 -59 59
t-108 18t-107.5 -18zM237 700v104h192v-104h-192zM501 700v104h191v-104h-191z" />
    <glyph glyph-name="igrave" unicode="&#xec;" horiz-adv-x="365" 
d="M53 0v604h258v-604h-258zM-14 865l392 -80v-109l-392 80v109z" />
    <glyph glyph-name="iacute" unicode="&#xed;" horiz-adv-x="365" 
d="M53 0v604h258v-604h-258zM-14 676v109l392 80v-109z" />
    <glyph glyph-name="icircumflex" unicode="&#xee;" horiz-adv-x="365" 
d="M53 0v604h258v-604h-258zM-28 785l210 80l210 -80v-112l-210 80l-210 -80v112z" />
    <glyph glyph-name="idieresis" unicode="&#xef;" horiz-adv-x="365" 
d="M53 0v604h258v-604h-258zM-46 700v104h192v-104h-192zM218 700v104h191v-104h-191z" />
    <glyph glyph-name="ntilde" unicode="&#xf1;" horiz-adv-x="1009" 
d="M876.5 553.5q79.5 -70.5 79.5 -225.5v-328h-260v228q0 95 -38 139t-134 44q-106 0 -158.5 -44t-52.5 -134v-233h-260v604h260v-139q61 76 142.5 117.5t200.5 41.5q141 0 220.5 -70.5zM180 657q0 101 36.5 165.5t125.5 64.5q47 0 85.5 -14t84.5 -39q32 -17 53.5 -25.5
t41.5 -8.5q33 0 45 20.5t12 68.5h151q0 -101 -36.5 -165.5t-125.5 -64.5q-47 0 -85.5 14t-84.5 39q-32 17 -53.5 25.5t-41.5 8.5q-33 0 -45 -20.5t-12 -68.5h-151z" />
    <glyph glyph-name="ograve" unicode="&#xf2;" horiz-adv-x="933" 
d="M140.5 65q-109.5 85 -109.5 237t109.5 237t326.5 85q216 0 325.5 -85t109.5 -237t-109.5 -237t-325.5 -85q-217 0 -326.5 85zM593 209.5q39 28.5 39 92.5t-39 92.5t-126 28.5t-126.5 -28.5t-39.5 -92.5t39.5 -92.5t126.5 -28.5t126 28.5zM270 865l392 -80v-109l-392 80
v109z" />
    <glyph glyph-name="oacute" unicode="&#xf3;" horiz-adv-x="933" 
d="M140.5 65q-109.5 85 -109.5 237t109.5 237t326.5 85q216 0 325.5 -85t109.5 -237t-109.5 -237t-325.5 -85q-217 0 -326.5 85zM593 209.5q39 28.5 39 92.5t-39 92.5t-126 28.5t-126.5 -28.5t-39.5 -92.5t39.5 -92.5t126.5 -28.5t126 28.5zM270 676v109l392 80v-109z" />
    <glyph glyph-name="ocircumflex" unicode="&#xf4;" horiz-adv-x="933" 
d="M140.5 65q-109.5 85 -109.5 237t109.5 237t326.5 85q216 0 325.5 -85t109.5 -237t-109.5 -237t-325.5 -85q-217 0 -326.5 85zM593 209.5q39 28.5 39 92.5t-39 92.5t-126 28.5t-126.5 -28.5t-39.5 -92.5t39.5 -92.5t126.5 -28.5t126 28.5zM256 785l210 80l210 -80v-112
l-210 80l-210 -80v112z" />
    <glyph glyph-name="otilde" unicode="&#xf5;" horiz-adv-x="933" 
d="M140.5 65q-109.5 85 -109.5 237t109.5 237t326.5 85q216 0 325.5 -85t109.5 -237t-109.5 -237t-325.5 -85q-217 0 -326.5 85zM593 209.5q39 28.5 39 92.5t-39 92.5t-126 28.5t-126.5 -28.5t-39.5 -92.5t39.5 -92.5t126.5 -28.5t126 28.5zM149 657q0 101 36.5 165.5
t125.5 64.5q47 0 85.5 -14t84.5 -39q32 -17 53.5 -25.5t41.5 -8.5q33 0 45 20.5t12 68.5h151q0 -101 -36.5 -165.5t-125.5 -64.5q-47 0 -85.5 14t-84.5 39q-32 17 -53.5 25.5t-41.5 8.5q-33 0 -45 -20.5t-12 -68.5h-151z" />
    <glyph glyph-name="odieresis" unicode="&#xf6;" horiz-adv-x="933" 
d="M140.5 65q-109.5 85 -109.5 237t109.5 237t326.5 85q216 0 325.5 -85t109.5 -237t-109.5 -237t-325.5 -85q-217 0 -326.5 85zM593 209.5q39 28.5 39 92.5t-39 92.5t-126 28.5t-126.5 -28.5t-39.5 -92.5t39.5 -92.5t126.5 -28.5t126 28.5zM239 700v104h192v-104h-192z
M503 700v104h191v-104h-191z" />
    <glyph glyph-name="divide" unicode="&#xf7;" horiz-adv-x="913" 
d="M352 500v152h205v-152h-205zM53 224v189h806v-189h-806zM352 -19v151h205v-151h-205z" />
    <glyph glyph-name="oslash" unicode="&#xf8;" horiz-adv-x="933" 
d="M608 613q147 -26 220.5 -106t73.5 -205q0 -152 -109.5 -237t-325.5 -85h-2l-26 -113h-142l28 124q-147 26 -220.5 106t-73.5 205q0 152 109.5 237t326.5 85h1l26 113h142zM318 233q17 -26 53 -39l51 227q-63 -7 -92 -35.5t-29 -83.5q0 -43 17 -69zM511 183q63 7 92 35.5
t29 83.5q0 43 -17 69t-53 39z" />
    <glyph glyph-name="ugrave" unicode="&#xf9;" horiz-adv-x="1009" 
d="M696 604h260v-604h-260v139q-61 -76 -142.5 -117.5t-200.5 -41.5q-141 0 -220.5 70.5t-78.5 225.5v328h259v-228q0 -96 38 -139.5t135 -43.5q105 0 157.5 44t52.5 134v233zM308 865l392 -80v-109l-392 80v109z" />
    <glyph glyph-name="uacute" unicode="&#xfa;" horiz-adv-x="1009" 
d="M696 604h260v-604h-260v139q-61 -76 -142.5 -117.5t-200.5 -41.5q-141 0 -220.5 70.5t-78.5 225.5v328h259v-228q0 -96 38 -139.5t135 -43.5q105 0 157.5 44t52.5 134v233zM308 676v109l392 80v-109z" />
    <glyph glyph-name="ucircumflex" unicode="&#xfb;" horiz-adv-x="1009" 
d="M696 604h260v-604h-260v139q-61 -76 -142.5 -117.5t-200.5 -41.5q-141 0 -220.5 70.5t-78.5 225.5v328h259v-228q0 -96 38 -139.5t135 -43.5q105 0 157.5 44t52.5 134v233zM295 785l210 80l210 -80v-112l-210 80l-210 -80v112z" />
    <glyph glyph-name="udieresis" unicode="&#xfc;" horiz-adv-x="1009" 
d="M696 604h260v-604h-260v139q-61 -76 -142.5 -117.5t-200.5 -41.5q-141 0 -220.5 70.5t-78.5 225.5v328h259v-228q0 -96 38 -139.5t135 -43.5q105 0 157.5 44t52.5 134v233zM277 700v104h192v-104h-192zM541 700v104h191v-104h-191z" />
    <glyph glyph-name="yacute" unicode="&#xfd;" horiz-adv-x="992" 
d="M712 604h260l-266 -575q-46 -98 -96.5 -160.5t-119.5 -95.5t-165 -33q-51 0 -115 10.5t-124 28.5v194q143 -32 202 -32q42 0 64 3t40.5 15.5t36.5 40.5h-120l-278 604h260l210 -456zM293 676v109l392 80v-109z" />
    <glyph glyph-name="thorn" unicode="&#xfe;" horiz-adv-x="932" 
d="M796.5 543q80.5 -69 80.5 -240q0 -172 -80.5 -241.5t-215.5 -69.5q-83 0 -148.5 26t-109.5 75v-242h-270v949h270v-288q44 49 109.5 74.5t148.5 25.5q135 0 215.5 -69zM544.5 223q29.5 6 46 24.5t16.5 55.5t-16 55t-45.5 23.5t-80.5 5.5t-80.5 -5.5t-45.5 -23.5t-16 -55
t16.5 -55.5t46 -24.5t79.5 -6t79.5 6z" />
    <glyph glyph-name="ydieresis" unicode="&#xff;" horiz-adv-x="992" 
d="M712 604h260l-266 -575q-46 -98 -96.5 -160.5t-119.5 -95.5t-165 -33q-51 0 -115 10.5t-124 28.5v194q143 -32 202 -32q42 0 64 3t40.5 15.5t36.5 40.5h-120l-278 604h260l210 -456zM262 700v104h192v-104h-192zM526 700v104h191v-104h-191z" />
    <glyph glyph-name="Amacron" unicode="&#x100;" horiz-adv-x="1155" 
d="M1112 0h-300l-52 118h-365l-52 -118h-300l331 724h407zM578 528l-94 -210h187zM339 819v105h475v-105h-475z" />
    <glyph glyph-name="amacron" unicode="&#x101;" horiz-adv-x="949" 
d="M737 592.5q82 -31.5 123 -101.5t42 -185v-306h-259v82q-72 -48 -160.5 -69t-169.5 -21q-124 0 -200 44t-76 145q0 114 99.5 159.5t244.5 45.5q136 0 262 -29q-4 49 -44.5 69.5t-124.5 20.5q-81 0 -163 -11t-194 -36l-31 175q240 49 439 49q130 0 212 -31.5zM590 183l53 5
v42q-123 13 -221 13q-65 0 -90.5 -8.5t-25.5 -29.5q0 -19 22.5 -27.5t75.5 -8.5q46 0 186 14zM252 699v105h475v-105h-475z" />
    <glyph glyph-name="Abreve" unicode="&#x102;" horiz-adv-x="1155" 
d="M1112 0h-300l-52 118h-365l-52 -118h-300l331 724h407zM578 528l-94 -210h187zM477 983q0 -42 24 -64t77 -22q52 0 76 22t24 64h129q0 -98 -64 -145t-165 -47t-165.5 47t-64.5 145h129z" />
    <glyph glyph-name="abreve" unicode="&#x103;" horiz-adv-x="949" 
d="M737 592.5q82 -31.5 123 -101.5t42 -185v-306h-259v82q-72 -48 -160.5 -69t-169.5 -21q-124 0 -200 44t-76 145q0 114 99.5 159.5t244.5 45.5q136 0 262 -29q-4 49 -44.5 69.5t-124.5 20.5q-81 0 -163 -11t-194 -36l-31 175q240 49 439 49q130 0 212 -31.5zM590 183l53 5
v42q-123 13 -221 13q-65 0 -90.5 -8.5t-25.5 -29.5q0 -19 22.5 -27.5t75.5 -8.5q46 0 186 14zM389 863q0 -42 24 -64t77 -22q52 0 76 22t24 64h129q0 -98 -64 -145t-165 -47t-165.5 47t-64.5 145h129z" />
    <glyph glyph-name="Aogonek" unicode="&#x104;" horiz-adv-x="1155" 
d="M954.5 -84.5q14.5 -9.5 41.5 -12t80 -2.5h36v-152q-184 0 -286 35t-102 118q0 79 131 98h-43l-52 118h-365l-52 -118h-300l331 724h407l331 -724h-36q-67 2 -101.5 -15t-34.5 -40q0 -20 14.5 -29.5zM578 528l-94 -210h187z" />
    <glyph glyph-name="aogonek" unicode="&#x105;" horiz-adv-x="947" 
d="M754 -84.5q15 -9.5 42 -12t79 -2.5h35v-152q-189 0 -288 28t-99 107q0 43 29.5 71.5t98.5 44.5h-8v82q-72 -48 -160.5 -69t-169.5 -21q-124 0 -200 44t-76 145q0 114 99.5 159.5t244.5 45.5q136 0 262 -29q-4 49 -44.5 69.5t-124.5 20.5q-81 0 -163 -11t-194 -36l-31 175
q240 49 439 49q130 0 212 -31.5t123 -101.5t42 -185v-306h-28q-77 -5 -106 -19t-29 -35t15 -30.5zM590 183l53 5v42q-123 13 -221 13q-65 0 -90.5 -8.5t-25.5 -29.5q0 -19 22.5 -27.5t75.5 -8.5q46 0 186 14z" />
    <glyph glyph-name="Cacute" unicode="&#x106;" horiz-adv-x="970" 
d="M157.5 649q114.5 95 326.5 95q199 0 313 -80t129 -237h-301q-6 31 -42 55.5t-99 24.5q-78 0 -112.5 -40.5t-34.5 -103.5t35 -104.5t112 -41.5q63 0 99 25.5t42 56.5h301q-15 -158 -128.5 -238.5t-313.5 -80.5q-211 0 -326 96t-115 287t114.5 286zM287 796v109l392 80
v-109z" />
    <glyph glyph-name="cacute" unicode="&#x107;" horiz-adv-x="936" 
d="M142.5 542.5q111.5 81.5 324.5 81.5q194 0 304.5 -68t132.5 -205h-263q-30 72 -174 72q-90 0 -134 -29t-44 -92t44 -92t134 -29q144 0 174 72h263q-22 -137 -132.5 -205t-304.5 -68q-213 0 -324.5 81.5t-111.5 240.5t111.5 240.5zM268 676v109l392 80v-109z" />
    <glyph glyph-name="Cdotaccent" unicode="&#x10a;" horiz-adv-x="970" 
d="M157.5 649q114.5 95 326.5 95q199 0 313 -80t129 -237h-301q-6 31 -42 55.5t-99 24.5q-78 0 -112.5 -40.5t-34.5 -103.5t35 -104.5t112 -41.5q63 0 99 25.5t42 56.5h301q-15 -158 -128.5 -238.5t-313.5 -80.5q-211 0 -326 96t-115 287t114.5 286zM376 820v104h216v-104
h-216z" />
    <glyph glyph-name="cdotaccent" unicode="&#x10b;" horiz-adv-x="936" 
d="M142.5 542.5q111.5 81.5 324.5 81.5q194 0 304.5 -68t132.5 -205h-263q-30 72 -174 72q-90 0 -134 -29t-44 -92t44 -92t134 -29q144 0 174 72h263q-22 -137 -132.5 -205t-304.5 -68q-213 0 -324.5 81.5t-111.5 240.5t111.5 240.5zM357 700v104h216v-104h-216z" />
    <glyph glyph-name="Ccaron" unicode="&#x10c;" horiz-adv-x="970" 
d="M157.5 649q114.5 95 326.5 95q199 0 313 -80t129 -237h-301q-6 31 -42 55.5t-99 24.5q-78 0 -112.5 -40.5t-34.5 -103.5t35 -104.5t112 -41.5q63 0 99 25.5t42 56.5h301q-15 -158 -128.5 -238.5t-313.5 -80.5q-211 0 -326 96t-115 287t114.5 286zM274 973l210 -80l210 80
v-112l-210 -80l-210 80v112z" />
    <glyph glyph-name="ccaron" unicode="&#x10d;" horiz-adv-x="936" 
d="M142.5 542.5q111.5 81.5 324.5 81.5q194 0 304.5 -68t132.5 -205h-263q-30 72 -174 72q-90 0 -134 -29t-44 -92t44 -92t134 -29q144 0 174 72h263q-22 -137 -132.5 -205t-304.5 -68q-213 0 -324.5 81.5t-111.5 240.5t111.5 240.5zM255 853l210 -80l210 80v-112l-210 -80
l-210 80v112z" />
    <glyph glyph-name="Dcaron" unicode="&#x10e;" horiz-adv-x="951" 
d="M743.5 684.5q73.5 -39.5 118.5 -121.5t45 -201t-45 -201t-118.5 -121.5t-159.5 -39.5h-531v724h531q86 0 159.5 -39.5zM472 237h30q50 0 80.5 24t30.5 101t-30.5 101t-80.5 24h-30h-136v-250h136zM200 949l210 -80l210 80v-112l-210 -80l-210 80v112z" />
    <glyph glyph-name="dcaron" unicode="&#x10f;" horiz-adv-x="1225" 
d="M621 800h260v-800h-260v104q-43 -66 -114.5 -95t-154.5 -29q-80 0 -152.5 30.5t-120 102.5t-47.5 189t47.5 189t120 102.5t152.5 30.5q83 0 154.5 -29t114.5 -95v300zM583 219q38 26 38 83t-38 83t-121 26q-82 0 -121 -26t-39 -83t39 -83t121 -26q83 0 121 26zM939 601
v199h270v-199l-126 -231h-120l75 231h-99z" />
    <glyph glyph-name="Dcroat" unicode="&#x110;" horiz-adv-x="979" 
d="M771.5 684.5q73.5 -39.5 118.5 -121.5t45 -201t-45 -201t-118.5 -121.5t-159.5 -39.5h-530v332h-79v60h79v332h530q86 0 159.5 -39.5zM501 237q7 0 48 -1t67 30.5t26 95.5t-22.5 91t-45.5 30.5t-73 3.5h-136v-95h123v-60h-123v-95h136z" />
    <glyph glyph-name="dcroat" unicode="&#x111;" horiz-adv-x="993" 
d="M959 755v-105h-78v-650h-260v104q-43 -66 -114.5 -95t-154.5 -29q-80 0 -152.5 30.5t-120 102.5t-47.5 189t47.5 189t120 102.5t152.5 30.5q83 0 154.5 -29t114.5 -95v150h-191v105h191v45h260v-45h78zM583 219q38 26 38 83t-38 83t-121 26q-82 0 -121 -26t-39 -83
t39 -83t121 -26q83 0 121 26z" />
    <glyph glyph-name="Emacron" unicode="&#x112;" horiz-adv-x="854" 
d="M799 724v-210h-463v-57h443v-190h-443v-57h463v-210h-746v724h746zM224 819v105h475v-105h-475z" />
    <glyph glyph-name="emacron" unicode="&#x113;" horiz-adv-x="933" 
d="M595.5 182.5q36.5 13.5 51.5 38.5h251q-32 -119 -132 -180t-290 -61q-211 0 -328 82.5t-117 239.5q0 104 55 176.5t153.5 109t227.5 36.5q203 0 319 -92t116 -272h-609q12 -52 58.5 -71.5t134.5 -19.5q73 0 109.5 13.5zM359.5 441q-40.5 -18 -57.5 -59h332q-18 41 -59 59
t-108 18t-107.5 -18zM227 699v105h475v-105h-475z" />
    <glyph glyph-name="Edotaccent" unicode="&#x116;" horiz-adv-x="854" 
d="M799 724v-210h-463v-57h443v-190h-443v-57h463v-210h-746v724h746zM354 820v104h216v-104h-216z" />
    <glyph glyph-name="edotaccent" unicode="&#x117;" horiz-adv-x="933" 
d="M595.5 182.5q36.5 13.5 51.5 38.5h251q-32 -119 -132 -180t-290 -61q-211 0 -328 82.5t-117 239.5q0 104 55 176.5t153.5 109t227.5 36.5q203 0 319 -92t116 -272h-609q12 -52 58.5 -71.5t134.5 -19.5q73 0 109.5 13.5zM359.5 441q-40.5 -18 -57.5 -59h332q-18 41 -59 59
t-108 18t-107.5 -18zM357 700v104h216v-104h-216z" />
    <glyph glyph-name="Eogonek" unicode="&#x118;" horiz-adv-x="854" 
d="M799 514h-463v-57h443v-190h-443v-57h463v-210h-33q-78 -4 -108 -18.5t-30 -36.5q0 -29 29.5 -36.5t105.5 -7.5h36v-152q-183 0 -285 34.5t-102 117.5q0 36 27.5 61.5t99.5 37.5h-486v724h746v-210z" />
    <glyph glyph-name="eogonek" unicode="&#x119;" horiz-adv-x="909" 
d="M595.5 182.5q36.5 13.5 51.5 38.5h251q-27 -103 -103.5 -162t-216.5 -74q-19 -6 -27 -13.5t-8 -16.5q0 -20 27 -26t84 -6h34v-153q-104 0 -167 9t-96 34.5t-33 74.5q0 53 82 92q-210 0 -326.5 82t-116.5 240q0 104 55 176.5t153.5 109t227.5 36.5q203 0 319 -92t116 -272
h-609q12 -52 58.5 -71.5t134.5 -19.5q73 0 109.5 13.5zM359.5 441q-40.5 -18 -57.5 -59h332q-18 41 -59 59t-108 18t-107.5 -18z" />
    <glyph glyph-name="Ecaron" unicode="&#x11a;" horiz-adv-x="854" 
d="M799 724v-210h-463v-57h443v-190h-443v-57h463v-210h-746v724h746zM252 973l210 -80l210 80v-112l-210 -80l-210 80v112z" />
    <glyph glyph-name="ecaron" unicode="&#x11b;" horiz-adv-x="933" 
d="M595.5 182.5q36.5 13.5 51.5 38.5h251q-32 -119 -132 -180t-290 -61q-211 0 -328 82.5t-117 239.5q0 104 55 176.5t153.5 109t227.5 36.5q203 0 319 -92t116 -272h-609q12 -52 58.5 -71.5t134.5 -19.5q73 0 109.5 13.5zM359.5 441q-40.5 -18 -57.5 -59h332q-18 41 -59 59
t-108 18t-107.5 -18zM255 853l210 -80l210 80v-112l-210 -80l-210 80v112z" />
    <glyph glyph-name="Gbreve" unicode="&#x11e;" horiz-adv-x="970" 
d="M101.5 574.5q58.5 85.5 161.5 127.5t235 42q122 0 217.5 -36t151 -101t59.5 -150h-301q-8 19 -37.5 34.5t-86.5 15.5q-164 0 -164 -156q0 -54 17.5 -88.5t61.5 -52t121 -17.5q88 0 167 31v23h-202v164h424v-333q-102 -57 -198.5 -77.5t-208.5 -20.5q-143 0 -250 42.5
t-166.5 128t-59.5 212.5q0 126 58.5 211.5zM394 983q0 -42 24 -64t77 -22q52 0 76 22t24 64h129q0 -98 -64 -145t-165 -47t-165.5 47t-64.5 145h129z" />
    <glyph glyph-name="gbreve" unicode="&#x11f;" horiz-adv-x="934" 
d="M621 604h259v-539q-1 -172 -92.5 -248.5t-283.5 -76.5q-207 0 -440 54l39 191q115 -24 196.5 -34t157.5 -10q51 0 85.5 7.5t56.5 31.5t22 71v74q-43 -64 -115.5 -92.5t-155.5 -28.5q-79 0 -151.5 30t-120 99.5t-47.5 180.5t47.5 180.5t120 99.5t151.5 30
q83 0 155.5 -28.5t115.5 -92.5v101zM585 240.5q36 23.5 36 73.5t-36 73.5t-124 23.5t-124 -23.5t-36 -73.5t36 -73.5t124 -23.5t124 23.5zM354 863q0 -42 24 -64t77 -22q52 0 76 22t24 64h129q0 -98 -64 -145t-165 -47t-165.5 47t-64.5 145h129z" />
    <glyph glyph-name="Gdotaccent" unicode="&#x120;" horiz-adv-x="970" 
d="M101.5 574.5q58.5 85.5 161.5 127.5t235 42q122 0 217.5 -36t151 -101t59.5 -150h-301q-8 19 -37.5 34.5t-86.5 15.5q-164 0 -164 -156q0 -54 17.5 -88.5t61.5 -52t121 -17.5q88 0 167 31v23h-202v164h424v-333q-102 -57 -198.5 -77.5t-208.5 -20.5q-143 0 -250 42.5
t-166.5 128t-59.5 212.5q0 126 58.5 211.5zM387 820v104h216v-104h-216z" />
    <glyph glyph-name="gdotaccent" unicode="&#x121;" horiz-adv-x="934" 
d="M621 604h259v-539q-1 -172 -92.5 -248.5t-283.5 -76.5q-207 0 -440 54l39 191q115 -24 196.5 -34t157.5 -10q51 0 85.5 7.5t56.5 31.5t22 71v74q-43 -64 -115.5 -92.5t-155.5 -28.5q-79 0 -151.5 30t-120 99.5t-47.5 180.5t47.5 180.5t120 99.5t151.5 30
q83 0 155.5 -28.5t115.5 -92.5v101zM585 240.5q36 23.5 36 73.5t-36 73.5t-124 23.5t-124 -23.5t-36 -73.5t36 -73.5t124 -23.5t124 23.5zM347 700v104h216v-104h-216z" />
    <glyph glyph-name="uni0122" unicode="&#x122;" horiz-adv-x="970" 
d="M101.5 574.5q58.5 85.5 161.5 127.5t235 42q122 0 217.5 -36t151 -101t59.5 -150h-301q-8 19 -37.5 34.5t-86.5 15.5q-164 0 -164 -156q0 -54 17.5 -88.5t61.5 -52t121 -17.5q88 0 167 31v23h-202v164h424v-333q-102 -57 -198.5 -77.5t-208.5 -20.5q-143 0 -250 42.5
t-166.5 128t-59.5 212.5q0 126 58.5 211.5zM405 -195v127h220v-127l-112 -111h-108l74 111h-74z" />
    <glyph glyph-name="uni0123" unicode="&#x123;" horiz-adv-x="934" 
d="M621 604h259v-539q-1 -172 -92.5 -248.5t-283.5 -76.5q-207 0 -440 54l39 191q115 -24 196.5 -34t157.5 -10q51 0 85.5 7.5t56.5 31.5t22 71v74q-43 -64 -115.5 -92.5t-155.5 -28.5q-79 0 -151.5 30t-120 99.5t-47.5 180.5t47.5 180.5t120 99.5t151.5 30
q83 0 155.5 -28.5t115.5 -92.5v101zM585 240.5q36 23.5 36 73.5t-36 73.5t-124 23.5t-124 -23.5t-36 -73.5t36 -73.5t124 -23.5t124 23.5zM566 825v-127h-221v127l113 111h107l-73 -111h74z" />
    <glyph glyph-name="Hbar" unicode="&#x126;" horiz-adv-x="1142" 
d="M1035 649h69v-105h-69v-544h-283v244h-362v-244h-283v544h-69v105h69v75h283v-75h362v75h283v-75zM390 480h362v64h-362v-64z" />
    <glyph glyph-name="hbar" unicode="&#x127;" horiz-adv-x="1069" 
d="M1016 328v-328h-259v228q0 95 -38.5 139t-134.5 44q-211 0 -211 -178v-233h-259v650h-81v105h81v45h259v-45h190v-105h-190v-185q61 76 142.5 117.5t200.5 41.5q300 0 300 -296z" />
    <glyph glyph-name="Imacron" unicode="&#x12a;" horiz-adv-x="390" 
d="M-52 819v105h492v-105h-492zM53 724h283v-724h-283v724z" />
    <glyph glyph-name="imacron" unicode="&#x12b;" horiz-adv-x="365" 
d="M53 0v604h258v-604h-258zM-56 699v105h475v-105h-475z" />
    <glyph glyph-name="Iogonek" unicode="&#x12e;" horiz-adv-x="397" 
d="M235 -91.5q30 -7.5 106 -7.5h35v-152q-183 0 -285 34.5t-102 117.5q0 26 10.5 43.5t39.5 31t83 24.5h-72v724h283v-724h12q-79 -3 -109.5 -18t-30.5 -37q0 -29 30 -36.5z" />
    <glyph glyph-name="iogonek" unicode="&#x12f;" horiz-adv-x="377" 
d="M59 806h255v-153h-255v153zM237 -91.5q30 -7.5 106 -7.5h35v-152q-183 0 -285 34.5t-102 117.5q0 30 15.5 53.5t46.5 45.5v604h258v-604h12q-116 -6 -116 -55q0 -29 30 -36.5z" />
    <glyph glyph-name="Idotaccent" unicode="&#x130;" horiz-adv-x="390" 
d="M53 724h283v-724h-283v724zM87 820v104h216v-104h-216z" />
    <glyph glyph-name="dotlessi" unicode="&#x131;" horiz-adv-x="365" 
d="M53 0v604h258v-604h-258z" />
    <glyph glyph-name="uni0136" unicode="&#x136;" horiz-adv-x="1029" 
d="M572 724h414l-321 -284l321 -440h-340l-180 263l-130 -115v-148h-283v724h283v-237zM380 -195v127h220v-127l-112 -111h-108l74 111h-74z" />
    <glyph glyph-name="uni0137" unicode="&#x137;" horiz-adv-x="986" 
d="M568 604h387l-335 -249l335 -355h-317l-198 222l-127 -94v-128h-260v800h260v-395zM371 -195v127h220v-127l-112 -111h-108l74 111h-74z" />
    <glyph glyph-name="Lacute" unicode="&#x139;" horiz-adv-x="819" 
d="M336 724v-487h452v-237h-735v724h283zM53 796v109l392 80v-109z" />
    <glyph glyph-name="lacute" unicode="&#x13a;" horiz-adv-x="366" 
d="M53 0v800h260v-800h-260zM-14 872v109l392 80v-109z" />
    <glyph glyph-name="uni013B" unicode="&#x13b;" horiz-adv-x="819" 
d="M336 724v-487h452v-237h-735v724h283zM310 -195v127h220v-127l-112 -111h-108l74 111h-74z" />
    <glyph glyph-name="uni013C" unicode="&#x13c;" horiz-adv-x="366" 
d="M53 0v800h260v-800h-260zM73 -195v127h220v-127l-112 -111h-108l74 111h-74z" />
    <glyph glyph-name="Lcaron" unicode="&#x13d;" horiz-adv-x="819" 
d="M336 724v-487h452v-237h-735v724h283zM499 553v127h220v-127l-112 -111h-108l74 111h-74z" />
    <glyph glyph-name="lcaron" unicode="&#x13e;" horiz-adv-x="608" 
d="M53 0v800h260v-800h-260zM372 653v127h220v-127l-112 -111h-108l74 111h-74z" />
    <glyph glyph-name="Lslash" unicode="&#x141;" horiz-adv-x="882" 
d="M389 430v-193h451v-237h-734v357l-109 -28v128l109 28v239h283v-165l188 49v-129z" />
    <glyph glyph-name="lslash" unicode="&#x142;" horiz-adv-x="629" 
d="M445 492l149 69v-115l-149 -69v-377h-260v257l-151 -70v116l151 70v427h260v-308z" />
    <glyph glyph-name="Nacute" unicode="&#x143;" horiz-adv-x="1094" 
d="M758 292v432h283v-724h-420l-285 432v-432h-283v724h420zM348 796v109l392 80v-109z" />
    <glyph glyph-name="nacute" unicode="&#x144;" horiz-adv-x="1009" 
d="M876.5 553.5q79.5 -70.5 79.5 -225.5v-328h-260v228q0 95 -38 139t-134 44q-106 0 -158.5 -44t-52.5 -134v-233h-260v604h260v-139q61 76 142.5 117.5t200.5 41.5q141 0 220.5 -70.5zM301 676v109l392 80v-109z" />
    <glyph glyph-name="uni0145" unicode="&#x145;" horiz-adv-x="1094" 
d="M758 292v432h283v-724h-420l-285 432v-432h-283v724h420zM367 -195v127h220v-127l-112 -111h-108l74 111h-74z" />
    <glyph glyph-name="uni0146" unicode="&#x146;" horiz-adv-x="1009" 
d="M876.5 553.5q79.5 -70.5 79.5 -225.5v-328h-260v228q0 95 -38 139t-134 44q-106 0 -158.5 -44t-52.5 -134v-233h-260v604h260v-139q61 76 142.5 117.5t200.5 41.5q141 0 220.5 -70.5zM394 -195v127h220v-127l-112 -111h-108l74 111h-74z" />
    <glyph glyph-name="Ncaron" unicode="&#x147;" horiz-adv-x="1094" 
d="M758 292v432h283v-724h-420l-285 432v-432h-283v724h420zM334 973l210 -80l210 80v-112l-210 -80l-210 80v112z" />
    <glyph glyph-name="ncaron" unicode="&#x148;" horiz-adv-x="1009" 
d="M876.5 553.5q79.5 -70.5 79.5 -225.5v-328h-260v228q0 95 -38 139t-134 44q-106 0 -158.5 -44t-52.5 -134v-233h-260v604h260v-139q61 76 142.5 117.5t200.5 41.5q141 0 220.5 -70.5zM287 853l210 -80l210 80v-112l-210 -80l-210 80v112z" />
    <glyph glyph-name="Eng" unicode="&#x14a;" horiz-adv-x="1094" 
d="M758 724h283v-724q0 -133 -69 -202t-214 -69q-95 0 -177 13v207q78 -8 101 -8q35 0 50 12t15 47h-126l-285 432v-432h-283v724h420l285 -432v432z" />
    <glyph glyph-name="eng" unicode="&#x14b;" horiz-adv-x="1009" 
d="M876.5 553.5q79.5 -70.5 79.5 -225.5v-328h-1q0 -274 -284 -274q-88 0 -177 14v209l27 -3q11 -1 36.5 -3.5t44.5 -2.5q39 0 59 6t27.5 18.5t7.5 35.5v228q0 95 -38 139t-134 44q-106 0 -158.5 -44t-52.5 -134v-233h-260v604h260v-139q61 76 142.5 117.5t200.5 41.5
q141 0 220.5 -70.5z" />
    <glyph glyph-name="Omacron" unicode="&#x14c;" horiz-adv-x="1039" 
d="M262.5 24q-106.5 44 -163 130t-56.5 209q0 184 125 282.5t351 98.5q149 0 256.5 -44t164 -129.5t56.5 -207.5t-56.5 -208t-164 -130.5t-256.5 -44.5q-150 0 -256.5 44zM662.5 257q39.5 40 39.5 106q0 65 -39 104.5t-144 39.5q-104 0 -143 -39.5t-39 -104.5q0 -66 39 -106
t143 -40t143.5 40zM281 819v105h475v-105h-475z" />
    <glyph glyph-name="omacron" unicode="&#x14d;" horiz-adv-x="933" 
d="M140.5 65q-109.5 85 -109.5 237t109.5 237t326.5 85q216 0 325.5 -85t109.5 -237t-109.5 -237t-325.5 -85q-217 0 -326.5 85zM593 209.5q39 28.5 39 92.5t-39 92.5t-126 28.5t-126.5 -28.5t-39.5 -92.5t39.5 -92.5t126.5 -28.5t126 28.5zM228 699v105h475v-105h-475z" />
    <glyph glyph-name="Ohungarumlaut" unicode="&#x150;" horiz-adv-x="1039" 
d="M262.5 24q-106.5 44 -163 130t-56.5 209q0 184 125 282.5t351 98.5q149 0 256.5 -44t164 -129.5t56.5 -207.5t-56.5 -208t-164 -130.5t-256.5 -44.5q-150 0 -256.5 44zM662.5 257q39.5 40 39.5 106q0 65 -39 104.5t-144 39.5q-104 0 -143 -39.5t-39 -104.5q0 -66 39 -106
t143 -40t143.5 40zM300 802v113l209 80v-113zM570 802v113l209 80v-113z" />
    <glyph glyph-name="ohungarumlaut" unicode="&#x151;" horiz-adv-x="933" 
d="M140.5 65q-109.5 85 -109.5 237t109.5 237t326.5 85q216 0 325.5 -85t109.5 -237t-109.5 -237t-325.5 -85q-217 0 -326.5 85zM593 209.5q39 28.5 39 92.5t-39 92.5t-126 28.5t-126.5 -28.5t-39.5 -92.5t39.5 -92.5t126.5 -28.5t126 28.5zM247 682v113l209 80v-113z
M517 682v113l209 80v-113z" />
    <glyph glyph-name="OE" unicode="&#x152;" horiz-adv-x="1679" 
d="M1624 514h-463v-57h443v-190h-443v-57h463v-210h-746v86q-124 -106 -359 -106q-150 0 -256.5 44t-163 130t-56.5 209q0 184 125 282.5t351 98.5q234 0 359 -105v85h746v-210zM662.5 257q39.5 40 39.5 106q0 65 -39 104.5t-144 39.5q-104 0 -143 -39.5t-39 -104.5
q0 -66 39 -106t143 -40t143.5 40z" />
    <glyph glyph-name="oe" unicode="&#x153;" horiz-adv-x="1614" 
d="M1276 182.5q36 13.5 51 38.5h251q-32 -119 -132 -180t-290 -61q-114 0 -202 24.5t-145 73.5q-112 -98 -342 -98q-217 0 -326.5 85t-109.5 237t109.5 237t326.5 85q231 0 343 -99q58 49 144 74t193 25q203 0 319 -92t116 -272h-608q12 -52 58.5 -71.5t134.5 -19.5
q73 0 109 13.5zM1040 441q-40 -18 -57 -59h332q-18 41 -59.5 59t-108.5 18t-107 -18zM593 209.5q39 28.5 39 92.5t-39 92.5t-126 28.5t-126.5 -28.5t-39.5 -92.5t39.5 -92.5t126.5 -28.5t126 28.5z" />
    <glyph glyph-name="Racute" unicode="&#x154;" horiz-adv-x="994" 
d="M894.5 238q37.5 -36 37.5 -103v-135h-283v89q0 48 -15 64t-60 16h-238v-169h-283v724h573q152 0 228 -61.5t76 -177.5q0 -85 -35 -136t-105 -72q67 -3 104.5 -39zM336 499v-106h222q32 0 45.5 2t23 13t9.5 38t-9.5 38t-23 13t-45.5 2h-222zM277 796v109l392 80v-109z" />
    <glyph glyph-name="racute" unicode="&#x155;" horiz-adv-x="727" 
d="M621.5 616.5q32.5 -7.5 70.5 -24.5v-225q-48 19 -82 25.5t-72 6.5q-60 0 -117.5 -27t-107.5 -100v-272h-260v604h260v-136q41 82 97.5 119t138.5 37q40 0 72.5 -7.5zM154 676v109l392 80v-109z" />
    <glyph glyph-name="uni0156" unicode="&#x156;" horiz-adv-x="994" 
d="M894.5 238q37.5 -36 37.5 -103v-135h-283v89q0 48 -15 64t-60 16h-238v-169h-283v724h573q152 0 228 -61.5t76 -177.5q0 -85 -35 -136t-105 -72q67 -3 104.5 -39zM336 499v-106h222q32 0 45.5 2t23 13t9.5 38t-9.5 38t-23 13t-45.5 2h-222zM391 -195v127h220v-127
l-112 -111h-108l74 111h-74z" />
    <glyph glyph-name="uni0157" unicode="&#x157;" horiz-adv-x="727" 
d="M621.5 616.5q32.5 -7.5 70.5 -24.5v-225q-48 19 -82 25.5t-72 6.5q-60 0 -117.5 -27t-107.5 -100v-272h-260v604h260v-136q41 82 97.5 119t138.5 37q40 0 72.5 -7.5zM73 -195v127h220v-127l-112 -111h-108l74 111h-74z" />
    <glyph glyph-name="Rcaron" unicode="&#x158;" horiz-adv-x="994" 
d="M894.5 238q37.5 -36 37.5 -103v-135h-283v89q0 48 -15 64t-60 16h-238v-169h-283v724h573q152 0 228 -61.5t76 -177.5q0 -85 -35 -136t-105 -72q67 -3 104.5 -39zM336 499v-106h222q32 0 45.5 2t23 13t9.5 38t-9.5 38t-23 13t-45.5 2h-222zM263 973l210 -80l210 80v-112
l-210 -80l-210 80v112z" />
    <glyph glyph-name="rcaron" unicode="&#x159;" horiz-adv-x="727" 
d="M621.5 616.5q32.5 -7.5 70.5 -24.5v-225q-48 19 -82 25.5t-72 6.5q-60 0 -117.5 -27t-107.5 -100v-272h-260v604h260v-136q41 82 97.5 119t138.5 37q40 0 72.5 -7.5zM140 853l210 -80l210 80v-112l-210 -80l-210 80v112z" />
    <glyph glyph-name="Sacute" unicode="&#x15a;" horiz-adv-x="989" 
d="M338 238q0 -24 38.5 -40.5t123.5 -16.5q67 0 100 4.5t42 12t9 18.5q0 15 -11 22t-47 12.5t-123 12.5q-146 11 -237.5 39.5t-137 80.5t-45.5 132q0 72 50.5 123.5t143 78.5t215.5 27q215 0 330.5 -63.5t124.5 -182.5h-293q0 24 -38.5 34.5t-119.5 10.5q-119 0 -119 -28
q0 -11 11.5 -17.5t48.5 -13t114 -13.5q153 -14 238.5 -33t136.5 -68t51 -143q0 -133 -108 -190t-323 -57q-225 0 -343 61t-126 197h294zM297 796v109l392 80v-109z" />
    <glyph glyph-name="sacute" unicode="&#x15b;" horiz-adv-x="883" 
d="M301 203q-2 -20 8.5 -32.5t43 -19t95.5 -6.5q57 0 86 4.5t38.5 13.5t9.5 25q0 18 -13 26t-42 11.5t-109 8.5q-142 10 -218.5 25.5t-116 52t-39.5 105.5q0 116 107.5 161.5t287.5 45.5q172 0 279.5 -49t113.5 -157h-270q2 28 -29 40.5t-99 12.5q-66 0 -93 -9t-27 -27
q0 -14 10.5 -20.5t41.5 -10.5t108 -11q147 -12 220 -26.5t115.5 -52.5t42.5 -114q0 -87 -49 -135.5t-134.5 -66.5t-210.5 -18q-209 0 -319 52t-108 171h270zM245 676v109l392 80v-109z" />
    <glyph glyph-name="Scedilla" unicode="&#x15e;" horiz-adv-x="989" 
d="M840.5 39.5q-103.5 -57.5 -310.5 -59.5l-12 -46q33 11 76 11q49 0 77 -21t28 -59q0 -58 -61 -85t-158 -27q-42 0 -102 7v95q82 -11 118 -11q28 0 40.5 5.5t12.5 18.5q0 10 -7.5 15.5t-20.5 5.5q-18 0 -37 -15l-72 21l17 87q-183 10 -280.5 71.5t-104.5 184.5h294
q0 -24 38.5 -40.5t123.5 -16.5q67 0 100 4.5t42 12t9 18.5q0 15 -11 22t-47 12.5t-123 12.5q-146 11 -237.5 39.5t-137 80.5t-45.5 132q0 72 50.5 123.5t143 78.5t215.5 27q215 0 330.5 -63.5t124.5 -182.5h-293q0 24 -38.5 34.5t-119.5 10.5q-119 0 -119 -28
q0 -11 11.5 -17.5t48.5 -13t114 -13.5q153 -14 238.5 -33t136.5 -68t51 -143q0 -130 -103.5 -187.5z" />
    <glyph glyph-name="scedilla" unicode="&#x15f;" horiz-adv-x="883" 
d="M755.5 29q-96.5 -47 -277.5 -49l-12 -46q33 11 76 11q49 0 77 -21t28 -59q0 -58 -61 -85t-158 -27q-43 0 -102 7v95q82 -11 118 -11q28 0 40.5 5.5t12.5 18.5q0 10 -7.5 15.5t-20.5 5.5q-18 0 -37 -15l-72 21l17 87q-170 9 -259 61.5t-87 159.5h270q-2 -20 8.5 -32.5
t43 -19t95.5 -6.5q57 0 86 4.5t38.5 13.5t9.5 25q0 18 -13 26t-42 11.5t-109 8.5q-142 10 -218.5 25.5t-116 52t-39.5 105.5q0 116 107.5 161.5t287.5 45.5q172 0 279.5 -49t113.5 -157h-270q2 28 -29 40.5t-99 12.5q-66 0 -93 -9t-27 -27q0 -14 10.5 -20.5t41.5 -10.5
t108 -11q147 -12 220 -26.5t115.5 -52.5t42.5 -114q0 -124 -96.5 -171z" />
    <glyph glyph-name="Scaron" unicode="&#x160;" horiz-adv-x="989" 
d="M338 238q0 -24 38.5 -40.5t123.5 -16.5q67 0 100 4.5t42 12t9 18.5q0 15 -11 22t-47 12.5t-123 12.5q-146 11 -237.5 39.5t-137 80.5t-45.5 132q0 72 50.5 123.5t143 78.5t215.5 27q215 0 330.5 -63.5t124.5 -182.5h-293q0 24 -38.5 34.5t-119.5 10.5q-119 0 -119 -28
q0 -11 11.5 -17.5t48.5 -13t114 -13.5q153 -14 238.5 -33t136.5 -68t51 -143q0 -133 -108 -190t-323 -57q-225 0 -343 61t-126 197h294zM284 973l210 -80l210 80v-112l-210 -80l-210 80v112z" />
    <glyph glyph-name="scaron" unicode="&#x161;" horiz-adv-x="883" 
d="M301 203q-2 -20 8.5 -32.5t43 -19t95.5 -6.5q57 0 86 4.5t38.5 13.5t9.5 25q0 18 -13 26t-42 11.5t-109 8.5q-142 10 -218.5 25.5t-116 52t-39.5 105.5q0 116 107.5 161.5t287.5 45.5q172 0 279.5 -49t113.5 -157h-270q2 28 -29 40.5t-99 12.5q-66 0 -93 -9t-27 -27
q0 -14 10.5 -20.5t41.5 -10.5t108 -11q147 -12 220 -26.5t115.5 -52.5t42.5 -114q0 -87 -49 -135.5t-134.5 -66.5t-210.5 -18q-209 0 -319 52t-108 171h270zM232 853l210 -80l210 80v-112l-210 -80l-210 80v112z" />
    <glyph glyph-name="uni0162" unicode="&#x162;" horiz-adv-x="952" 
d="M909 724v-237h-291v-487h-283v487h-292v237h866zM650 -66q28 -21 28 -59q0 -58 -61 -85t-158 -27q-42 0 -102 7v95q82 -11 118 -11q28 0 40.5 5.5t12.5 18.5q0 10 -7.5 15.5t-20.5 5.5q-18 0 -37 -15l-72 21l19 95h102l-15 -56q33 11 76 11q49 0 77 -21z" />
    <glyph glyph-name="uni0163" unicode="&#x163;" horiz-adv-x="662" 
d="M632 415h-232v-141q0 -34 18.5 -57.5t59.5 -23.5q40 0 69.5 4t84.5 17v-207q-105 -26 -202 -27l-9 -34q33 11 76 11q49 0 77 -21t28 -59q0 -58 -61 -85t-158 -27q-42 0 -102 7v95q82 -11 118 -11q28 0 40.5 5.5t12.5 18.5q0 10 -7.5 15.5t-20.5 5.5q-18 0 -37 -15l-72 21
l16 79q-92 15 -141 64.5t-49 128.5v236h-109v189h109v103l259 65v-168h232v-189z" />
    <glyph glyph-name="Tcaron" unicode="&#x164;" horiz-adv-x="952" 
d="M909 724v-237h-291v-487h-283v487h-292v237h866zM266 973l210 -80l210 80v-112l-210 -80l-210 80v112z" />
    <glyph glyph-name="tcaron" unicode="&#x165;" horiz-adv-x="662" 
d="M438 737v112h220v-112l-112 -98h-108l74 98h-74zM400 772v-168h232v-189h-232v-141q0 -34 18.5 -57.5t59.5 -23.5q40 0 69.5 4t84.5 17v-207q-108 -27 -216 -27q-133 0 -204 51.5t-71 147.5v236h-109v189h109v103z" />
    <glyph glyph-name="Tbar" unicode="&#x166;" horiz-adv-x="952" 
d="M909 724v-237h-291v-131h222v-105h-222v-251h-283v251h-222v105h222v131h-292v237h866z" />
    <glyph glyph-name="tbar" unicode="&#x167;" horiz-adv-x="662" 
d="M632 415h-232v-31h232v-105h-232v-5q0 -34 18.5 -57.5t59.5 -23.5q40 0 69.5 4t84.5 17v-207q-108 -27 -216 -27q-133 0 -204 51.5t-71 147.5v100h-109v105h109v31h-109v189h109v103l259 65v-168h232v-189z" />
    <glyph glyph-name="Umacron" unicode="&#x16a;" horiz-adv-x="994" 
d="M941 353q0 -187 -108 -280t-336 -93q-229 0 -336.5 92.5t-107.5 280.5v371h283v-359q0 -64 37.5 -106t123.5 -42t123 42t37 106v359h284v-371zM259 819v105h475v-105h-475z" />
    <glyph glyph-name="umacron" unicode="&#x16b;" horiz-adv-x="1009" 
d="M696 604h260v-604h-260v139q-61 -76 -142.5 -117.5t-200.5 -41.5q-141 0 -220.5 70.5t-78.5 225.5v328h259v-228q0 -96 38 -139.5t135 -43.5q105 0 157.5 44t52.5 134v233zM267 699v105h475v-105h-475z" />
    <glyph glyph-name="Uring" unicode="&#x16e;" horiz-adv-x="994" 
d="M941 353q0 -187 -108 -280t-336 -93q-229 0 -336.5 92.5t-107.5 280.5v371h283v-359q0 -64 37.5 -106t123.5 -42t123 42t37 106v359h284v-371zM325.5 815q-53.5 34 -53.5 100t53.5 100t171.5 34q117 0 170.5 -34t53.5 -100t-53.5 -100t-170.5 -34q-118 0 -171.5 34z
M566.5 876.5q25.5 10.5 25.5 38.5q0 49 -95 49q-96 0 -96 -49q0 -28 25.5 -38.5t70.5 -10.5q44 0 69.5 10.5z" />
    <glyph glyph-name="uring" unicode="&#x16f;" horiz-adv-x="1009" 
d="M696 604h260v-604h-260v139q-61 -76 -142.5 -117.5t-200.5 -41.5q-141 0 -220.5 70.5t-78.5 225.5v328h259v-228q0 -96 38 -139.5t135 -43.5q105 0 157.5 44t52.5 134v233zM333.5 695q-53.5 34 -53.5 100t53.5 100t171.5 34q117 0 170.5 -34t53.5 -100t-53.5 -100
t-170.5 -34q-118 0 -171.5 34zM574.5 756.5q25.5 10.5 25.5 38.5q0 49 -95 49q-96 0 -96 -49q0 -28 25.5 -38.5t70.5 -10.5q44 0 69.5 10.5z" />
    <glyph glyph-name="Uhungarumlaut" unicode="&#x170;" horiz-adv-x="994" 
d="M941 353q0 -187 -108 -280t-336 -93q-229 0 -336.5 92.5t-107.5 280.5v371h283v-359q0 -64 37.5 -106t123.5 -42t123 42t37 106v359h284v-371zM277 802v113l209 80v-113zM547 802v113l209 80v-113z" />
    <glyph glyph-name="uhungarumlaut" unicode="&#x171;" horiz-adv-x="1009" 
d="M696 604h260v-604h-260v139q-61 -76 -142.5 -117.5t-200.5 -41.5q-141 0 -220.5 70.5t-78.5 225.5v328h259v-228q0 -96 38 -139.5t135 -43.5q105 0 157.5 44t52.5 134v233zM285 682v113l209 80v-113zM555 682v113l209 80v-113z" />
    <glyph glyph-name="Uogonek" unicode="&#x172;" horiz-adv-x="993" 
d="M657 724h284v-371q0 -153 -72 -243t-222 -118q-34 -8 -47 -16.5t-13 -20.5q0 -20 27 -26t85 -6h34v-153q-104 0 -167 9.5t-96 35t-33 74.5q0 54 82 91h-22q-229 0 -336.5 92.5t-107.5 280.5v371h283v-359q0 -64 37.5 -106t123.5 -42t123 42t37 106v359z" />
    <glyph glyph-name="uogonek" unicode="&#x173;" horiz-adv-x="1009" 
d="M696 604h260v-604h-2q-78 -5 -106.5 -19.5t-28.5 -40.5t23 -32.5t81 -6.5h31v-152q-170 0 -260.5 28t-90.5 108q0 45 39 74t125 41h-71v139q-61 -76 -142.5 -117.5t-200.5 -41.5q-141 0 -220.5 70.5t-78.5 225.5v328h259v-228q0 -96 38 -139.5t135 -43.5q105 0 157.5 44
t52.5 134v233z" />
    <glyph glyph-name="Wcircumflex" unicode="&#x174;" horiz-adv-x="1675" 
d="M1205 220l143 504h284l-215 -724h-411l-168 481l-166 -481h-411l-218 724h284l146 -504l179 504h371zM627 905l210 80l210 -80v-112l-210 80l-210 -80v112z" />
    <glyph glyph-name="wcircumflex" unicode="&#x175;" horiz-adv-x="1625" 
d="M1164 177l175 427h254l-247 -604h-359l-175 368l-175 -368h-359l-247 604h255l175 -427l201 427h301zM603 785l210 80l210 -80v-112l-210 80l-210 -80v112z" />
    <glyph glyph-name="Ycircumflex" unicode="&#x176;" horiz-adv-x="1129" 
d="M565 481l172 243h349l-380 -483v-241h-282v241l-381 483h350zM354 905l210 80l210 -80v-112l-210 80l-210 -80v112z" />
    <glyph glyph-name="ycircumflex" unicode="&#x177;" horiz-adv-x="992" 
d="M712 604h260l-266 -575q-46 -98 -96.5 -160.5t-119.5 -95.5t-165 -33q-51 0 -115 10.5t-124 28.5v194q143 -32 202 -32q42 0 64 3t40.5 15.5t36.5 40.5h-120l-278 604h260l210 -456zM279 785l210 80l210 -80v-112l-210 80l-210 -80v112z" />
    <glyph glyph-name="Ydieresis" unicode="&#x178;" horiz-adv-x="1129" 
d="M565 481l172 243h349l-380 -483v-241h-282v241l-381 483h350zM337 820v104h192v-104h-192zM601 820v104h191v-104h-191z" />
    <glyph glyph-name="Zacute" unicode="&#x179;" horiz-adv-x="926" 
d="M53 724h820v-237l-412 -250h412v-237h-820v237l412 250h-412v237zM266 796v109l392 80v-109z" />
    <glyph glyph-name="zacute" unicode="&#x17a;" horiz-adv-x="830" 
d="M53 604h724v-189l-384 -226h384v-189h-724v189l385 226h-385v189zM218 676v109l392 80v-109z" />
    <glyph glyph-name="Zdotaccent" unicode="&#x17b;" horiz-adv-x="926" 
d="M53 724h820v-237l-412 -250h412v-237h-820v237l412 250h-412v237zM355 820v104h216v-104h-216z" />
    <glyph glyph-name="zdotaccent" unicode="&#x17c;" horiz-adv-x="830" 
d="M53 604h724v-189l-384 -226h384v-189h-724v189l385 226h-385v189zM307 700v104h216v-104h-216z" />
    <glyph glyph-name="Zcaron" unicode="&#x17d;" horiz-adv-x="926" 
d="M53 724h820v-237l-412 -250h412v-237h-820v237l412 250h-412v237zM253 973l210 -80l210 80v-112l-210 -80l-210 80v112z" />
    <glyph glyph-name="zcaron" unicode="&#x17e;" horiz-adv-x="830" 
d="M53 604h724v-189l-384 -226h384v-189h-724v189l385 226h-385v189zM205 853l210 -80l210 80v-112l-210 -80l-210 80v112z" />
    <glyph glyph-name="uni0218" unicode="&#x218;" horiz-adv-x="989" 
d="M338 238q0 -24 38.5 -40.5t123.5 -16.5q67 0 100 4.5t42 12t9 18.5q0 15 -11 22t-47 12.5t-123 12.5q-146 11 -237.5 39.5t-137 80.5t-45.5 132q0 72 50.5 123.5t143 78.5t215.5 27q215 0 330.5 -63.5t124.5 -182.5h-293q0 24 -38.5 34.5t-119.5 10.5q-119 0 -119 -28
q0 -11 11.5 -17.5t48.5 -13t114 -13.5q153 -14 238.5 -33t136.5 -68t51 -143q0 -133 -108 -190t-323 -57q-225 0 -343 61t-126 197h294zM384 -205v127h220v-127l-112 -111h-108l74 111h-74z" />
    <glyph glyph-name="uni0219" unicode="&#x219;" horiz-adv-x="883" 
d="M301 203q-2 -20 8.5 -32.5t43 -19t95.5 -6.5q57 0 86 4.5t38.5 13.5t9.5 25q0 18 -13 26t-42 11.5t-109 8.5q-142 10 -218.5 25.5t-116 52t-39.5 105.5q0 116 107.5 161.5t287.5 45.5q172 0 279.5 -49t113.5 -157h-270q2 28 -29 40.5t-99 12.5q-66 0 -93 -9t-27 -27
q0 -14 10.5 -20.5t41.5 -10.5t108 -11q147 -12 220 -26.5t115.5 -52.5t42.5 -114q0 -87 -49 -135.5t-134.5 -66.5t-210.5 -18q-209 0 -319 52t-108 171h270zM331 -205v127h220v-127l-112 -111h-108l74 111h-74z" />
    <glyph glyph-name="uni021A" unicode="&#x21a;" horiz-adv-x="952" 
d="M909 724v-237h-291v-487h-283v487h-292v237h866zM366 -195v127h220v-127l-112 -111h-108l74 111h-74z" />
    <glyph glyph-name="uni021B" unicode="&#x21b;" horiz-adv-x="662" 
d="M632 415h-232v-141q0 -34 18.5 -57.5t59.5 -23.5q40 0 69.5 4t84.5 17v-207q-108 -27 -216 -27q-133 0 -204 51.5t-71 147.5v236h-109v189h109v103l259 65v-168h232v-189zM281 -207v127h220v-127l-112 -111h-108l74 111h-74z" />
    <glyph glyph-name="circumflex" unicode="&#x2c6;" horiz-adv-x="527" 
d="M53 785l210 80l210 -80v-112l-210 80l-210 -80v112z" />
    <glyph glyph-name="caron" unicode="&#x2c7;" horiz-adv-x="527" 
d="M53 853l210 -80l210 80v-112l-210 -80l-210 80v112z" />
    <glyph glyph-name="breve" unicode="&#x2d8;" horiz-adv-x="566" 
d="M182 863q0 -42 24 -64t77 -22q52 0 76 22t24 64h129q0 -98 -64 -145t-165 -47t-165.5 47t-64.5 145h129z" />
    <glyph glyph-name="dotaccent" unicode="&#x2d9;" horiz-adv-x="322" 
d="M53 700v104h216v-104h-216z" />
    <glyph glyph-name="ring" unicode="&#x2da;" horiz-adv-x="555" 
d="M106.5 695q-53.5 34 -53.5 100t53.5 100t171.5 34q117 0 170.5 -34t53.5 -100t-53.5 -100t-170.5 -34q-118 0 -171.5 34zM347.5 756.5q25.5 10.5 25.5 38.5q0 49 -95 49q-96 0 -96 -49q0 -28 25.5 -38.5t70.5 -10.5q44 0 69.5 10.5z" />
    <glyph glyph-name="ogonek" unicode="&#x2db;" horiz-adv-x="402" 
d="M349 -230q-105 0 -170.5 9t-101.5 35t-36 74q0 33 21.5 59.5t62.5 52.5h115q-24 -19 -36 -33t-12 -36q0 -27 21 -39t50.5 -14.5t85.5 -2.5v-105z" />
    <glyph glyph-name="tilde" unicode="&#x2dc;" horiz-adv-x="741" 
d="M53 657q0 101 36.5 165.5t125.5 64.5q47 0 85.5 -14t84.5 -39q32 -17 53.5 -25.5t41.5 -8.5q33 0 45 20.5t12 68.5h151q0 -101 -36.5 -165.5t-125.5 -64.5q-47 0 -85.5 14t-84.5 39q-32 17 -53.5 25.5t-41.5 8.5q-33 0 -45 -20.5t-12 -68.5h-151z" />
    <glyph glyph-name="hungarumlaut" unicode="&#x2dd;" horiz-adv-x="585" 
d="M53 682v113l209 80v-113zM323 682v113l209 80v-113z" />
    <glyph glyph-name="gravecomb" unicode="&#x300;" 
d="M-442 865l392 -80v-109l-392 80v109z" />
    <glyph glyph-name="acutecomb" unicode="&#x301;" 
d="M-446 676v109l392 80v-109z" />
    <glyph glyph-name="uni0302" unicode="&#x302;" 
d="M-474 785l210 80l210 -80v-112l-210 80l-210 -80v112z" />
    <glyph glyph-name="tildecomb" unicode="&#x303;" 
d="M-688 657q0 101 36.5 165.5t125.5 64.5q47 0 85.5 -14t84.5 -39q32 -17 53.5 -25.5t41.5 -8.5q33 0 45 20.5t12 68.5h151q0 -101 -36.5 -165.5t-125.5 -64.5q-47 0 -85.5 14t-84.5 39q-32 17 -53.5 25.5t-41.5 8.5q-33 0 -45 -20.5t-12 -68.5h-151z" />
    <glyph glyph-name="uni0304" unicode="&#x304;" 
d="M-529 699v105h475v-105h-475z" />
    <glyph glyph-name="uni0306" unicode="&#x306;" 
d="M-384 863q0 -42 24 -64t77 -22q52 0 76 22t24 64h129q0 -98 -64 -145t-165 -47t-165.5 47t-64.5 145h129z" />
    <glyph glyph-name="uni0307" unicode="&#x307;" 
d="M-269 700v104h216v-104h-216z" />
    <glyph glyph-name="uni0308" unicode="&#x308;" 
d="M-509 700v104h192v-104h-192zM-245 700v104h191v-104h-191z" />
    <glyph glyph-name="uni030A" unicode="&#x30a;" 
d="M-448.5 695q-53.5 34 -53.5 100t53.5 100t171.5 34q117 0 170.5 -34t53.5 -100t-53.5 -100t-170.5 -34q-118 0 -171.5 34zM-207.5 756.5q25.5 10.5 25.5 38.5q0 49 -95 49q-96 0 -96 -49q0 -28 25.5 -38.5t70.5 -10.5q44 0 69.5 10.5z" />
    <glyph glyph-name="uni030B" unicode="&#x30b;" 
d="M-532 682v113l209 80v-113zM-262 682v113l209 80v-113z" />
    <glyph glyph-name="uni030C" unicode="&#x30c;" 
d="M-474 853l210 -80l210 80v-112l-210 -80l-210 80v112z" />
    <glyph glyph-name="uni0312" unicode="&#x312;" 
d="M-53 825v-127h-221v127l113 111h107l-73 -111h74z" />
    <glyph glyph-name="uni0326" unicode="&#x326;" 
d="M-274 -195v127h220v-127l-112 -111h-108l74 111h-74z" />
    <glyph glyph-name="uni0327" unicode="&#x327;" 
d="M-81 -66q28 -21 28 -59q0 -58 -61 -85t-158 -27q-42 0 -102 7v95q82 -11 118 -11q28 0 40.5 5.5t12.5 18.5q0 10 -7.5 15.5t-20.5 5.5q-18 0 -37 -15l-72 21l19 95h102l-15 -56q33 11 76 11q49 0 77 -21z" />
    <glyph glyph-name="uni0328" unicode="&#x328;" 
d="M-53 -230q-105 0 -170.5 9t-101.5 35t-36 74q0 33 21.5 59.5t62.5 52.5h115q-24 -19 -36 -33t-12 -36q0 -27 21 -39t50.5 -14.5t85.5 -2.5v-105z" />
    <glyph glyph-name="uni0335" unicode="&#x335;" 
d="M-540 288v105h486v-105h-486z" />
    <glyph glyph-name="uni0336" unicode="&#x336;" 
d="M-1060 288v105h1006v-105h-1006z" />
    <glyph glyph-name="uni0337" unicode="&#x337;" 
d="M-300 816h247l-289 -966h-247z" />
    <glyph glyph-name="uni0338" unicode="&#x338;" 
d="M-241 716h187l-260 -870h-187z" />
    <glyph glyph-name="Wgrave" unicode="&#x1e80;" horiz-adv-x="1675" 
d="M1205 220l143 504h284l-215 -724h-411l-168 481l-166 -481h-411l-218 724h284l146 -504l179 504h371zM641 985l392 -80v-109l-392 80v109z" />
    <glyph glyph-name="wgrave" unicode="&#x1e81;" horiz-adv-x="1625" 
d="M1164 177l175 427h254l-247 -604h-359l-175 368l-175 -368h-359l-247 604h255l175 -427l201 427h301zM616 865l392 -80v-109l-392 80v109z" />
    <glyph glyph-name="Wacute" unicode="&#x1e82;" horiz-adv-x="1675" 
d="M1205 220l143 504h284l-215 -724h-411l-168 481l-166 -481h-411l-218 724h284l146 -504l179 504h371zM641 796v109l392 80v-109z" />
    <glyph glyph-name="wacute" unicode="&#x1e83;" horiz-adv-x="1625" 
d="M1164 177l175 427h254l-247 -604h-359l-175 368l-175 -368h-359l-247 604h255l175 -427l201 427h301zM616 676v109l392 80v-109z" />
    <glyph glyph-name="Wdieresis" unicode="&#x1e84;" horiz-adv-x="1675" 
d="M1205 220l143 504h284l-215 -724h-411l-168 481l-166 -481h-411l-218 724h284l146 -504l179 504h371zM610 820v104h192v-104h-192zM874 820v104h191v-104h-191z" />
    <glyph glyph-name="wdieresis" unicode="&#x1e85;" horiz-adv-x="1625" 
d="M1164 177l175 427h254l-247 -604h-359l-175 368l-175 -368h-359l-247 604h255l175 -427l201 427h301zM585 700v104h192v-104h-192zM849 700v104h191v-104h-191z" />
    <glyph glyph-name="Ygrave" unicode="&#x1ef2;" horiz-adv-x="1129" 
d="M565 481l172 243h349l-380 -483v-241h-282v241l-381 483h350zM368 985l392 -80v-109l-392 80v109z" />
    <glyph glyph-name="ygrave" unicode="&#x1ef3;" horiz-adv-x="992" 
d="M712 604h260l-266 -575q-46 -98 -96.5 -160.5t-119.5 -95.5t-165 -33q-51 0 -115 10.5t-124 28.5v194q143 -32 202 -32q42 0 64 3t40.5 15.5t36.5 40.5h-120l-278 604h260l210 -456zM293 865l392 -80v-109l-392 80v109z" />
    <glyph glyph-name="endash" unicode="&#x2013;" horiz-adv-x="1153" 
d="M73 246v188h1006v-188h-1006z" />
    <glyph glyph-name="emdash" unicode="&#x2014;" horiz-adv-x="1353" 
d="M73 246v188h1206v-188h-1206z" />
    <glyph glyph-name="quoteleft" unicode="&#x2018;" horiz-adv-x="413" 
d="M321 392h-258l73 392h225z" />
    <glyph glyph-name="quoteright" unicode="&#x2019;" horiz-adv-x="401" 
d="M91 784h258l-73 -392h-225z" />
    <glyph glyph-name="quotesinglbase" unicode="&#x201a;" horiz-adv-x="375" 
d="M54 0v199h270v-199l-126 -231h-120l75 231h-99z" />
    <glyph glyph-name="quotedblleft" unicode="&#x201c;" horiz-adv-x="747" 
d="M321 392h-258l73 392h225zM656 392h-258l73 392h225z" />
    <glyph glyph-name="quotedblright" unicode="&#x201d;" horiz-adv-x="747" 
d="M91 784h258l-73 -392h-225zM425 784h258l-73 -392h-225z" />
    <glyph glyph-name="quotedblbase" unicode="&#x201e;" horiz-adv-x="712" 
d="M391 0v199h270v-199l-126 -231h-120l75 231h-99zM54 0v199h270v-199l-126 -231h-120l75 231h-99z" />
    <glyph glyph-name="dagger" unicode="&#x2020;" horiz-adv-x="931" 
d="M583 604h294v-213h-294v-541h-235v541h-295v213h295v202h235v-202z" />
    <glyph glyph-name="daggerdbl" unicode="&#x2021;" horiz-adv-x="931" 
d="M877 604v-213h-294v-140h294v-213h-294v-188h-235v188h-295v213h295v140h-295v213h295v202h235v-202h294z" />
    <glyph glyph-name="bullet" unicode="&#x2022;" horiz-adv-x="561" 
d="M109 199.5q-56 39.5 -56 122.5q0 82 56 121t172 39q115 0 170.5 -39t55.5 -121q0 -83 -55 -122.5t-171 -39.5t-172 39.5z" />
    <glyph glyph-name="ellipsis" unicode="&#x2026;" horiz-adv-x="1007" 
d="M54 0v199h270v-199h-270zM370 0v199h270v-199h-270zM686 0v199h270v-199h-270z" />
    <glyph glyph-name="perthousand" unicode="&#x2030;" horiz-adv-x="2171" 
d="M188 280q-66 35 -100.5 92.5t-34.5 122.5q0 64 34.5 121.5t100.5 92.5t157 35t157.5 -35t101 -92.5t34.5 -121.5q0 -65 -34.5 -122.5t-101 -92.5t-157.5 -35t-157 35zM879 724h212l-431 -724h-212zM418.5 427q21.5 29 21.5 69q0 38 -21.5 66.5t-73.5 28.5
q-51 0 -72 -28.5t-21 -66.5q0 -40 21 -69t72 -29q52 0 73.5 29zM1037 15.5q-66 35.5 -100.5 92.5t-34.5 122t34.5 122t100.5 92t157 35t157.5 -35t101 -92t34.5 -122t-34.5 -122t-101 -92.5t-157.5 -35.5t-157 35.5zM1668 15.5q-66 35.5 -100.5 92.5t-34.5 122t34.5 122
t100.5 92t157 35t157.5 -35t101 -92t34.5 -122t-34.5 -122t-101 -92.5t-157.5 -35.5t-157 35.5zM1267.5 162.5q21.5 29.5 21.5 68.5t-21.5 67t-73.5 28q-51 0 -72.5 -28t-21.5 -67t21.5 -68.5t72.5 -29.5q52 0 73.5 29.5zM1898.5 162.5q21.5 29.5 21.5 68.5t-21.5 67
t-73.5 28q-51 0 -72 -28t-21 -67q0 -40 21 -69t72 -29q52 0 73.5 29.5z" />
    <glyph glyph-name="guilsinglleft" unicode="&#x2039;" horiz-adv-x="676" 
d="M53 302l260 302h310l-260 -302l260 -302h-310z" />
    <glyph glyph-name="guilsinglright" unicode="&#x203a;" horiz-adv-x="676" 
d="M53 604h310l260 -302l-260 -302h-310l260 302z" />
    <glyph glyph-name="fraction" unicode="&#x2044;" horiz-adv-x="649" 
d="M354 816h247l-289 -966h-247z" />
    <glyph glyph-name="Euro" unicode="&#x20ac;" horiz-adv-x="829" 
d="M484.5 500.5q-30.5 -18.5 -44.5 -56.5h219v-60h-231q-1 -10 -1 -33v-9h232v-60h-223q13 -38 44.5 -57.5t85.5 -19.5q53 0 91.5 8t117.5 33v-225q-82 -23 -145 -32t-141 -9q-163 0 -249.5 81t-102.5 221h-84v60h80v9q0 22 1 33h-81v60h86q21 140 107 220t243 80
q78 0 141 -9t145 -32v-225q-79 25 -117.5 33t-91.5 8q-51 0 -81.5 -18.5z" />
    <glyph glyph-name="trademark" unicode="&#x2122;" horiz-adv-x="1133" 
d="M219 614h-163v86h415v-86h-162l-1 -238h-89v238zM607 376h-90v324h144l137 -240l138 240h144l-1 -324h-89v240l-139 -240h-106l-138 240v-240z" />
    <glyph glyph-name="arrowleft" unicode="&#x2190;" horiz-adv-x="813" 
d="M759 432v-164h-414l133 -121l-114 -107l-311 311l311 309l114 -107l-133 -121h414z" />
    <glyph glyph-name="arrowup" unicode="&#x2191;" horiz-adv-x="727" 
d="M446 443v-414h-165v414l-120 -133l-108 114l309 310l312 -310l-108 -114z" />
    <glyph glyph-name="arrowright" unicode="&#x2192;" horiz-adv-x="813" 
d="M468 268h-415v164h415l-134 121l114 107l311 -309l-311 -311l-114 107z" />
    <glyph glyph-name="arrowdown" unicode="&#x2193;" horiz-adv-x="727" 
d="M281 682h165v-414l120 133l108 -114l-312 -311l-309 311l108 114l120 -133v414z" />
    <glyph glyph-name="arrowboth" unicode="&#x2194;" horiz-adv-x="1404" 
d="M926 553l114 107l310 -309l-310 -311l-114 107l133 121h-714l133 -121l-114 -107l-311 311l311 309l114 -107l-133 -121h714z" />
    <glyph glyph-name="arrowupdn" unicode="&#x2195;" horiz-adv-x="727" 
d="M446 33l120 134l108 -114l-312 -311l-309 311l108 114l120 -134v513l-120 -134l-108 114l309 311l312 -311l-108 -114l-120 134v-513z" />
    <glyph glyph-name="uni2196" unicode="&#x2196;" horiz-adv-x="663" 
d="M610 202l-116 -116l-293 293l9 -180l-157 5l1 440l438 -1l5 -157l-180 9z" />
    <glyph glyph-name="uni2197" unicode="&#x2197;" horiz-adv-x="663" 
d="M463 368l-293 -293l-117 116l293 293l-179 -9l5 157l438 1v-440l-156 -5z" />
    <glyph glyph-name="uni2198" unicode="&#x2198;" horiz-adv-x="663" 
d="M53 509l117 116l293 -293l-9 180l156 -5v-440l-438 1l-5 157l179 -9z" />
    <glyph glyph-name="uni2199" unicode="&#x2199;" horiz-adv-x="663" 
d="M201 332l293 293l116 -116l-293 -293l180 9l-5 -157l-438 -1l-1 440l157 5z" />
    <glyph glyph-name="emptyset" unicode="&#x2205;" horiz-adv-x="1156" 
d="M1104 743l-107 -107q43 -59 65 -132t22 -153q0 -132 -58.5 -240t-172.5 -171.5t-274 -63.5q-158 0 -277 65l-117 -117l-133 133l109 109q-43 59 -65.5 132t-22.5 153q0 132 59 239.5t173 170.5t274 63t276 -64l116 116zM353 258l327 327q-43 15 -101 15q-120 0 -178 -65
t-58 -184q0 -53 10 -93zM804 443l-327 -327q42 -16 102 -16q120 0 177.5 65.5t57.5 185.5q0 52 -10 92z" />
    <glyph glyph-name="product" unicode="&#x220f;" horiz-adv-x="1318" 
d="M1265 800v-213h-211v-737h-235v737h-313v-737h-235v737h-218v213h1212z" />
    <glyph glyph-name="minus" unicode="&#x2212;" horiz-adv-x="913" 
d="M53 246v188h806v-188h-806z" />
    <glyph glyph-name="integral" unicode="&#x222b;" horiz-adv-x="986" 
d="M53 63q59 0 103 6.5t88.5 36t66.5 92.5l82 254q53 164 131.5 239t167 92t240.5 17v-213q-59 0 -103 -6.5t-88 -36t-66 -92.5l-82 -254q-53 -163 -131.5 -238t-168 -92.5t-240.5 -17.5v213z" />
    <glyph glyph-name="approxequal" unicode="&#x2248;" horiz-adv-x="913" 
d="M53 383q0 158 56 244t156 86q49 0 90.5 -15.5t96.5 -45.5q45 -24 71.5 -34.5t53.5 -10.5q39 0 56 23t17 83h210q0 -158 -56 -244t-155 -86q-49 0 -91 15.5t-97 45.5q-45 24 -71.5 34.5t-53.5 10.5q-40 0 -56.5 -22.5t-16.5 -83.5h-210zM53 -6q0 158 56 244t156 86
q49 0 90.5 -15.5t96.5 -45.5q45 -24 71.5 -34.5t53.5 -10.5q39 0 56 23t17 83h210q0 -158 -56 -244t-155 -86q-49 0 -91 15.5t-97 45.5q-45 24 -71.5 34.5t-53.5 10.5q-40 0 -56.5 -22.5t-16.5 -83.5h-210z" />
    <glyph glyph-name="notequal" unicode="&#x2260;" horiz-adv-x="913" 
d="M859 593v-189h-238l-39 -131h277v-189h-333l-68 -228h-247l68 228h-226v189h283l39 131h-322v189h378l69 229h246l-68 -229h181z" />
    <glyph glyph-name="lessequal" unicode="&#x2264;" horiz-adv-x="910" 
d="M53 650l808 95v-215l-579 -48l579 -48v-215l-808 95v336zM857 -9h-806v188h806v-188z" />
    <glyph glyph-name="greaterequal" unicode="&#x2265;" horiz-adv-x="910" 
d="M53 -9v188h806v-188h-806zM49 530v215l808 -95v-336l-808 -95v215l579 48z" />
    <glyph glyph-name="lozenge" unicode="&#x25ca;" horiz-adv-x="981" 
d="M666 800l261 -495l-261 -496h-351l-262 496l262 495h351zM294 305l197 -376l196 376l-196 376z" />
    <glyph glyph-name="A.ss01" horiz-adv-x="1353" 
d="M1309 0h-299l-51 116h-565l-51 -116h-300l331 724h604zM556 487l-75 -171h390l-75 171h-240z" />
    <glyph glyph-name="Aacute.ss01" horiz-adv-x="1353" 
d="M1309 0h-299l-51 116h-565l-51 -116h-300l331 724h604zM556 487l-75 -171h390l-75 171h-240zM480 796v109l392 80v-109z" />
    <glyph glyph-name="Abreve.ss01" horiz-adv-x="1353" 
d="M1309 0h-299l-51 116h-565l-51 -116h-300l331 724h604zM556 487l-75 -171h390l-75 171h-240zM576 983q0 -42 24 -64t77 -22q52 0 76 22t24 64h129q0 -98 -64 -145t-165 -47t-165.5 47t-64.5 145h129z" />
    <glyph glyph-name="Acircumflex.ss01" horiz-adv-x="1353" 
d="M1309 0h-299l-51 116h-565l-51 -116h-300l331 724h604zM556 487l-75 -171h390l-75 171h-240zM466 905l210 80l210 -80v-112l-210 80l-210 -80v112z" />
    <glyph glyph-name="Adieresis.ss01" horiz-adv-x="1353" 
d="M1309 0h-299l-51 116h-565l-51 -116h-300l331 724h604zM556 487l-75 -171h390l-75 171h-240zM448 820v104h192v-104h-192zM712 820v104h191v-104h-191z" />
    <glyph glyph-name="Agrave.ss01" horiz-adv-x="1353" 
d="M1309 0h-299l-51 116h-565l-51 -116h-300l331 724h604zM556 487l-75 -171h390l-75 171h-240zM480 985l392 -80v-109l-392 80v109z" />
    <glyph glyph-name="Amacron.ss01" horiz-adv-x="1353" 
d="M1309 0h-299l-51 116h-565l-51 -116h-300l331 724h604zM556 487l-75 -171h390l-75 171h-240zM438 819v105h475v-105h-475z" />
    <glyph glyph-name="Aogonek.ss01" horiz-adv-x="1353" 
d="M1309 0h-299l-51 116h-565l-51 -116h-300l331 724h604zM556 487l-75 -171h390l-75 171h-240zM1288 -230q-105 0 -170.5 9t-101.5 35t-36 74q0 33 21.5 59.5t62.5 52.5h115q-24 -19 -36 -33t-12 -36q0 -27 21 -39t50.5 -14.5t85.5 -2.5v-105z" />
    <glyph glyph-name="Aring.ss01" horiz-adv-x="1353" 
d="M1309 0h-299l-51 116h-565l-51 -116h-300l331 724h604zM556 487l-75 -171h390l-75 171h-240zM505.5 815q-53.5 34 -53.5 100t53.5 100t171.5 34q117 0 170.5 -34t53.5 -100t-53.5 -100t-170.5 -34q-118 0 -171.5 34zM746.5 876.5q25.5 10.5 25.5 38.5q0 49 -95 49
q-96 0 -96 -49q0 -28 25.5 -38.5t70.5 -10.5q44 0 69.5 10.5z" />
    <glyph glyph-name="Atilde.ss01" horiz-adv-x="1353" 
d="M1309 0h-299l-51 116h-565l-51 -116h-300l331 724h604zM556 487l-75 -171h390l-75 171h-240zM359 777q0 101 36.5 165.5t125.5 64.5q47 0 85.5 -14t84.5 -39q32 -17 53.5 -25.5t41.5 -8.5q33 0 45 20.5t12 68.5h151q0 -101 -36.5 -165.5t-125.5 -64.5q-47 0 -85.5 14
t-84.5 39q-32 17 -53.5 25.5t-41.5 8.5q-33 0 -45 -20.5t-12 -68.5h-151z" />
    <glyph glyph-name="K.ss01" horiz-adv-x="1089" 
d="M702 724h332l-281 -362l281 -362h-332l-189 244h-177v-244h-283v724h283v-244h177z" />
    <glyph glyph-name="uni0136.ss01" horiz-adv-x="1089" 
d="M702 724h332l-281 -362l281 -362h-332l-189 244h-177v-244h-283v724h283v-244h177zM419 -195v127h220v-127l-112 -111h-108l74 111h-74z" />
    <glyph glyph-name="R.ss01" horiz-adv-x="970" 
d="M606 0l-111 187h-159v-187h-283v724h593q137 0 209 -68.5t72 -200.5q0 -83 -37 -146t-107 -95l146 -214h-323zM336 499v-88h221q6 0 31 -0.5t35 10.5t10 34t-9 32.5t-20.5 10.5t-46.5 1h-221z" />
    <glyph glyph-name="Racute.ss01" horiz-adv-x="970" 
d="M606 0l-111 187h-159v-187h-283v724h593q137 0 209 -68.5t72 -200.5q0 -83 -37 -146t-107 -95l146 -214h-323zM336 499v-88h221q6 0 31 -0.5t35 10.5t10 34t-9 32.5t-20.5 10.5t-46.5 1h-221zM278 796v109l392 80v-109z" />
    <glyph glyph-name="Rcaron.ss01" horiz-adv-x="970" 
d="M606 0l-111 187h-159v-187h-283v724h593q137 0 209 -68.5t72 -200.5q0 -83 -37 -146t-107 -95l146 -214h-323zM336 499v-88h221q6 0 31 -0.5t35 10.5t10 34t-9 32.5t-20.5 10.5t-46.5 1h-221zM264 973l210 -80l210 80v-112l-210 -80l-210 80v112z" />
    <glyph glyph-name="uni0156.ss01" horiz-adv-x="970" 
d="M606 0l-111 187h-159v-187h-283v724h593q137 0 209 -68.5t72 -200.5q0 -83 -37 -146t-107 -95l146 -214h-323zM336 499v-88h221q6 0 31 -0.5t35 10.5t10 34t-9 32.5t-20.5 10.5t-46.5 1h-221zM362 -195v127h220v-127l-112 -111h-108l74 111h-74z" />
    <glyph glyph-name="V.ss01" horiz-adv-x="1353" 
d="M1010 724h299l-331 -724h-604l-331 724h300l213 -487h240z" />
    <glyph glyph-name="W.ss01" horiz-adv-x="1771" 
d="M1311 237l133 487h284l-215 -724h-519l-109 455l-109 -455h-518l-215 724h284l133 -487h103l117 487h411l116 -487h104z" />
    <glyph glyph-name="Wacute.ss01" horiz-adv-x="1771" 
d="M1311 237l133 487h284l-215 -724h-519l-109 455l-109 -455h-518l-215 724h284l133 -487h103l117 487h411l116 -487h104zM688 796v109l392 80v-109z" />
    <glyph glyph-name="Wcircumflex.ss01" horiz-adv-x="1771" 
d="M1311 237l133 487h284l-215 -724h-519l-109 455l-109 -455h-518l-215 724h284l133 -487h103l117 487h411l116 -487h104zM675 905l210 80l210 -80v-112l-210 80l-210 -80v112z" />
    <glyph glyph-name="Wdieresis.ss01" horiz-adv-x="1771" 
d="M1311 237l133 487h284l-215 -724h-519l-109 455l-109 -455h-518l-215 724h284l133 -487h103l117 487h411l116 -487h104zM657 820v104h192v-104h-192zM921 820v104h191v-104h-191z" />
    <glyph glyph-name="Wgrave.ss01" horiz-adv-x="1771" 
d="M1311 237l133 487h284l-215 -724h-519l-109 455l-109 -455h-518l-215 724h284l133 -487h103l117 487h411l116 -487h104zM689 985l392 -80v-109l-392 80v109z" />
    <glyph glyph-name="i.loclTRK" horiz-adv-x="365" 
d="M55 653v153h255v-153h-255zM53 0v604h258v-604h-258z" />
    <glyph glyph-name="a.001" horiz-adv-x="949" 
d="M737 592.5q82 -31.5 123 -101.5t42 -185v-306h-259v82q-72 -48 -160.5 -69t-169.5 -21q-124 0 -200 44t-76 145q0 114 99.5 159.5t244.5 45.5q136 0 262 -29q-4 49 -44.5 69.5t-124.5 20.5q-81 0 -163 -11t-194 -36l-31 175q240 49 439 49q130 0 212 -31.5zM590 183l53 5
v42q-123 13 -221 13q-65 0 -90.5 -8.5t-25.5 -29.5q0 -19 22.5 -27.5t75.5 -8.5q46 0 186 14z" />
    <glyph glyph-name="a.ss01" horiz-adv-x="932" 
d="M621 597h258v-604h-258v111q-43 -66 -114.5 -95t-154.5 -29q-80 0 -152.5 30.5t-120.5 102.5t-48 189t48 189t120.5 102.5t152.5 30.5q83 0 154.5 -29t114.5 -95v97zM583 219q38 26 38 83t-38 83t-121 26t-122 -26t-39 -83t39 -83t122 -26t121 26z" />
    <glyph glyph-name="aacute.ss01" horiz-adv-x="932" 
d="M621 597h258v-604h-258v111q-43 -66 -114.5 -95t-154.5 -29q-80 0 -152.5 30.5t-120.5 102.5t-48 189t48 189t120.5 102.5t152.5 30.5q83 0 154.5 -29t114.5 -95v97zM583 219q38 26 38 83t-38 83t-121 26t-122 -26t-39 -83t39 -83t122 -26t121 26zM263 676v109l392 80
v-109z" />
    <glyph glyph-name="abreve.ss01" horiz-adv-x="932" 
d="M621 597h258v-604h-258v111q-43 -66 -114.5 -95t-154.5 -29q-80 0 -152.5 30.5t-120.5 102.5t-48 189t48 189t120.5 102.5t152.5 30.5q83 0 154.5 -29t114.5 -95v97zM583 219q38 26 38 83t-38 83t-121 26t-122 -26t-39 -83t39 -83t122 -26t121 26zM359 863q0 -42 24 -64
t77 -22q52 0 76 22t24 64h129q0 -98 -64 -145t-165 -47t-165.5 47t-64.5 145h129z" />
    <glyph glyph-name="acircumflex.ss01" horiz-adv-x="932" 
d="M621 597h258v-604h-258v111q-43 -66 -114.5 -95t-154.5 -29q-80 0 -152.5 30.5t-120.5 102.5t-48 189t48 189t120.5 102.5t152.5 30.5q83 0 154.5 -29t114.5 -95v97zM583 219q38 26 38 83t-38 83t-121 26t-122 -26t-39 -83t39 -83t122 -26t121 26zM250 785l210 80
l210 -80v-112l-210 80l-210 -80v112z" />
    <glyph glyph-name="adieresis.ss01" horiz-adv-x="932" 
d="M621 597h258v-604h-258v111q-43 -66 -114.5 -95t-154.5 -29q-80 0 -152.5 30.5t-120.5 102.5t-48 189t48 189t120.5 102.5t152.5 30.5q83 0 154.5 -29t114.5 -95v97zM583 219q38 26 38 83t-38 83t-121 26t-122 -26t-39 -83t39 -83t122 -26t121 26zM232 700v104h192v-104
h-192zM496 700v104h191v-104h-191z" />
    <glyph glyph-name="agrave.ss01" horiz-adv-x="932" 
d="M621 597h258v-604h-258v111q-43 -66 -114.5 -95t-154.5 -29q-80 0 -152.5 30.5t-120.5 102.5t-48 189t48 189t120.5 102.5t152.5 30.5q83 0 154.5 -29t114.5 -95v97zM583 219q38 26 38 83t-38 83t-121 26t-122 -26t-39 -83t39 -83t122 -26t121 26zM264 865l392 -80v-109
l-392 80v109z" />
    <glyph glyph-name="amacron.ss01" horiz-adv-x="932" 
d="M621 597h258v-604h-258v111q-43 -66 -114.5 -95t-154.5 -29q-80 0 -152.5 30.5t-120.5 102.5t-48 189t48 189t120.5 102.5t152.5 30.5q83 0 154.5 -29t114.5 -95v97zM583 219q38 26 38 83t-38 83t-121 26t-122 -26t-39 -83t39 -83t122 -26t121 26zM222 699v105h475v-105
h-475z" />
    <glyph glyph-name="aogonek.ss01" horiz-adv-x="932" 
d="M747 -108q21 -12 50.5 -14.5t85.5 -2.5v-105q-105 0 -170.5 9t-101.5 35t-36 74q0 31 18.5 55.5t54.5 49.5h-27v111q-43 -66 -114.5 -95t-154.5 -29q-80 0 -152.5 30.5t-120.5 102.5t-48 189t48 189t120.5 102.5t152.5 30.5q83 0 154.5 -29t114.5 -95v97h258v-604h-114
q-18 -15 -28.5 -29t-10.5 -33q0 -27 21 -39zM583 219q38 26 38 83t-38 83t-121 26t-122 -26t-39 -83t39 -83t122 -26t121 26z" />
    <glyph glyph-name="aring.ss01" horiz-adv-x="932" 
d="M621 597h258v-604h-258v111q-43 -66 -114.5 -95t-154.5 -29q-80 0 -152.5 30.5t-120.5 102.5t-48 189t48 189t120.5 102.5t152.5 30.5q83 0 154.5 -29t114.5 -95v97zM583 219q38 26 38 83t-38 83t-121 26t-122 -26t-39 -83t39 -83t122 -26t121 26zM289.5 695
q-53.5 34 -53.5 100t53.5 100t171.5 34q117 0 170.5 -34t53.5 -100t-53.5 -100t-170.5 -34q-118 0 -171.5 34zM530.5 756.5q25.5 10.5 25.5 38.5q0 49 -95 49q-96 0 -96 -49q0 -28 25.5 -38.5t70.5 -10.5q44 0 69.5 10.5z" />
    <glyph glyph-name="atilde.ss01" horiz-adv-x="932" 
d="M621 597h258v-604h-258v111q-43 -66 -114.5 -95t-154.5 -29q-80 0 -152.5 30.5t-120.5 102.5t-48 189t48 189t120.5 102.5t152.5 30.5q83 0 154.5 -29t114.5 -95v97zM583 219q38 26 38 83t-38 83t-121 26t-122 -26t-39 -83t39 -83t122 -26t121 26zM143 657
q0 101 36.5 165.5t125.5 64.5q47 0 85.5 -14t84.5 -39q32 -17 53.5 -25.5t41.5 -8.5q33 0 45 20.5t12 68.5h151q0 -101 -36.5 -165.5t-125.5 -64.5q-47 0 -85.5 14t-84.5 39q-32 17 -53.5 25.5t-41.5 8.5q-33 0 -45 -20.5t-12 -68.5h-151z" />
    <glyph glyph-name="g.ss01" horiz-adv-x="985" 
d="M959 604v-108q-34 0 -91 15q32 -45 32 -106q0 -106 -99 -163t-329 -57q-126 0 -171 -1t-61 -6t-16 -18q0 -12 14 -16.5t56.5 -6t154.5 -1.5h52q162 0 253.5 -18t133 -61.5t41.5 -122.5q0 -81 -47 -123t-137 -56.5t-244 -14.5q-161 0 -256 8.5t-148.5 36t-53.5 83.5
q0 50 46 78.5t119 35.5q-79 12 -123 42t-44 84q0 93 141 116q-73 28 -106 73t-33 108q0 105 99 162t330 57q132 0 223 -20h264zM575 344.5q32 18.5 32 60.5t-32 60t-103 18q-72 0 -103.5 -18t-31.5 -60q0 -43 31.5 -61t103.5 -18q71 0 103 18.5zM705.5 -42q-13.5 7 -59 10
t-145.5 3h-13q-90 0 -131.5 -3t-54.5 -10t-13 -22t13 -21t54.5 -8t144.5 -2q104 0 147.5 2t57 8t13.5 21t-13.5 22z" />
    <glyph glyph-name="gbreve.ss01" horiz-adv-x="985" 
d="M959 604v-108q-34 0 -91 15q32 -45 32 -106q0 -106 -99 -163t-329 -57q-126 0 -171 -1t-61 -6t-16 -18q0 -12 14 -16.5t56.5 -6t154.5 -1.5h52q162 0 253.5 -18t133 -61.5t41.5 -122.5q0 -81 -47 -123t-137 -56.5t-244 -14.5q-161 0 -256 8.5t-148.5 36t-53.5 83.5
q0 50 46 78.5t119 35.5q-79 12 -123 42t-44 84q0 93 141 116q-73 28 -106 73t-33 108q0 105 99 162t330 57q132 0 223 -20h264zM575 344.5q32 18.5 32 60.5t-32 60t-103 18q-72 0 -103.5 -18t-31.5 -60q0 -43 31.5 -61t103.5 -18q71 0 103 18.5zM705.5 -42q-13.5 7 -59 10
t-145.5 3h-13q-90 0 -131.5 -3t-54.5 -10t-13 -22t13 -21t54.5 -8t144.5 -2q104 0 147.5 2t57 8t13.5 21t-13.5 22zM366 863q0 -42 24 -64t77 -22q52 0 76 22t24 64h129q0 -98 -64 -145t-165 -47t-165.5 47t-64.5 145h129z" />
    <glyph glyph-name="uni0123.ss01" horiz-adv-x="985" 
d="M959 604v-108q-34 0 -91 15q32 -45 32 -106q0 -106 -99 -163t-329 -57q-126 0 -171 -1t-61 -6t-16 -18q0 -12 14 -16.5t56.5 -6t154.5 -1.5h52q162 0 253.5 -18t133 -61.5t41.5 -122.5q0 -81 -47 -123t-137 -56.5t-244 -14.5q-161 0 -256 8.5t-148.5 36t-53.5 83.5
q0 50 46 78.5t119 35.5q-79 12 -123 42t-44 84q0 93 141 116q-73 28 -106 73t-33 108q0 105 99 162t330 57q132 0 223 -20h264zM575 344.5q32 18.5 32 60.5t-32 60t-103 18q-72 0 -103.5 -18t-31.5 -60q0 -43 31.5 -61t103.5 -18q71 0 103 18.5zM705.5 -42q-13.5 7 -59 10
t-145.5 3h-13q-90 0 -131.5 -3t-54.5 -10t-13 -22t13 -21t54.5 -8t144.5 -2q104 0 147.5 2t57 8t13.5 21t-13.5 22zM577 825v-127h-221v127l113 111h107l-73 -111h74z" />
    <glyph glyph-name="gdotaccent.ss01" horiz-adv-x="985" 
d="M959 604v-108q-34 0 -91 15q32 -45 32 -106q0 -106 -99 -163t-329 -57q-126 0 -171 -1t-61 -6t-16 -18q0 -12 14 -16.5t56.5 -6t154.5 -1.5h52q162 0 253.5 -18t133 -61.5t41.5 -122.5q0 -81 -47 -123t-137 -56.5t-244 -14.5q-161 0 -256 8.5t-148.5 36t-53.5 83.5
q0 50 46 78.5t119 35.5q-79 12 -123 42t-44 84q0 93 141 116q-73 28 -106 73t-33 108q0 105 99 162t330 57q132 0 223 -20h264zM575 344.5q32 18.5 32 60.5t-32 60t-103 18q-72 0 -103.5 -18t-31.5 -60q0 -43 31.5 -61t103.5 -18q71 0 103 18.5zM705.5 -42q-13.5 7 -59 10
t-145.5 3h-13q-90 0 -131.5 -3t-54.5 -10t-13 -22t13 -21t54.5 -8t144.5 -2q104 0 147.5 2t57 8t13.5 21t-13.5 22zM358 700v104h216v-104h-216z" />
    </font>
</defs>
</svg>
