<?xml version="1.0" standalone="no"?>
<!DOCTYPE svg PUBLIC "-//W3C//DTD SVG 1.1//EN" "http://www.w3.org/Graphics/SVG/1.1/DTD/svg11.dtd" >
<svg xmlns="http://www.w3.org/2000/svg" xmlns:xlink="http://www.w3.org/1999/xlink" version="1.1">
<metadata>
Created by FontForge 20170731 at Fri Oct  2 23:02:24 2020
 By Aleksey,,,
Pangram Pangram
</metadata>
<defs>
<font id="MonumentExtended-Light" horiz-adv-x="0" >
  <font-face 
    font-family="Monument Extended Light"
    font-weight="300"
    font-stretch="normal"
    units-per-em="1000"
    panose-1="0 0 4 0 0 0 0 0 0 0"
    ascent="800"
    descent="-200"
    x-height="580"
    cap-height="700"
    bbox="-1043 -300 1796 1037"
    underline-thickness="47"
    underline-position="-106"
    unicode-range="U+0020-25CA"
  />
<missing-glyph horiz-adv-x="550" 
d="M102 800h349v-1100h-349v1100zM366 690v36h-181v-36h71v-41h-72v-36h182v36h-72v41h72zM294 507v77h-110v-114h182v37h-72zM220 547h36v-40h-36v40zM366 404v36h-182v-36h72v-41h-72v-36h110v77h72zM366 264v110h-36v-72h-146v-38h182zM366 116v124h-110v-61h38v25h36
v-52h-110v88h-36v-124h182zM366 -74v124h-182v-124h182zM220 14h110v-52h-110v52zM366 -136v36h-182v-36h77l-77 -52v-36h182v36h-112l77 52h35z" />
    <glyph glyph-name="f_f" unicode="ff" horiz-adv-x="1138" 
d="M919 747q-59 0 -87.5 -11.5t-39.5 -40.5t-11 -88v-27h284v-53h-284v-527h-58v527h-401v-527h-58v527h-184v53h184v32q0 67 17 108t58 60.5t113 19.5h218v-53h-210q-59 0 -87.5 -11.5t-39.5 -40.5t-11 -88v-27h401v32q0 67 17 108t58 60.5t113 19.5h154v-53h-146z" />
    <glyph glyph-name="f_f_i" unicode="ffi" horiz-adv-x="1343" 
d="M925 747q-58 0 -87 -11.5t-40 -41t-11 -87.5v-27h459v-580h-58v527h-401v-527h-58v527h-407v-527h-58v527h-184v53h184v32q0 67 17 108t58 60.5t113 19.5h235v-53h-227q-59 0 -87.5 -11.5t-39.5 -40.5t-11 -88v-27h407v32q0 67 17 108t58.5 60.5t113.5 19.5h328v-53h-321
z" />
    <glyph glyph-name="f_i" unicode="fi" horiz-adv-x="877" 
d="M460 747q-59 0 -87.5 -11.5t-39.5 -40.5t-11 -88v-27h459v-580h-58v527h-401v-527h-58v527h-184v53h184v32q0 67 17 108t58 60.5t113 19.5h329v-53h-321z" />
    <glyph glyph-name="f_l" unicode="fl" horiz-adv-x="887" 
d="M791 800v-800h-58v747h-273q-59 0 -87.5 -11.5t-39.5 -40.5t-11 -88v-27h284v-53h-284v-527h-58v527h-184v53h184v32q0 67 17 108t58 60.5t113 19.5h339z" />
    <glyph glyph-name=".notdef" horiz-adv-x="550" 
d="M102 800h349v-1100h-349v1100zM366 690v36h-181v-36h71v-41h-72v-36h182v36h-72v41h72zM294 507v77h-110v-114h182v37h-72zM220 547h36v-40h-36v40zM366 404v36h-182v-36h72v-41h-72v-36h110v77h72zM366 264v110h-36v-72h-146v-38h182zM366 116v124h-110v-61h38v25h36
v-52h-110v88h-36v-124h182zM366 -74v124h-182v-124h182zM220 14h110v-52h-110v52zM366 -136v36h-182v-36h77l-77 -52v-36h182v36h-112l77 52h35z" />
    <glyph glyph-name=".null" 
 />
    <glyph glyph-name="nonmarkingreturn" horiz-adv-x="333" 
 />
    <glyph glyph-name="space" unicode=" " horiz-adv-x="400" 
 />
    <glyph glyph-name="exclam" unicode="!" horiz-adv-x="266" 
d="M104 700h58v-500h-58v500zM97 0v65h72v-65h-72z" />
    <glyph glyph-name="quotedbl" unicode="&#x22;" horiz-adv-x="427" 
d="M270 760h60l-7 -320h-47zM97 760h60l-7 -320h-47z" />
    <glyph glyph-name="numbersign" unicode="#" horiz-adv-x="1328" 
d="M1225 507v-54h-263l-91 -306h281v-54h-297l-73 -243h-59l73 243h-379l-73 -243h-60l73 243h-254v54h270l91 306h-287v54h303l64 213h60l-64 -213h379l64 213h59l-64 -213h247zM433 147h379l91 306h-379z" />
    <glyph glyph-name="dollar" unicode="$" horiz-adv-x="1029" 
d="M825.5 27q-99.5 -46 -287.5 -47v-80h-48v80q-135 3 -222 28t-132 80t-46 146h61q0 -70 34.5 -112.5t108.5 -63.5t196 -24v295q-144 9 -223 30t-113 61.5t-34 111.5q0 102 90 144t280 44v80h48v-80q178 -5 267.5 -65t89.5 -177h-61q0 96 -72 139.5t-224 48.5v-286
q149 -10 226.5 -24.5t119 -52.5t41.5 -114q0 -116 -99.5 -162zM210 446.5q29 -28.5 93 -41.5t187 -22v284h-7q-110 0 -175.5 -13.5t-96 -43.5t-30.5 -80q0 -55 29 -83.5zM538 33q166 0 246 35.5t80 118.5q0 54 -29 80.5t-94.5 38.5t-202.5 20v-293z" />
    <glyph glyph-name="percent" unicode="%" horiz-adv-x="1342" 
d="M197.5 320.5q-53.5 31.5 -77 80.5t-23.5 104q0 54 23.5 103t77 80.5t137.5 31.5q85 0 138.5 -31.5t77 -80.5t23.5 -103q0 -55 -23.5 -104t-77 -80.5t-138.5 -31.5q-84 0 -137.5 31.5zM930 700h74l-592 -700h-74zM463 384.5q51 42.5 51 120.5t-50.5 120t-128.5 42
q-77 0 -127.5 -42t-50.5 -120t50.5 -120.5t127.5 -42.5t128 42.5zM868.5 11.5q-53.5 31.5 -77.5 80.5t-24 104q0 54 24 103t77.5 80.5t137.5 31.5t137.5 -31.5t77.5 -80.5t24 -103q0 -55 -24 -104t-77.5 -80.5t-137.5 -31.5t-137.5 31.5zM1134 75.5q51 42.5 51 120.5
t-50.5 120t-128.5 42q-77 0 -128 -42t-51 -120t51 -120.5t128 -42.5t128 42.5z" />
    <glyph glyph-name="ampersand" unicode="&#x26;" horiz-adv-x="991" 
d="M894 0h-99l-95 72q-58 -45 -136.5 -68.5t-170.5 -23.5q-157 0 -226.5 52t-69.5 135q0 53 25 91t66 64.5t105 56.5q-51 43 -79 86t-28 93q0 72 55 117t158 45q64 0 110 -20t69.5 -55t23.5 -78t-21.5 -75t-65 -59t-120.5 -60l37 -27q34 -24 64 -46l202 -152q67 78 73 190
h61q-6 -133 -88 -225zM275 481q27 -36 77 -76l14 6q68 29 104.5 51t53 45t16.5 54q0 52 -39.5 79t-102.5 27q-70 0 -110 -27t-40 -84q0 -39 27 -75zM654 107l-195 148l-73 53l-52 38q-87 -38 -131.5 -76.5t-44.5 -97.5q0 -72 64.5 -105.5t173.5 -33.5q160 0 258 74z" />
    <glyph glyph-name="quotesingle" unicode="'" horiz-adv-x="253" 
d="M97 760h60l-7 -320h-47z" />
    <glyph glyph-name="parenleft" unicode="(" horiz-adv-x="587" 
d="M197 674q100 126 294 126v-53q-333 0 -333 -446q0 -235 88 -341.5t245 -106.5v-53q-194 0 -294 126.5t-100 374.5q0 247 100 373z" />
    <glyph glyph-name="parenright" unicode=")" horiz-adv-x="587" 
d="M391 -73.5q-100 -126.5 -294 -126.5v53q156 0 244 106.5t88 341.5q0 446 -332 446v53q194 0 294 -126t100 -373q0 -248 -100 -374.5z" />
    <glyph glyph-name="asterisk" unicode="*" horiz-adv-x="599" 
d="M124 461l-27 47l157 86l-157 85l27 48l153 -94l-5 167h55l-4 -167l151 94l28 -48l-157 -86l157 -85l-27 -47l-152 93l4 -167h-55l5 167z" />
    <glyph glyph-name="plus" unicode="+" horiz-adv-x="940" 
d="M497 367h346v-54h-346v-313h-54v313h-346v54h346v313h54v-313z" />
    <glyph glyph-name="comma" unicode="," horiz-adv-x="253" 
d="M90 0v65h73v-65l-42 -153h-31l29 153h-29z" />
    <glyph glyph-name="hyphen" unicode="-" horiz-adv-x="980" 
d="M117 313v54h746v-54h-746z" />
    <glyph glyph-name="period" unicode="." horiz-adv-x="253" 
d="M90 0v65h73v-65h-73z" />
    <glyph glyph-name="slash" unicode="/" horiz-adv-x="513" 
d="M357 720h59l-260 -870h-59z" />
    <glyph glyph-name="zero" unicode="0" horiz-adv-x="935" 
d="M264 26q-86 46 -131.5 129.5t-45.5 195.5q0 111 45.5 194.5t131.5 129t203 45.5t203 -45.5t132 -129t46 -194.5t-46 -195t-132 -130t-203 -46t-203 46zM634.5 71.5q72.5 38.5 112.5 110.5t40 169t-40 168t-112.5 109.5t-167.5 38.5t-167 -38t-112 -109.5t-40 -168.5
q0 -98 40 -169.5t112 -110t167 -38.5t167.5 38.5z" />
    <glyph glyph-name="one" unicode="1" horiz-adv-x="797" 
d="M427 700v-647h273v-53h-603v53h272l1 587l-252 -106l-21 53l269 113h61z" />
    <glyph glyph-name="two" unicode="2" horiz-adv-x="895" 
d="M758.5 389.5q-46.5 -48.5 -113.5 -75.5t-180 -59q-100 -29 -158.5 -51t-101.5 -59t-50 -92h650v-53h-718v30q1 81 51 132.5t121 80.5t186 62q101 29 160 52t99 61t40 96q0 153 -261 153q-149 0 -227 -51.5t-78 -153.5h-61q0 127 95 192.5t271 65.5q157 0 239.5 -51
t82.5 -156q0 -75 -46.5 -123.5z" />
    <glyph glyph-name="three" unicode="3" horiz-adv-x="895" 
d="M769.5 299q39.5 -40 39.5 -109q0 -210 -351 -210q-177 0 -274 62t-97 186h61q0 -104 83.5 -149.5t236.5 -45.5q138 0 208.5 37.5t70.5 119.5q0 61 -39 91.5t-116.5 41t-217.5 10.5v47q133 0 209.5 11t115 42t38.5 91q0 72 -65.5 107.5t-206.5 35.5q-164 0 -240.5 -47
t-76.5 -148h-61q0 125 94.5 186.5t273.5 61.5q173 0 258.5 -49.5t85.5 -145.5q0 -68 -36.5 -108t-105.5 -60q73 -18 112.5 -58z" />
    <glyph glyph-name="four" unicode="4" horiz-adv-x="974" 
d="M705 217h172v-54h-172v-163h-58v163h-550v54l550 483h58v-483zM647 627l-468 -410h468v410z" />
    <glyph glyph-name="five" unicode="5" horiz-adv-x="909" 
d="M672 467q69 -28 109.5 -82t40.5 -129q0 -85 -43.5 -147t-125.5 -95.5t-194 -33.5q-165 0 -261 58t-111 172h61q15 -86 94.5 -131.5t221.5 -45.5q96 0 163 28.5t100.5 77.5t33.5 112q0 91 -69.5 141t-190.5 50q-77 0 -152.5 -22.5t-172.5 -72.5l-55 19l82 334h587v-53
h-540l-60 -242q78 45 158 67.5t169 22.5q86 0 155 -28z" />
    <glyph glyph-name="six" unicode="6" horiz-adv-x="935" 
d="M746.5 434.5q91.5 -60.5 91.5 -194.5q0 -127 -95.5 -193.5t-268.5 -66.5q-196 0 -285.5 82t-91.5 251v4v3q1 221 98 310.5t270 89.5q88 0 163 -10.5t158 -27.5v-53l-37 7q-82 15 -141 23t-125 8q-114 0 -184 -32t-104.5 -103t-36.5 -190q35 64 121 108.5t215 44.5
q161 0 252.5 -60.5zM700.5 86q76.5 53 76.5 152q0 102 -71 153t-224 51q-96 0 -166.5 -25.5t-108.5 -71.5t-38 -107q0 -57 32.5 -103.5t99.5 -74t166 -27.5q157 0 233.5 53z" />
    <glyph glyph-name="seven" unicode="7" horiz-adv-x="803" 
d="M57 700h689v-53q-211 -105 -311 -261.5t-100 -385.5h-62q0 204 86.5 371.5t301.5 275.5h-604v53z" />
    <glyph glyph-name="eight" unicode="8" horiz-adv-x="935" 
d="M848 198q0 -218 -381 -218q-380 0 -380 218q0 144 183 189q-120 43 -120 148q0 89 73.5 137t243.5 48t244 -48t74 -137q0 -106 -121 -148q184 -45 184 -189zM272 441.5q61 -31.5 195 -31.5q135 0 195.5 31.5t60.5 94.5q0 64 -60 97.5t-196 33.5t-196 -33.5t-60 -97.5
q0 -63 61 -94.5zM787 201q0 76 -76 116t-244 40q-167 0 -243 -40t-76 -116q0 -168 319 -168q320 0 320 168z" />
    <glyph glyph-name="nine" unicode="9" horiz-adv-x="935" 
d="M838 380v0q-1 -221 -98 -310.5t-271 -89.5q-87 0 -162 10.5t-158 27.5v53l37 -7q82 -15 141 -23t125 -8q114 0 184 32t104.5 103t36.5 190q-35 -64 -121 -108.5t-215 -44.5q-161 0 -252.5 60.5t-91.5 194.5q0 127 95.5 193.5t268.5 66.5q196 0 285.5 -82t91.5 -251v-4v-3
zM619 283.5q71 25.5 109 71.5t38 107q0 57 -32.5 103.5t-100 74t-166.5 27.5q-156 0 -232.5 -53t-76.5 -152q0 -102 71 -153t224 -51q95 0 166 25.5z" />
    <glyph glyph-name="colon" unicode=":" horiz-adv-x="253" 
d="M90 0v65h73v-65h-73zM90 300v65h73v-65h-73z" />
    <glyph glyph-name="semicolon" unicode=";" horiz-adv-x="253" 
d="M90 0v65h73v-65l-42 -153h-31l29 153h-29zM90 300v65h73v-65h-73z" />
    <glyph glyph-name="less" unicode="&#x3c;" horiz-adv-x="927" 
d="M97 378l733 195v-58l-654 -175l654 -174v-59l-733 195v76z" />
    <glyph glyph-name="equal" unicode="=" horiz-adv-x="940" 
d="M97 473v54h746v-54h-746zM97 153v54h746v-54h-746z" />
    <glyph glyph-name="greater" unicode="&#x3e;" horiz-adv-x="927" 
d="M97 515v58l733 -195v-76l-733 -195v59l654 174z" />
    <glyph glyph-name="question" unicode="?" horiz-adv-x="875" 
d="M354 193q0 65 28.5 104.5t69 59.5t106.5 41q54 17 85.5 31t52.5 39t21 65q0 72 -67 103t-194 31q-155 0 -230 -48t-75 -166h-61q0 144 92 205.5t264 61.5q166 0 249.5 -44t83.5 -144q0 -55 -25.5 -88.5t-62.5 -51.5t-99 -39q-59 -19 -94 -35.5t-58.5 -46.5t-23.5 -78h-62
zM340 0v65h73v-65h-73z" />
    <glyph glyph-name="at" unicode="@" horiz-adv-x="1292" 
d="M959.5 -157q110.5 40 185.5 114l31 -40q-77 -79 -193.5 -123t-304.5 -44q-292 0 -436.5 129.5t-144.5 388.5q0 258 143 391.5t425 133.5q261 0 395.5 -113t134.5 -371q0 -150 -41 -232t-147 -82q-79 0 -114 34.5t-43 92.5q-63 -107 -230 -107q-134 0 -201.5 70.5
t-67.5 186.5t67.5 186t201.5 70q164 0 227 -102v86h58v-334q0 -64 20.5 -96.5t81.5 -32.5q73 0 100 66t27 204q0 155 -54 248t-157 133t-258 40q-252 0 -379.5 -117t-127.5 -355q0 -242 128 -353.5t392 -111.5q171 0 281.5 40zM796 123.5q51 55.5 51 148.5t-51 148t-166 55
q-116 0 -167 -55t-51 -148t51 -148.5t167 -55.5q115 0 166 55.5z" />
    <glyph glyph-name="A" unicode="A" horiz-adv-x="1077" 
d="M991 0h-67l-106 179h-559l-106 -179h-66l416 700h71zM539 651l-248 -418h495z" />
    <glyph glyph-name="B" unicode="B" horiz-adv-x="991" 
d="M872 298q33 -42 33 -107q0 -89 -56 -140t-159 -51h-593v700h560q109 0 161.5 -49.5t52.5 -128.5q0 -50 -22.5 -92.5t-67.5 -68.5q58 -21 91 -63zM155 647v-266h488q75 0 121 31t46 103q0 68 -42 100t-125 32h-488zM677 53q83 0 124.5 33t41.5 106t-46 104t-120 31h-522
v-274h522z" />
    <glyph glyph-name="C" unicode="C" horiz-adv-x="996" 
d="M137.5 546q50.5 83 146.5 128.5t230 45.5q113 0 198.5 -36t135.5 -97t61 -136h-61q-11 57 -51.5 106t-112 79.5t-170.5 30.5q-116 0 -198.5 -38.5t-125 -109.5t-42.5 -168q0 -98 43 -169.5t125 -110t198 -38.5q99 0 170.5 31t112 80.5t51.5 106.5h62q-12 -75 -62 -136.5
t-135.5 -98t-198.5 -36.5q-134 0 -230 46t-146.5 129.5t-50.5 195.5t50.5 195z" />
    <glyph glyph-name="D" unicode="D" horiz-adv-x="978" 
d="M715 661q80 -39 128 -118t48 -193t-48 -193t-128 -118t-178 -39h-440v700h440q98 0 178 -39zM510 53q153 0 236.5 74.5t83.5 222.5t-83.5 222.5t-236.5 74.5h-355v-594h355z" />
    <glyph glyph-name="E" unicode="E" horiz-adv-x="870" 
d="M783 700v-53h-628v-270h608v-54h-608v-270h628v-53h-686v700h686z" />
    <glyph glyph-name="F" unicode="F" horiz-adv-x="870" 
d="M783 700v-53h-628v-312h568v-53h-568v-282h-58v700h686z" />
    <glyph glyph-name="G" unicode="G" horiz-adv-x="997" 
d="M140.5 544.5q53.5 83.5 150.5 129.5t223 46q119 0 204.5 -37.5t133 -98.5t58.5 -133h-61q-8 52 -46 101t-110.5 82t-178.5 33q-128 0 -210.5 -48t-119 -120.5t-36.5 -148.5t36.5 -148.5t118.5 -120.5t210 -48q104 0 177.5 19.5t158.5 63.5v168h-349v54h410v-247
q-104 -59 -193 -85t-204 -26q-126 0 -222.5 46t-150 129.5t-53.5 194.5t53.5 194.5z" />
    <glyph glyph-name="H" unicode="H" horiz-adv-x="990" 
d="M835 377v323h58v-700h-58v323h-680v-323h-58v700h58v-323h680z" />
    <glyph glyph-name="I" unicode="I" horiz-adv-x="251" 
d="M97 700h58v-700h-58v700z" />
    <glyph glyph-name="J" unicode="J" horiz-adv-x="967" 
d="M870 351q0 -175 -92 -268t-295 -93t-294.5 92.5t-91.5 268.5h58q0 -91 26.5 -158.5t99 -108.5t202.5 -41q189 0 259 83.5t70 224.5v296h-386v53h444v-349z" />
    <glyph glyph-name="K" unicode="K" horiz-adv-x="961" 
d="M779 700h96l-407 -301l407 -399h-84l-369 364l-267 -197v-167h-58v700h58v-461z" />
    <glyph glyph-name="L" unicode="L" horiz-adv-x="817" 
d="M155 700v-647h575v-53h-633v700h58z" />
    <glyph glyph-name="M" unicode="M" horiz-adv-x="1192" 
d="M1095 700v-700h-58v634l-414 -634h-54l-414 634v-634h-58v700h82l417 -636l417 636h82z" />
    <glyph glyph-name="N" unicode="N" horiz-adv-x="1002" 
d="M847 56v644h58v-700h-82l-668 644v-644h-58v700h82z" />
    <glyph glyph-name="O" unicode="O" horiz-adv-x="1033" 
d="M283.5 25.5q-96.5 45.5 -146.5 129.5t-50 196t50 195t146.5 128.5t233.5 45.5q136 0 233 -45.5t147 -129t50 -194.5q0 -112 -50 -195.5t-147 -129.5t-233 -46q-137 0 -233.5 45.5zM715 71.5q83 38.5 126.5 110t43.5 169.5t-43.5 169t-126 109t-198.5 38t-199 -38
t-126.5 -109t-43.5 -169q0 -99 43.5 -170.5t126.5 -109.5t199 -38q115 0 198 38.5z" />
    <glyph glyph-name="P" unicode="P" horiz-adv-x="945" 
d="M728 671q62 -29 96 -83.5t34 -128.5t-34 -128.5t-96 -84t-145 -29.5h-428v-217h-58v700h486q83 0 145 -29zM567 271q101 0 165.5 44.5t64.5 143.5t-64.5 143.5t-165.5 44.5h-412v-376h412z" />
    <glyph glyph-name="Q" unicode="Q" horiz-adv-x="1031" 
d="M961 -22l-41 -41l-118 118q-111 -75 -285 -75q-137 0 -233.5 45.5t-146.5 129.5t-50 196t50 195t146.5 128.5t233.5 45.5q136 0 233 -45.5t147 -129t50 -194.5q0 -80 -25.5 -145.5t-74.5 -113.5zM760 97l-148 148l41 41l152 -152q80 83 80 217q0 98 -43.5 169t-126 109
t-198.5 38t-199 -38t-126.5 -109t-43.5 -169q0 -99 43.5 -170.5t126.5 -109.5t199 -38q150 0 243 64z" />
    <glyph glyph-name="R" unicode="R" horiz-adv-x="945" 
d="M799.5 277q28.5 -33 28.5 -86v-191h-58v181q0 50 -26.5 73t-80.5 23h-508v-277h-58v700h480q130 0 195.5 -49.5t65.5 -151.5q0 -137 -118 -181q51 -8 79.5 -41zM155 647v-316h412q103 0 156.5 36t53.5 125q0 88 -52.5 121.5t-157.5 33.5h-412z" />
    <glyph glyph-name="S" unicode="S" horiz-adv-x="995" 
d="M141 234q0 -74 39.5 -118t123.5 -63.5t224 -19.5q166 0 246 35.5t80 118.5q0 56 -31.5 83t-102 38t-222.5 20t-234.5 29.5t-118 61.5t-35.5 113q0 103 93.5 145.5t289.5 42.5t294 -59.5t98 -182.5h-61q0 71 -39 112.5t-115.5 59t-196.5 17.5q-110 0 -175.5 -13.5
t-96 -43.5t-30.5 -80q0 -56 30.5 -84.5t97.5 -41.5t199 -22q166 -11 247 -24.5t125.5 -52t44.5 -116.5q0 -117 -101 -163t-293 -46q-150 0 -245.5 23.5t-145 79t-50.5 151.5h61z" />
    <glyph glyph-name="T" unicode="T" horiz-adv-x="980" 
d="M893 700v-53h-374v-647h-58v647h-374v53h806z" />
    <glyph glyph-name="U" unicode="U" horiz-adv-x="1007" 
d="M910 341q0 -170 -94.5 -265.5t-312.5 -95.5t-312 95.5t-94 265.5v359h58v-359q0 -137 73.5 -222.5t274.5 -85.5q202 0 275.5 85.5t73.5 222.5v359h58v-359z" />
    <glyph glyph-name="V" unicode="V" horiz-adv-x="1077" 
d="M539 49l385 651h67l-417 -700h-71l-416 700h66z" />
    <glyph glyph-name="W" unicode="W" horiz-adv-x="1572" 
d="M1137 60l285 640h63l-313 -700h-70l-317 656l-322 -656h-71l-305 700h63l278 -641l316 641h83z" />
    <glyph glyph-name="X" unicode="X" horiz-adv-x="1044" 
d="M178 0h-88l390 350l-390 350h88l344 -310l344 310h88l-390 -350l390 -350h-88l-344 310z" />
    <glyph glyph-name="Y" unicode="Y" horiz-adv-x="1069" 
d="M534 288l370 412h78l-417 -465v-235h-62v235l-416 465h77z" />
    <glyph glyph-name="Z" unicode="Z" horiz-adv-x="930" 
d="M97 700h736v-53l-648 -594h648v-53h-736v53l648 594h-648v53z" />
    <glyph glyph-name="bracketleft" unicode="[" horiz-adv-x="587" 
d="M491 800v-53h-333v-894h333v-53h-394v1000h394z" />
    <glyph glyph-name="backslash" unicode="\" horiz-adv-x="513" 
d="M357 -150l-260 870h59l260 -870h-59z" />
    <glyph glyph-name="bracketright" unicode="]" horiz-adv-x="587" 
d="M97 800h394v-1000h-394v53h332v894h-332v53z" />
    <glyph glyph-name="asciicircum" unicode="^" horiz-adv-x="927" 
d="M503 800l327 -450h-71l-295 404l-296 -404h-71l329 450h77z" />
    <glyph glyph-name="underscore" unicode="_" horiz-adv-x="1180" 
d="M117 -157v54h946v-54h-946z" />
    <glyph glyph-name="grave" unicode="`" horiz-adv-x="556" 
d="M97 817l362 -80v-54l-362 80v54z" />
    <glyph glyph-name="a" unicode="a" horiz-adv-x="906" 
d="M737.5 539q80.5 -61 81.5 -197v-342h-58v78q-113 -47 -202.5 -72.5t-192.5 -25.5q-148 0 -215.5 51t-67.5 150q0 107 91 156t248 49q78 0 167.5 -16t171.5 -41v26q0 192 -273 192q-71 0 -149.5 -12t-185.5 -45l-23 49q93 30 181 45.5t180 15.5q166 0 246.5 -61z
M558.5 60.5q97.5 27.5 202.5 70.5v143q-89 27 -167.5 43t-169.5 16q-122 0 -200.5 -34.5t-78.5 -118.5q0 -78 57 -112.5t174 -34.5q85 0 182.5 27.5z" />
    <glyph glyph-name="b" unicode="b" horiz-adv-x="924" 
d="M669 563.5q81 -36.5 124.5 -106.5t43.5 -167t-43.5 -167t-124.5 -106.5t-190 -36.5q-120 0 -202 41t-122 116v-137h-58v800h58v-357q40 75 122 116t202 41q109 0 190 -36.5zM692.5 100q83.5 67 83.5 190t-83.5 190t-224.5 67q-142 0 -227.5 -67t-85.5 -190t85.5 -190
t227.5 -67q141 0 224.5 67z" />
    <glyph glyph-name="c" unicode="c" horiz-adv-x="904" 
d="M186.5 519q99.5 81 277.5 81q145 0 236 -55t118 -158h-64q-50 160 -290 160q-143 0 -229.5 -63.5t-86.5 -193.5t86.5 -193.5t229.5 -63.5q240 0 290 160h64q-27 -103 -118 -158t-236 -55q-178 0 -277.5 81t-99.5 229t99.5 229z" />
    <glyph glyph-name="d" unicode="d" horiz-adv-x="924" 
d="M769 800h58v-800h-58v137q-40 -75 -122 -116t-202 -41q-109 0 -190 36.5t-124.5 106.5t-43.5 167t43.5 167t124.5 106.5t190 36.5q120 0 202 -41t122 -116v357zM683.5 100q85.5 67 85.5 190t-85.5 190t-227.5 67q-141 0 -224.5 -67t-83.5 -190t83.5 -190t224.5 -67
q142 0 227.5 67z" />
    <glyph glyph-name="e" unicode="e" horiz-adv-x="920" 
d="M662 71q71 38 96 106h64q-25 -92 -115.5 -144.5t-237.5 -52.5q-180 0 -281 81t-101 229q0 98 45.5 168t130 106t199.5 36q176 0 273.5 -80.5t97.5 -236.5h-685q2 -127 88.5 -188.5t232.5 -61.5q122 0 193 38zM250 495q-83 -52 -99 -158h618q-12 105 -94 157.5t-213 52.5
q-129 0 -212 -52z" />
    <glyph glyph-name="f" unicode="f" horiz-adv-x="679" 
d="M374.5 745q-30.5 -12 -41.5 -42t-11 -89v-34h284v-53h-284v-527h-58v527h-184v53h184v40q0 67 16.5 108.5t56.5 61.5t109 20q76 0 160 -10v-52q-70 9 -140 9q-61 0 -91.5 -12z" />
    <glyph glyph-name="g" unicode="g" horiz-adv-x="924" 
d="M769 580h58v-543q0 -147 -77.5 -222t-257.5 -75q-75 0 -136 5t-153 16l-64 8v52l59 -7q86 -11 147.5 -16t132.5 -5q114 0 177.5 28.5t88.5 83t25 141.5v90q-40 -75 -121 -115.5t-199 -40.5q-110 0 -191.5 36t-126 106t-44.5 168t44.5 168t126 106t191.5 36
q118 0 199 -40.5t121 -115.5v136zM684.5 100q84.5 67 84.5 190t-84.5 190t-225.5 67q-142 0 -226.5 -67t-84.5 -190t84.5 -190t226.5 -67q141 0 225.5 67z" />
    <glyph glyph-name="h" unicode="h" horiz-adv-x="922" 
d="M742.5 527q80.5 -73 82.5 -247v-280h-58v274q0 99 -28.5 158.5t-88.5 87t-156 27.5q-95 0 -172 -35.5t-122 -102.5t-45 -156v-253h-58v800h58v-377q51 85 140 131t207 46q160 0 240.5 -73z" />
    <glyph glyph-name="i" unicode="i" horiz-adv-x="251" 
d="M97 687v113h58v-113h-58zM97 0v580h58v-580h-58z" />
    <glyph glyph-name="j" unicode="j" horiz-adv-x="459" 
d="M314 687v113h58v-113h-58zM372 -40q0 -77 -12 -123.5t-46 -71.5t-100 -25q-54 0 -157 18v52l20 -3q74 -14 116 -14q52 0 77.5 14.5t34.5 49.5t9 106v617h58v-620z" />
    <glyph glyph-name="k" unicode="k" horiz-adv-x="871" 
d="M680 580h105l-354 -233l354 -347h-86l-317 314l-227 -149v-165h-58v800h58v-567z" />
    <glyph glyph-name="l" unicode="l" horiz-adv-x="251" 
d="M97 0v800h58v-800h-58z" />
    <glyph glyph-name="m" unicode="m" horiz-adv-x="1392" 
d="M1226.5 531.5q66.5 -68.5 68.5 -227.5v-304h-58v301q0 131 -53 188.5t-175 57.5q-79 0 -143.5 -30t-102.5 -91.5t-38 -150.5v-275h-58v301q0 131 -53 188.5t-175 57.5q-79 0 -143.5 -30t-102.5 -91.5t-38 -150.5v-275h-58v580h58v-137q44 78 120 117.5t176 39.5
q111 0 175 -43t87 -139q42 91 121 136.5t187 45.5q139 0 205.5 -68.5z" />
    <glyph glyph-name="n" unicode="n" horiz-adv-x="922" 
d="M742.5 527q80.5 -73 82.5 -247v-280h-58v274q0 99 -28.5 158.5t-88.5 87t-156 27.5q-95 0 -172 -35.5t-122 -102.5t-45 -156v-253h-58v580h58v-157q51 85 140 131t207 46q160 0 240.5 -73z" />
    <glyph glyph-name="o" unicode="o" horiz-adv-x="931" 
d="M265.5 16q-85.5 36 -132 106t-46.5 168t46.5 168t132 106t199.5 36q115 0 200.5 -36t132 -106t46.5 -168t-46.5 -168t-132 -106t-200.5 -36q-114 0 -199.5 36zM696.5 99q86.5 66 86.5 191t-86.5 191t-231.5 66t-231 -66t-86 -191t86 -191t231 -66t231.5 66z" />
    <glyph glyph-name="p" unicode="p" horiz-adv-x="924" 
d="M671 563.5q80 -36.5 123 -106.5t43 -167t-43 -167t-123 -106.5t-189 -36.5q-120 0 -203.5 41.5t-123.5 116.5v-378h-58v820h58v-138q40 75 123.5 116.5t203.5 41.5q109 0 189 -36.5zM693.5 99.5q82.5 66.5 82.5 190.5q0 123 -84 190t-225 67q-142 0 -227 -67t-85 -190
q0 -82 40 -140t111 -87.5t164 -29.5q141 0 223.5 66.5z" />
    <glyph glyph-name="q" unicode="q" horiz-adv-x="924" 
d="M769 580h58v-820h-58v378q-40 -75 -123.5 -116.5t-203.5 -41.5q-109 0 -189 36.5t-123 106.5t-43 167t43 167t123 106.5t189 36.5q120 0 203.5 -41.5t123.5 -116.5v138zM618 62.5q71 29.5 111 87.5t40 140q0 123 -85 190t-227 67q-141 0 -225 -67t-84 -190
q0 -124 82.5 -190.5t223.5 -66.5q93 0 164 29.5z" />
    <glyph glyph-name="r" unicode="r" horiz-adv-x="679" 
d="M609 580v-53q-80 20 -161 20q-69 0 -139 -25.5t-154 -96.5v-425h-58v580h58v-100q72 69 141.5 94.5t149.5 25.5q83 0 163 -20z" />
    <glyph glyph-name="s" unicode="s" horiz-adv-x="927" 
d="M148 184q9 -57 49.5 -90t113.5 -47t186 -14q108 0 169 12t87 38t26 71q0 47 -24.5 68.5t-79.5 30.5t-193 19q-13 0 -20 1q-133 10 -205.5 25t-107 47t-34.5 91q0 93 88.5 128.5t255.5 35.5q109 0 183 -14.5t119.5 -53.5t55.5 -109h-61q-13 73 -86.5 98.5t-215.5 25.5
q-148 0 -213 -25t-65 -84q0 -39 26 -58.5t87 -30.5t193 -22l43 -4q124 -11 184.5 -22.5t95.5 -43.5t35 -98q0 -97 -82.5 -138t-257.5 -41q-120 0 -206.5 16.5t-142 61t-64.5 126.5h61z" />
    <glyph glyph-name="t" unicode="t" horiz-adv-x="733" 
d="M643 527h-321v-318q0 -76 17.5 -113.5t54.5 -50t106 -12.5q31 0 61.5 3t81.5 11v-52q-91 -15 -151 -15q-85 0 -133 18t-71.5 67.5t-23.5 143.5v318h-184v53h184v153l58 27v-180h321v-53z" />
    <glyph glyph-name="u" unicode="u" horiz-adv-x="922" 
d="M767 580h58v-580h-58v157q-51 -85 -140 -131t-207 -46q-160 0 -240.5 73t-82.5 247v280h58v-274q0 -99 28.5 -158.5t88.5 -87t156 -27.5q95 0 172 35.5t122 102.5t45 156v253z" />
    <glyph glyph-name="v" unicode="v" horiz-adv-x="946" 
d="M473 43l320 537h67l-346 -580h-81l-346 580h66z" />
    <glyph glyph-name="w" unicode="w" horiz-adv-x="1427" 
d="M1023 47l255 533h63l-277 -580h-80l-270 525l-271 -525h-80l-276 580h62l255 -534l273 534h73z" />
    <glyph glyph-name="x" unicode="x" horiz-adv-x="919" 
d="M176 0h-89l335 290l-335 290h89l283 -250l283 250h90l-335 -290l335 -290h-90l-283 250z" />
    <glyph glyph-name="y" unicode="y" horiz-adv-x="936" 
d="M783 580h67l-357 -629q-46 -82 -74.5 -122t-68 -64.5t-97.5 -24.5q-36 0 -67 3.5t-80 12.5v53q53 -9 81 -12.5t59 -3.5q43 0 73.5 18.5t54 51.5t60.5 99l21 38h-35l-333 580h67l317 -552z" />
    <glyph glyph-name="z" unicode="z" horiz-adv-x="834" 
d="M97 580h640v-53l-549 -474h549v-53h-640v53l549 474h-549v53z" />
    <glyph glyph-name="braceleft" unicode="{" horiz-adv-x="583" 
d="M97 338q48 0 74.5 7.5t41 34t14.5 82.5q0 26 -3 59q-3 35 -3 63q0 82 27 128.5t84.5 67t154.5 20.5v-53q-82 0 -127 -16t-63.5 -51t-18.5 -97q0 -41 6 -92q2 -30 2 -40q0 -82 -33 -112.5t-76 -30.5v-14q43 0 76 -30.5t33 -112.5q0 -10 -2 -40q-6 -52 -6 -93
q0 -62 18.5 -97.5t63.5 -51.5t127 -16v-53q-101 0 -158.5 19.5t-83 64.5t-25.5 125q0 20 4 72q3 33 3 59q0 56 -14.5 82.5t-41 34t-74.5 7.5v74z" />
    <glyph glyph-name="bar" unicode="|" horiz-adv-x="251" 
d="M97 -150v950h58v-950h-58z" />
    <glyph glyph-name="braceright" unicode="}" horiz-adv-x="583" 
d="M487 264q-48 0 -74.5 -7.5t-41.5 -34.5t-15 -83q0 -25 3 -58q4 -52 4 -72q0 -80 -25.5 -125t-82.5 -64.5t-158 -19.5v53q82 0 127 16.5t63.5 52t18.5 97.5q0 41 -6 92q-2 15 -2 42q0 81 33 111t76 30v14q-43 0 -76 30t-33 111q0 27 2 42q5 57 5 89q0 63 -18 98.5t-63 52
t-127 16.5v53q96 0 153.5 -20.5t84.5 -67t27 -128.5q0 -28 -3 -63q-3 -33 -3 -58q0 -56 15 -83t41.5 -34.5t74.5 -7.5v-74z" />
    <glyph glyph-name="asciitilde" unicode="~" horiz-adv-x="935" 
d="M97 213q0 254 190 254q46 0 82 -15t61 -36.5t59 -57.5q44 -46 77.5 -68.5t80.5 -22.5q72 0 101 50.5t29 149.5h61q0 -254 -191 -254q-46 0 -81.5 15t-60.5 36t-59 57q-45 47 -78.5 69.5t-80.5 22.5q-71 0 -100 -50.5t-29 -149.5h-61z" />
    <glyph glyph-name="exclamdown" unicode="&#xa1;" horiz-adv-x="269" 
d="M169 535h-72v65h72v-65zM162 400v-500h-58v500h58z" />
    <glyph glyph-name="cent" unicode="&#xa2;" horiz-adv-x="924" 
d="M489 93q227 6 275 160h64q-26 -100 -113.5 -155t-225.5 -58v-140h-47v141q-163 7 -254 87.5t-91 221.5t91 221.5t254 87.5v141h47v-140q138 -3 225.5 -58t113.5 -155h-64q-48 154 -275 160v-514zM235 164.5q77 -63.5 207 -70.5v512q-130 -7 -207 -70.5t-77 -185.5
t77 -185.5z" />
    <glyph glyph-name="sterling" unicode="&#xa3;" horiz-adv-x="867" 
d="M350.5 621.5q-49.5 -45.5 -49.5 -141.5q0 -44 9 -98q2 -11 4 -31h353v-47h-350q0 -92 -41.5 -151.5t-122.5 -99.5h617v-53h-673v53q61 40 95 71t52.5 74t16.5 106h-164v47h159q-1 17 -6 37q-11 52 -11 96q0 107 63.5 171.5t196.5 64.5q64 0 127.5 -7t143.5 -23v-53
q-74 16 -131.5 23t-123.5 7q-115 0 -164.5 -45.5z" />
    <glyph glyph-name="currency" unicode="&#xa4;" horiz-adv-x="972" 
d="M825.5 183.5q-39.5 -66.5 -112.5 -104.5l156 -167l-41 -39l-171 182q-78 -25 -170 -25q-96 0 -172 26l-171 -183l-41 39l156 167q-72 39 -111.5 105.5t-39.5 155.5q0 88 37.5 153t107.5 104l-150 161l41 39l164 -175q77 28 179 28q103 0 178 -28l163 175l41 -39
l-149 -161q70 -39 107.5 -104t37.5 -153q0 -90 -39.5 -156.5zM255.5 149q86.5 -66 231.5 -66t231 66t86 191t-86 191t-231 66t-231.5 -66t-86.5 -191t86.5 -191z" />
    <glyph glyph-name="yen" unicode="&#xa5;" horiz-adv-x="1089" 
d="M914 700h78l-371 -414h295v-47h-337l-4 -4v-62h341v-47h-341v-126h-62v126h-341v47h341v62l-4 4h-337v47h295l-370 414h77l370 -412z" />
    <glyph glyph-name="brokenbar" unicode="&#xa6;" horiz-adv-x="251" 
d="M97 432v368h58v-368h-58zM97 -150v368h58v-368h-58z" />
    <glyph glyph-name="section" unicode="&#xa7;" horiz-adv-x="922" 
d="M802.5 145q40.5 -35 40.5 -102q0 -96 -83.5 -131.5t-248.5 -35.5q-168 0 -268 43t-112 146h61q10 -77 95 -106.5t230 -29.5q98 0 155 11t83.5 36t26.5 69q0 43 -26.5 64.5t-84 32.5t-189.5 25q-142 16 -217 32t-116 49t-41 95q0 68 46 105t139 50q-92 18 -132 53t-40 102
q0 95 87 131t253 36q167 0 260.5 -43t105.5 -147h-61q-11 78 -89.5 107.5t-222.5 29.5q-143 0 -207 -26t-64 -90q0 -43 26.5 -64.5t82 -32.5t187.5 -26q144 -16 218 -31.5t115 -48.5t41 -95q0 -69 -46 -106t-139 -49q94 -18 134.5 -53zM197.5 284.5q28.5 -23.5 94.5 -36.5
t204 -27l10 -1q154 -1 220 27.5t66 93.5q0 46 -28 70t-93.5 37t-204.5 27l-11 1q-154 1 -220 -27.5t-66 -94.5q0 -46 28.5 -69.5z" />
    <glyph glyph-name="dieresis" unicode="&#xa8;" horiz-adv-x="509" 
d="M97 697v66h89v-66h-89zM323 697v66h90v-66h-90z" />
    <glyph glyph-name="copyright" unicode="&#xa9;" horiz-adv-x="1018" 
d="M290.5 34.5q-93.5 44.5 -143.5 126t-50 190.5t50 190t143.5 125t219.5 44t219 -44t143 -125t50 -190t-50 -190.5t-143 -126t-219 -44.5t-219.5 44.5zM706.5 70.5q83.5 40.5 128 113.5t44.5 167t-44 166.5t-127.5 112.5t-197.5 40t-198 -40.5t-128.5 -112.5t-44.5 -166
t44.5 -167t128.5 -113.5t198 -40.5q113 0 196.5 40.5zM344 489q60 50 170 50q92 0 144.5 -38t66.5 -104h-45q-27 102 -166 102q-83 0 -135 -36.5t-52 -112.5t52 -112.5t134 -36.5q140 0 167 102h45q-14 -66 -66.5 -104t-145.5 -38q-109 0 -169 50t-60 139t60 139z" />
    <glyph glyph-name="guillemotleft" unicode="&#xab;" horiz-adv-x="813" 
d="M374 290l260 290h82l-260 -290l260 -290h-82zM97 290l260 290h82l-260 -290l260 -290h-82z" />
    <glyph glyph-name="logicalnot" unicode="&#xac;" horiz-adv-x="951" 
d="M854 367v-284h-55v230h-702v54h757z" />
    <glyph glyph-name="registered" unicode="&#xae;" horiz-adv-x="1018" 
d="M291.5 27q-93.5 47 -144 131t-50.5 193t50 192.5t143.5 130t219.5 46.5t219 -46.5t143 -130t50 -192.5t-50 -193t-143.5 -131t-218.5 -47t-218.5 47zM707.5 63q83.5 43 127.5 118t44 170t-43.5 169.5t-127 117t-198.5 42.5t-199 -42.5t-128 -117.5t-44 -169
q0 -95 44 -170t128 -118t199 -43q114 0 197.5 43zM362 182v342h189q74 0 108.5 -32t34.5 -85q0 -43 -24.5 -75t-75.5 -41l88 -109h-53l-84 106h-140v-106h-43zM549 328q53 0 77.5 18.5t24.5 60.5q0 41 -25 59t-77 18h-144v-156h144z" />
    <glyph glyph-name="macron" unicode="&#xaf;" horiz-adv-x="609" 
d="M97 710v53h415v-53h-415z" />
    <glyph glyph-name="degree" unicode="&#xb0;" horiz-adv-x="671" 
d="M152.5 352.5q-55.5 63.5 -55.5 152.5q0 88 55.5 151.5t182.5 63.5t183 -63.5t56 -151.5q0 -89 -56 -152.5t-183 -63.5t-182.5 63.5zM465 384q49 42 49 121t-49 120.5t-130 41.5t-129.5 -41.5t-48.5 -120.5t48.5 -121t129.5 -42t130 42z" />
    <glyph glyph-name="plusminus" unicode="&#xb1;" horiz-adv-x="940" 
d="M497 700v-203h346v-54h-346v-203h-54v203h-346v54h346v203h54zM843 73h-746v54h746v-54z" />
    <glyph glyph-name="acute" unicode="&#xb4;" horiz-adv-x="556" 
d="M97 683v54l362 80v-54z" />
    <glyph glyph-name="paragraph" unicode="&#xb6;" horiz-adv-x="782" 
d="M490 800v-950h-58v557q-122 0 -191.5 13.5t-106.5 55.5t-37 127q0 86 37 128t106.5 55.5t191.5 13.5h58zM627 -150v950h58v-950h-58z" />
    <glyph glyph-name="periodcentered" unicode="&#xb7;" horiz-adv-x="269" 
d="M90 273v65h73v-65h-73z" />
    <glyph glyph-name="cedilla" unicode="&#xb8;" horiz-adv-x="467" 
d="M343 -76q27 -19 27 -59q0 -53 -49.5 -77.5t-131.5 -24.5q-38 0 -92 7v47q62 -10 103 -10q109 0 109 57q0 21 -17 32.5t-42 11.5q-34 0 -75 -18l-47 13l20 97h57l-15 -75q38 18 84 18q42 0 69 -19z" />
    <glyph glyph-name="guillemotright" unicode="&#xbb;" horiz-adv-x="826" 
d="M110 580h83l260 -290l-260 -290h-83l260 290zM387 580h82l260 -290l-260 -290h-82l260 290z" />
    <glyph glyph-name="questiondown" unicode="&#xbf;" horiz-adv-x="889" 
d="M548 600v-65h-72v65h72zM534 407q0 -65 -28.5 -104.5t-69 -59.5t-106.5 -41q-54 -17 -85.5 -31t-52.5 -39t-21 -65q0 -72 67.5 -103t194.5 -31q155 0 229.5 48t74.5 166h62q0 -144 -92 -205.5t-264 -61.5q-166 0 -249.5 44t-83.5 144q0 55 25.5 88.5t62.5 51.5t99 39
q59 19 94 35.5t58.5 46.5t23.5 78h61z" />
    <glyph glyph-name="Agrave" unicode="&#xc0;" horiz-adv-x="1077" 
d="M991 0h-67l-106 179h-559l-106 -179h-66l416 700h71zM539 651l-248 -418h495zM357 937l362 -80v-54l-362 80v54z" />
    <glyph glyph-name="Aacute" unicode="&#xc1;" horiz-adv-x="1077" 
d="M991 0h-67l-106 179h-559l-106 -179h-66l416 700h71zM539 651l-248 -418h495zM357 803v54l362 80v-54z" />
    <glyph glyph-name="Acircumflex" unicode="&#xc2;" horiz-adv-x="1077" 
d="M991 0h-67l-106 179h-559l-106 -179h-66l416 700h71zM539 651l-248 -418h495zM358 850l180 80l180 -80v-56l-180 80l-180 -80v56z" />
    <glyph glyph-name="Atilde" unicode="&#xc3;" horiz-adv-x="1077" 
d="M991 0h-67l-106 179h-559l-106 -179h-66l416 700h71zM539 651l-248 -418h495zM278 793q0 57 33 103.5t107 46.5q43 0 71 -14.5t62 -43.5q31 -25 52.5 -36.5t51.5 -11.5q43 0 63 25.5t20 70.5h61q0 -57 -33 -103.5t-108 -46.5q-43 0 -71 14.5t-62 43.5q-29 25 -50.5 37
t-52.5 12q-83 0 -83 -97h-61z" />
    <glyph glyph-name="Adieresis" unicode="&#xc4;" horiz-adv-x="1077" 
d="M991 0h-67l-106 179h-559l-106 -179h-66l416 700h71zM539 651l-248 -418h495zM381 817v66h89v-66h-89zM607 817v66h90v-66h-90z" />
    <glyph glyph-name="Aring" unicode="&#xc5;" horiz-adv-x="1077" 
d="M991 0h-67l-106 179h-559l-106 -179h-66l416 700h71zM539 651l-248 -418h495zM396 802.5q-46 29.5 -46 82.5t46 82.5t142 29.5q97 0 143 -29.5t46 -82.5t-46 -82.5t-143 -29.5q-96 0 -142 29.5zM642 834q32 17 32 51t-32 51.5t-104 17.5q-71 0 -103 -17.5t-32 -51.5
t31.5 -51t103.5 -17t104 17z" />
    <glyph glyph-name="AE" unicode="&#xc6;" horiz-adv-x="1461" 
d="M1375 700v-53h-629v-270h609v-54h-609v-270h629v-53h-687v189h-431l-101 -189h-69l374 700h914zM688 243v404h-186l-216 -404h402z" />
    <glyph glyph-name="Ccedilla" unicode="&#xc7;" horiz-adv-x="996" 
d="M505 -20l-13 -65q38 18 84 18q42 0 69 -19t27 -59q0 -53 -49.5 -77.5t-131.5 -24.5q-38 0 -92 7v47q62 -10 103 -10q109 0 109 57q0 21 -17 32.5t-42 11.5q-34 0 -75 -18l-47 13l19 90q-114 11 -195.5 59t-124 127.5t-42.5 181.5q0 112 50.5 195t146.5 128.5t230 45.5
q113 0 198.5 -36t135.5 -97t61 -136h-61q-11 57 -51.5 106t-112 79.5t-170.5 30.5q-116 0 -198.5 -38.5t-125 -109.5t-42.5 -168q0 -98 43 -169.5t125 -110t198 -38.5q99 0 170.5 31t112 80.5t51.5 106.5h62q-12 -75 -62 -136.5t-135.5 -98t-198.5 -36.5h-9z" />
    <glyph glyph-name="Egrave" unicode="&#xc8;" horiz-adv-x="870" 
d="M783 700v-53h-628v-270h608v-54h-608v-270h628v-53h-686v700h686zM259 937l362 -80v-54l-362 80v54z" />
    <glyph glyph-name="Eacute" unicode="&#xc9;" horiz-adv-x="870" 
d="M783 700v-53h-628v-270h608v-54h-608v-270h628v-53h-686v700h686zM259 803v54l362 80v-54z" />
    <glyph glyph-name="Ecircumflex" unicode="&#xca;" horiz-adv-x="870" 
d="M783 700v-53h-628v-270h608v-54h-608v-270h628v-53h-686v700h686zM260 850l180 80l180 -80v-56l-180 80l-180 -80v56z" />
    <glyph glyph-name="Edieresis" unicode="&#xcb;" horiz-adv-x="870" 
d="M783 700v-53h-628v-270h608v-54h-608v-270h628v-53h-686v700h686zM282 817v66h89v-66h-89zM508 817v66h90v-66h-90z" />
    <glyph glyph-name="Igrave" unicode="&#xcc;" horiz-adv-x="251" 
d="M-20 937l290 -80v-54l-290 80v54zM97 700h58v-700h-58v700z" />
    <glyph glyph-name="Iacute" unicode="&#xcd;" horiz-adv-x="251" 
d="M97 700h58v-700h-58v700zM-56 803v54l362 80v-54z" />
    <glyph glyph-name="Icircumflex" unicode="&#xce;" horiz-adv-x="251" 
d="M-19 850l145 80l144 -80v-56l-144 80l-145 -80v56zM155 0h-58v700h58v-700z" />
    <glyph glyph-name="Idieresis" unicode="&#xcf;" horiz-adv-x="251" 
d="M-1 817v66h72v-66h-72zM181 817v66h71v-66h-71zM97 700h58v-700h-58v700z" />
    <glyph glyph-name="Eth" unicode="&#xd0;" horiz-adv-x="1033" 
d="M770.5 661q80.5 -39 128.5 -118t48 -193t-48 -193t-128.5 -118t-178.5 -39h-440v327h-89v46h89v327h440q98 0 178.5 -39zM565 53q154 0 237 74.5t83 222.5t-83 222.5t-237 74.5h-355v-274h280v-46h-280v-274h355z" />
    <glyph glyph-name="Ntilde" unicode="&#xd1;" horiz-adv-x="1002" 
d="M847 56v644h58v-700h-82l-668 644v-644h-58v700h82zM247 793q0 57 33 103.5t107 46.5q43 0 71 -14.5t62 -43.5q31 -25 52.5 -36.5t51.5 -11.5q43 0 63 25.5t20 70.5h61q0 -57 -33 -103.5t-108 -46.5q-43 0 -71 14.5t-62 43.5q-29 25 -50.5 37t-52.5 12q-83 0 -83 -97h-61
z" />
    <glyph glyph-name="Ograve" unicode="&#xd2;" horiz-adv-x="1033" 
d="M283.5 25.5q-96.5 45.5 -146.5 129.5t-50 196t50 195t146.5 128.5t233.5 45.5q136 0 233 -45.5t147 -129t50 -194.5q0 -112 -50 -195.5t-147 -129.5t-233 -46q-137 0 -233.5 45.5zM715 71.5q83 38.5 126.5 110t43.5 169.5t-43.5 169t-126 109t-198.5 38t-199 -38
t-126.5 -109t-43.5 -169q0 -99 43.5 -170.5t126.5 -109.5t199 -38q115 0 198 38.5zM335 937l362 -80v-54l-362 80v54z" />
    <glyph glyph-name="Oacute" unicode="&#xd3;" horiz-adv-x="1033" 
d="M283.5 25.5q-96.5 45.5 -146.5 129.5t-50 196t50 195t146.5 128.5t233.5 45.5q136 0 233 -45.5t147 -129t50 -194.5q0 -112 -50 -195.5t-147 -129.5t-233 -46q-137 0 -233.5 45.5zM715 71.5q83 38.5 126.5 110t43.5 169.5t-43.5 169t-126 109t-198.5 38t-199 -38
t-126.5 -109t-43.5 -169q0 -99 43.5 -170.5t126.5 -109.5t199 -38q115 0 198 38.5zM335 803v54l362 80v-54z" />
    <glyph glyph-name="Ocircumflex" unicode="&#xd4;" horiz-adv-x="1033" 
d="M283.5 25.5q-96.5 45.5 -146.5 129.5t-50 196t50 195t146.5 128.5t233.5 45.5q136 0 233 -45.5t147 -129t50 -194.5q0 -112 -50 -195.5t-147 -129.5t-233 -46q-137 0 -233.5 45.5zM715 71.5q83 38.5 126.5 110t43.5 169.5t-43.5 169t-126 109t-198.5 38t-199 -38
t-126.5 -109t-43.5 -169q0 -99 43.5 -170.5t126.5 -109.5t199 -38q115 0 198 38.5zM337 850l180 80l180 -80v-56l-180 80l-180 -80v56z" />
    <glyph glyph-name="Otilde" unicode="&#xd5;" horiz-adv-x="1033" 
d="M283.5 25.5q-96.5 45.5 -146.5 129.5t-50 196t50 195t146.5 128.5t233.5 45.5q136 0 233 -45.5t147 -129t50 -194.5q0 -112 -50 -195.5t-147 -129.5t-233 -46q-137 0 -233.5 45.5zM715 71.5q83 38.5 126.5 110t43.5 169.5t-43.5 169t-126 109t-198.5 38t-199 -38
t-126.5 -109t-43.5 -169q0 -99 43.5 -170.5t126.5 -109.5t199 -38q115 0 198 38.5zM256 793q0 57 33 103.5t107 46.5q43 0 71 -14.5t62 -43.5q31 -25 52.5 -36.5t51.5 -11.5q43 0 63 25.5t20 70.5h61q0 -57 -33 -103.5t-108 -46.5q-43 0 -71 14.5t-62 43.5q-29 25 -50.5 37
t-52.5 12q-83 0 -83 -97h-61z" />
    <glyph glyph-name="Odieresis" unicode="&#xd6;" horiz-adv-x="1033" 
d="M283.5 25.5q-96.5 45.5 -146.5 129.5t-50 196t50 195t146.5 128.5t233.5 45.5q136 0 233 -45.5t147 -129t50 -194.5q0 -112 -50 -195.5t-147 -129.5t-233 -46q-137 0 -233.5 45.5zM715 71.5q83 38.5 126.5 110t43.5 169.5t-43.5 169t-126 109t-198.5 38t-199 -38
t-126.5 -109t-43.5 -169q0 -99 43.5 -170.5t126.5 -109.5t199 -38q115 0 198 38.5zM359 817v66h89v-66h-89zM585 817v66h90v-66h-90z" />
    <glyph glyph-name="multiply" unicode="&#xd7;" horiz-adv-x="867" 
d="M743 557l27 -46l-283 -164l283 -163l-26 -47l-310 179l-311 -179l-26 47l283 163l-283 164l27 46l310 -179z" />
    <glyph glyph-name="Oslash" unicode="&#xd8;" horiz-adv-x="1033" 
d="M649 707q144 -30 221 -123.5t77 -232.5q0 -112 -50 -195.5t-147 -129.5t-233 -46q-44 0 -77 4l-24 -84h-59l27 93q-143 30 -220 124t-77 234q0 112 50 195t146.5 128.5t233.5 45.5q44 0 76 -4l24 83h59zM213.5 150.5q65.5 -79.5 185.5 -105.5l179 619q-30 3 -61 3
q-116 0 -199 -38t-126.5 -109t-43.5 -169q0 -121 65.5 -200.5zM715 71.5q83 38.5 126.5 110t43.5 169.5q0 120 -65 199.5t-186 104.5l-179 -619q30 -3 62 -3q115 0 198 38.5z" />
    <glyph glyph-name="Ugrave" unicode="&#xd9;" horiz-adv-x="1007" 
d="M910 341q0 -170 -94.5 -265.5t-312.5 -95.5t-312 95.5t-94 265.5v359h58v-359q0 -137 73.5 -222.5t274.5 -85.5q202 0 275.5 85.5t73.5 222.5v359h58v-359zM322 937l362 -80v-54l-362 80v54z" />
    <glyph glyph-name="Uacute" unicode="&#xda;" horiz-adv-x="1007" 
d="M910 341q0 -170 -94.5 -265.5t-312.5 -95.5t-312 95.5t-94 265.5v359h58v-359q0 -137 73.5 -222.5t274.5 -85.5q202 0 275.5 85.5t73.5 222.5v359h58v-359zM322 803v54l362 80v-54z" />
    <glyph glyph-name="Ucircumflex" unicode="&#xdb;" horiz-adv-x="1007" 
d="M910 341q0 -170 -94.5 -265.5t-312.5 -95.5t-312 95.5t-94 265.5v359h58v-359q0 -137 73.5 -222.5t274.5 -85.5q202 0 275.5 85.5t73.5 222.5v359h58v-359zM323 850l180 80l180 -80v-56l-180 80l-180 -80v56z" />
    <glyph glyph-name="Udieresis" unicode="&#xdc;" horiz-adv-x="1007" 
d="M910 341q0 -170 -94.5 -265.5t-312.5 -95.5t-312 95.5t-94 265.5v359h58v-359q0 -137 73.5 -222.5t274.5 -85.5q202 0 275.5 85.5t73.5 222.5v359h58v-359zM346 817v66h89v-66h-89zM572 817v66h90v-66h-90z" />
    <glyph glyph-name="Yacute" unicode="&#xdd;" horiz-adv-x="1069" 
d="M534 288l370 412h78l-417 -465v-235h-62v235l-416 465h77zM353 803v54l362 80v-54z" />
    <glyph glyph-name="Thorn" unicode="&#xde;" horiz-adv-x="941" 
d="M587 593q125 0 196.5 -62.5t71.5 -178.5t-71.5 -178.5t-196.5 -62.5h-429v-111h-61v700h61v-107h429zM570 164q102 0 162.5 42.5t60.5 145.5t-60.5 145.5t-162.5 42.5h-412v-376h412z" />
    <glyph glyph-name="germandbls" unicode="&#xdf;" horiz-adv-x="905" 
d="M767 315.5q52 -39.5 52 -123.5q0 -87 -48.5 -127.5t-150 -52.5t-302.5 -12v53q186 0 273 8.5t126.5 37.5t39.5 94q0 62 -39.5 89t-124.5 34t-275 7v54q122 0 194 13t107 45.5t35 92.5q0 74 -56.5 106.5t-169.5 32.5q-101 0 -158 -21t-84.5 -75t-27.5 -156v-415h-61v415
q0 116 33 182t104.5 94.5t193.5 28.5q140 0 213.5 -45t73.5 -144q0 -112 -109 -163q109 -13 161 -52.5z" />
    <glyph glyph-name="agrave" unicode="&#xe0;" horiz-adv-x="906" 
d="M737.5 539q80.5 -61 81.5 -197v-342h-58v78q-113 -47 -202.5 -72.5t-192.5 -25.5q-148 0 -215.5 51t-67.5 150q0 107 91 156t248 49q78 0 167.5 -16t171.5 -41v26q0 192 -273 192q-71 0 -149.5 -12t-185.5 -45l-23 49q93 30 181 45.5t180 15.5q166 0 246.5 -61z
M558.5 60.5q97.5 27.5 202.5 70.5v143q-89 27 -167.5 43t-169.5 16q-122 0 -200.5 -34.5t-78.5 -118.5q0 -78 57 -112.5t174 -34.5q85 0 182.5 27.5zM293 817l362 -80v-54l-362 80v54z" />
    <glyph glyph-name="aacute" unicode="&#xe1;" horiz-adv-x="906" 
d="M737.5 539q80.5 -61 81.5 -197v-342h-58v78q-113 -47 -202.5 -72.5t-192.5 -25.5q-148 0 -215.5 51t-67.5 150q0 107 91 156t248 49q78 0 167.5 -16t171.5 -41v26q0 192 -273 192q-71 0 -149.5 -12t-185.5 -45l-23 49q93 30 181 45.5t180 15.5q166 0 246.5 -61z
M558.5 60.5q97.5 27.5 202.5 70.5v143q-89 27 -167.5 43t-169.5 16q-122 0 -200.5 -34.5t-78.5 -118.5q0 -78 57 -112.5t174 -34.5q85 0 182.5 27.5zM293 683v54l362 80v-54z" />
    <glyph glyph-name="acircumflex" unicode="&#xe2;" horiz-adv-x="906" 
d="M737.5 539q80.5 -61 81.5 -197v-342h-58v78q-113 -47 -202.5 -72.5t-192.5 -25.5q-148 0 -215.5 51t-67.5 150q0 107 91 156t248 49q78 0 167.5 -16t171.5 -41v26q0 192 -273 192q-71 0 -149.5 -12t-185.5 -45l-23 49q93 30 181 45.5t180 15.5q166 0 246.5 -61z
M558.5 60.5q97.5 27.5 202.5 70.5v143q-89 27 -167.5 43t-169.5 16q-122 0 -200.5 -34.5t-78.5 -118.5q0 -78 57 -112.5t174 -34.5q85 0 182.5 27.5zM295 730l180 80l180 -80v-56l-180 80l-180 -80v56z" />
    <glyph glyph-name="atilde" unicode="&#xe3;" horiz-adv-x="906" 
d="M737.5 539q80.5 -61 81.5 -197v-342h-58v78q-113 -47 -202.5 -72.5t-192.5 -25.5q-148 0 -215.5 51t-67.5 150q0 107 91 156t248 49q78 0 167.5 -16t171.5 -41v26q0 192 -273 192q-71 0 -149.5 -12t-185.5 -45l-23 49q93 30 181 45.5t180 15.5q166 0 246.5 -61z
M558.5 60.5q97.5 27.5 202.5 70.5v143q-89 27 -167.5 43t-169.5 16q-122 0 -200.5 -34.5t-78.5 -118.5q0 -78 57 -112.5t174 -34.5q85 0 182.5 27.5zM214 673q0 57 33 103.5t107 46.5q43 0 71 -14.5t62 -43.5q31 -25 52.5 -36.5t51.5 -11.5q43 0 63 25.5t20 70.5h61
q0 -57 -33 -103.5t-108 -46.5q-43 0 -71 14.5t-62 43.5q-29 25 -50.5 37t-52.5 12q-83 0 -83 -97h-61z" />
    <glyph glyph-name="adieresis" unicode="&#xe4;" horiz-adv-x="906" 
d="M737.5 539q80.5 -61 81.5 -197v-342h-58v78q-113 -47 -202.5 -72.5t-192.5 -25.5q-148 0 -215.5 51t-67.5 150q0 107 91 156t248 49q78 0 167.5 -16t171.5 -41v26q0 192 -273 192q-71 0 -149.5 -12t-185.5 -45l-23 49q93 30 181 45.5t180 15.5q166 0 246.5 -61z
M558.5 60.5q97.5 27.5 202.5 70.5v143q-89 27 -167.5 43t-169.5 16q-122 0 -200.5 -34.5t-78.5 -118.5q0 -78 57 -112.5t174 -34.5q85 0 182.5 27.5zM317 697v66h89v-66h-89zM543 697v66h90v-66h-90z" />
    <glyph glyph-name="aring" unicode="&#xe5;" horiz-adv-x="906" 
d="M737.5 539q80.5 -61 81.5 -197v-342h-58v78q-113 -47 -202.5 -72.5t-192.5 -25.5q-148 0 -215.5 51t-67.5 150q0 107 91 156t248 49q78 0 167.5 -16t171.5 -41v26q0 192 -273 192q-71 0 -149.5 -12t-185.5 -45l-23 49q93 30 181 45.5t180 15.5q166 0 246.5 -61z
M558.5 60.5q97.5 27.5 202.5 70.5v143q-89 27 -167.5 43t-169.5 16q-122 0 -200.5 -34.5t-78.5 -118.5q0 -78 57 -112.5t174 -34.5q85 0 182.5 27.5zM332 682.5q-46 29.5 -46 82.5t46 82.5t142 29.5q97 0 143 -29.5t46 -82.5t-46 -82.5t-143 -29.5q-96 0 -142 29.5zM578 714
q32 17 32 51t-32 51.5t-104 17.5q-71 0 -103 -17.5t-32 -51.5t31.5 -51t103.5 -17t104 17z" />
    <glyph glyph-name="ae" unicode="&#xe6;" horiz-adv-x="1579" 
d="M1321 71q71 38 96 106h64q-25 -92 -115.5 -144.5t-237.5 -52.5q-139 0 -232 49t-129 140q-37 -64 -104.5 -106.5t-147.5 -62.5t-159 -20q-130 0 -201.5 45.5t-71.5 135.5q0 77 43.5 117t122 53t207.5 13h287q0 113 -85 158t-197 45q-139 0 -310 -58l-21 50
q82 28 163 44.5t171 16.5q132 0 210.5 -38.5t109.5 -116.5q43 76 129.5 115.5t207.5 39.5q176 0 273.5 -80.5t97.5 -236.5h-685q2 -127 88.5 -188.5t232.5 -61.5q122 0 193 38zM909 495q-83 -52 -99 -158h618q-12 105 -94 157.5t-213 52.5q-129 0 -212 -52zM743 288l-283 2
q-120 0 -182.5 -6.5t-97.5 -33t-35 -84.5q0 -133 218 -133q124 0 228 48t152 145v62z" />
    <glyph glyph-name="ccedilla" unicode="&#xe7;" horiz-adv-x="904" 
d="M754 193h64q-27 -103 -118 -158t-235 -55l-13 -65q38 18 84 18q42 0 69 -19t27 -59q0 -53 -49.5 -77.5t-131.5 -24.5q-38 0 -92 7v47q62 -10 103 -10q109 0 109 57q0 21 -17 32.5t-42 11.5q-34 0 -75 -18l-47 13l18 89q-152 13 -236.5 92.5t-84.5 215.5q0 148 99.5 229
t277.5 81q145 0 236 -55t118 -158h-64q-50 160 -290 160q-143 0 -229.5 -63.5t-86.5 -193.5t86.5 -193.5t229.5 -63.5q240 0 290 160z" />
    <glyph glyph-name="egrave" unicode="&#xe8;" horiz-adv-x="920" 
d="M662 71q71 38 96 106h64q-25 -92 -115.5 -144.5t-237.5 -52.5q-180 0 -281 81t-101 229q0 98 45.5 168t130 106t199.5 36q176 0 273.5 -80.5t97.5 -236.5h-685q2 -127 88.5 -188.5t232.5 -61.5q122 0 193 38zM250 495q-83 -52 -99 -158h618q-12 105 -94 157.5t-213 52.5
q-129 0 -212 -52zM287 817l362 -80v-54l-362 80v54z" />
    <glyph glyph-name="eacute" unicode="&#xe9;" horiz-adv-x="920" 
d="M662 71q71 38 96 106h64q-25 -92 -115.5 -144.5t-237.5 -52.5q-180 0 -281 81t-101 229q0 98 45.5 168t130 106t199.5 36q176 0 273.5 -80.5t97.5 -236.5h-685q2 -127 88.5 -188.5t232.5 -61.5q122 0 193 38zM250 495q-83 -52 -99 -158h618q-12 105 -94 157.5t-213 52.5
q-129 0 -212 -52zM287 683v54l362 80v-54z" />
    <glyph glyph-name="ecircumflex" unicode="&#xea;" horiz-adv-x="920" 
d="M662 71q71 38 96 106h64q-25 -92 -115.5 -144.5t-237.5 -52.5q-180 0 -281 81t-101 229q0 98 45.5 168t130 106t199.5 36q176 0 273.5 -80.5t97.5 -236.5h-685q2 -127 88.5 -188.5t232.5 -61.5q122 0 193 38zM250 495q-83 -52 -99 -158h618q-12 105 -94 157.5t-213 52.5
q-129 0 -212 -52zM288 730l180 80l180 -80v-56l-180 80l-180 -80v56z" />
    <glyph glyph-name="edieresis" unicode="&#xeb;" horiz-adv-x="920" 
d="M662 71q71 38 96 106h64q-25 -92 -115.5 -144.5t-237.5 -52.5q-180 0 -281 81t-101 229q0 98 45.5 168t130 106t199.5 36q176 0 273.5 -80.5t97.5 -236.5h-685q2 -127 88.5 -188.5t232.5 -61.5q122 0 193 38zM250 495q-83 -52 -99 -158h618q-12 105 -94 157.5t-213 52.5
q-129 0 -212 -52zM310 697v66h89v-66h-89zM536 697v66h90v-66h-90z" />
    <glyph glyph-name="igrave" unicode="&#xec;" horiz-adv-x="255" 
d="M97 0v580h61v-580h-61zM-54 817l362 -80v-54l-362 80v54z" />
    <glyph glyph-name="iacute" unicode="&#xed;" horiz-adv-x="255" 
d="M97 0v580h61v-580h-61zM-54 683v54l362 80v-54z" />
    <glyph glyph-name="icircumflex" unicode="&#xee;" horiz-adv-x="255" 
d="M97 0v580h61v-580h-61zM-53 730l180 80l180 -80v-56l-180 80l-180 -80v56z" />
    <glyph glyph-name="idieresis" unicode="&#xef;" horiz-adv-x="255" 
d="M97 0v580h61v-580h-61zM-30 697v66h89v-66h-89zM196 697v66h90v-66h-90z" />
    <glyph glyph-name="ntilde" unicode="&#xf1;" horiz-adv-x="922" 
d="M742.5 527q80.5 -73 82.5 -247v-280h-58v274q0 99 -28.5 158.5t-88.5 87t-156 27.5q-95 0 -172 -35.5t-122 -102.5t-45 -156v-253h-58v580h58v-157q51 85 140 131t207 46q160 0 240.5 -73zM239 673q0 57 33 103.5t107 46.5q43 0 71 -14.5t62 -43.5q31 -25 52.5 -36.5
t51.5 -11.5q43 0 63 25.5t20 70.5h61q0 -57 -33 -103.5t-108 -46.5q-43 0 -71 14.5t-62 43.5q-29 25 -50.5 37t-52.5 12q-83 0 -83 -97h-61z" />
    <glyph glyph-name="ograve" unicode="&#xf2;" horiz-adv-x="931" 
d="M265.5 16q-85.5 36 -132 106t-46.5 168t46.5 168t132 106t199.5 36q115 0 200.5 -36t132 -106t46.5 -168t-46.5 -168t-132 -106t-200.5 -36q-114 0 -199.5 36zM696.5 99q86.5 66 86.5 191t-86.5 191t-231.5 66t-231 -66t-86 -191t86 -191t231 -66t231.5 66zM284 817
l362 -80v-54l-362 80v54z" />
    <glyph glyph-name="oacute" unicode="&#xf3;" horiz-adv-x="931" 
d="M265.5 16q-85.5 36 -132 106t-46.5 168t46.5 168t132 106t199.5 36q115 0 200.5 -36t132 -106t46.5 -168t-46.5 -168t-132 -106t-200.5 -36q-114 0 -199.5 36zM696.5 99q86.5 66 86.5 191t-86.5 191t-231.5 66t-231 -66t-86 -191t86 -191t231 -66t231.5 66zM284 683v54
l362 80v-54z" />
    <glyph glyph-name="ocircumflex" unicode="&#xf4;" horiz-adv-x="931" 
d="M265.5 16q-85.5 36 -132 106t-46.5 168t46.5 168t132 106t199.5 36q115 0 200.5 -36t132 -106t46.5 -168t-46.5 -168t-132 -106t-200.5 -36q-114 0 -199.5 36zM696.5 99q86.5 66 86.5 191t-86.5 191t-231.5 66t-231 -66t-86 -191t86 -191t231 -66t231.5 66zM285 730
l180 80l180 -80v-56l-180 80l-180 -80v56z" />
    <glyph glyph-name="otilde" unicode="&#xf5;" horiz-adv-x="931" 
d="M265.5 16q-85.5 36 -132 106t-46.5 168t46.5 168t132 106t199.5 36q115 0 200.5 -36t132 -106t46.5 -168t-46.5 -168t-132 -106t-200.5 -36q-114 0 -199.5 36zM696.5 99q86.5 66 86.5 191t-86.5 191t-231.5 66t-231 -66t-86 -191t86 -191t231 -66t231.5 66zM205 673
q0 57 33 103.5t107 46.5q43 0 71 -14.5t62 -43.5q31 -25 52.5 -36.5t51.5 -11.5q43 0 63 25.5t20 70.5h61q0 -57 -33 -103.5t-108 -46.5q-43 0 -71 14.5t-62 43.5q-29 25 -50.5 37t-52.5 12q-83 0 -83 -97h-61z" />
    <glyph glyph-name="odieresis" unicode="&#xf6;" horiz-adv-x="931" 
d="M265.5 16q-85.5 36 -132 106t-46.5 168t46.5 168t132 106t199.5 36q115 0 200.5 -36t132 -106t46.5 -168t-46.5 -168t-132 -106t-200.5 -36q-114 0 -199.5 36zM696.5 99q86.5 66 86.5 191t-86.5 191t-231.5 66t-231 -66t-86 -191t86 -191t231 -66t231.5 66zM308 697v66
h89v-66h-89zM534 697v66h90v-66h-90z" />
    <glyph glyph-name="divide" unicode="&#xf7;" horiz-adv-x="940" 
d="M97 313v54h746v-54h-746zM430 115v65h73v-65h-73zM430 500v65h73v-65h-73z" />
    <glyph glyph-name="oslash" unicode="&#xf8;" horiz-adv-x="931" 
d="M584 589q123 -25 191.5 -102t68.5 -197q0 -98 -46.5 -168t-132 -106t-200.5 -36q-32 0 -62 3l-38 -128h-59l41 136q-122 25 -191 102t-69 197q0 98 46.5 168t132 106t199.5 36q33 0 63 -3l38 128h59zM205 126.5q57 -62.5 157 -83.5l150 502q-30 2 -47 2q-145 0 -231 -66
t-86 -191q0 -101 57 -163.5zM696.5 99q86.5 66 86.5 191q0 101 -57 163.5t-157 83.5l-150 -502q30 -2 46 -2q145 0 231.5 66z" />
    <glyph glyph-name="ugrave" unicode="&#xf9;" horiz-adv-x="922" 
d="M767 580h58v-580h-58v157q-51 -85 -140 -131t-207 -46q-160 0 -240.5 73t-82.5 247v280h58v-274q0 -99 28.5 -158.5t88.5 -87t156 -27.5q95 0 172 35.5t122 102.5t45 156v253zM291 817l362 -80v-54l-362 80v54z" />
    <glyph glyph-name="uacute" unicode="&#xfa;" horiz-adv-x="922" 
d="M767 580h58v-580h-58v157q-51 -85 -140 -131t-207 -46q-160 0 -240.5 73t-82.5 247v280h58v-274q0 -99 28.5 -158.5t88.5 -87t156 -27.5q95 0 172 35.5t122 102.5t45 156v253zM291 683v54l362 80v-54z" />
    <glyph glyph-name="ucircumflex" unicode="&#xfb;" horiz-adv-x="922" 
d="M767 580h58v-580h-58v157q-51 -85 -140 -131t-207 -46q-160 0 -240.5 73t-82.5 247v280h58v-274q0 -99 28.5 -158.5t88.5 -87t156 -27.5q95 0 172 35.5t122 102.5t45 156v253zM292 730l180 80l180 -80v-56l-180 80l-180 -80v56z" />
    <glyph glyph-name="udieresis" unicode="&#xfc;" horiz-adv-x="922" 
d="M767 580h58v-580h-58v157q-51 -85 -140 -131t-207 -46q-160 0 -240.5 73t-82.5 247v280h58v-274q0 -99 28.5 -158.5t88.5 -87t156 -27.5q95 0 172 35.5t122 102.5t45 156v253zM315 697v66h89v-66h-89zM541 697v66h90v-66h-90z" />
    <glyph glyph-name="yacute" unicode="&#xfd;" horiz-adv-x="936" 
d="M783 580h67l-357 -629q-46 -82 -74.5 -122t-68 -64.5t-97.5 -24.5q-36 0 -67 3.5t-80 12.5v53q53 -9 81 -12.5t59 -3.5q43 0 73.5 18.5t54 51.5t60.5 99l21 38h-35l-333 580h67l317 -552zM297 683v54l362 80v-54z" />
    <glyph glyph-name="thorn" unicode="&#xfe;" horiz-adv-x="927" 
d="M665.5 562q82.5 -38 129 -110t46.5 -169q0 -96 -46.5 -164.5t-128.5 -103.5t-187 -35q-113 0 -195.5 35.5t-125.5 105.5v-348h-61v1027h61v-352q43 74 126 113t195 39q104 0 186.5 -38zM696 98.5q83 65.5 83 184.5q0 80 -38 140t-108 92t-164 32q-145 0 -228 -69.5
t-83 -194.5q0 -123 82 -186.5t229 -63.5q144 0 227 65.5z" />
    <glyph glyph-name="ydieresis" unicode="&#xff;" horiz-adv-x="936" 
d="M783 580h67l-357 -629q-46 -82 -74.5 -122t-68 -64.5t-97.5 -24.5q-36 0 -67 3.5t-80 12.5v53q53 -9 81 -12.5t59 -3.5q43 0 73.5 18.5t54 51.5t60.5 99l21 38h-35l-333 580h67l317 -552zM321 697v66h89v-66h-89zM547 697v66h90v-66h-90z" />
    <glyph glyph-name="Amacron" unicode="&#x100;" horiz-adv-x="1077" 
d="M991 0h-67l-106 179h-559l-106 -179h-66l416 700h71zM539 651l-248 -418h495zM330 830v53h415v-53h-415z" />
    <glyph glyph-name="amacron" unicode="&#x101;" horiz-adv-x="906" 
d="M737.5 539q80.5 -61 81.5 -197v-342h-58v78q-113 -47 -202.5 -72.5t-192.5 -25.5q-148 0 -215.5 51t-67.5 150q0 107 91 156t248 49q78 0 167.5 -16t171.5 -41v26q0 192 -273 192q-71 0 -149.5 -12t-185.5 -45l-23 49q93 30 181 45.5t180 15.5q166 0 246.5 -61z
M558.5 60.5q97.5 27.5 202.5 70.5v143q-89 27 -167.5 43t-169.5 16q-122 0 -200.5 -34.5t-78.5 -118.5q0 -78 57 -112.5t174 -34.5q85 0 182.5 27.5zM267 710v53h415v-53h-415z" />
    <glyph glyph-name="Abreve" unicode="&#x102;" horiz-adv-x="1077" 
d="M991 0h-67l-106 179h-559l-106 -179h-66l416 700h71zM539 651l-248 -418h495zM388 957q0 -66 38.5 -90t111.5 -24t111.5 24t38.5 90h54q0 -90 -52 -127t-152 -37t-152 37t-52 127h54z" />
    <glyph glyph-name="abreve" unicode="&#x103;" horiz-adv-x="906" 
d="M737.5 539q80.5 -61 81.5 -197v-342h-58v78q-113 -47 -202.5 -72.5t-192.5 -25.5q-148 0 -215.5 51t-67.5 150q0 107 91 156t248 49q78 0 167.5 -16t171.5 -41v26q0 192 -273 192q-71 0 -149.5 -12t-185.5 -45l-23 49q93 30 181 45.5t180 15.5q166 0 246.5 -61z
M558.5 60.5q97.5 27.5 202.5 70.5v143q-89 27 -167.5 43t-169.5 16q-122 0 -200.5 -34.5t-78.5 -118.5q0 -78 57 -112.5t174 -34.5q85 0 182.5 27.5zM325 837q0 -66 38.5 -90t111.5 -24t111.5 24t38.5 90h54q0 -90 -52 -127t-152 -37t-152 37t-52 127h54z" />
    <glyph glyph-name="Aogonek" unicode="&#x104;" horiz-adv-x="1077" 
d="M991 -183v-54q-182 0 -182 113q0 45 32.5 75.5t82.5 48.5l-106 179h-559l-106 -179h-66l416 700h71l417 -700q-57 -17 -89 -39t-32 -63q0 -81 121 -81zM539 651l-248 -418h495z" />
    <glyph glyph-name="aogonek" unicode="&#x105;" horiz-adv-x="927" 
d="M737.5 539q80.5 -61 81.5 -197v-342h-1q-46 -7 -83.5 -34.5t-37.5 -71.5q0 -37 33 -57t88 -20v-54q-83 0 -132.5 27.5t-49.5 83.5q0 79 124 126h1v78q-113 -47 -202.5 -72.5t-192.5 -25.5q-148 0 -215.5 51t-67.5 150q0 107 91 156t248 49q78 0 167.5 -16t171.5 -41v26
q0 192 -273 192q-71 0 -149.5 -12t-185.5 -45l-23 49q93 30 181 45.5t180 15.5q166 0 246.5 -61zM558.5 60.5q97.5 27.5 202.5 70.5v143q-89 27 -167.5 43t-169.5 16q-122 0 -200.5 -34.5t-78.5 -118.5q0 -78 57 -112.5t174 -34.5q85 0 182.5 27.5z" />
    <glyph glyph-name="Cacute" unicode="&#x106;" horiz-adv-x="996" 
d="M137.5 546q50.5 83 146.5 128.5t230 45.5q113 0 198.5 -36t135.5 -97t61 -136h-61q-11 57 -51.5 106t-112 79.5t-170.5 30.5q-116 0 -198.5 -38.5t-125 -109.5t-42.5 -168q0 -98 43 -169.5t125 -110t198 -38.5q99 0 170.5 31t112 80.5t51.5 106.5h62q-12 -75 -62 -136.5
t-135.5 -98t-198.5 -36.5q-134 0 -230 46t-146.5 129.5t-50.5 195.5t50.5 195zM327 803v54l362 80v-54z" />
    <glyph glyph-name="cacute" unicode="&#x107;" horiz-adv-x="904" 
d="M186.5 519q99.5 81 277.5 81q145 0 236 -55t118 -158h-64q-50 160 -290 160q-143 0 -229.5 -63.5t-86.5 -193.5t86.5 -193.5t229.5 -63.5q240 0 290 160h64q-27 -103 -118 -158t-236 -55q-178 0 -277.5 81t-99.5 229t99.5 229zM285 683v54l362 80v-54z" />
    <glyph glyph-name="Cdotaccent" unicode="&#x10a;" horiz-adv-x="996" 
d="M137.5 546q50.5 83 146.5 128.5t230 45.5q113 0 198.5 -36t135.5 -97t61 -136h-61q-11 57 -51.5 106t-112 79.5t-170.5 30.5q-116 0 -198.5 -38.5t-125 -109.5t-42.5 -168q0 -98 43 -169.5t125 -110t198 -38.5q99 0 170.5 31t112 80.5t51.5 106.5h62q-12 -75 -62 -136.5
t-135.5 -98t-198.5 -36.5q-134 0 -230 46t-146.5 129.5t-50.5 195.5t50.5 195zM464 817v66h89v-66h-89z" />
    <glyph glyph-name="cdotaccent" unicode="&#x10b;" horiz-adv-x="904" 
d="M186.5 519q99.5 81 277.5 81q145 0 236 -55t118 -158h-64q-50 160 -290 160q-143 0 -229.5 -63.5t-86.5 -193.5t86.5 -193.5t229.5 -63.5q240 0 290 160h64q-27 -103 -118 -158t-236 -55q-178 0 -277.5 81t-99.5 229t99.5 229zM422 697v66h89v-66h-89z" />
    <glyph glyph-name="Ccaron" unicode="&#x10c;" horiz-adv-x="996" 
d="M137.5 546q50.5 83 146.5 128.5t230 45.5q113 0 198.5 -36t135.5 -97t61 -136h-61q-11 57 -51.5 106t-112 79.5t-170.5 30.5q-116 0 -198.5 -38.5t-125 -109.5t-42.5 -168q0 -98 43 -169.5t125 -110t198 -38.5q99 0 170.5 31t112 80.5t51.5 106.5h62q-12 -75 -62 -136.5
t-135.5 -98t-198.5 -36.5q-134 0 -230 46t-146.5 129.5t-50.5 195.5t50.5 195zM328 928l180 -80l180 80v-56l-180 -80l-180 80v56z" />
    <glyph glyph-name="ccaron" unicode="&#x10d;" horiz-adv-x="904" 
d="M186.5 519q99.5 81 277.5 81q145 0 236 -55t118 -158h-64q-50 160 -290 160q-143 0 -229.5 -63.5t-86.5 -193.5t86.5 -193.5t229.5 -63.5q240 0 290 160h64q-27 -103 -118 -158t-236 -55q-178 0 -277.5 81t-99.5 229t99.5 229zM286 808l180 -80l180 80v-56l-180 -80
l-180 80v56z" />
    <glyph glyph-name="Dcaron" unicode="&#x10e;" horiz-adv-x="978" 
d="M715 661q80 -39 128 -118t48 -193t-48 -193t-128 -118t-178 -39h-440v700h440q98 0 178 -39zM510 53q153 0 236.5 74.5t83.5 222.5t-83.5 222.5t-236.5 74.5h-355v-594h355zM244 928l180 -80l180 80v-56l-180 -80l-180 80v56z" />
    <glyph glyph-name="dcaron" unicode="&#x10f;" horiz-adv-x="1072" 
d="M769 800h58v-800h-58v137q-40 -75 -122 -116t-202 -41q-109 0 -190 36.5t-124.5 106.5t-43.5 167t43.5 167t124.5 106.5t190 36.5q120 0 202 -41t122 -116v357zM683.5 100q85.5 67 85.5 190t-85.5 190t-227.5 67q-141 0 -224.5 -67t-83.5 -190t83.5 -190t224.5 -67
q142 0 227.5 67zM899 735v65h73v-65l-42 -153h-31l29 153h-29z" />
    <glyph glyph-name="Dcroat" unicode="&#x110;" horiz-adv-x="1033" 
d="M770.5 661q80.5 -39 128.5 -118t48 -193t-48 -193t-128.5 -118t-178.5 -39h-440v327h-89v46h89v327h440q98 0 178.5 -39zM565 53q154 0 237 74.5t83 222.5t-83 222.5t-237 74.5h-355v-274h280v-46h-280v-274h355z" />
    <glyph glyph-name="dcroat" unicode="&#x111;" horiz-adv-x="977" 
d="M901 713v-53h-74v-660h-58v137q-40 -75 -122 -116t-202 -41q-109 0 -190 36.5t-124.5 106.5t-43.5 167t43.5 167t124.5 106.5t190 36.5q120 0 202 -41t122 -116v217h-290v53h290v87h58v-87h74zM683.5 100q85.5 67 85.5 190t-85.5 190t-227.5 67q-141 0 -224.5 -67
t-83.5 -190t83.5 -190t224.5 -67q142 0 227.5 67z" />
    <glyph glyph-name="Emacron" unicode="&#x112;" horiz-adv-x="870" 
d="M783 700v-53h-628v-270h608v-54h-608v-270h628v-53h-686v700h686zM232 830v53h415v-53h-415z" />
    <glyph glyph-name="emacron" unicode="&#x113;" horiz-adv-x="920" 
d="M662 71q71 38 96 106h64q-25 -92 -115.5 -144.5t-237.5 -52.5q-180 0 -281 81t-101 229q0 98 45.5 168t130 106t199.5 36q176 0 273.5 -80.5t97.5 -236.5h-685q2 -127 88.5 -188.5t232.5 -61.5q122 0 193 38zM250 495q-83 -52 -99 -158h618q-12 105 -94 157.5t-213 52.5
q-129 0 -212 -52zM260 710v53h415v-53h-415z" />
    <glyph glyph-name="Edotaccent" unicode="&#x116;" horiz-adv-x="870" 
d="M783 700v-53h-628v-270h608v-54h-608v-270h628v-53h-686v700h686zM396 817v66h89v-66h-89z" />
    <glyph glyph-name="edotaccent" unicode="&#x117;" horiz-adv-x="920" 
d="M662 71q71 38 96 106h64q-25 -92 -115.5 -144.5t-237.5 -52.5q-180 0 -281 81t-101 229q0 98 45.5 168t130 106t199.5 36q176 0 273.5 -80.5t97.5 -236.5h-685q2 -127 88.5 -188.5t232.5 -61.5q122 0 193 38zM250 495q-83 -52 -99 -158h618q-12 105 -94 157.5t-213 52.5
q-129 0 -212 -52zM424 697v66h89v-66h-89z" />
    <glyph glyph-name="Eogonek" unicode="&#x118;" horiz-adv-x="870" 
d="M783 647h-628v-270h608v-54h-608v-270h628v-53h-6q-115 -21 -115 -100q0 -41 32.5 -62t88.5 -21v-54q-83 0 -132.5 29t-49.5 91q0 43 32.5 73.5t88.5 43.5h-625v700h686v-53z" />
    <glyph glyph-name="eogonek" unicode="&#x119;" horiz-adv-x="920" 
d="M662 71q71 38 96 106h64q-19 -69 -74 -116t-143 -67q-62 -18 -89 -41.5t-27 -55.5q0 -39 37 -56.5t120 -17.5v-53q-113 0 -165.5 25t-52.5 85q0 70 97 102q-36 -2 -56 -2q-180 0 -281 81t-101 229q0 98 45.5 168t130 106t199.5 36q176 0 273.5 -80.5t97.5 -236.5h-685
q2 -127 88.5 -188.5t232.5 -61.5q122 0 193 38zM250 495q-83 -52 -99 -158h618q-12 105 -94 157.5t-213 52.5q-129 0 -212 -52z" />
    <glyph glyph-name="Ecaron" unicode="&#x11a;" horiz-adv-x="870" 
d="M783 700v-53h-628v-270h608v-54h-608v-270h628v-53h-686v700h686zM260 928l180 -80l180 80v-56l-180 -80l-180 80v56z" />
    <glyph glyph-name="ecaron" unicode="&#x11b;" horiz-adv-x="920" 
d="M662 71q71 38 96 106h64q-25 -92 -115.5 -144.5t-237.5 -52.5q-180 0 -281 81t-101 229q0 98 45.5 168t130 106t199.5 36q176 0 273.5 -80.5t97.5 -236.5h-685q2 -127 88.5 -188.5t232.5 -61.5q122 0 193 38zM250 495q-83 -52 -99 -158h618q-12 105 -94 157.5t-213 52.5
q-129 0 -212 -52zM288 808l180 -80l180 80v-56l-180 -80l-180 80v56z" />
    <glyph glyph-name="Gbreve" unicode="&#x11e;" horiz-adv-x="997" 
d="M140.5 544.5q53.5 83.5 150.5 129.5t223 46q119 0 204.5 -37.5t133 -98.5t58.5 -133h-61q-8 52 -46 101t-110.5 82t-178.5 33q-128 0 -210.5 -48t-119 -120.5t-36.5 -148.5t36.5 -148.5t118.5 -120.5t210 -48q104 0 177.5 19.5t158.5 63.5v168h-349v54h410v-247
q-104 -59 -193 -85t-204 -26q-126 0 -222.5 46t-150 129.5t-53.5 194.5t53.5 194.5zM364 957q0 -66 38.5 -90t111.5 -24t111.5 24t38.5 90h54q0 -90 -52 -127t-152 -37t-152 37t-52 127h54z" />
    <glyph glyph-name="gbreve" unicode="&#x11f;" horiz-adv-x="924" 
d="M769 580h58v-543q0 -147 -77.5 -222t-257.5 -75q-75 0 -136 5t-153 16l-64 8v52l59 -7q86 -11 147.5 -16t132.5 -5q114 0 177.5 28.5t88.5 83t25 141.5v90q-40 -75 -121 -115.5t-199 -40.5q-110 0 -191.5 36t-126 106t-44.5 168t44.5 168t126 106t191.5 36
q118 0 199 -40.5t121 -115.5v136zM684.5 100q84.5 67 84.5 190t-84.5 190t-225.5 67q-142 0 -226.5 -67t-84.5 -190t84.5 -190t226.5 -67q141 0 225.5 67zM309 837q0 -66 38.5 -90t111.5 -24t111.5 24t38.5 90h54q0 -90 -52 -127t-152 -37t-152 37t-52 127h54z" />
    <glyph glyph-name="Gdotaccent" unicode="&#x120;" horiz-adv-x="997" 
d="M140.5 544.5q53.5 83.5 150.5 129.5t223 46q119 0 204.5 -37.5t133 -98.5t58.5 -133h-61q-8 52 -46 101t-110.5 82t-178.5 33q-128 0 -210.5 -48t-119 -120.5t-36.5 -148.5t36.5 -148.5t118.5 -120.5t210 -48q104 0 177.5 19.5t158.5 63.5v168h-349v54h410v-247
q-104 -59 -193 -85t-204 -26q-126 0 -222.5 46t-150 129.5t-53.5 194.5t53.5 194.5zM469 817v66h89v-66h-89z" />
    <glyph glyph-name="gdotaccent" unicode="&#x121;" horiz-adv-x="924" 
d="M769 580h58v-543q0 -147 -77.5 -222t-257.5 -75q-75 0 -136 5t-153 16l-64 8v52l59 -7q86 -11 147.5 -16t132.5 -5q114 0 177.5 28.5t88.5 83t25 141.5v90q-40 -75 -121 -115.5t-199 -40.5q-110 0 -191.5 36t-126 106t-44.5 168t44.5 168t126 106t191.5 36
q118 0 199 -40.5t121 -115.5v136zM684.5 100q84.5 67 84.5 190t-84.5 190t-225.5 67q-142 0 -226.5 -67t-84.5 -190t84.5 -190t226.5 -67q141 0 225.5 67zM415 697v66h89v-66h-89z" />
    <glyph glyph-name="uni0122" unicode="&#x122;" horiz-adv-x="997" 
d="M140.5 544.5q53.5 83.5 150.5 129.5t223 46q119 0 204.5 -37.5t133 -98.5t58.5 -133h-61q-8 52 -46 101t-110.5 82t-178.5 33q-128 0 -210.5 -48t-119 -120.5t-36.5 -148.5t36.5 -148.5t118.5 -120.5t210 -48q104 0 177.5 19.5t158.5 63.5v168h-349v54h410v-247
q-104 -59 -193 -85t-204 -26q-126 0 -222.5 46t-150 129.5t-53.5 194.5t53.5 194.5zM483 -149v65h76v-65l-48 -101h-32l35 101h-31z" />
    <glyph glyph-name="uni0123" unicode="&#x123;" horiz-adv-x="924" 
d="M769 580h58v-543q0 -147 -77.5 -222t-257.5 -75q-75 0 -136 5t-153 16l-64 8v52l59 -7q86 -11 147.5 -16t132.5 -5q114 0 177.5 28.5t88.5 83t25 141.5v90q-40 -75 -121 -115.5t-199 -40.5q-110 0 -191.5 36t-126 106t-44.5 168t44.5 168t126 106t191.5 36
q118 0 199 -40.5t121 -115.5v136zM684.5 100q84.5 67 84.5 190t-84.5 190t-225.5 67q-142 0 -226.5 -67t-84.5 -190t84.5 -190t226.5 -67q141 0 225.5 67zM495 779v-65h-76v65l48 101h32l-35 -101h31z" />
    <glyph glyph-name="Hbar" unicode="&#x126;" horiz-adv-x="1050" 
d="M923 587h77v-54h-77v-533h-58v323h-680v-323h-58v533h-77v54h77v113h58v-113h680v113h58v-113zM185 377h680v156h-680v-156z" />
    <glyph glyph-name="hbar" unicode="&#x127;" horiz-adv-x="972" 
d="M792.5 527q80.5 -73 82.5 -247v-280h-58v274q0 99 -28.5 158.5t-88.5 87t-156 27.5q-95 0 -172 -35.5t-122 -102.5t-45 -156v-253h-58v660h-70v53h70v87h58v-87h293v-53h-293v-237q51 85 140 131t207 46q160 0 240.5 -73z" />
    <glyph glyph-name="Imacron" unicode="&#x12a;" horiz-adv-x="251" 
d="M-14 830v53h278v-53h-278zM97 700h58v-700h-58v700z" />
    <glyph glyph-name="imacron" unicode="&#x12b;" horiz-adv-x="255" 
d="M97 0v580h61v-580h-61zM-81 710v53h415v-53h-415z" />
    <glyph glyph-name="Iogonek" unicode="&#x12e;" horiz-adv-x="252" 
d="M90.5 -162q32.5 -21 88.5 -21v-54q-83 0 -132.5 29t-49.5 91q0 40 26.5 68t70.5 49v700h58v-700q-44 -18 -69 -39.5t-25 -60.5q0 -41 32.5 -62z" />
    <glyph glyph-name="iogonek" unicode="&#x12f;" horiz-adv-x="255" 
d="M63 763h89v-66h-89v66zM96.5 -162q32.5 -21 88.5 -21v-54q-84 0 -133.5 29t-49.5 91q0 40 26 68t69 49v580h61v-580q-44 -18 -69 -39.5t-25 -60.5q0 -41 32.5 -62z" />
    <glyph glyph-name="Idotaccent" unicode="&#x130;" horiz-adv-x="251" 
d="M97 700h58v-700h-58v700zM81 817v66h89v-66h-89z" />
    <glyph glyph-name="dotlessi" unicode="&#x131;" horiz-adv-x="255" 
d="M97 0v580h61v-580h-61z" />
    <glyph glyph-name="uni0136" unicode="&#x136;" horiz-adv-x="961" 
d="M779 700h96l-407 -301l407 -399h-84l-369 364l-267 -197v-167h-58v700h58v-461zM423 -149v65h76v-65l-48 -101h-32l35 101h-31z" />
    <glyph glyph-name="uni0137" unicode="&#x137;" horiz-adv-x="871" 
d="M680 580h105l-354 -233l354 -347h-86l-317 314l-227 -149v-165h-58v800h58v-567zM374 -149v65h76v-65l-48 -101h-32l35 101h-31z" />
    <glyph glyph-name="Lacute" unicode="&#x139;" horiz-adv-x="817" 
d="M155 700v-647h575v-53h-633v700h58zM97 803v54l362 80v-54z" />
    <glyph glyph-name="lacute" unicode="&#x13a;" horiz-adv-x="251" 
d="M97 0v800h58v-800h-58zM-56 903v54l362 80v-54z" />
    <glyph glyph-name="uni013B" unicode="&#x13b;" horiz-adv-x="817" 
d="M155 700v-647h575v-53h-633v700h58zM379 -149v65h76v-65l-48 -101h-32l35 101h-31z" />
    <glyph glyph-name="uni013C" unicode="&#x13c;" horiz-adv-x="251" 
d="M97 0v800h58v-800h-58zM89 -149v65h76v-65l-48 -101h-32l35 101h-31z" />
    <glyph glyph-name="Lcaron" unicode="&#x13d;" horiz-adv-x="817" 
d="M155 700v-647h575v-53h-633v700h58zM533 615v65h76v-65l-48 -101h-32l35 101h-31z" />
    <glyph glyph-name="lcaron" unicode="&#x13e;" horiz-adv-x="345" 
d="M97 0v800h58v-800h-58zM222 715v65h76v-65l-48 -101h-32l35 101h-31z" />
    <glyph glyph-name="Lslash" unicode="&#x141;" horiz-adv-x="987" 
d="M255 305v-252h575v-53h-633v276l-114 -57v60l114 57v364h58v-335l350 174v-60z" />
    <glyph glyph-name="lslash" unicode="&#x142;" horiz-adv-x="437" 
d="M246 460l131 63v-58l-131 -63v-402h-58v374l-128 -61v58l128 61v368h58v-340z" />
    <glyph glyph-name="Nacute" unicode="&#x143;" horiz-adv-x="1002" 
d="M847 56v644h58v-700h-82l-668 644v-644h-58v700h82zM326 803v54l362 80v-54z" />
    <glyph glyph-name="nacute" unicode="&#x144;" horiz-adv-x="922" 
d="M742.5 527q80.5 -73 82.5 -247v-280h-58v274q0 99 -28.5 158.5t-88.5 87t-156 27.5q-95 0 -172 -35.5t-122 -102.5t-45 -156v-253h-58v580h58v-157q51 85 140 131t207 46q160 0 240.5 -73zM318 683v54l362 80v-54z" />
    <glyph glyph-name="uni0145" unicode="&#x145;" horiz-adv-x="1002" 
d="M847 56v644h58v-700h-82l-668 644v-644h-58v700h82zM458 -149v65h76v-65l-48 -101h-32l35 101h-31z" />
    <glyph glyph-name="uni0146" unicode="&#x146;" horiz-adv-x="922" 
d="M742.5 527q80.5 -73 82.5 -247v-280h-58v274q0 99 -28.5 158.5t-88.5 87t-156 27.5q-95 0 -172 -35.5t-122 -102.5t-45 -156v-253h-58v580h58v-157q51 85 140 131t207 46q160 0 240.5 -73zM437 -149v65h76v-65l-48 -101h-32l35 101h-31z" />
    <glyph glyph-name="Ncaron" unicode="&#x147;" horiz-adv-x="1002" 
d="M847 56v644h58v-700h-82l-668 644v-644h-58v700h82zM328 928l180 -80l180 80v-56l-180 -80l-180 80v56z" />
    <glyph glyph-name="ncaron" unicode="&#x148;" horiz-adv-x="922" 
d="M742.5 527q80.5 -73 82.5 -247v-280h-58v274q0 99 -28.5 158.5t-88.5 87t-156 27.5q-95 0 -172 -35.5t-122 -102.5t-45 -156v-253h-58v580h58v-157q51 85 140 131t207 46q160 0 240.5 -73zM320 808l180 -80l180 80v-56l-180 -80l-180 80v56z" />
    <glyph glyph-name="Eng" unicode="&#x14a;" horiz-adv-x="1002" 
d="M847 700h58v-700q0 -85 -20.5 -141t-73 -86t-144.5 -30q-88 0 -177 25v52q49 -12 86 -17.5t90 -5.5q69 0 107.5 20t54.5 63.5t16 119.5h-21l-668 644v-644h-58v700h82l668 -644v644z" />
    <glyph glyph-name="eng" unicode="&#x14b;" horiz-adv-x="922" 
d="M742.5 527q80.5 -73 82.5 -247v-280q0 -85 -20.5 -139t-72 -82.5t-142.5 -28.5q-87 0 -177 22v48q49 -10 83 -15t73 -5q74 0 116 17t62 60t20 123v274q0 99 -28.5 158.5t-88.5 87t-156 27.5q-95 0 -172 -35.5t-122 -102.5t-45 -156v-253h-58v580h58v-157q51 85 140 131
t207 46q160 0 240.5 -73z" />
    <glyph glyph-name="Omacron" unicode="&#x14c;" horiz-adv-x="1033" 
d="M283.5 25.5q-96.5 45.5 -146.5 129.5t-50 196t50 195t146.5 128.5t233.5 45.5q136 0 233 -45.5t147 -129t50 -194.5q0 -112 -50 -195.5t-147 -129.5t-233 -46q-137 0 -233.5 45.5zM715 71.5q83 38.5 126.5 110t43.5 169.5t-43.5 169t-126 109t-198.5 38t-199 -38
t-126.5 -109t-43.5 -169q0 -99 43.5 -170.5t126.5 -109.5t199 -38q115 0 198 38.5zM309 830v53h415v-53h-415z" />
    <glyph glyph-name="omacron" unicode="&#x14d;" horiz-adv-x="931" 
d="M265.5 16q-85.5 36 -132 106t-46.5 168t46.5 168t132 106t199.5 36q115 0 200.5 -36t132 -106t46.5 -168t-46.5 -168t-132 -106t-200.5 -36q-114 0 -199.5 36zM696.5 99q86.5 66 86.5 191t-86.5 191t-231.5 66t-231 -66t-86 -191t86 -191t231 -66t231.5 66zM257 710v53
h415v-53h-415z" />
    <glyph glyph-name="Ohungarumlaut" unicode="&#x150;" horiz-adv-x="1033" 
d="M283.5 25.5q-96.5 45.5 -146.5 129.5t-50 196t50 195t146.5 128.5t233.5 45.5q136 0 233 -45.5t147 -129t50 -194.5q0 -112 -50 -195.5t-147 -129.5t-233 -46q-137 0 -233.5 45.5zM715 71.5q83 38.5 126.5 110t43.5 169.5t-43.5 169t-126 109t-198.5 38t-199 -38
t-126.5 -109t-43.5 -169q0 -99 43.5 -170.5t126.5 -109.5t199 -38q115 0 198 38.5zM320 806v56l193 80v-56zM560 806v56l194 80v-56z" />
    <glyph glyph-name="ohungarumlaut" unicode="&#x151;" horiz-adv-x="931" 
d="M265.5 16q-85.5 36 -132 106t-46.5 168t46.5 168t132 106t199.5 36q115 0 200.5 -36t132 -106t46.5 -168t-46.5 -168t-132 -106t-200.5 -36q-114 0 -199.5 36zM696.5 99q86.5 66 86.5 191t-86.5 191t-231.5 66t-231 -66t-86 -191t86 -191t231 -66t231.5 66zM269 686v56
l193 80v-56zM509 686v56l194 80v-56z" />
    <glyph glyph-name="OE" unicode="&#x152;" horiz-adv-x="1673" 
d="M1586 647h-629v-270h609v-54h-609v-270h629v-53h-687v159q-50 -85 -147.5 -132t-234.5 -47t-233.5 45.5t-146.5 129.5t-50 196t50 195t146.5 128.5t233.5 45.5t234.5 -46.5t147.5 -131.5v158h687v-53zM715 71.5q83 38.5 126.5 110t43.5 169.5t-43.5 169t-126 109
t-198.5 38t-199 -38t-126.5 -109t-43.5 -169q0 -99 43.5 -170.5t126.5 -109.5t199 -38q115 0 198 38.5z" />
    <glyph glyph-name="oe" unicode="&#x153;" horiz-adv-x="1626" 
d="M1368 71q71 38 96 106h64q-25 -92 -115.5 -144.5t-237.5 -52.5q-135 0 -227 46t-130 134q-39 -87 -130.5 -133.5t-222.5 -46.5q-114 0 -199.5 36t-132 106t-46.5 168t46.5 168t132 106t199.5 36q131 0 222.5 -46.5t130.5 -133.5q38 87 128.5 133.5t221.5 46.5
q176 0 273.5 -80.5t97.5 -236.5h-685q2 -127 88.5 -188.5t232.5 -61.5q122 0 193 38zM696.5 99q86.5 66 86.5 191t-86.5 191t-231.5 66t-231 -66t-86 -191t86 -191t231 -66t231.5 66zM956 495q-83 -52 -99 -158h618q-12 105 -94 157.5t-213 52.5q-129 0 -212 -52z" />
    <glyph glyph-name="Racute" unicode="&#x154;" horiz-adv-x="945" 
d="M799.5 277q28.5 -33 28.5 -86v-191h-58v181q0 50 -26.5 73t-80.5 23h-508v-277h-58v700h480q130 0 195.5 -49.5t65.5 -151.5q0 -137 -118 -181q51 -8 79.5 -41zM155 647v-316h412q103 0 156.5 36t53.5 125q0 88 -52.5 121.5t-157.5 33.5h-412zM261 803v54l362 80v-54z
" />
    <glyph glyph-name="racute" unicode="&#x155;" horiz-adv-x="679" 
d="M609 580v-53q-80 20 -161 20q-69 0 -139 -25.5t-154 -96.5v-425h-58v580h58v-100q72 69 141.5 94.5t149.5 25.5q83 0 163 -20zM165 683v54l362 80v-54z" />
    <glyph glyph-name="uni0156" unicode="&#x156;" horiz-adv-x="945" 
d="M799.5 277q28.5 -33 28.5 -86v-191h-58v181q0 50 -26.5 73t-80.5 23h-508v-277h-58v700h480q130 0 195.5 -49.5t65.5 -151.5q0 -137 -118 -181q51 -8 79.5 -41zM155 647v-316h412q103 0 156.5 36t53.5 125q0 88 -52.5 121.5t-157.5 33.5h-412zM443 -149v65h76v-65
l-48 -101h-32l35 101h-31z" />
    <glyph glyph-name="uni0157" unicode="&#x157;" horiz-adv-x="679" 
d="M609 580v-53q-80 20 -161 20q-69 0 -139 -25.5t-154 -96.5v-425h-58v580h58v-100q72 69 141.5 94.5t149.5 25.5q83 0 163 -20zM89 -149v65h76v-65l-48 -101h-32l35 101h-31z" />
    <glyph glyph-name="Rcaron" unicode="&#x158;" horiz-adv-x="945" 
d="M799.5 277q28.5 -33 28.5 -86v-191h-58v181q0 50 -26.5 73t-80.5 23h-508v-277h-58v700h480q130 0 195.5 -49.5t65.5 -151.5q0 -137 -118 -181q51 -8 79.5 -41zM155 647v-316h412q103 0 156.5 36t53.5 125q0 88 -52.5 121.5t-157.5 33.5h-412zM262 928l180 -80l180 80
v-56l-180 -80l-180 80v56z" />
    <glyph glyph-name="rcaron" unicode="&#x159;" horiz-adv-x="679" 
d="M609 580v-53q-80 20 -161 20q-69 0 -139 -25.5t-154 -96.5v-425h-58v580h58v-100q72 69 141.5 94.5t149.5 25.5q83 0 163 -20zM166 808l180 -80l180 80v-56l-180 -80l-180 80v56z" />
    <glyph glyph-name="Sacute" unicode="&#x15a;" horiz-adv-x="995" 
d="M141 234q0 -74 39.5 -118t123.5 -63.5t224 -19.5q166 0 246 35.5t80 118.5q0 56 -31.5 83t-102 38t-222.5 20t-234.5 29.5t-118 61.5t-35.5 113q0 103 93.5 145.5t289.5 42.5t294 -59.5t98 -182.5h-61q0 71 -39 112.5t-115.5 59t-196.5 17.5q-110 0 -175.5 -13.5
t-96 -43.5t-30.5 -80q0 -56 30.5 -84.5t97.5 -41.5t199 -22q166 -11 247 -24.5t125.5 -52t44.5 -116.5q0 -117 -101 -163t-293 -46q-150 0 -245.5 23.5t-145 79t-50.5 151.5h61zM316 803v54l362 80v-54z" />
    <glyph glyph-name="sacute" unicode="&#x15b;" horiz-adv-x="927" 
d="M148 184q9 -57 49.5 -90t113.5 -47t186 -14q108 0 169 12t87 38t26 71q0 47 -24.5 68.5t-79.5 30.5t-193 19q-13 0 -20 1q-133 10 -205.5 25t-107 47t-34.5 91q0 93 88.5 128.5t255.5 35.5q109 0 183 -14.5t119.5 -53.5t55.5 -109h-61q-13 73 -86.5 98.5t-215.5 25.5
q-148 0 -213 -25t-65 -84q0 -39 26 -58.5t87 -30.5t193 -22l43 -4q124 -11 184.5 -22.5t95.5 -43.5t35 -98q0 -97 -82.5 -138t-257.5 -41q-120 0 -206.5 16.5t-142 61t-64.5 126.5h61zM281 683v54l362 80v-54z" />
    <glyph glyph-name="Scedilla" unicode="&#x15e;" horiz-adv-x="995" 
d="M503 -20l-13 -65q38 18 84 18q42 0 69 -19t27 -59q0 -53 -49.5 -77.5t-131.5 -24.5q-38 0 -92 7v47q62 -10 103 -10q109 0 109 57q0 21 -17 32.5t-42 11.5q-34 0 -75 -18l-47 13l18 89q-185 8 -274.5 65.5t-91.5 186.5h61q0 -74 39.5 -118t123.5 -63.5t224 -19.5
q166 0 246 35.5t80 118.5q0 56 -31.5 83t-102 38t-222.5 20t-234.5 29.5t-118 61.5t-35.5 113q0 103 93.5 145.5t289.5 42.5t294 -59.5t98 -182.5h-61q0 71 -39 112.5t-115.5 59t-196.5 17.5q-110 0 -175.5 -13.5t-96 -43.5t-30.5 -80q0 -56 30.5 -84.5t97.5 -41.5t199 -22
q166 -11 247 -24.5t125.5 -52t44.5 -116.5q0 -117 -101 -163t-293 -46h-18z" />
    <glyph glyph-name="scedilla" unicode="&#x15f;" horiz-adv-x="927" 
d="M468 -20l-13 -65q38 18 84 18q42 0 69 -19t27 -59q0 -53 -49.5 -77.5t-131.5 -24.5q-38 0 -92 7v47q62 -10 103 -10q109 0 109 57q0 21 -17 32.5t-42 11.5q-34 0 -75 -18l-47 13l18 89q-145 8 -229 53.5t-95 148.5h61q9 -57 49.5 -90t113.5 -47t186 -14q108 0 169 12
t87 38t26 71q0 47 -24.5 68.5t-79.5 30.5t-193 19q-13 0 -20 1q-133 10 -205.5 25t-107 47t-34.5 91q0 93 88.5 128.5t255.5 35.5q109 0 183 -14.5t119.5 -53.5t55.5 -109h-61q-13 73 -86.5 98.5t-215.5 25.5q-148 0 -213 -25t-65 -84q0 -39 26 -58.5t87 -30.5t193 -22
l43 -4q124 -11 184.5 -22.5t95.5 -43.5t35 -98q0 -97 -82.5 -138t-257.5 -41h-32z" />
    <glyph glyph-name="Scaron" unicode="&#x160;" horiz-adv-x="995" 
d="M141 234q0 -74 39.5 -118t123.5 -63.5t224 -19.5q166 0 246 35.5t80 118.5q0 56 -31.5 83t-102 38t-222.5 20t-234.5 29.5t-118 61.5t-35.5 113q0 103 93.5 145.5t289.5 42.5t294 -59.5t98 -182.5h-61q0 71 -39 112.5t-115.5 59t-196.5 17.5q-110 0 -175.5 -13.5
t-96 -43.5t-30.5 -80q0 -56 30.5 -84.5t97.5 -41.5t199 -22q166 -11 247 -24.5t125.5 -52t44.5 -116.5q0 -117 -101 -163t-293 -46q-150 0 -245.5 23.5t-145 79t-50.5 151.5h61zM318 928l180 -80l180 80v-56l-180 -80l-180 80v56z" />
    <glyph glyph-name="scaron" unicode="&#x161;" horiz-adv-x="927" 
d="M148 184q9 -57 49.5 -90t113.5 -47t186 -14q108 0 169 12t87 38t26 71q0 47 -24.5 68.5t-79.5 30.5t-193 19q-13 0 -20 1q-133 10 -205.5 25t-107 47t-34.5 91q0 93 88.5 128.5t255.5 35.5q109 0 183 -14.5t119.5 -53.5t55.5 -109h-61q-13 73 -86.5 98.5t-215.5 25.5
q-148 0 -213 -25t-65 -84q0 -39 26 -58.5t87 -30.5t193 -22l43 -4q124 -11 184.5 -22.5t95.5 -43.5t35 -98q0 -97 -82.5 -138t-257.5 -41q-120 0 -206.5 16.5t-142 61t-64.5 126.5h61zM282 808l180 -80l180 80v-56l-180 -80l-180 80v56z" />
    <glyph glyph-name="uni0162" unicode="&#x162;" horiz-adv-x="980" 
d="M893 700v-53h-374v-647h-58v647h-374v53h806zM656 -76q27 -19 27 -59q0 -53 -49.5 -77.5t-131.5 -24.5q-38 0 -92 7v47q62 -10 103 -10q109 0 109 57q0 21 -17 32.5t-42 11.5q-34 0 -75 -18l-47 13l20 97h57l-15 -75q38 18 84 18q42 0 69 -19z" />
    <glyph glyph-name="uni0163" unicode="&#x163;" horiz-adv-x="733" 
d="M643 527h-321v-318q0 -76 17.5 -113.5t54.5 -50t106 -12.5q31 0 61.5 3t81.5 11v-52q-91 -15 -151 -15q-21 0 -57 2l-13 -67q38 18 84 18q42 0 69 -19t27 -59q0 -53 -49.5 -77.5t-131.5 -24.5q-38 0 -92 7v47q62 -10 103 -10q109 0 109 57q0 21 -17 32.5t-42 11.5
q-34 0 -75 -18l-47 13l20 97h5q-64 16 -92.5 65.5t-28.5 153.5v318h-184v53h184v153l58 27v-180h321v-53z" />
    <glyph glyph-name="Tcaron" unicode="&#x164;" horiz-adv-x="980" 
d="M893 700v-53h-374v-647h-58v647h-374v53h806zM310 928l180 -80l180 80v-56l-180 -80l-180 80v56z" />
    <glyph glyph-name="tcaron" unicode="&#x165;" horiz-adv-x="733" 
d="M643 527h-321v-318q0 -76 17.5 -113.5t54.5 -50t106 -12.5q31 0 61.5 3t81.5 11v-52q-91 -15 -151 -15q-85 0 -133 18t-71.5 67.5t-23.5 143.5v318h-184v53h184v153l58 27v-180h321v-53zM443 730v65h76v-65l-48 -101h-32l35 101h-31z" />
    <glyph glyph-name="Tbar" unicode="&#x166;" horiz-adv-x="980" 
d="M893 700v-53h-374v-269h238v-53h-238v-325h-58v325h-238v53h238v269h-374v53h806z" />
    <glyph glyph-name="tbar" unicode="&#x167;" horiz-adv-x="733" 
d="M643 527h-321v-174h321v-53h-321v-91q0 -76 17.5 -113.5t54.5 -50t106 -12.5q31 0 61.5 3t81.5 11v-52q-91 -15 -151 -15q-85 0 -133 18t-71.5 67.5t-23.5 143.5v91h-184v53h184v174h-184v53h184v153l58 27v-180h321v-53z" />
    <glyph glyph-name="Umacron" unicode="&#x16a;" horiz-adv-x="1007" 
d="M910 341q0 -170 -94.5 -265.5t-312.5 -95.5t-312 95.5t-94 265.5v359h58v-359q0 -137 73.5 -222.5t274.5 -85.5q202 0 275.5 85.5t73.5 222.5v359h58v-359zM295 830v53h415v-53h-415z" />
    <glyph glyph-name="umacron" unicode="&#x16b;" horiz-adv-x="922" 
d="M767 580h58v-580h-58v157q-51 -85 -140 -131t-207 -46q-160 0 -240.5 73t-82.5 247v280h58v-274q0 -99 28.5 -158.5t88.5 -87t156 -27.5q95 0 172 35.5t122 102.5t45 156v253zM264 710v53h415v-53h-415z" />
    <glyph glyph-name="Uring" unicode="&#x16e;" horiz-adv-x="1007" 
d="M910 341q0 -170 -94.5 -265.5t-312.5 -95.5t-312 95.5t-94 265.5v359h58v-359q0 -137 73.5 -222.5t274.5 -85.5q202 0 275.5 85.5t73.5 222.5v359h58v-359zM361 802.5q-46 29.5 -46 82.5t46 82.5t142 29.5q97 0 143 -29.5t46 -82.5t-46 -82.5t-143 -29.5q-96 0 -142 29.5
zM607 834q32 17 32 51t-32 51.5t-104 17.5q-71 0 -103 -17.5t-32 -51.5t31.5 -51t103.5 -17t104 17z" />
    <glyph glyph-name="uring" unicode="&#x16f;" horiz-adv-x="922" 
d="M767 580h58v-580h-58v157q-51 -85 -140 -131t-207 -46q-160 0 -240.5 73t-82.5 247v280h58v-274q0 -99 28.5 -158.5t88.5 -87t156 -27.5q95 0 172 35.5t122 102.5t45 156v253zM330 682.5q-46 29.5 -46 82.5t46 82.5t142 29.5q97 0 143 -29.5t46 -82.5t-46 -82.5
t-143 -29.5q-96 0 -142 29.5zM576 714q32 17 32 51t-32 51.5t-104 17.5q-71 0 -103 -17.5t-32 -51.5t31.5 -51t103.5 -17t104 17z" />
    <glyph glyph-name="Uhungarumlaut" unicode="&#x170;" horiz-adv-x="1007" 
d="M910 341q0 -170 -94.5 -265.5t-312.5 -95.5t-312 95.5t-94 265.5v359h58v-359q0 -137 73.5 -222.5t274.5 -85.5q202 0 275.5 85.5t73.5 222.5v359h58v-359zM307 806v56l193 80v-56zM547 806v56l194 80v-56z" />
    <glyph glyph-name="uhungarumlaut" unicode="&#x171;" horiz-adv-x="922" 
d="M767 580h58v-580h-58v157q-51 -85 -140 -131t-207 -46q-160 0 -240.5 73t-82.5 247v280h58v-274q0 -99 28.5 -158.5t88.5 -87t156 -27.5q95 0 172 35.5t122 102.5t45 156v253zM276 686v56l193 80v-56zM516 686v56l194 80v-56z" />
    <glyph glyph-name="Uogonek" unicode="&#x172;" horiz-adv-x="1020" 
d="M852 700h58v-359q0 -277 -237 -341h1q-73 -19 -105 -43.5t-32 -59.5q0 -39 37 -56.5t120 -17.5v-53q-114 0 -166 23.5t-52 82.5q0 32 23.5 60.5t77.5 46.5q-35 -3 -74 -3q-218 0 -312 95.5t-94 265.5v359h58v-359q0 -137 73.5 -222.5t274.5 -85.5q202 0 275.5 85.5
t73.5 222.5v359z" />
    <glyph glyph-name="uogonek" unicode="&#x173;" horiz-adv-x="922" 
d="M825 0q-46 -7 -83.5 -34.5t-37.5 -71.5q0 -37 33 -57t88 -20v-54q-82 0 -132 29t-50 86q0 43 34 72t90 50v157q-51 -85 -140 -131t-207 -46q-160 0 -240.5 73t-82.5 247v280h58v-274q0 -99 28.5 -158.5t88.5 -87t156 -27.5q95 0 172 35.5t122 102.5t45 156v253h58v-580z
" />
    <glyph glyph-name="Wcircumflex" unicode="&#x174;" horiz-adv-x="1572" 
d="M1137 60l285 640h63l-313 -700h-70l-317 656l-322 -656h-71l-305 700h63l278 -641l316 641h83zM606 850l180 80l180 -80v-56l-180 80l-180 -80v56z" />
    <glyph glyph-name="wcircumflex" unicode="&#x175;" horiz-adv-x="1427" 
d="M1023 47l255 533h63l-277 -580h-80l-270 525l-271 -525h-80l-276 580h62l255 -534l273 534h73zM533 730l180 80l180 -80v-56l-180 80l-180 -80v56z" />
    <glyph glyph-name="Ycircumflex" unicode="&#x176;" horiz-adv-x="1069" 
d="M534 288l370 412h78l-417 -465v-235h-62v235l-416 465h77zM354 850l180 80l180 -80v-56l-180 80l-180 -80v56z" />
    <glyph glyph-name="ycircumflex" unicode="&#x177;" horiz-adv-x="936" 
d="M783 580h67l-357 -629q-46 -82 -74.5 -122t-68 -64.5t-97.5 -24.5q-36 0 -67 3.5t-80 12.5v53q53 -9 81 -12.5t59 -3.5q43 0 73.5 18.5t54 51.5t60.5 99l21 38h-35l-333 580h67l317 -552zM298 730l180 80l180 -80v-56l-180 80l-180 -80v56z" />
    <glyph glyph-name="Ydieresis" unicode="&#x178;" horiz-adv-x="1069" 
d="M534 288l370 412h78l-417 -465v-235h-62v235l-416 465h77zM376 817v66h89v-66h-89zM602 817v66h90v-66h-90z" />
    <glyph glyph-name="Zacute" unicode="&#x179;" horiz-adv-x="930" 
d="M97 700h736v-53l-648 -594h648v-53h-736v53l648 594h-648v53zM284 803v54l362 80v-54z" />
    <glyph glyph-name="zacute" unicode="&#x17a;" horiz-adv-x="834" 
d="M97 580h640v-53l-549 -474h549v-53h-640v53l549 474h-549v53zM236 683v54l362 80v-54z" />
    <glyph glyph-name="Zdotaccent" unicode="&#x17b;" horiz-adv-x="930" 
d="M97 700h736v-53l-648 -594h648v-53h-736v53l648 594h-648v53zM421 817v66h89v-66h-89z" />
    <glyph glyph-name="zdotaccent" unicode="&#x17c;" horiz-adv-x="834" 
d="M97 580h640v-53l-549 -474h549v-53h-640v53l549 474h-549v53zM373 697v66h89v-66h-89z" />
    <glyph glyph-name="Zcaron" unicode="&#x17d;" horiz-adv-x="930" 
d="M97 700h736v-53l-648 -594h648v-53h-736v53l648 594h-648v53zM285 928l180 -80l180 80v-56l-180 -80l-180 80v56z" />
    <glyph glyph-name="zcaron" unicode="&#x17e;" horiz-adv-x="834" 
d="M97 580h640v-53l-549 -474h549v-53h-640v53l549 474h-549v53zM237 808l180 -80l180 80v-56l-180 -80l-180 80v56z" />
    <glyph glyph-name="uni0218" unicode="&#x218;" horiz-adv-x="995" 
d="M141 234q0 -74 39.5 -118t123.5 -63.5t224 -19.5q166 0 246 35.5t80 118.5q0 56 -31.5 83t-102 38t-222.5 20t-234.5 29.5t-118 61.5t-35.5 113q0 103 93.5 145.5t289.5 42.5t294 -59.5t98 -182.5h-61q0 71 -39 112.5t-115.5 59t-196.5 17.5q-110 0 -175.5 -13.5
t-96 -43.5t-30.5 -80q0 -56 30.5 -84.5t97.5 -41.5t199 -22q166 -11 247 -24.5t125.5 -52t44.5 -116.5q0 -117 -101 -163t-293 -46q-150 0 -245.5 23.5t-145 79t-50.5 151.5h61zM461 -159v65h76v-65l-48 -101h-32l35 101h-31z" />
    <glyph glyph-name="uni0219" unicode="&#x219;" horiz-adv-x="927" 
d="M148 184q9 -57 49.5 -90t113.5 -47t186 -14q108 0 169 12t87 38t26 71q0 47 -24.5 68.5t-79.5 30.5t-193 19q-13 0 -20 1q-133 10 -205.5 25t-107 47t-34.5 91q0 93 88.5 128.5t255.5 35.5q109 0 183 -14.5t119.5 -53.5t55.5 -109h-61q-13 73 -86.5 98.5t-215.5 25.5
q-148 0 -213 -25t-65 -84q0 -39 26 -58.5t87 -30.5t193 -22l43 -4q124 -11 184.5 -22.5t95.5 -43.5t35 -98q0 -97 -82.5 -138t-257.5 -41q-120 0 -206.5 16.5t-142 61t-64.5 126.5h61zM426 -159v65h76v-65l-48 -101h-32l35 101h-31z" />
    <glyph glyph-name="uni021A" unicode="&#x21a;" horiz-adv-x="980" 
d="M893 700v-53h-374v-647h-58v647h-374v53h806zM454 -149v65h76v-65l-48 -101h-32l35 101h-31z" />
    <glyph glyph-name="uni021B" unicode="&#x21b;" horiz-adv-x="733" 
d="M643 527h-321v-318q0 -76 17.5 -113.5t54.5 -50t106 -12.5q31 0 61.5 3t81.5 11v-52q-91 -15 -151 -15q-85 0 -133 18t-71.5 67.5t-23.5 143.5v318h-184v53h184v153l58 27v-180h321v-53zM411 -149v65h76v-65l-48 -101h-32l35 101h-31z" />
    <glyph glyph-name="circumflex" unicode="&#x2c6;" horiz-adv-x="554" 
d="M97 730l180 80l180 -80v-56l-180 80l-180 -80v56z" />
    <glyph glyph-name="caron" unicode="&#x2c7;" horiz-adv-x="554" 
d="M97 808l180 -80l180 80v-56l-180 -80l-180 80v56z" />
    <glyph glyph-name="breve" unicode="&#x2d8;" horiz-adv-x="602" 
d="M151 837q0 -66 38.5 -90t111.5 -24t111.5 24t38.5 90h54q0 -90 -52 -127t-152 -37t-152 37t-52 127h54z" />
    <glyph glyph-name="dotaccent" unicode="&#x2d9;" horiz-adv-x="283" 
d="M97 697v66h89v-66h-89z" />
    <glyph glyph-name="ring" unicode="&#x2da;" horiz-adv-x="571" 
d="M143 682.5q-46 29.5 -46 82.5t46 82.5t142 29.5q97 0 143 -29.5t46 -82.5t-46 -82.5t-143 -29.5q-96 0 -142 29.5zM389 714q32 17 32 51t-32 51.5t-104 17.5q-71 0 -103 -17.5t-32 -51.5t31.5 -51t103.5 -17t104 17z" />
    <glyph glyph-name="ogonek" unicode="&#x2db;" horiz-adv-x="412" 
d="M315 -230q-113 0 -165.5 25t-52.5 85q0 33 21.5 61t67.5 59h45q-3 -3 -25 -20t-35 -38.5t-13 -44.5q0 -39 37 -56.5t120 -17.5v-53z" />
    <glyph glyph-name="tilde" unicode="&#x2dc;" horiz-adv-x="715" 
d="M97 673q0 57 33 103.5t107 46.5q43 0 71 -14.5t62 -43.5q31 -25 52.5 -36.5t51.5 -11.5q43 0 63 25.5t20 70.5h61q0 -57 -33 -103.5t-108 -46.5q-43 0 -71 14.5t-62 43.5q-29 25 -50.5 37t-52.5 12q-83 0 -83 -97h-61z" />
    <glyph glyph-name="hungarumlaut" unicode="&#x2dd;" horiz-adv-x="627" 
d="M97 686v56l193 80v-56zM337 686v56l194 80v-56z" />
    <glyph glyph-name="gravecomb" unicode="&#x300;" 
d="M-479 817l362 -80v-54l-362 80v54z" />
    <glyph glyph-name="acutecomb" unicode="&#x301;" 
d="M-459 683v54l362 80v-54z" />
    <glyph glyph-name="uni0302" unicode="&#x302;" 
d="M-457 730l180 80l180 -80v-56l-180 80l-180 -80v56z" />
    <glyph glyph-name="tildecomb" unicode="&#x303;" 
d="M-618 673q0 57 33 103.5t107 46.5q43 0 71 -14.5t62 -43.5q31 -25 52.5 -36.5t51.5 -11.5q43 0 63 25.5t20 70.5h61q0 -57 -33 -103.5t-108 -46.5q-43 0 -71 14.5t-62 43.5q-29 25 -50.5 37t-52.5 12q-83 0 -83 -97h-61z" />
    <glyph glyph-name="uni0304" unicode="&#x304;" 
d="M-512 710v53h415v-53h-415z" />
    <glyph glyph-name="uni0306" unicode="&#x306;" 
d="M-451 837q0 -66 38.5 -90t111.5 -24t111.5 24t38.5 90h54q0 -90 -52 -127t-152 -37t-152 37t-52 127h54z" />
    <glyph glyph-name="uni0307" unicode="&#x307;" 
d="M-186 697v66h89v-66h-89z" />
    <glyph glyph-name="uni0308" unicode="&#x308;" 
d="M-412 697v66h89v-66h-89zM-186 697v66h90v-66h-90z" />
    <glyph glyph-name="uni030A" unicode="&#x30a;" 
d="M-428 682.5q-46 29.5 -46 82.5t46 82.5t142 29.5q97 0 143 -29.5t46 -82.5t-46 -82.5t-143 -29.5q-96 0 -142 29.5zM-182 714q32 17 32 51t-32 51.5t-104 17.5q-71 0 -103 -17.5t-32 -51.5t31.5 -51t103.5 -17t104 17z" />
    <glyph glyph-name="uni030B" unicode="&#x30b;" 
d="M-530 686v56l193 80v-56zM-290 686v56l194 80v-56z" />
    <glyph glyph-name="uni030C" unicode="&#x30c;" 
d="M-457 808l180 -80l180 80v-56l-180 -80l-180 80v56z" />
    <glyph glyph-name="uni0312" unicode="&#x312;" 
d="M-101 779v-65h-76v65l48 101h32l-35 -101h31z" />
    <glyph glyph-name="uni0326" unicode="&#x326;" 
d="M-173 -149v65h76v-65l-48 -101h-32l35 101h-31z" />
    <glyph glyph-name="uni0327" unicode="&#x327;" 
d="M-124 -76q27 -19 27 -59q0 -53 -49.5 -77.5t-131.5 -24.5q-38 0 -92 7v47q62 -10 103 -10q109 0 109 57q0 21 -17 32.5t-42 11.5q-34 0 -75 -18l-47 13l20 97h57l-15 -75q38 18 84 18q42 0 69 -19z" />
    <glyph glyph-name="uni0328" unicode="&#x328;" 
d="M-97 -230q-113 0 -165.5 25t-52.5 85q0 33 21.5 61t67.5 59h45q-3 -3 -25 -20t-35 -38.5t-13 -44.5q0 -39 37 -56.5t120 -17.5v-53z" />
    <glyph glyph-name="uni0335" unicode="&#x335;" 
d="M-523 313v54h426v-54h-426z" />
    <glyph glyph-name="uni0336" unicode="&#x336;" 
d="M-1043 313v54h946v-54h-946z" />
    <glyph glyph-name="uni0337" unicode="&#x337;" 
d="M-156 720h59l-260 -870h-59z" />
    <glyph glyph-name="uni0338" unicode="&#x338;" 
d="M-156 753h59l-260 -870h-59z" />
    <glyph glyph-name="Wgrave" unicode="&#x1e80;" horiz-adv-x="1572" 
d="M1137 60l285 640h63l-313 -700h-70l-317 656l-322 -656h-71l-305 700h63l278 -641l316 641h83zM604 937l362 -80v-54l-362 80v54z" />
    <glyph glyph-name="wgrave" unicode="&#x1e81;" horiz-adv-x="1427" 
d="M1023 47l255 533h63l-277 -580h-80l-270 525l-271 -525h-80l-276 580h62l255 -534l273 534h73zM532 817l362 -80v-54l-362 80v54z" />
    <glyph glyph-name="Wacute" unicode="&#x1e82;" horiz-adv-x="1572" 
d="M1137 60l285 640h63l-313 -700h-70l-317 656l-322 -656h-71l-305 700h63l278 -641l316 641h83zM604 803v54l362 80v-54z" />
    <glyph glyph-name="wacute" unicode="&#x1e83;" horiz-adv-x="1427" 
d="M1023 47l255 533h63l-277 -580h-80l-270 525l-271 -525h-80l-276 580h62l255 -534l273 534h73zM532 683v54l362 80v-54z" />
    <glyph glyph-name="Wdieresis" unicode="&#x1e84;" horiz-adv-x="1572" 
d="M1137 60l285 640h63l-313 -700h-70l-317 656l-322 -656h-71l-305 700h63l278 -641l316 641h83zM628 817v66h89v-66h-89zM854 817v66h90v-66h-90z" />
    <glyph glyph-name="wdieresis" unicode="&#x1e85;" horiz-adv-x="1427" 
d="M1023 47l255 533h63l-277 -580h-80l-270 525l-271 -525h-80l-276 580h62l255 -534l273 534h73zM556 697v66h89v-66h-89zM782 697v66h90v-66h-90z" />
    <glyph glyph-name="Ygrave" unicode="&#x1ef2;" horiz-adv-x="1069" 
d="M534 288l370 412h78l-417 -465v-235h-62v235l-416 465h77zM353 937l362 -80v-54l-362 80v54z" />
    <glyph glyph-name="ygrave" unicode="&#x1ef3;" horiz-adv-x="936" 
d="M783 580h67l-357 -629q-46 -82 -74.5 -122t-68 -64.5t-97.5 -24.5q-36 0 -67 3.5t-80 12.5v53q53 -9 81 -12.5t59 -3.5q43 0 73.5 18.5t54 51.5t60.5 99l21 38h-35l-333 580h67l317 -552zM297 817l362 -80v-54l-362 80v54z" />
    <glyph glyph-name="endash" unicode="&#x2013;" horiz-adv-x="1180" 
d="M117 313v54h946v-54h-946z" />
    <glyph glyph-name="emdash" unicode="&#x2014;" horiz-adv-x="1380" 
d="M117 313v54h1146v-54h-1146z" />
    <glyph glyph-name="quoteleft" unicode="&#x2018;" horiz-adv-x="317" 
d="M167 440h-60l53 320h50z" />
    <glyph glyph-name="quoteright" unicode="&#x2019;" horiz-adv-x="317" 
d="M150 760h60l-53 -320h-50z" />
    <glyph glyph-name="quotesinglbase" unicode="&#x201a;" horiz-adv-x="269" 
d="M90 0v65h73v-65l-42 -153h-31l29 153h-29z" />
    <glyph glyph-name="quotedblleft" unicode="&#x201c;" horiz-adv-x="490" 
d="M167 440h-60l53 320h50zM340 440h-60l53 320h50z" />
    <glyph glyph-name="quotedblright" unicode="&#x201d;" horiz-adv-x="490" 
d="M150 760h60l-53 -320h-50zM323 760h60l-53 -320h-50z" />
    <glyph glyph-name="quotedblbase" unicode="&#x201e;" horiz-adv-x="416" 
d="M237 0v65h73v-65l-42 -153h-31l29 153h-29zM90 0v65h73v-65l-42 -153h-31l29 153h-29z" />
    <glyph glyph-name="dagger" unicode="&#x2020;" horiz-adv-x="853" 
d="M457 580h300v-53h-300v-677h-58v677h-302v53h302v167h58v-167z" />
    <glyph glyph-name="daggerdbl" unicode="&#x2021;" horiz-adv-x="853" 
d="M757 580v-53h-300v-330h300v-54h-300v-293h-58v293h-302v54h302v330h-302v53h302v167h58v-167h300z" />
    <glyph glyph-name="bullet" unicode="&#x2022;" horiz-adv-x="366" 
d="M118 270q-21 15 -21 46t21 46t65 15t65 -15t21 -46t-21 -46t-65 -15t-65 15z" />
    <glyph glyph-name="ellipsis" unicode="&#x2026;" horiz-adv-x="689" 
d="M90 0v65h73v-65h-73zM300 0v65h73v-65h-73zM510 0v65h73v-65h-73z" />
    <glyph glyph-name="perthousand" unicode="&#x2030;" horiz-adv-x="1893" 
d="M197.5 320.5q-53.5 31.5 -77 80.5t-23.5 104q0 54 23.5 103t77 80.5t137.5 31.5q85 0 138.5 -31.5t77 -80.5t23.5 -103q0 -55 -23.5 -104t-77 -80.5t-138.5 -31.5q-84 0 -137.5 31.5zM930 700h74l-592 -700h-74zM463 384.5q51 42.5 51 120.5t-50.5 120t-128.5 42
q-77 0 -127.5 -42t-50.5 -120t50.5 -120.5t127.5 -42.5t128 42.5zM868.5 11.5q-53.5 31.5 -77.5 80.5t-24 104q0 54 24 103t77.5 80.5t137.5 31.5t137.5 -31.5t77.5 -80.5t24 -103q0 -55 -24 -104t-77.5 -80.5t-137.5 -31.5t-137.5 31.5zM1419.5 11.5q-53.5 31.5 -77.5 80.5
t-24 104q0 54 24 103t77.5 80.5t137.5 31.5t137.5 -31.5t77.5 -80.5t24 -103q0 -55 -24 -104t-77.5 -80.5t-137.5 -31.5t-137.5 31.5zM1134 75.5q51 42.5 51 120.5t-50.5 120t-128.5 42q-77 0 -128 -42t-51 -120t51 -120.5t128 -42.5t128 42.5zM1685 75.5q51 42.5 51 120.5
t-51 120t-128 42t-128 -42t-51 -120t51 -120.5t128 -42.5t128 42.5z" />
    <glyph glyph-name="guilsinglleft" unicode="&#x2039;" horiz-adv-x="536" 
d="M97 290l260 290h82l-260 -290l260 -290h-82z" />
    <glyph glyph-name="guilsinglright" unicode="&#x203a;" horiz-adv-x="536" 
d="M97 580h82l260 -290l-260 -290h-82l260 290z" />
    <glyph glyph-name="fraction" unicode="&#x2044;" horiz-adv-x="515" 
d="M357 720h59l-260 -870h-59z" />
    <glyph glyph-name="Euro" unicode="&#x20ac;" horiz-adv-x="880" 
d="M337.5 612.5q-68.5 -54.5 -88.5 -164.5h418v-47h-424q-2 -32 -2 -50t2 -50h424v-47h-419q19 -113 87.5 -167t190.5 -54q56 0 115.5 8.5t141.5 28.5v-53q-82 -20 -143 -28.5t-123 -8.5q-148 0 -229.5 71.5t-101.5 202.5h-89v47h84q-2 32 -2 50t2 50h-84v47h90
q21 127 103 199.5t227 72.5q62 0 123 -8.5t143 -28.5v-53q-82 20 -141.5 28.5t-115.5 8.5q-120 0 -188.5 -54.5z" />
    <glyph glyph-name="trademark" unicode="&#x2122;" horiz-adv-x="1103" 
d="M244 660h-174v40h391v-40h-175v-301h-42v301zM570 359h-42v341h58l181 -305l181 305h58v-341h-42v285l-170 -285h-54l-170 285v-285z" />
    <glyph glyph-name="arrowleft" unicode="&#x2190;" horiz-adv-x="840" 
d="M743 377v-54h-545l207 -221l-41 -41l-267 290l267 288l41 -41l-207 -221h545z" />
    <glyph glyph-name="arrowup" unicode="&#x2191;" horiz-adv-x="772" 
d="M413 579v-546h-54v546l-221 -207l-41 41l288 267l290 -267l-41 -41z" />
    <glyph glyph-name="arrowright" unicode="&#x2192;" horiz-adv-x="840" 
d="M642 323h-545v54h545l-207 221l41 41l267 -288l-267 -290l-41 41z" />
    <glyph glyph-name="arrowdown" unicode="&#x2193;" horiz-adv-x="772" 
d="M359 680h54v-545l221 206l41 -41l-290 -267l-288 267l41 41l221 -206v545z" />
    <glyph glyph-name="arrowboth" unicode="&#x2194;" horiz-adv-x="1349" 
d="M944 598l41 41l267 -288l-267 -290l-41 41l207 221h-953l207 -221l-41 -41l-267 290l267 288l41 -41l-207 -221h953z" />
    <glyph glyph-name="arrowupdn" unicode="&#x2195;" horiz-adv-x="772" 
d="M413 -25l221 207l41 -41l-290 -267l-288 267l41 41l221 -207v697l-221 -207l-41 41l288 267l290 -267l-41 -41l-221 207v-697z" />
    <glyph glyph-name="uni2196" unicode="&#x2196;" horiz-adv-x="686" 
d="M589 144l-39 -39l-385 386l-10 -303h-58l16 394l393 16v-58l-302 -11z" />
    <glyph glyph-name="uni2197" unicode="&#x2197;" horiz-adv-x="686" 
d="M521 491l-386 -385l-38 38l385 386l-302 10v58l392 -15l17 -394h-58z" />
    <glyph glyph-name="uni2198" unicode="&#x2198;" horiz-adv-x="686" 
d="M97 556l38 38l386 -385l10 302h58l-17 -394l-392 -15v58l302 10z" />
    <glyph glyph-name="uni2199" unicode="&#x2199;" horiz-adv-x="686" 
d="M165 209l385 385l39 -38l-385 -386l302 -10v-58l-393 15l-16 394h58z" />
    <glyph glyph-name="emptyset" unicode="&#x2205;" horiz-adv-x="1156" 
d="M930 667q60 -58 90.5 -138t30.5 -178q0 -131 -54 -229.5t-160.5 -153.5t-257.5 -55q-192 0 -314 89l-129 -129l-35 35l126 126q-60 58 -90.5 138.5t-30.5 178.5q0 131 54.5 229t161 152.5t257.5 54.5q192 0 313 -88l128 128l35 -35zM192.5 194.5q26.5 -69.5 76.5 -118.5
l582 582q-106 75 -272 75q-129 0 -222 -45.5t-142 -131.5t-49 -205q0 -87 26.5 -156.5zM800 12.5q93 45.5 142 132t49 206.5q0 175 -102 275l-583 -583q107 -76 273 -76q128 0 221 45.5z" />
    <glyph glyph-name="product" unicode="&#x220f;" horiz-adv-x="1262" 
d="M1165 800v-53h-249v-897h-58v897h-471v-897h-58v897h-232v53h1068z" />
    <glyph glyph-name="minus" unicode="&#x2212;" horiz-adv-x="940" 
d="M97 313v54h746v-54h-746z" />
    <glyph glyph-name="integral" unicode="&#x222b;" horiz-adv-x="1013" 
d="M97 -97q117 0 186 20.5t112 84t61 190.5l36 254q23 159 82.5 234.5t137.5 94.5t204 19v-53q-111 0 -181.5 -21t-117 -85t-64.5 -189l-36 -254q-23 -165 -81.5 -240t-133 -91.5t-205.5 -16.5v53z" />
    <glyph glyph-name="approxequal" unicode="&#x2248;" horiz-adv-x="935" 
d="M97 360q0 254 190 254q46 0 82 -15t61 -36.5t59 -57.5q44 -46 77.5 -68.5t80.5 -22.5q72 0 101 50.5t29 149.5h61q0 -254 -191 -254q-46 0 -81.5 15t-60.5 36t-59 57q-45 47 -78.5 69.5t-80.5 22.5q-71 0 -100 -50.5t-29 -149.5h-61zM97 40q0 254 190 254q46 0 82 -15
t61 -36.5t59 -57.5q44 -46 77.5 -68.5t80.5 -22.5q72 0 101 50.5t29 149.5h61q0 -254 -191 -254q-46 0 -81.5 15t-60.5 36t-59 57q-45 47 -78.5 69.5t-80.5 22.5q-71 0 -100 -50.5t-29 -149.5h-61z" />
    <glyph glyph-name="notequal" unicode="&#x2260;" horiz-adv-x="940" 
d="M843 527v-54h-290l-80 -266h370v-54h-386l-74 -248h-59l74 248h-301v54h317l80 266h-397v54h413l74 248h59l-74 -248h274z" />
    <glyph glyph-name="lessequal" unicode="&#x2264;" horiz-adv-x="947" 
d="M176 482l654 -174v-59l-733 195v76l733 195v-58zM103 58v54h747v-54h-747z" />
    <glyph glyph-name="greaterequal" unicode="&#x2265;" horiz-adv-x="947" 
d="M97 58v54h746v-54h-746zM117 657v58l733 -195v-76l-733 -195v59l654 174z" />
    <glyph glyph-name="lozenge" unicode="&#x25ca;" horiz-adv-x="896" 
d="M486 800l313 -457l-313 -456h-75l-314 456l314 457h75zM168 343l280 -407l280 407l-280 408z" />
    <glyph glyph-name="A.ss01" horiz-adv-x="1231" 
d="M1145 0h-67l-113 189h-699l-113 -189h-66l416 700h226zM541 647l-242 -404h634l-242 404h-150z" />
    <glyph glyph-name="Aacute.ss01" horiz-adv-x="1231" 
d="M1145 0h-67l-113 189h-699l-113 -189h-66l416 700h226zM541 647l-242 -404h634l-242 404h-150zM434 803v54l362 80v-54z" />
    <glyph glyph-name="Abreve.ss01" horiz-adv-x="1231" 
d="M1145 0h-67l-113 189h-699l-113 -189h-66l416 700h226zM541 647l-242 -404h634l-242 404h-150zM466 957q0 -66 38.5 -90t111.5 -24t111.5 24t38.5 90h54q0 -90 -52 -127t-152 -37t-152 37t-52 127h54z" />
    <glyph glyph-name="Acircumflex.ss01" horiz-adv-x="1231" 
d="M1145 0h-67l-113 189h-699l-113 -189h-66l416 700h226zM541 647l-242 -404h634l-242 404h-150zM436 850l180 80l180 -80v-56l-180 80l-180 -80v56z" />
    <glyph glyph-name="Adieresis.ss01" horiz-adv-x="1231" 
d="M1145 0h-67l-113 189h-699l-113 -189h-66l416 700h226zM541 647l-242 -404h634l-242 404h-150zM458 817v66h89v-66h-89zM684 817v66h90v-66h-90z" />
    <glyph glyph-name="Agrave.ss01" horiz-adv-x="1231" 
d="M1145 0h-67l-113 189h-699l-113 -189h-66l416 700h226zM541 647l-242 -404h634l-242 404h-150zM434 937l362 -80v-54l-362 80v54z" />
    <glyph glyph-name="Amacron.ss01" horiz-adv-x="1231" 
d="M1145 0h-67l-113 189h-699l-113 -189h-66l416 700h226zM541 647l-242 -404h634l-242 404h-150zM408 830v53h415v-53h-415z" />
    <glyph glyph-name="Aogonek.ss01" horiz-adv-x="1231" 
d="M1145 0h-67l-113 189h-699l-113 -189h-66l416 700h226zM541 647l-242 -404h634l-242 404h-150zM1216 -230q-113 0 -165.5 25t-52.5 85q0 33 21.5 61t67.5 59h45q-3 -3 -25 -20t-35 -38.5t-13 -44.5q0 -39 37 -56.5t120 -17.5v-53z" />
    <glyph glyph-name="Aring.ss01" horiz-adv-x="1231" 
d="M1145 0h-67l-113 189h-699l-113 -189h-66l416 700h226zM541 647l-242 -404h634l-242 404h-150zM473 802.5q-46 29.5 -46 82.5t46 82.5t142 29.5q97 0 143 -29.5t46 -82.5t-46 -82.5t-143 -29.5q-96 0 -142 29.5zM719 834q32 17 32 51t-32 51.5t-104 17.5
q-71 0 -103 -17.5t-32 -51.5t31.5 -51t103.5 -17t104 17z" />
    <glyph glyph-name="Atilde.ss01" horiz-adv-x="1231" 
d="M1145 0h-67l-113 189h-699l-113 -189h-66l416 700h226zM541 647l-242 -404h634l-242 404h-150zM355 793q0 57 33 103.5t107 46.5q43 0 71 -14.5t62 -43.5q31 -25 52.5 -36.5t51.5 -11.5q43 0 63 25.5t20 70.5h61q0 -57 -33 -103.5t-108 -46.5q-43 0 -71 14.5t-62 43.5
q-29 25 -50.5 37t-52.5 12q-83 0 -83 -97h-61z" />
    <glyph glyph-name="K.ss01" horiz-adv-x="961" 
d="M790 700h85l-378 -350l378 -350h-85l-349 324h-286v-324h-58v700h58v-323h286z" />
    <glyph glyph-name="uni0136.ss01" horiz-adv-x="961" 
d="M790 700h85l-378 -350l378 -350h-85l-349 324h-286v-324h-58v700h58v-323h286zM406 -149v65h76v-65l-48 -101h-32l35 101h-31z" />
    <glyph glyph-name="R.ss01" horiz-adv-x="938" 
d="M801 326q-50 -59 -144 -74l186 -252h-70l-182 247h-1h-435v-247h-58v700h493q126 0 193.5 -61.5t67.5 -164.5q0 -89 -50 -148zM155 301h418q217 0 217 173q0 90 -57.5 131.5t-159.5 41.5h-418v-346z" />
    <glyph glyph-name="Racute.ss01" horiz-adv-x="938" 
d="M801 326q-50 -59 -144 -74l186 -252h-70l-182 247h-1h-435v-247h-58v700h493q126 0 193.5 -61.5t67.5 -164.5q0 -89 -50 -148zM155 301h418q217 0 217 173q0 90 -57.5 131.5t-159.5 41.5h-418v-346zM254 803v54l362 80v-54z" />
    <glyph glyph-name="Rcaron.ss01" horiz-adv-x="938" 
d="M801 326q-50 -59 -144 -74l186 -252h-70l-182 247h-1h-435v-247h-58v700h493q126 0 193.5 -61.5t67.5 -164.5q0 -89 -50 -148zM155 301h418q217 0 217 173q0 90 -57.5 131.5t-159.5 41.5h-418v-346zM256 928l180 -80l180 80v-56l-180 -80l-180 80v56z" />
    <glyph glyph-name="uni0156.ss01" horiz-adv-x="938" 
d="M801 326q-50 -59 -144 -74l186 -252h-70l-182 247h-1h-435v-247h-58v700h493q126 0 193.5 -61.5t67.5 -164.5q0 -89 -50 -148zM155 301h418q217 0 217 173q0 90 -57.5 131.5t-159.5 41.5h-418v-346zM406 -149v65h76v-65l-48 -101h-32l35 101h-31z" />
    <glyph glyph-name="V.ss01" horiz-adv-x="1231" 
d="M1078 700h67l-416 -700h-226l-416 700h66l388 -647h150z" />
    <glyph glyph-name="W.ss01" horiz-adv-x="1760" 
d="M1322 53l289 647h63l-313 -700h-198l-279 639l-280 -639h-198l-319 700h63l294 -647h121l282 647h72l282 -647h121z" />
    <glyph glyph-name="Wacute.ss01" horiz-adv-x="1760" 
d="M1322 53l289 647h63l-313 -700h-198l-279 639l-280 -639h-198l-319 700h63l294 -647h121l282 647h72l282 -647h121zM702 803v54l362 80v-54z" />
    <glyph glyph-name="Wcircumflex.ss01" horiz-adv-x="1760" 
d="M1322 53l289 647h63l-313 -700h-198l-279 639l-280 -639h-198l-319 700h63l294 -647h121l282 647h72l282 -647h121zM703 850l180 80l180 -80v-56l-180 80l-180 -80v56z" />
    <glyph glyph-name="Wdieresis.ss01" horiz-adv-x="1760" 
d="M1322 53l289 647h63l-313 -700h-198l-279 639l-280 -639h-198l-319 700h63l294 -647h121l282 647h72l282 -647h121zM726 817v66h89v-66h-89zM952 817v66h90v-66h-90z" />
    <glyph glyph-name="Wgrave.ss01" horiz-adv-x="1760" 
d="M1322 53l289 647h63l-313 -700h-198l-279 639l-280 -639h-198l-319 700h63l294 -647h121l282 647h72l282 -647h121zM702 937l362 -80v-54l-362 80v54z" />
    <glyph glyph-name="i.loclTRK" horiz-adv-x="255" 
d="M97 0v580h61v-580h-61zM83 697v66h89v-66h-89z" />
    <glyph glyph-name="a.001" horiz-adv-x="906" 
d="M737.5 539q80.5 -61 81.5 -197v-342h-58v78q-113 -47 -202.5 -72.5t-192.5 -25.5q-148 0 -215.5 51t-67.5 150q0 107 91 156t248 49q78 0 167.5 -16t171.5 -41v26q0 192 -273 192q-71 0 -149.5 -12t-185.5 -45l-23 49q93 30 181 45.5t180 15.5q166 0 246.5 -61z
M558.5 60.5q97.5 27.5 202.5 70.5v143q-89 27 -167.5 43t-169.5 16q-122 0 -200.5 -34.5t-78.5 -118.5q0 -78 57 -112.5t174 -34.5q85 0 182.5 27.5z" />
    <glyph glyph-name="a.ss01" horiz-adv-x="927" 
d="M769 580h62v-580h-62v137q-40 -75 -122 -116t-202 -41q-109 0 -190 36.5t-124.5 106.5t-43.5 167t43.5 167t124.5 106.5t190 36.5q120 0 202 -41t122 -116v137zM683.5 100q85.5 67 85.5 190t-85.5 190t-227.5 67q-141 0 -224.5 -67t-83.5 -190t83.5 -190t224.5 -67
q142 0 227.5 67z" />
    <glyph glyph-name="aacute.ss01" horiz-adv-x="927" 
d="M769 580h62v-580h-62v137q-40 -75 -122 -116t-202 -41q-109 0 -190 36.5t-124.5 106.5t-43.5 167t43.5 167t124.5 106.5t190 36.5q120 0 202 -41t122 -116v137zM683.5 100q85.5 67 85.5 190t-85.5 190t-227.5 67q-141 0 -224.5 -67t-83.5 -190t83.5 -190t224.5 -67
q142 0 227.5 67zM282 683v54l362 80v-54z" />
    <glyph glyph-name="abreve.ss01" horiz-adv-x="927" 
d="M769 580h62v-580h-62v137q-40 -75 -122 -116t-202 -41q-109 0 -190 36.5t-124.5 106.5t-43.5 167t43.5 167t124.5 106.5t190 36.5q120 0 202 -41t122 -116v137zM683.5 100q85.5 67 85.5 190t-85.5 190t-227.5 67q-141 0 -224.5 -67t-83.5 -190t83.5 -190t224.5 -67
q142 0 227.5 67zM314 837q0 -66 38.5 -90t111.5 -24t111.5 24t38.5 90h54q0 -90 -52 -127t-152 -37t-152 37t-52 127h54z" />
    <glyph glyph-name="acircumflex.ss01" horiz-adv-x="927" 
d="M769 580h62v-580h-62v137q-40 -75 -122 -116t-202 -41q-109 0 -190 36.5t-124.5 106.5t-43.5 167t43.5 167t124.5 106.5t190 36.5q120 0 202 -41t122 -116v137zM683.5 100q85.5 67 85.5 190t-85.5 190t-227.5 67q-141 0 -224.5 -67t-83.5 -190t83.5 -190t224.5 -67
q142 0 227.5 67zM284 730l180 80l180 -80v-56l-180 80l-180 -80v56z" />
    <glyph glyph-name="adieresis.ss01" horiz-adv-x="927" 
d="M769 580h62v-580h-62v137q-40 -75 -122 -116t-202 -41q-109 0 -190 36.5t-124.5 106.5t-43.5 167t43.5 167t124.5 106.5t190 36.5q120 0 202 -41t122 -116v137zM683.5 100q85.5 67 85.5 190t-85.5 190t-227.5 67q-141 0 -224.5 -67t-83.5 -190t83.5 -190t224.5 -67
q142 0 227.5 67zM306 697v66h89v-66h-89zM532 697v66h90v-66h-90z" />
    <glyph glyph-name="agrave.ss01" horiz-adv-x="927" 
d="M769 580h62v-580h-62v137q-40 -75 -122 -116t-202 -41q-109 0 -190 36.5t-124.5 106.5t-43.5 167t43.5 167t124.5 106.5t190 36.5q120 0 202 -41t122 -116v137zM683.5 100q85.5 67 85.5 190t-85.5 190t-227.5 67q-141 0 -224.5 -67t-83.5 -190t83.5 -190t224.5 -67
q142 0 227.5 67zM282 817l362 -80v-54l-362 80v54z" />
    <glyph glyph-name="amacron.ss01" horiz-adv-x="927" 
d="M769 580h62v-580h-62v137q-40 -75 -122 -116t-202 -41q-109 0 -190 36.5t-124.5 106.5t-43.5 167t43.5 167t124.5 106.5t190 36.5q120 0 202 -41t122 -116v137zM683.5 100q85.5 67 85.5 190t-85.5 190t-227.5 67q-141 0 -224.5 -67t-83.5 -190t83.5 -190t224.5 -67
q142 0 227.5 67zM256 710v53h415v-53h-415z" />
    <glyph glyph-name="aogonek.ss01" horiz-adv-x="927" 
d="M767 -159.5q37 -17.5 120 -17.5v-53q-113 0 -165.5 25t-52.5 85q0 33 21.5 61t67.5 59h11v137q-40 -75 -122 -116t-202 -41q-109 0 -190 36.5t-124.5 106.5t-43.5 167t43.5 167t124.5 106.5t190 36.5q120 0 202 -41t122 -116v137h62v-580h-28q-3 -3 -25 -20t-35 -38.5
t-13 -44.5q0 -39 37 -56.5zM683.5 100q85.5 67 85.5 190t-85.5 190t-227.5 67q-141 0 -224.5 -67t-83.5 -190t83.5 -190t224.5 -67q142 0 227.5 67z" />
    <glyph glyph-name="aring.ss01" horiz-adv-x="927" 
d="M769 580h62v-580h-62v137q-40 -75 -122 -116t-202 -41q-109 0 -190 36.5t-124.5 106.5t-43.5 167t43.5 167t124.5 106.5t190 36.5q120 0 202 -41t122 -116v137zM683.5 100q85.5 67 85.5 190t-85.5 190t-227.5 67q-141 0 -224.5 -67t-83.5 -190t83.5 -190t224.5 -67
q142 0 227.5 67zM321 682.5q-46 29.5 -46 82.5t46 82.5t142 29.5q97 0 143 -29.5t46 -82.5t-46 -82.5t-143 -29.5q-96 0 -142 29.5zM567 714q32 17 32 51t-32 51.5t-104 17.5q-71 0 -103 -17.5t-32 -51.5t31.5 -51t103.5 -17t104 17z" />
    <glyph glyph-name="atilde.ss01" horiz-adv-x="927" 
d="M769 580h62v-580h-62v137q-40 -75 -122 -116t-202 -41q-109 0 -190 36.5t-124.5 106.5t-43.5 167t43.5 167t124.5 106.5t190 36.5q120 0 202 -41t122 -116v137zM683.5 100q85.5 67 85.5 190t-85.5 190t-227.5 67q-141 0 -224.5 -67t-83.5 -190t83.5 -190t224.5 -67
q142 0 227.5 67zM203 673q0 57 33 103.5t107 46.5q43 0 71 -14.5t62 -43.5q31 -25 52.5 -36.5t51.5 -11.5q43 0 63 25.5t20 70.5h61q0 -57 -33 -103.5t-108 -46.5q-43 0 -71 14.5t-62 43.5q-29 25 -50.5 37t-52.5 12q-83 0 -83 -97h-61z" />
    <glyph glyph-name="g.ss01" horiz-adv-x="975" 
d="M925 580v-47q-36 0 -140 8q80 -49 80 -148q0 -102 -89 -155t-300 -53q-130 0 -191 -3t-90.5 -14t-29.5 -37q0 -29 33 -41.5t99.5 -16t207.5 -3.5q127 0 209.5 -10.5t131.5 -44t49 -97.5q0 -100 -105 -139t-285 -39q-195 0 -306.5 35t-111.5 131q0 56 41 83.5t107 38.5
q-64 10 -98 32.5t-34 63.5q0 42 38 61t103 26q-83 24 -120 69.5t-37 112.5q0 101 89 154t300 53q126 0 211 -20h238zM730.5 277.5q73.5 39.5 73.5 115.5t-73.5 115t-254.5 39t-254.5 -39t-73.5 -115t73.5 -115.5t254.5 -39.5t254.5 39.5zM791.5 -15q-42.5 22 -107 27
t-179.5 5q-131 0 -206 -7.5t-113 -30t-38 -65.5q0 -65 91 -93t266 -28q151 0 240 27t89 95q0 48 -42.5 70z" />
    <glyph glyph-name="gbreve.ss01" horiz-adv-x="975" 
d="M925 580v-47q-36 0 -140 8q80 -49 80 -148q0 -102 -89 -155t-300 -53q-130 0 -191 -3t-90.5 -14t-29.5 -37q0 -29 33 -41.5t99.5 -16t207.5 -3.5q127 0 209.5 -10.5t131.5 -44t49 -97.5q0 -100 -105 -139t-285 -39q-195 0 -306.5 35t-111.5 131q0 56 41 83.5t107 38.5
q-64 10 -98 32.5t-34 63.5q0 42 38 61t103 26q-83 24 -120 69.5t-37 112.5q0 101 89 154t300 53q126 0 211 -20h238zM730.5 277.5q73.5 39.5 73.5 115.5t-73.5 115t-254.5 39t-254.5 -39t-73.5 -115t73.5 -115.5t254.5 -39.5t254.5 39.5zM791.5 -15q-42.5 22 -107 27
t-179.5 5q-131 0 -206 -7.5t-113 -30t-38 -65.5q0 -65 91 -93t266 -28q151 0 240 27t89 95q0 48 -42.5 70zM308 837q0 -66 38.5 -90t111.5 -24t111.5 24t38.5 90h54q0 -90 -52 -127t-152 -37t-152 37t-52 127h54z" />
    <glyph glyph-name="uni0123.ss01" horiz-adv-x="975" 
d="M925 580v-47q-36 0 -140 8q80 -49 80 -148q0 -102 -89 -155t-300 -53q-130 0 -191 -3t-90.5 -14t-29.5 -37q0 -29 33 -41.5t99.5 -16t207.5 -3.5q127 0 209.5 -10.5t131.5 -44t49 -97.5q0 -100 -105 -139t-285 -39q-195 0 -306.5 35t-111.5 131q0 56 41 83.5t107 38.5
q-64 10 -98 32.5t-34 63.5q0 42 38 61t103 26q-83 24 -120 69.5t-37 112.5q0 101 89 154t300 53q126 0 211 -20h238zM730.5 277.5q73.5 39.5 73.5 115.5t-73.5 115t-254.5 39t-254.5 -39t-73.5 -115t73.5 -115.5t254.5 -39.5t254.5 39.5zM791.5 -15q-42.5 22 -107 27
t-179.5 5q-131 0 -206 -7.5t-113 -30t-38 -65.5q0 -65 91 -93t266 -28q151 0 240 27t89 95q0 48 -42.5 70zM493 779v-65h-76v65l48 101h32l-35 -101h31z" />
    <glyph glyph-name="gdotaccent.ss01" horiz-adv-x="975" 
d="M925 580v-47q-36 0 -140 8q80 -49 80 -148q0 -102 -89 -155t-300 -53q-130 0 -191 -3t-90.5 -14t-29.5 -37q0 -29 33 -41.5t99.5 -16t207.5 -3.5q127 0 209.5 -10.5t131.5 -44t49 -97.5q0 -100 -105 -139t-285 -39q-195 0 -306.5 35t-111.5 131q0 56 41 83.5t107 38.5
q-64 10 -98 32.5t-34 63.5q0 42 38 61t103 26q-83 24 -120 69.5t-37 112.5q0 101 89 154t300 53q126 0 211 -20h238zM730.5 277.5q73.5 39.5 73.5 115.5t-73.5 115t-254.5 39t-254.5 -39t-73.5 -115t73.5 -115.5t254.5 -39.5t254.5 39.5zM791.5 -15q-42.5 22 -107 27
t-179.5 5q-131 0 -206 -7.5t-113 -30t-38 -65.5q0 -65 91 -93t266 -28q151 0 240 27t89 95q0 48 -42.5 70zM413 697v66h89v-66h-89z" />
    </font>
</defs>
</svg>
