<?xml version="1.0" standalone="no"?>
<!DOCTYPE svg PUBLIC "-//W3C//DTD SVG 1.1//EN" "http://www.w3.org/Graphics/SVG/1.1/DTD/svg11.dtd" >
<svg xmlns="http://www.w3.org/2000/svg" xmlns:xlink="http://www.w3.org/1999/xlink" version="1.1">
<metadata>
Created by FontForge 20170731 at Fri Oct  2 23:02:24 2020
 By Aleksey,,,
Pangram Pangram
</metadata>
<defs>
<font id="MonumentExtended-Medium" horiz-adv-x="0" >
  <font-face 
    font-family="Monument Extended Medium"
    font-weight="500"
    font-stretch="normal"
    units-per-em="1000"
    panose-1="0 0 6 0 0 0 0 0 0 0"
    ascent="800"
    descent="-200"
    x-height="586"
    cap-height="706"
    bbox="-1080 -303 2022 1074"
    underline-thickness="86"
    underline-position="-146"
    unicode-range="U+0020-25CA"
  />
<missing-glyph horiz-adv-x="550" 
d="M102 800h349v-1100h-349v1100zM366 690v36h-181v-36h71v-41h-72v-36h182v36h-72v41h72zM294 507v77h-110v-114h182v37h-72zM220 547h36v-40h-36v40zM366 404v36h-182v-36h72v-41h-72v-36h110v77h72zM366 264v110h-36v-72h-146v-38h182zM366 116v124h-110v-61h38v25h36
v-52h-110v88h-36v-124h182zM366 -74v124h-182v-124h182zM220 14h110v-52h-110v52zM366 -136v36h-182v-36h77l-77 -52v-36h182v36h-112l77 52h35z" />
    <glyph glyph-name="f_f" unicode="ff" horiz-adv-x="1184" 
d="M970 688q-51 0 -76 -8t-35 -29t-11 -65h269v-122h-269v-464h-148v464h-316v-464h-148v464h-168v122h168v16q0 105 57.5 151.5t183.5 46.5h158v-112h-130q-51 0 -75.5 -8t-34.5 -29t-11 -65h316v16q0 105 58 151.5t183 46.5h176v-112h-147z" />
    <glyph glyph-name="f_f_i" unicode="ffi" horiz-adv-x="1393" 
d="M970 688q-51 0 -76 -8t-35 -29t-11 -65h464v-586h-147v464h-317v-464h-148v464h-316v-464h-148v464h-168v122h168v16q0 105 57.5 151.5t183.5 46.5h169v-112h-141q-51 0 -75.5 -8t-34.5 -29t-11 -65h316v16q0 105 58 151.5t183 46.5h371v-112h-342z" />
    <glyph glyph-name="f_i" unicode="fi" horiz-adv-x="929" 
d="M505 688q-51 0 -75.5 -8t-34.5 -29t-11 -65h464v-586h-148v464h-316v-464h-148v464h-168v122h168v16q0 105 57.5 151.5t183.5 46.5h371v-112h-343z" />
    <glyph glyph-name="f_l" unicode="fl" horiz-adv-x="949" 
d="M869 800v-800h-148v688h-216q-51 0 -75.5 -8t-34.5 -29t-11 -65h237v-122h-237v-464h-148v464h-168v122h168v16q0 105 57.5 151.5t183.5 46.5h392z" />
    <glyph glyph-name=".notdef" horiz-adv-x="550" 
d="M102 800h349v-1100h-349v1100zM366 690v36h-181v-36h71v-41h-72v-36h182v36h-72v41h72zM294 507v77h-110v-114h182v37h-72zM220 547h36v-40h-36v40zM366 404v36h-182v-36h72v-41h-72v-36h110v77h72zM366 264v110h-36v-72h-146v-38h182zM366 116v124h-110v-61h38v25h36
v-52h-110v88h-36v-124h182zM366 -74v124h-182v-124h182zM220 14h110v-52h-110v52zM366 -136v36h-182v-36h77l-77 -52v-36h182v36h-112l77 52h35z" />
    <glyph glyph-name=".null" 
 />
    <glyph glyph-name="nonmarkingreturn" horiz-adv-x="333" 
 />
    <glyph glyph-name="space" unicode=" " horiz-adv-x="397" 
 />
    <glyph glyph-name="exclam" unicode="!" horiz-adv-x="318" 
d="M81 700h157l-4 -487h-150zM84 0v125h150v-125h-150z" />
    <glyph glyph-name="quotedbl" unicode="&#x22;" horiz-adv-x="590" 
d="M346 766h163l-13 -338h-137zM81 766h163l-13 -338h-137z" />
    <glyph glyph-name="numbersign" unicode="#" horiz-adv-x="1376" 
d="M1276 543v-122h-239l-72 -242h211v-121h-247l-62 -208h-148l62 208h-317l-62 -208h-148l62 208h-215v121h252l72 242h-224v122h261l60 202h147l-60 -202h318l60 202h147l-60 -202h202zM500 179h318l72 242h-318z" />
    <glyph glyph-name="dollar" unicode="$" horiz-adv-x="1055" 
d="M869 32.5q-106 -50.5 -298 -52.5v-80h-86v81q-193 8 -295 66.5t-109 182.5h163q0 -56 55 -87t186 -37v191q-137 10 -219.5 34t-122 69t-39.5 119q0 105 98.5 154t282.5 53v74h86v-75q177 -8 274.5 -68t99.5 -169h-164q0 54 -49.5 80t-160.5 31v-180q148 -11 229.5 -27.5
t128 -59t46.5 -124.5q0 -125 -106 -175.5zM285.5 469.5q17.5 -16.5 63.5 -26.5t136 -17v175q-85 -1 -132.5 -11t-66 -28t-18.5 -47t17.5 -45.5zM571 105q130 1 185 25t55 71q0 32 -18 48.5t-67.5 25.5t-154.5 17v-187z" />
    <glyph glyph-name="percent" unicode="%" horiz-adv-x="1503" 
d="M198 283q-61 34 -89 88.5t-28 116.5t28 116t89 88t154 34t154.5 -34t89.5 -88t28 -116t-28 -116.5t-89.5 -88.5t-154.5 -34t-154 34zM939 706h158l-534 -706h-159zM450.5 395.5q34.5 33.5 34.5 92.5t-34.5 92.5t-98.5 33.5t-98.5 -33.5t-34.5 -92.5t34.5 -92.5
t98.5 -33.5t98.5 33.5zM996 14q-61 34 -89.5 88.5t-28.5 116.5q0 61 28.5 115.5t89.5 88.5t154 34t154.5 -34t89.5 -88t28 -116t-28 -116.5t-89.5 -88.5t-154.5 -34t-154 34zM1248.5 126.5q34.5 33.5 34.5 92.5t-34.5 92.5t-98.5 33.5t-98.5 -33.5t-34.5 -92.5t34.5 -92.5
t98.5 -33.5t98.5 33.5z" />
    <glyph glyph-name="ampersand" unicode="&#x26;" horiz-adv-x="1082" 
d="M1001 0h-221l-65 47q-59 -33 -130.5 -50t-149.5 -17q-173 0 -263.5 50.5t-90.5 147.5q0 76 50.5 119t139.5 74q-42 38 -64.5 79.5t-22.5 91.5q0 84 71 131t183 47t181.5 -45t69.5 -126q0 -48 -24 -81t-64.5 -55.5t-105.5 -46.5q42 -28 63 -43l161 -117q45 59 52 145h139
q-7 -129 -89 -220zM359.5 587.5q-27.5 -20.5 -27.5 -56.5q0 -29 21.5 -56t62.5 -57q77 30 105.5 54t28.5 57q0 38 -28.5 58.5t-80.5 20.5q-54 0 -81.5 -20.5zM609 124l-139 100l-60 42q-44 30 -64 45q-57 -23 -84 -47.5t-27 -61.5q0 -106 217 -106q88 0 157 28z" />
    <glyph glyph-name="quotesingle" unicode="'" horiz-adv-x="325" 
d="M81 766h163l-13 -338h-137z" />
    <glyph glyph-name="parenleft" unicode="(" horiz-adv-x="636" 
d="M205 679q124 121 351 121v-128q-150 0 -232.5 -86.5t-82.5 -284.5q0 -199 82.5 -286t232.5 -87v-128q-227 0 -351 121t-124 380q0 257 124 378z" />
    <glyph glyph-name="parenright" unicode=")" horiz-adv-x="636" 
d="M432 -79q-124 -121 -351 -121v128q149 0 231.5 86.5t82.5 286.5q0 198 -82 284.5t-232 86.5v128q227 0 351 -121t124 -378q0 -259 -124 -380z" />
    <glyph glyph-name="asterisk" unicode="*" horiz-adv-x="661" 
d="M134 411l-53 95l167 77l-167 78l53 95l153 -100l-13 150h113l-13 -150l153 101l54 -96l-168 -78l168 -77l-54 -95l-153 99l13 -150h-112l13 150z" />
    <glyph glyph-name="plus" unicode="+" horiz-adv-x="961" 
d="M548 401h333v-122h-333v-279h-135v279h-332v122h332v279h135v-279z" />
    <glyph glyph-name="comma" unicode="," horiz-adv-x="312" 
d="M81 0v125h150v-125l-74 -193h-70l47 193h-53z" />
    <glyph glyph-name="hyphen" unicode="-" horiz-adv-x="1001" 
d="M101 279v122h800v-122h-800z" />
    <glyph glyph-name="period" unicode="." horiz-adv-x="312" 
d="M81 0v125h150v-125h-150z" />
    <glyph glyph-name="slash" unicode="/" horiz-adv-x="580" 
d="M351 745h148l-267 -895h-148z" />
    <glyph glyph-name="zero" unicode="0" horiz-adv-x="974" 
d="M257.5 26q-93.5 46 -140 130.5t-46.5 197.5t46.5 196.5t140 129.5t229.5 46t229 -46t140 -130t47 -196q0 -113 -47 -197t-140 -130.5t-229 -46.5t-229.5 46zM676 174q67 63 67 180q0 116 -67 178.5t-189 62.5t-189 -62t-67 -179q0 -118 67 -180.5t189 -62.5t189 63z" />
    <glyph glyph-name="one" unicode="1" horiz-adv-x="827" 
d="M490 706v-578h256v-128h-665v128h256v436l-211 -75l-45 127l257 90h152z" />
    <glyph glyph-name="two" unicode="2" horiz-adv-x="942" 
d="M810 379q-51 -50 -121.5 -76.5t-186.5 -56.5q-111 -28 -168.5 -52t-69.5 -66h594v-128h-784v83q4 79 56.5 130t124 79t188.5 60q89 25 138.5 42.5t82.5 44.5t33 67q0 48 -43.5 73t-157.5 25q-121 0 -178 -35.5t-57 -110.5h-163q4 141 111.5 204.5t289.5 63.5
q174 0 268 -51.5t94 -165.5q0 -80 -51 -130z" />
    <glyph glyph-name="three" unicode="3" horiz-adv-x="945" 
d="M874 197q0 -110 -98.5 -163.5t-286.5 -53.5q-203 0 -308.5 61.5t-109.5 199.5h160q0 -52 28 -82t84 -42t147 -12q81 0 129 9.5t70 30.5t22 57q0 41 -28.5 63.5t-93.5 32t-183 9.5v99q113 0 176 9.5t91 32t28 64.5q0 48 -47 70t-166 22q-97 0 -152.5 -13.5t-80 -43.5
t-24.5 -82h-157q4 137 111.5 199t304.5 62q181 0 277.5 -52t96.5 -160q0 -109 -125 -157q135 -47 135 -160z" />
    <glyph glyph-name="four" unicode="4" horiz-adv-x="974" 
d="M739 249h154v-125h-154v-124h-154v124h-504v125l504 457h154v-457zM585 546l-328 -297h328v297z" />
    <glyph glyph-name="five" unicode="5" horiz-adv-x="935" 
d="M722 463q68 -29 105.5 -83.5t37.5 -127.5q0 -131 -102 -201.5t-280 -70.5q-182 0 -296 57t-116 182h163q3 -54 66.5 -84t182.5 -30q113 0 165.5 38t52.5 104q0 62 -44.5 97t-152.5 35q-55 0 -110.5 -14t-135.5 -53l-146 31l80 363h620v-125h-497l-33 -155q70 35 135 50.5
t148 15.5q89 0 157 -29z" />
    <glyph glyph-name="six" unicode="6" horiz-adv-x="958" 
d="M788 430.5q90 -61.5 90 -186.5q0 -128 -97.5 -196t-282.5 -68q-149 0 -239 35t-133 112.5t-45 208.5v7v7q4 203 118 289.5t315 86.5q89 0 156.5 -7t153.5 -20v-125q-99 15 -155.5 21t-130.5 6q-101 0 -162 -15.5t-93.5 -57t-37.5 -119.5q46 36 120.5 59.5t170.5 23.5
q162 0 252 -61.5zM660.5 139.5q53.5 34.5 53.5 103.5q0 68 -53.5 102t-181.5 34q-235 0 -235 -136q0 -67 57.5 -102.5t177.5 -35.5q128 0 181.5 34.5z" />
    <glyph glyph-name="seven" unicode="7" horiz-adv-x="849" 
d="M53 706h743v-128q-145 -85 -233 -171.5t-128.5 -185t-40.5 -221.5h-161q0 178 84.5 322t284.5 256h-549v128z" />
    <glyph glyph-name="eight" unicode="8" horiz-adv-x="980" 
d="M906 193q0 -103 -95.5 -158t-320.5 -55q-226 0 -321 55t-95 158q0 136 168 185q-101 50 -101 150q0 101 85.5 149.5t263.5 48.5t263.5 -48.5t85.5 -149.5t-102 -149q169 -50 169 -186zM342 590.5q-44 -20.5 -44 -67.5t43.5 -67t148.5 -20t148.5 20t43.5 67t-44 67.5
t-148 20.5t-148 -20.5zM683 125q56 26 56 80t-56 80t-193 26q-138 0 -193.5 -25.5t-55.5 -80.5q0 -54 56 -80t193 -26t193 26z" />
    <glyph glyph-name="nine" unicode="9" horiz-adv-x="961" 
d="M881 356v0q-4 -203 -118.5 -289.5t-315.5 -86.5q-88 0 -156 7t-154 20v125l41 -6q76 -11 128.5 -16t116.5 -5q101 0 161.5 15.5t93.5 57t38 118.5q-48 -35 -122.5 -58.5t-168.5 -23.5q-161 0 -251 62t-90 186q0 128 97.5 196t281.5 68q149 0 239.5 -35t133.5 -112.5
t45 -208.5v-7v-7zM717 464q0 137 -235 137q-128 0 -181 -34t-53 -103t53 -103t181 -34q235 0 235 137z" />
    <glyph glyph-name="colon" unicode=":" horiz-adv-x="312" 
d="M81 0v125h150v-125h-150zM81 300v125h150v-125h-150z" />
    <glyph glyph-name="semicolon" unicode=";" horiz-adv-x="312" 
d="M81 0v125h150v-125l-74 -193h-70l47 193h-53zM81 300v125h150v-125h-150z" />
    <glyph glyph-name="less" unicode="&#x3c;" horiz-adv-x="961" 
d="M81 442l800 158v-137l-656 -123l656 -123v-137l-800 158v204z" />
    <glyph glyph-name="equal" unicode="=" horiz-adv-x="961" 
d="M81 439v122h800v-122h-800zM81 119v122h800v-122h-800z" />
    <glyph glyph-name="greater" unicode="&#x3e;" horiz-adv-x="961" 
d="M81 463v137l800 -158v-204l-800 -158v137l656 123z" />
    <glyph glyph-name="question" unicode="?" horiz-adv-x="912" 
d="M339 213q0 63 28.5 102.5t68.5 60t103 42.5q45 16 70.5 27.5t42 29.5t16.5 44q0 85 -190 85q-125 0 -182.5 -37t-57.5 -122h-157q4 281 393 281q358 0 358 -197q0 -54 -26 -89.5t-63 -55t-98 -42.5q-50 -19 -79.5 -33.5t-49 -38t-19.5 -57.5h-158zM339 0v125h151v-125
h-151z" />
    <glyph glyph-name="at" unicode="@" horiz-adv-x="1350" 
d="M1180 -57l55 -97q-96 -56 -216.5 -90.5t-295.5 -34.5q-324 0 -483 136.5t-159 410.5q0 261 159 401t470 140q274 0 416.5 -120.5t142.5 -379.5q0 -331 -238 -331q-81 0 -128.5 32.5t-67.5 86.5q-56 -92 -204 -92q-128 0 -192.5 71.5t-64.5 188.5t64.5 188.5t192.5 71.5
q131 0 190 -72v61h125v-317q0 -58 17.5 -88.5t70.5 -30.5q57 0 78 55t21 173q0 147 -46.5 231.5t-138.5 119t-238 34.5q-249 0 -371.5 -101.5t-122.5 -321.5q0 -154 55.5 -248.5t167 -137.5t284.5 -43q247 0 457 104zM786.5 157.5q34.5 36.5 34.5 107.5t-34.5 107.5
t-121.5 36.5q-86 0 -120.5 -37t-34.5 -107t34.5 -107t120.5 -37q87 0 121.5 36.5z" />
    <glyph glyph-name="A" unicode="A" horiz-adv-x="1132" 
d="M1062 0h-171l-81 147h-487l-81 -147h-171l393 706h204zM566 588l-174 -316h349z" />
    <glyph glyph-name="B" unicode="B" horiz-adv-x="999" 
d="M929 198q0 -93 -57.5 -145.5t-177.5 -52.5h-613v706h601q117 0 168.5 -49t51.5 -128q0 -51 -22 -93t-63 -69q112 -53 112 -169zM234 581v-167h395q42 0 64 4t35.5 22t13.5 58q0 39 -13.5 57t-35.5 22t-64 4h-395zM656 125q40 0 61 4t34.5 22.5t13.5 59.5t-13.5 60
t-34.5 23t-61 4h-422v-173h422z" />
    <glyph glyph-name="C" unicode="C" horiz-adv-x="1018" 
d="M184.5 629q113.5 97 334.5 97q129 0 221.5 -35.5t144 -98.5t62.5 -147h-166q-13 68 -80 107.5t-182 39.5q-138 0 -211.5 -59t-73.5 -179q0 -121 73.5 -180.5t211.5 -59.5q114 0 181.5 40.5t80.5 109.5h167q-12 -84 -63.5 -148t-144 -100t-221.5 -36q-221 0 -334.5 98
t-113.5 276t113.5 275z" />
    <glyph glyph-name="D" unicode="D" horiz-adv-x="999" 
d="M759.5 667q77.5 -39 123.5 -118.5t46 -195.5t-46 -195.5t-123.5 -118.5t-172.5 -39h-506v706h506q95 0 172.5 -39zM514 134q87 0 140.5 17.5t82 65t28.5 136.5q0 90 -28.5 137.5t-82 64.5t-140.5 17h-280v-438h280z" />
    <glyph glyph-name="E" unicode="E" horiz-adv-x="894" 
d="M821 706v-128h-587v-161h567v-128h-567v-161h587v-128h-740v706h740z" />
    <glyph glyph-name="F" unicode="F" horiz-adv-x="894" 
d="M821 706v-134h-587v-208h527v-135h-527v-229h-153v706h740z" />
    <glyph glyph-name="G" unicode="G" horiz-adv-x="1018" 
d="M125 553q54 84 155.5 128.5t240.5 44.5q127 0 220 -35.5t145 -97.5t62 -140h-166q-14 64 -80 101.5t-180 37.5q-113 0 -177 -38.5t-87.5 -93t-23.5 -110.5t25 -110.5t92.5 -93t186.5 -38.5q84 0 142 12t123 39v99h-288v116h433v-286q-110 -59 -205.5 -83.5t-208.5 -24.5
q-142 0 -246.5 44.5t-160.5 129t-56 199.5q0 116 54 200z" />
    <glyph glyph-name="H" unicode="H" horiz-adv-x="1030" 
d="M796 420v286h153v-706h-153v286h-562v-286h-153v706h153v-286h562z" />
    <glyph glyph-name="I" unicode="I" horiz-adv-x="315" 
d="M81 706h153v-706h-153v706z" />
    <glyph glyph-name="J" unicode="J" horiz-adv-x="1001" 
d="M921 351q0 -184 -102 -274t-318 -90q-215 0 -317.5 90t-102.5 274h153q0 -63 19 -112.5t77.5 -83.5t170.5 -34q111 0 170 34t77.5 84t18.5 112v221h-344v134h498v-355z" />
    <glyph glyph-name="K" unicode="K" horiz-adv-x="1015" 
d="M706 706h239l-389 -310l389 -396h-208l-298 303l-205 -164v-139h-153v706h153v-377z" />
    <glyph glyph-name="L" unicode="L" horiz-adv-x="827" 
d="M234 706v-572h525v-134h-678v706h153z" />
    <glyph glyph-name="M" unicode="M" horiz-adv-x="1265" 
d="M1184 706v-706h-154v569l-327 -569h-141l-328 569v-569h-153v706h241l310 -530l310 530h242z" />
    <glyph glyph-name="N" unicode="N" horiz-adv-x="1055" 
d="M820 142v564h154v-706h-223l-517 564v-564h-153v706h223z" />
    <glyph glyph-name="O" unicode="O" horiz-adv-x="1054" 
d="M187 79q-116 99 -116 275q0 175 116 273.5t340 98.5t340 -98.5t116 -273.5q0 -116 -51 -199.5t-153.5 -129t-251.5 -45.5q-224 0 -340 99zM819 354q0 238 -292 238q-146 0 -219.5 -58.5t-73.5 -179.5q0 -240 293 -240q292 0 292 240z" />
    <glyph glyph-name="P" unicode="P" horiz-adv-x="975" 
d="M774 675.5q62 -30.5 96 -88.5t34 -137t-34 -136.5t-96 -88t-144 -30.5h-396v-195h-153v706h549q82 0 144 -30.5zM577 329q48 0 81 6t58 32.5t25 82.5t-25 83t-58 33t-81 6h-343v-243h343z" />
    <glyph glyph-name="Q" unicode="Q" horiz-adv-x="1007" 
d="M883 93l74 -73l-88 -88l-93 92q-102 -44 -249 -44q-224 0 -340 99t-116 275q0 175 116 273.5t340 98.5t340 -98.5t116 -273.5q0 -164 -100 -261zM667 133l-138 136l87 88l157 -155q46 58 46 152q0 238 -292 238q-146 0 -219.5 -58.5t-73.5 -179.5q0 -240 293 -240
q82 0 140 19z" />
    <glyph glyph-name="R" unicode="R" horiz-adv-x="981" 
d="M855.5 261q28.5 -34 28.5 -89v-172h-154v138q0 36 -7.5 54t-27.5 25.5t-59 7.5h-402v-225h-153v706h532q133 0 205.5 -53t72.5 -163q0 -140 -117 -187q53 -8 81.5 -42zM234 575v-218h340q48 0 78.5 5.5t52.5 29t22 74.5t-22 74.5t-52.5 29t-78.5 5.5h-340z" />
    <glyph glyph-name="S" unicode="S" horiz-adv-x="1035" 
d="M234 230q0 -62 69.5 -93.5t237.5 -31.5q142 0 201 23.5t59 72.5q0 35 -21.5 51.5t-79.5 25t-189 17.5q-152 9 -241.5 32.5t-132.5 69t-43 122.5q0 109 106.5 158t304.5 49q203 0 315.5 -60.5t114.5 -177.5h-164q0 41 -28.5 66t-89.5 36t-162 11q-91 0 -142 -9.5t-71 -28
t-20 -48.5q0 -32 21 -49t76.5 -26.5t168.5 -17.5q168 -12 253.5 -27.5t136.5 -58t51 -128.5q0 -128 -110 -178t-310 -50q-228 0 -347.5 57.5t-126.5 192.5h163z" />
    <glyph glyph-name="T" unicode="T" horiz-adv-x="1001" 
d="M931 706v-134h-353v-572h-154v572h-353v134h860z" />
    <glyph glyph-name="U" unicode="U" horiz-adv-x="1041" 
d="M961 344q0 -184 -106 -274t-334 -90q-229 0 -334.5 89.5t-105.5 274.5v362h153v-359q0 -64 20.5 -114.5t84 -84.5t182.5 -34t182 34t83.5 84.5t20.5 114.5v359h154v-362z" />
    <glyph glyph-name="V" unicode="V" horiz-adv-x="1132" 
d="M566 118l325 588h171l-394 -706h-204l-393 706h171z" />
    <glyph glyph-name="W" unicode="W" horiz-adv-x="1635" 
d="M1165 127l238 579h161l-295 -706h-208l-245 593l-256 -593h-209l-280 706h161l225 -579l250 579h220z" />
    <glyph glyph-name="X" unicode="X" horiz-adv-x="1138" 
d="M298 0h-220l386 353l-386 353h220l271 -251l271 251h221l-387 -353l387 -353h-221l-271 251z" />
    <glyph glyph-name="Y" unicode="Y" horiz-adv-x="1130" 
d="M565 364l295 342h199l-414 -473v-233h-161v233l-413 473h199z" />
    <glyph glyph-name="Z" unicode="Z" horiz-adv-x="958" 
d="M81 706h796v-134l-563 -438h563v-134h-796v134l562 438h-562v134z" />
    <glyph glyph-name="bracketleft" unicode="[" horiz-adv-x="636" 
d="M556 800v-128h-315v-744h315v-128h-475v1000h475z" />
    <glyph glyph-name="backslash" unicode="\" horiz-adv-x="577" 
d="M348 -150l-267 895h147l268 -895h-148z" />
    <glyph glyph-name="bracketright" unicode="]" horiz-adv-x="636" 
d="M81 800h475v-1000h-475v128h314v744h-314v128z" />
    <glyph glyph-name="asciicircum" unicode="^" horiz-adv-x="962" 
d="M580 800l302 -450h-161l-239 360l-240 -360h-161l302 450h197z" />
    <glyph glyph-name="underscore" unicode="_" horiz-adv-x="1201" 
d="M101 -193v125h1000v-125h-1000z" />
    <glyph glyph-name="grave" unicode="`" horiz-adv-x="550" 
d="M81 860l389 -80v-102l-389 80v102z" />
    <glyph glyph-name="a" unicode="a" horiz-adv-x="938" 
d="M701 576.5q82 -29.5 123.5 -96.5t42.5 -180v-300h-147v74q-93 -43 -187 -67t-195 -24q-277 0 -277 198q0 108 98 156.5t254 48.5q150 0 307 -44q-3 85 -78.5 115.5t-169.5 30.5q-72 0 -149 -11t-170 -40l-43 111q98 29 189.5 43.5t191.5 14.5q128 0 210 -29.5zM543 123.5
q95 21.5 177 50.5v59q-151 41 -294 41q-208 0 -208 -89q0 -49 40.5 -66t125.5 -17q64 0 159 21.5z" />
    <glyph glyph-name="b" unicode="b" horiz-adv-x="964" 
d="M717.5 572q81.5 -34 130 -104t48.5 -175t-48.5 -175t-130 -104t-183.5 -34q-106 0 -183.5 31t-122.5 90v-101h-147v800h147v-315q45 59 122.5 90t183.5 31q102 0 183.5 -34zM674.5 156.5q64.5 48.5 64.5 136.5t-64.5 136.5t-187.5 48.5q-124 0 -191.5 -48.5t-67.5 -136.5
q0 -87 67.5 -136t191.5 -49q123 0 187.5 48.5z" />
    <glyph glyph-name="c" unicode="c" horiz-adv-x="944" 
d="M178 527q110 79 301 79q168 0 270.5 -62t127.5 -186h-157q-19 62 -77.5 92.5t-163.5 30.5q-257 0 -257 -188t257 -188q104 0 163 30.5t78 92.5h157q-25 -123 -127.5 -185.5t-270.5 -62.5q-191 0 -301 79t-110 234t110 234z" />
    <glyph glyph-name="d" unicode="d" horiz-adv-x="964" 
d="M736 800h147v-800h-147v101q-45 -59 -122.5 -90t-183.5 -31q-102 0 -183.5 34t-130 104t-48.5 175t48.5 175t130 104t183.5 34q106 0 183.5 -31t122.5 -90v315zM668.5 157q67.5 49 67.5 136q0 88 -67.5 136.5t-191.5 48.5q-123 0 -187 -48.5t-64 -136.5t64 -136.5
t187 -48.5q124 0 191.5 49z" />
    <glyph glyph-name="e" unicode="e" horiz-adv-x="951" 
d="M643.5 127q54.5 25 77.5 71h154q-27 -104 -127.5 -161t-263.5 -57q-191 0 -303.5 79.5t-112.5 233.5q0 103 52.5 173t144.5 105t210 35q189 0 299 -81.5t110 -263.5h-660q10 -83 76 -121t187 -38q102 0 156.5 25zM232 365h489q-19 65 -80.5 95.5t-165.5 30.5
q-203 0 -243 -126z" />
    <glyph glyph-name="f" unicode="f" horiz-adv-x="714" 
d="M437 688q-30 -10 -41 -33.5t-12 -68.5h262v-122h-262v-464h-148v464h-168v122h168v16q0 211 233 211q49 0 85.5 -2t91.5 -8v-111q-72 6 -121 6q-58 0 -88 -10z" />
    <glyph glyph-name="g" unicode="g" horiz-adv-x="964" 
d="M735 586h148v-513q-1 -173 -96 -253t-281 -80q-182 0 -384 48l10 119l23 -4q92 -18 166 -28t149 -10q99 0 156.5 23.5t83 72.5t25.5 129v15q-44 -58 -119.5 -88.5t-178.5 -30.5q-102 0 -185.5 33t-133.5 103t-50 174q0 105 50 174.5t133 102.5t186 33t178.5 -30.5
t119.5 -88.5v99zM670 162q65 48 65 134t-65 134t-190 48t-190 -48t-65 -134t65 -134t190 -48t190 48z" />
    <glyph glyph-name="h" unicode="h" horiz-adv-x="987" 
d="M818.5 533q86.5 -73 87.5 -235v-298h-147v257q0 113 -53 167t-182 54q-135 0 -215.5 -62.5t-80.5 -182.5v-233h-147v800h147v-346q58 74 142 113t204 39q158 0 244.5 -73z" />
    <glyph glyph-name="i" unicode="i" horiz-adv-x="309" 
d="M81 660v140h147v-140h-147zM81 0v586h147v-586h-147z" />
    <glyph glyph-name="j" unicode="j" horiz-adv-x="521" 
d="M300 660v140h148v-140h-148zM448 27q0 -96 -20.5 -158t-71 -95.5t-138.5 -33.5q-91 0 -177 15v120q34 -4 63.5 -7t59.5 -3q59 0 87 13t38.5 48t10.5 110v550h148v-559z" />
    <glyph glyph-name="k" unicode="k" horiz-adv-x="945" 
d="M631 586h246l-376 -257l376 -329h-209l-284 249l-156 -107v-142h-147v800h147v-490z" />
    <glyph glyph-name="l" unicode="l" horiz-adv-x="309" 
d="M81 0v800h147v-800h-147z" />
    <glyph glyph-name="m" unicode="m" horiz-adv-x="1425" 
d="M1270.5 536.5q72.5 -69.5 73.5 -215.5v-321h-148v305q0 89 -42.5 131t-141.5 42q-59 0 -110.5 -22.5t-83.5 -68t-32 -109.5v-278h-147v305q0 88 -43 130.5t-142 42.5q-59 0 -110.5 -22.5t-83.5 -68t-32 -109.5v-278h-147v586h147v-114q104 134 282 134q98 0 163.5 -39.5
t93.5 -120.5q109 160 301 160q130 0 202.5 -69.5z" />
    <glyph glyph-name="n" unicode="n" horiz-adv-x="987" 
d="M818.5 533q86.5 -73 87.5 -235v-298h-147v257q0 113 -53 167t-182 54q-135 0 -215.5 -62.5t-80.5 -182.5v-233h-147v586h147v-132q58 74 142 113t204 39q158 0 244.5 -73z" />
    <glyph glyph-name="o" unicode="o" horiz-adv-x="964" 
d="M178.5 60q-110.5 80 -110.5 233t110.5 233t303.5 80q192 0 303 -80t111 -233t-111 -233t-303 -80q-193 0 -303.5 80zM739 293q0 188 -257 188t-257 -188t257 -188t257 188z" />
    <glyph glyph-name="p" unicode="p" horiz-adv-x="964" 
d="M718 572q82 -34 130.5 -104t48.5 -175t-48.5 -175t-130.5 -104t-184 -34q-106 0 -183.5 31t-121.5 90v-341h-148v826h148v-101q44 59 121.5 90t183.5 31q102 0 184 -34zM674.5 156.5q64.5 48.5 64.5 136.5t-67.5 136.5t-191.5 48.5q-123 0 -187 -48.5t-64 -136.5
q0 -87 67.5 -136t190.5 -49t187.5 48.5z" />
    <glyph glyph-name="q" unicode="q" horiz-adv-x="964" 
d="M735 586h148v-826h-148v341q-44 -59 -121.5 -90t-183.5 -31q-102 0 -183.5 34t-130 104t-48.5 175t48.5 175t130 104t183.5 34q106 0 183.5 -31t121.5 -90v101zM667.5 157q67.5 49 67.5 136q0 88 -64 136.5t-187 48.5q-124 0 -191.5 -48.5t-67.5 -136.5t64.5 -136.5
t187.5 -48.5t190.5 49z" />
    <glyph glyph-name="r" unicode="r" horiz-adv-x="722" 
d="M661 583v-131q-44 13 -79.5 18t-75.5 5q-68 0 -133 -25t-145 -94v-356h-147v586h147v-109q65 72 131 100.5t147 28.5q86 0 155 -23z" />
    <glyph glyph-name="s" unicode="s" horiz-adv-x="949" 
d="M225 198q4 -37 30 -59t84 -32.5t158 -10.5q96 0 144.5 8t65.5 23.5t17 44.5q0 27 -17.5 39.5t-67 19.5t-171.5 16q-141 10 -217.5 24.5t-117 49t-40.5 99.5q0 103 102 144.5t279 41.5q178 0 278.5 -41t109.5 -150h-158q-3 32 -28 49t-75.5 23.5t-138.5 6.5
q-117 0 -164.5 -16.5t-47.5 -47.5q0 -22 17.5 -33t67.5 -19t163 -17l37 -3q131 -11 198 -24t108 -48.5t41 -106.5q0 -113 -94.5 -156t-280.5 -43q-203 0 -319 46.5t-120 171.5h157z" />
    <glyph glyph-name="t" unicode="t" horiz-adv-x="738" 
d="M664 464h-287v-212q0 -59 10.5 -89t38.5 -42.5t85 -12.5q63 0 153 13v-123q-105 -18 -187 -18q-93 0 -146.5 23t-77 76.5t-23.5 148.5v236h-162v122h162v131l147 46v-177h287v-122z" />
    <glyph glyph-name="u" unicode="u" horiz-adv-x="987" 
d="M759 586h147v-586h-147v132q-58 -74 -142 -113t-204 -39q-158 0 -244.5 73t-87.5 235v298h148v-257q0 -113 52.5 -167t181.5 -54q135 0 215.5 62.5t80.5 182.5v233z" />
    <glyph glyph-name="v" unicode="v" horiz-adv-x="1000" 
d="M501 87l272 499h160l-321 -586h-224l-320 586h160z" />
    <glyph glyph-name="w" unicode="w" horiz-adv-x="1525" 
d="M1087 100l216 486h154l-260 -586h-218l-216 448l-217 -448h-218l-260 586h153l217 -487l233 487h183z" />
    <glyph glyph-name="x" unicode="x" horiz-adv-x="1010" 
d="M282 0h-214l342 293l-342 293h214l223 -204l223 204h215l-343 -293l343 -293h-215l-223 204z" />
    <glyph glyph-name="y" unicode="y" horiz-adv-x="1011" 
d="M787 586h160l-342 -625q-41 -76 -81 -123t-93 -72.5t-126 -25.5q-52 0 -98.5 6t-100.5 17v124q97 -22 173 -22q44 0 74.5 10.5t56 38t52.5 78.5l4 8h-78l-320 586h162l278 -510z" />
    <glyph glyph-name="z" unicode="z" horiz-adv-x="862" 
d="M81 586h700v-122l-482 -342h482v-122h-700v122l482 342h-482v122z" />
    <glyph glyph-name="braceleft" unicode="{" horiz-adv-x="636" 
d="M81 372q51 0 79.5 6.5t46.5 33t18 84.5q0 20 -1 31q-2 32 -2 45q0 89 32 138t103.5 69.5t198.5 20.5v-128q-82 0 -122.5 -9.5t-59 -39t-18.5 -91.5q0 -12 2 -44l1 -22q0 -90 -41 -122.5t-88 -32.5v-20q50 0 92.5 -37.5t35.5 -139.5q-2 -32 -2 -45q0 -62 18.5 -92
t59 -39.5t122.5 -9.5v-128q-132 0 -203 20t-101 68t-30 136q0 15 2 51q1 11 1 31q0 58 -18 85t-46 33t-80 6v142z" />
    <glyph glyph-name="bar" unicode="|" horiz-adv-x="303" 
d="M81 -150v950h141v-950h-141z" />
    <glyph glyph-name="braceright" unicode="}" horiz-adv-x="643" 
d="M562 230q-52 0 -80.5 -6.5t-46.5 -33.5t-18 -86q0 -19 1 -29q2 -38 2 -53q0 -87 -30 -134.5t-101 -67.5t-202 -20v128q82 0 123 9.5t59 39.5t18 93q0 12 -2 44l-1 22q0 90 41 122.5t88 32.5v20q-50 0 -92.5 37t-35.5 140q2 32 2 44q0 62 -18.5 91.5t-59 39t-122.5 9.5
v128q127 0 198 -20t103 -68.5t32 -137.5q0 -15 -2 -47q-1 -10 -1 -29q0 -59 18 -86t46.5 -33.5t80.5 -6.5v-142z" />
    <glyph glyph-name="asciitilde" unicode="~" horiz-adv-x="961" 
d="M81 194q0 137 52 214.5t165 77.5q45 0 81.5 -13t63.5 -31t63 -48q43 -35 72.5 -52t66.5 -17q49 0 71.5 37.5t22.5 123.5h142q0 -137 -52 -214.5t-165 -77.5q-65 0 -110 23.5t-99 68.5q-43 35 -72.5 52t-66.5 17q-49 0 -71 -37t-22 -124h-142z" />
    <glyph glyph-name="exclamdown" unicode="&#xa1;" horiz-adv-x="325" 
d="M234 475h-150v125h150v-125zM234 388l4 -488h-157l3 488h150z" />
    <glyph glyph-name="cent" unicode="&#xa2;" horiz-adv-x="964" 
d="M526 163q87 5 137 35t67 87h157q-24 -117 -116.5 -179t-244.5 -68v-138h-87v138q-169 10 -265 89t-96 223t96 223t265 89v138h87v-138q152 -6 244.5 -68t116.5 -179h-157q-17 57 -67 87t-137 35v-374zM439 164v372q-207 -17 -207 -186t207 -186z" />
    <glyph glyph-name="sterling" unicode="&#xa3;" horiz-adv-x="901" 
d="M455 583.5q-46 -14.5 -64.5 -44.5t-18.5 -79q0 -24 5 -62h328v-74h-321q-5 -121 -181 -196h618v-128h-740v128q-1 -1 22 19q48 40 73 64t40.5 51.5t16.5 61.5h-152v74h140q-12 47 -12 90q0 109 81.5 173.5t246.5 64.5q72 0 133.5 -7t150.5 -23v-128q-81 16 -132.5 23
t-104.5 7q-83 0 -129 -14.5z" />
    <glyph glyph-name="currency" unicode="&#xa4;" horiz-adv-x="977" 
d="M871 196q-35 -63 -101 -102l112 -129l-80 -80l-144 164q-72 -19 -166 -19t-166 19l-145 -164l-80 80l113 128q-66 40 -101 102.5t-35 147.5q0 83 34 145t98 102l-109 125l80 79l141 -158q77 20 170 20t171 -20l139 158l80 -79l-108 -125q64 -40 98 -102t34 -145
q0 -84 -35 -147zM492 155q257 0 257 188t-257 188t-257 -188t257 -188z" />
    <glyph glyph-name="yen" unicode="&#xa5;" horiz-adv-x="1158" 
d="M870 706h199l-326 -372h238v-74h-302l-24 -27v-34h326v-74h-326v-125h-161v125h-317v74h317v34l-24 27h-293v74h229l-325 372h199l295 -342z" />
    <glyph glyph-name="brokenbar" unicode="&#xa6;" horiz-adv-x="303" 
d="M81 425v375h141v-375h-141zM81 -150v375h141v-375h-141z" />
    <glyph glyph-name="section" unicode="&#xa7;" horiz-adv-x="1000" 
d="M880 118.5q39 -42.5 39 -115.5q0 -113 -101 -155t-298 -42q-194 0 -305.5 53t-113.5 168h157q0 -42 29 -65t88.5 -32.5t159.5 -9.5q92 0 141 8.5t67.5 26t18.5 49.5q0 33 -21 50.5t-75.5 27.5t-166.5 18q-152 11 -236 25.5t-131.5 50t-47.5 102.5q0 66 39.5 104.5
t113.5 55.5q-81 23 -118.5 65t-37.5 113q0 113 103 155.5t296 42.5q188 0 295.5 -53t109.5 -168h-157q0 42 -27 65t-83.5 32t-153.5 9q-88 0 -137 -8.5t-69 -26.5t-20 -49t20.5 -48t73.5 -26.5t162 -17.5q152 -11 236 -26t131.5 -50t47.5 -102q0 -66 -39.5 -104.5
t-112.5 -55.5q84 -24 123 -66.5zM261 262q23 -17 79 -26t175 -17q40 -2 56 -2q98 0 141 23.5t43 69.5q0 34 -23 51t-79 26t-175 17q-40 2 -55 2q-99 0 -142 -23.5t-43 -69.5q0 -34 23 -51z" />
    <glyph glyph-name="dieresis" unicode="&#xa8;" horiz-adv-x="588" 
d="M81 700v100h166v-100h-166zM341 700v100h166v-100h-166z" />
    <glyph glyph-name="copyright" unicode="&#xa9;" horiz-adv-x="986" 
d="M269 34q-93 44 -140.5 125.5t-47.5 191.5t47.5 190.5t140.5 124.5t225 44t224.5 -43.5t140 -124.5t47.5 -191t-47.5 -191.5t-140 -125.5t-224.5 -44t-225 44zM745 133.5q90 77.5 90 217.5t-89.5 216.5t-251.5 76.5t-252 -76.5t-90 -216.5q0 -141 90 -218t252 -77
q161 0 251 77.5zM328 489q64 47 174 47q188 0 219 -144h-71q-12 41 -47.5 59.5t-103.5 18.5q-164 0 -164 -120t164 -120q68 0 103.5 18.5t47.5 59.5h71q-31 -144 -219 -144q-110 0 -174 47t-64 139t64 139z" />
    <glyph glyph-name="guillemotleft" unicode="&#xab;" horiz-adv-x="976" 
d="M439 293l260 293h197l-260 -293l260 -293h-197zM81 293l260 293h197l-260 -293l260 -293h-197z" />
    <glyph glyph-name="logicalnot" unicode="&#xac;" horiz-adv-x="961" 
d="M81 410h800v-336h-135v214h-665v122z" />
    <glyph glyph-name="registered" unicode="&#xae;" horiz-adv-x="986" 
d="M270 26.5q-93 46.5 -141 130.5t-48 194q0 111 48 195.5t141 132t224 47.5t224 -47.5t140.5 -132t47.5 -195.5t-47.5 -194.5t-140 -130t-224.5 -46.5q-131 0 -224 46.5zM746.5 127q88.5 81 88.5 224q0 94 -39.5 164t-116 107.5t-185.5 37.5t-186 -38t-116.5 -107.5
t-39.5 -163.5q0 -143 89 -224t253 -81t252.5 81zM338 187v338h192q77 0 113 -32.5t36 -89.5q0 -39 -21.5 -70t-64.5 -44l81 -102h-88l-72 95h-106v-95h-70zM529 348q45 0 62 12t17 43t-17.5 43t-61.5 12h-121v-110h121z" />
    <glyph glyph-name="macron" unicode="&#xaf;" horiz-adv-x="630" 
d="M81 700v100h469v-100h-469z" />
    <glyph glyph-name="degree" unicode="&#xb0;" horiz-adv-x="711" 
d="M146 313q-65 70 -65 172q0 64 26.5 118.5t88 88.5t159.5 34q145 0 210 -69.5t65 -171.5q0 -103 -65 -172.5t-210 -69.5q-144 0 -209 70zM456.5 389.5q35.5 34.5 35.5 95.5t-35 95t-102 34q-66 0 -101 -34t-35 -95t35 -95.5t101 -34.5t101.5 34.5z" />
    <glyph glyph-name="plusminus" unicode="&#xb1;" horiz-adv-x="961" 
d="M548 703v-172h333v-122h-333v-172h-135v172h-332v122h332v172h135zM881 39h-800v122h800v-122z" />
    <glyph glyph-name="acute" unicode="&#xb4;" horiz-adv-x="550" 
d="M81 678v102l389 80v-102z" />
    <glyph glyph-name="paragraph" unicode="&#xb6;" horiz-adv-x="913" 
d="M565 800v-950h-141v511q-118 0 -188.5 13.5t-112.5 61t-42 145.5q0 97 42 144.5t112.5 61t188.5 13.5h141zM691 -150v950h142v-950h-142z" />
    <glyph glyph-name="periodcentered" unicode="&#xb7;" horiz-adv-x="319" 
d="M81 251v125h150v-125h-150z" />
    <glyph glyph-name="cedilla" unicode="&#xb8;" horiz-adv-x="477" 
d="M369 -73.5q28 -19.5 28 -54.5q0 -56 -60 -82.5t-155 -26.5q-41 0 -101 7v84q79 -12 125 -12q64 0 64 29q0 23 -34 23q-25 0 -60 -15l-69 26l19 95h105l-15 -70q34 16 80 16q45 0 73 -19.5z" />
    <glyph glyph-name="guillemotright" unicode="&#xbb;" horiz-adv-x="1004" 
d="M108 586h197l260 -293l-260 -293h-197l260 293zM466 586h197l260 -293l-260 -293h-197l260 293z" />
    <glyph glyph-name="questiondown" unicode="&#xbf;" horiz-adv-x="912" 
d="M573 600v-125h-151v125h151zM573 388q0 -63 -28.5 -103t-68.5 -60.5t-103 -42.5q-45 -16 -70.5 -27.5t-42 -29.5t-16.5 -44q0 -85 190 -85q125 0 182.5 37t57.5 122h158q-5 -281 -394 -281q-357 0 -357 197q0 54 26 89.5t63 55t98 42.5q50 19 79.5 33.5t49 38t19.5 58.5
h157z" />
    <glyph glyph-name="Agrave" unicode="&#xc0;" horiz-adv-x="1132" 
d="M1062 0h-171l-81 147h-487l-81 -147h-171l393 706h204zM566 588l-174 -316h349zM371 980l389 -80v-102l-389 80v102z" />
    <glyph glyph-name="Aacute" unicode="&#xc1;" horiz-adv-x="1132" 
d="M1062 0h-171l-81 147h-487l-81 -147h-171l393 706h204zM566 588l-174 -316h349zM372 798v102l389 80v-102z" />
    <glyph glyph-name="Acircumflex" unicode="&#xc2;" horiz-adv-x="1132" 
d="M1062 0h-171l-81 147h-487l-81 -147h-171l393 706h204zM566 588l-174 -316h349zM360 900l207 80l207 -80v-107l-207 80l-207 -80v107z" />
    <glyph glyph-name="Atilde" unicode="&#xc3;" horiz-adv-x="1132" 
d="M1062 0h-171l-81 147h-487l-81 -147h-171l393 706h204zM566 588l-174 -316h349zM270 794q0 85 41 142t126 57q46 0 78 -14.5t71 -42.5q28 -20 47.5 -30t42.5 -10q33 0 46.5 23.5t13.5 66.5h126q0 -85 -41.5 -142t-125.5 -57q-46 0 -79 15t-70 42q-29 21 -48.5 30.5
t-41.5 9.5q-33 0 -46.5 -23.5t-13.5 -66.5h-126z" />
    <glyph glyph-name="Adieresis" unicode="&#xc4;" horiz-adv-x="1132" 
d="M1062 0h-171l-81 147h-487l-81 -147h-171l393 706h204zM566 588l-174 -316h349zM353 820v100h166v-100h-166zM613 820v100h166v-100h-166z" />
    <glyph glyph-name="Aring" unicode="&#xc5;" horiz-adv-x="1132" 
d="M1062 0h-171l-81 147h-487l-81 -147h-171l393 706h204zM566 588l-174 -316h349zM353 912q0 132 213 132t213 -132t-213 -132t-213 132zM673 912q0 59 -107 59t-107 -59t107 -59t107 59z" />
    <glyph glyph-name="AE" unicode="&#xc6;" horiz-adv-x="1495" 
d="M1425 706v-128h-587v-161h567v-128h-567v-161h587v-128h-740v153h-361l-78 -153h-175l355 706h999zM539 578l-152 -300h298v300h-146z" />
    <glyph glyph-name="Ccedilla" unicode="&#xc7;" horiz-adv-x="1018" 
d="M948 264q-17 -125 -120.5 -202t-286.5 -82l-13 -60q34 16 80 16q45 0 73 -19.5t28 -54.5q0 -56 -60 -82.5t-155 -26.5q-41 0 -101 7v84q80 -12 125 -12q64 0 64 29q0 23 -34 23q-25 0 -60 -15l-69 26l18 89q-181 18 -273.5 114t-92.5 256q0 178 113.5 275t334.5 97
q129 0 221.5 -35.5t144 -98.5t62.5 -147h-166q-13 68 -80 107.5t-182 39.5q-138 0 -211.5 -59t-73.5 -179q0 -121 73.5 -180.5t211.5 -59.5q114 0 181.5 40.5t80.5 109.5h167z" />
    <glyph glyph-name="Egrave" unicode="&#xc8;" horiz-adv-x="894" 
d="M821 706v-128h-587v-161h567v-128h-567v-161h587v-128h-740v706h740zM265 980l389 -80v-102l-389 80v102z" />
    <glyph glyph-name="Eacute" unicode="&#xc9;" horiz-adv-x="894" 
d="M821 706v-128h-587v-161h567v-128h-567v-161h587v-128h-740v706h740zM265 798v102l389 80v-102z" />
    <glyph glyph-name="Ecircumflex" unicode="&#xca;" horiz-adv-x="894" 
d="M821 706v-128h-587v-161h567v-128h-567v-161h587v-128h-740v706h740zM253 900l207 80l207 -80v-107l-207 80l-207 -80v107z" />
    <glyph glyph-name="Edieresis" unicode="&#xcb;" horiz-adv-x="894" 
d="M821 706v-128h-587v-161h567v-128h-567v-161h587v-128h-740v706h740zM247 820v100h166v-100h-166zM507 820v100h166v-100h-166z" />
    <glyph glyph-name="Igrave" unicode="&#xcc;" horiz-adv-x="315" 
d="M81 706h153v-706h-153v706zM-37 980l389 -80v-102l-389 80v102z" />
    <glyph glyph-name="Iacute" unicode="&#xcd;" horiz-adv-x="315" 
d="M81 706h153v-706h-153v706zM-37 798v102l389 80v-102z" />
    <glyph glyph-name="Icircumflex" unicode="&#xce;" horiz-adv-x="315" 
d="M81 706h153v-706h-153v706zM-49 900l207 80l207 -80v-107l-207 80l-207 -80v107z" />
    <glyph glyph-name="Idieresis" unicode="&#xcf;" horiz-adv-x="315" 
d="M81 706h153v-706h-153v706zM-55 820v100h166v-100h-166zM205 820v100h166v-100h-166z" />
    <glyph glyph-name="Eth" unicode="&#xd0;" horiz-adv-x="1022" 
d="M782.5 667q77.5 -39 123.5 -118.5t46 -195.5t-46 -195.5t-123.5 -118.5t-172.5 -39h-506v323h-80v60h80v323h506q95 0 172.5 -39zM538 134q86 0 139.5 17.5t82 65t28.5 136.5q0 90 -28.5 137.5t-82 64.5t-139.5 17h-280v-189h246v-60h-246v-189h280z" />
    <glyph glyph-name="Ntilde" unicode="&#xd1;" horiz-adv-x="1055" 
d="M820 142v564h154v-706h-223l-517 564v-564h-153v706h223zM245 794q0 85 41 142t126 57q46 0 78 -14.5t71 -42.5q28 -20 47.5 -30t42.5 -10q33 0 46.5 23.5t13.5 66.5h126q0 -85 -41.5 -142t-125.5 -57q-46 0 -79 15t-70 42q-29 21 -48.5 30.5t-41.5 9.5
q-33 0 -46.5 -23.5t-13.5 -66.5h-126z" />
    <glyph glyph-name="Ograve" unicode="&#xd2;" horiz-adv-x="1054" 
d="M187 79q-116 99 -116 275q0 175 116 273.5t340 98.5t340 -98.5t116 -273.5q0 -116 -51 -199.5t-153.5 -129t-251.5 -45.5q-224 0 -340 99zM819 354q0 238 -292 238q-146 0 -219.5 -58.5t-73.5 -179.5q0 -240 293 -240q292 0 292 240zM332 980l389 -80v-102l-389 80v102z
" />
    <glyph glyph-name="Oacute" unicode="&#xd3;" horiz-adv-x="1054" 
d="M187 79q-116 99 -116 275q0 175 116 273.5t340 98.5t340 -98.5t116 -273.5q0 -116 -51 -199.5t-153.5 -129t-251.5 -45.5q-224 0 -340 99zM819 354q0 238 -292 238q-146 0 -219.5 -58.5t-73.5 -179.5q0 -240 293 -240q292 0 292 240zM332 798v102l389 80v-102z" />
    <glyph glyph-name="Ocircumflex" unicode="&#xd4;" horiz-adv-x="1054" 
d="M187 79q-116 99 -116 275q0 175 116 273.5t340 98.5t340 -98.5t116 -273.5q0 -116 -51 -199.5t-153.5 -129t-251.5 -45.5q-224 0 -340 99zM819 354q0 238 -292 238q-146 0 -219.5 -58.5t-73.5 -179.5q0 -240 293 -240q292 0 292 240zM320 900l207 80l207 -80v-107
l-207 80l-207 -80v107z" />
    <glyph glyph-name="Otilde" unicode="&#xd5;" horiz-adv-x="1054" 
d="M187 79q-116 99 -116 275q0 175 116 273.5t340 98.5t340 -98.5t116 -273.5q0 -116 -51 -199.5t-153.5 -129t-251.5 -45.5q-224 0 -340 99zM819 354q0 238 -292 238q-146 0 -219.5 -58.5t-73.5 -179.5q0 -240 293 -240q292 0 292 240zM231 794q0 85 41 142t126 57
q46 0 78 -14.5t71 -42.5q28 -20 47.5 -30t42.5 -10q33 0 46.5 23.5t13.5 66.5h126q0 -85 -41.5 -142t-125.5 -57q-46 0 -79 15t-70 42q-29 21 -48.5 30.5t-41.5 9.5q-33 0 -46.5 -23.5t-13.5 -66.5h-126z" />
    <glyph glyph-name="Odieresis" unicode="&#xd6;" horiz-adv-x="1054" 
d="M187 79q-116 99 -116 275q0 175 116 273.5t340 98.5t340 -98.5t116 -273.5q0 -116 -51 -199.5t-153.5 -129t-251.5 -45.5q-224 0 -340 99zM819 354q0 238 -292 238q-146 0 -219.5 -58.5t-73.5 -179.5q0 -240 293 -240q292 0 292 240zM314 820v100h166v-100h-166zM574 820
v100h166v-100h-166z" />
    <glyph glyph-name="multiply" unicode="&#xd7;" horiz-adv-x="916" 
d="M579 338l256 -148l-61 -105l-316 183l-316 -183l-61 105l256 148l-256 147l61 105l316 -182l316 182l60 -105z" />
    <glyph glyph-name="Oslash" unicode="&#xd8;" horiz-adv-x="1054" 
d="M673 713q153 -30 231.5 -123t78.5 -236q0 -116 -51 -199.5t-153.5 -129t-251.5 -45.5h-29l-29 -122h-120l32 135q-153 30 -231.5 123t-78.5 238q0 175 116 273.5t340 98.5h30l28 117h119zM413 125l112 467q-145 -1 -218 -59.5t-73 -178.5q0 -188 179 -229zM530 114
q289 2 289 240q0 186 -178 227z" />
    <glyph glyph-name="Ugrave" unicode="&#xd9;" horiz-adv-x="1041" 
d="M961 344q0 -184 -106 -274t-334 -90q-229 0 -334.5 89.5t-105.5 274.5v362h153v-359q0 -64 20.5 -114.5t84 -84.5t182.5 -34t182 34t83.5 84.5t20.5 114.5v359h154v-362zM326 980l389 -80v-102l-389 80v102z" />
    <glyph glyph-name="Uacute" unicode="&#xda;" horiz-adv-x="1041" 
d="M961 344q0 -184 -106 -274t-334 -90q-229 0 -334.5 89.5t-105.5 274.5v362h153v-359q0 -64 20.5 -114.5t84 -84.5t182.5 -34t182 34t83.5 84.5t20.5 114.5v359h154v-362zM326 798v102l389 80v-102z" />
    <glyph glyph-name="Ucircumflex" unicode="&#xdb;" horiz-adv-x="1041" 
d="M961 344q0 -184 -106 -274t-334 -90q-229 0 -334.5 89.5t-105.5 274.5v362h153v-359q0 -64 20.5 -114.5t84 -84.5t182.5 -34t182 34t83.5 84.5t20.5 114.5v359h154v-362zM314 900l207 80l207 -80v-107l-207 80l-207 -80v107z" />
    <glyph glyph-name="Udieresis" unicode="&#xdc;" horiz-adv-x="1041" 
d="M961 344q0 -184 -106 -274t-334 -90q-229 0 -334.5 89.5t-105.5 274.5v362h153v-359q0 -64 20.5 -114.5t84 -84.5t182.5 -34t182 34t83.5 84.5t20.5 114.5v359h154v-362zM308 820v100h166v-100h-166zM568 820v100h166v-100h-166z" />
    <glyph glyph-name="Yacute" unicode="&#xdd;" horiz-adv-x="1130" 
d="M565 364l295 342h199l-414 -473v-233h-161v233l-413 473h199zM370 798v102l389 80v-102z" />
    <glyph glyph-name="Thorn" unicode="&#xde;" horiz-adv-x="979" 
d="M634 609q82 0 144 -30.5t96 -87.5t34 -134q0 -78 -34 -135t-96 -87.5t-144 -30.5h-393v-104h-160v706h160v-97h393zM581 238q47 0 80 6t58 32t25 81q0 54 -25 80t-58 32t-80 6h-340v-237h340z" />
    <glyph glyph-name="germandbls" unicode="&#xdf;" horiz-adv-x="945" 
d="M829 319.5q46 -42.5 46 -122.5q0 -93 -53 -134.5t-153.5 -52t-308.5 -10.5v125q155 0 227 6t101 24t29 59t-29 59t-101 24t-227 6v106q107 0 158 6t75 26t24 64q0 51 -42 73.5t-127 22.5q-77 0 -122.5 -15t-68 -54.5t-22.5 -113.5v-418h-154v412q0 122 43 190.5t123 96
t203 27.5q152 0 238 -46t86 -155q0 -94 -83 -146q92 -17 138 -59.5z" />
    <glyph glyph-name="agrave" unicode="&#xe0;" horiz-adv-x="938" 
d="M701 576.5q82 -29.5 123.5 -96.5t42.5 -180v-300h-147v74q-93 -43 -187 -67t-195 -24q-277 0 -277 198q0 108 98 156.5t254 48.5q150 0 307 -44q-3 85 -78.5 115.5t-169.5 30.5q-72 0 -149 -11t-170 -40l-43 111q98 29 189.5 43.5t191.5 14.5q128 0 210 -29.5zM543 123.5
q95 21.5 177 50.5v59q-151 41 -294 41q-208 0 -208 -89q0 -49 40.5 -66t125.5 -17q64 0 159 21.5zM289 860l389 -80v-102l-389 80v102z" />
    <glyph glyph-name="aacute" unicode="&#xe1;" horiz-adv-x="938" 
d="M701 576.5q82 -29.5 123.5 -96.5t42.5 -180v-300h-147v74q-93 -43 -187 -67t-195 -24q-277 0 -277 198q0 108 98 156.5t254 48.5q150 0 307 -44q-3 85 -78.5 115.5t-169.5 30.5q-72 0 -149 -11t-170 -40l-43 111q98 29 189.5 43.5t191.5 14.5q128 0 210 -29.5zM543 123.5
q95 21.5 177 50.5v59q-151 41 -294 41q-208 0 -208 -89q0 -49 40.5 -66t125.5 -17q64 0 159 21.5zM289 678v102l389 80v-102z" />
    <glyph glyph-name="acircumflex" unicode="&#xe2;" horiz-adv-x="938" 
d="M701 576.5q82 -29.5 123.5 -96.5t42.5 -180v-300h-147v74q-93 -43 -187 -67t-195 -24q-277 0 -277 198q0 108 98 156.5t254 48.5q150 0 307 -44q-3 85 -78.5 115.5t-169.5 30.5q-72 0 -149 -11t-170 -40l-43 111q98 29 189.5 43.5t191.5 14.5q128 0 210 -29.5zM543 123.5
q95 21.5 177 50.5v59q-151 41 -294 41q-208 0 -208 -89q0 -49 40.5 -66t125.5 -17q64 0 159 21.5zM277 780l207 80l207 -80v-107l-207 80l-207 -80v107z" />
    <glyph glyph-name="atilde" unicode="&#xe3;" horiz-adv-x="938" 
d="M701 576.5q82 -29.5 123.5 -96.5t42.5 -180v-300h-147v74q-93 -43 -187 -67t-195 -24q-277 0 -277 198q0 108 98 156.5t254 48.5q150 0 307 -44q-3 85 -78.5 115.5t-169.5 30.5q-72 0 -149 -11t-170 -40l-43 111q98 29 189.5 43.5t191.5 14.5q128 0 210 -29.5zM543 123.5
q95 21.5 177 50.5v59q-151 41 -294 41q-208 0 -208 -89q0 -49 40.5 -66t125.5 -17q64 0 159 21.5zM188 674q0 85 41 142t126 57q46 0 78 -14.5t71 -42.5q28 -20 47.5 -30t42.5 -10q33 0 46.5 23.5t13.5 66.5h126q0 -85 -41.5 -142t-125.5 -57q-46 0 -79 15t-70 42
q-29 21 -48.5 30.5t-41.5 9.5q-33 0 -46.5 -23.5t-13.5 -66.5h-126z" />
    <glyph glyph-name="adieresis" unicode="&#xe4;" horiz-adv-x="938" 
d="M701 576.5q82 -29.5 123.5 -96.5t42.5 -180v-300h-147v74q-93 -43 -187 -67t-195 -24q-277 0 -277 198q0 108 98 156.5t254 48.5q150 0 307 -44q-3 85 -78.5 115.5t-169.5 30.5q-72 0 -149 -11t-170 -40l-43 111q98 29 189.5 43.5t191.5 14.5q128 0 210 -29.5zM543 123.5
q95 21.5 177 50.5v59q-151 41 -294 41q-208 0 -208 -89q0 -49 40.5 -66t125.5 -17q64 0 159 21.5zM271 700v100h166v-100h-166zM531 700v100h166v-100h-166z" />
    <glyph glyph-name="aring" unicode="&#xe5;" horiz-adv-x="938" 
d="M701 576.5q82 -29.5 123.5 -96.5t42.5 -180v-300h-147v74q-93 -43 -187 -67t-195 -24q-277 0 -277 198q0 108 98 156.5t254 48.5q150 0 307 -44q-3 85 -78.5 115.5t-169.5 30.5q-72 0 -149 -11t-170 -40l-43 111q98 29 189.5 43.5t191.5 14.5q128 0 210 -29.5zM543 123.5
q95 21.5 177 50.5v59q-151 41 -294 41q-208 0 -208 -89q0 -49 40.5 -66t125.5 -17q64 0 159 21.5zM271 792q0 132 213 132t213 -132t-213 -132t-213 132zM591 792q0 59 -107 59t-107 -59t107 -59t107 59z" />
    <glyph glyph-name="ae" unicode="&#xe6;" horiz-adv-x="1596" 
d="M1287.5 127q54.5 25 77.5 71h155q-28 -104 -128.5 -161t-262.5 -57q-125 0 -218 34t-144 101q-72 -66 -189 -99t-230 -33q-138 0 -212.5 47t-74.5 140q0 115 97 158.5t264 43.5h279q0 63 -74.5 86t-163.5 23q-67 0 -138 -11t-158 -40l-54 109q178 64 358 64
q231 0 320 -106q55 54 139.5 81.5t188.5 27.5q189 0 299 -81.5t110 -263.5h-660q10 -83 76 -121t187 -38q102 0 156.5 25zM876 365h489q-19 65 -80.5 95.5t-165.5 30.5q-203 0 -243 -126zM701 265h-269q-76 0 -120 -5t-69 -23.5t-25 -55.5q0 -44 40.5 -61.5t117.5 -17.5
q85 0 171 22.5t154 66.5v74z" />
    <glyph glyph-name="ccedilla" unicode="&#xe7;" horiz-adv-x="944" 
d="M642 135.5q59 30.5 78 92.5h157q-24 -119 -120.5 -181t-254.5 -67l-12 -57q34 16 80 16q45 0 73 -19.5t28 -54.5q0 -56 -60 -82.5t-155 -26.5q-42 0 -101 7v84q80 -12 125 -12q64 0 64 29q0 23 -34 23q-25 0 -60 -15l-69 26l17 86q-155 15 -242.5 93.5t-87.5 215.5
q0 155 110 234t301 79q168 0 270.5 -62t127.5 -186h-157q-19 62 -77.5 92.5t-163.5 30.5q-257 0 -257 -188t257 -188q104 0 163 30.5z" />
    <glyph glyph-name="egrave" unicode="&#xe8;" horiz-adv-x="951" 
d="M643.5 127q54.5 25 77.5 71h154q-27 -104 -127.5 -161t-263.5 -57q-191 0 -303.5 79.5t-112.5 233.5q0 103 52.5 173t144.5 105t210 35q189 0 299 -81.5t110 -263.5h-660q10 -83 76 -121t187 -38q102 0 156.5 25zM232 365h489q-19 65 -80.5 95.5t-165.5 30.5
q-203 0 -243 -126zM287 860l389 -80v-102l-389 80v102z" />
    <glyph glyph-name="eacute" unicode="&#xe9;" horiz-adv-x="951" 
d="M643.5 127q54.5 25 77.5 71h154q-27 -104 -127.5 -161t-263.5 -57q-191 0 -303.5 79.5t-112.5 233.5q0 103 52.5 173t144.5 105t210 35q189 0 299 -81.5t110 -263.5h-660q10 -83 76 -121t187 -38q102 0 156.5 25zM232 365h489q-19 65 -80.5 95.5t-165.5 30.5
q-203 0 -243 -126zM287 678v102l389 80v-102z" />
    <glyph glyph-name="ecircumflex" unicode="&#xea;" horiz-adv-x="951" 
d="M643.5 127q54.5 25 77.5 71h154q-27 -104 -127.5 -161t-263.5 -57q-191 0 -303.5 79.5t-112.5 233.5q0 103 52.5 173t144.5 105t210 35q189 0 299 -81.5t110 -263.5h-660q10 -83 76 -121t187 -38q102 0 156.5 25zM232 365h489q-19 65 -80.5 95.5t-165.5 30.5
q-203 0 -243 -126zM275 780l207 80l207 -80v-107l-207 80l-207 -80v107z" />
    <glyph glyph-name="edieresis" unicode="&#xeb;" horiz-adv-x="951" 
d="M643.5 127q54.5 25 77.5 71h154q-27 -104 -127.5 -161t-263.5 -57q-191 0 -303.5 79.5t-112.5 233.5q0 103 52.5 173t144.5 105t210 35q189 0 299 -81.5t110 -263.5h-660q10 -83 76 -121t187 -38q102 0 156.5 25zM232 365h489q-19 65 -80.5 95.5t-165.5 30.5
q-203 0 -243 -126zM269 700v100h166v-100h-166zM529 700v100h166v-100h-166z" />
    <glyph glyph-name="igrave" unicode="&#xec;" horiz-adv-x="316" 
d="M81 0v586h154v-586h-154zM-37 860l389 -80v-102l-389 80v102z" />
    <glyph glyph-name="iacute" unicode="&#xed;" horiz-adv-x="316" 
d="M81 0v586h154v-586h-154zM-37 678v102l389 80v-102z" />
    <glyph glyph-name="icircumflex" unicode="&#xee;" horiz-adv-x="316" 
d="M81 0v586h154v-586h-154zM-49 780l207 80l207 -80v-107l-207 80l-207 -80v107z" />
    <glyph glyph-name="idieresis" unicode="&#xef;" horiz-adv-x="316" 
d="M81 0v586h154v-586h-154zM-55 700v100h166v-100h-166zM205 700v100h166v-100h-166z" />
    <glyph glyph-name="ntilde" unicode="&#xf1;" horiz-adv-x="987" 
d="M818.5 533q86.5 -73 87.5 -235v-298h-147v257q0 113 -53 167t-182 54q-135 0 -215.5 -62.5t-80.5 -182.5v-233h-147v586h147v-132q58 74 142 113t204 39q158 0 244.5 -73zM224 674q0 85 41 142t126 57q46 0 78 -14.5t71 -42.5q28 -20 47.5 -30t42.5 -10q33 0 46.5 23.5
t13.5 66.5h126q0 -85 -41.5 -142t-125.5 -57q-46 0 -79 15t-70 42q-29 21 -48.5 30.5t-41.5 9.5q-33 0 -46.5 -23.5t-13.5 -66.5h-126z" />
    <glyph glyph-name="ograve" unicode="&#xf2;" horiz-adv-x="964" 
d="M178.5 60q-110.5 80 -110.5 233t110.5 233t303.5 80q192 0 303 -80t111 -233t-111 -233t-303 -80q-193 0 -303.5 80zM739 293q0 188 -257 188t-257 -188t257 -188t257 188zM287 860l389 -80v-102l-389 80v102z" />
    <glyph glyph-name="oacute" unicode="&#xf3;" horiz-adv-x="964" 
d="M178.5 60q-110.5 80 -110.5 233t110.5 233t303.5 80q192 0 303 -80t111 -233t-111 -233t-303 -80q-193 0 -303.5 80zM739 293q0 188 -257 188t-257 -188t257 -188t257 188zM287 678v102l389 80v-102z" />
    <glyph glyph-name="ocircumflex" unicode="&#xf4;" horiz-adv-x="964" 
d="M178.5 60q-110.5 80 -110.5 233t110.5 233t303.5 80q192 0 303 -80t111 -233t-111 -233t-303 -80q-193 0 -303.5 80zM739 293q0 188 -257 188t-257 -188t257 -188t257 188zM275 780l207 80l207 -80v-107l-207 80l-207 -80v107z" />
    <glyph glyph-name="otilde" unicode="&#xf5;" horiz-adv-x="964" 
d="M178.5 60q-110.5 80 -110.5 233t110.5 233t303.5 80q192 0 303 -80t111 -233t-111 -233t-303 -80q-193 0 -303.5 80zM739 293q0 188 -257 188t-257 -188t257 -188t257 188zM186 674q0 85 41 142t126 57q46 0 78 -14.5t71 -42.5q28 -20 47.5 -30t42.5 -10q33 0 46.5 23.5
t13.5 66.5h126q0 -85 -41.5 -142t-125.5 -57q-46 0 -79 15t-70 42q-29 21 -48.5 30.5t-41.5 9.5q-33 0 -46.5 -23.5t-13.5 -66.5h-126z" />
    <glyph glyph-name="odieresis" unicode="&#xf6;" horiz-adv-x="964" 
d="M178.5 60q-110.5 80 -110.5 233t110.5 233t303.5 80q192 0 303 -80t111 -233t-111 -233t-303 -80q-193 0 -303.5 80zM739 293q0 188 -257 188t-257 -188t257 -188t257 188zM269 700v100h166v-100h-166zM529 700v100h166v-100h-166z" />
    <glyph glyph-name="divide" unicode="&#xf7;" horiz-adv-x="961" 
d="M408 500v117h141v-117h-141zM81 273v122h800v-122h-800zM408 55v117h141v-117h-141z" />
    <glyph glyph-name="oslash" unicode="&#xf8;" horiz-adv-x="964" 
d="M627 592q128 -27 198.5 -102.5t70.5 -196.5q0 -153 -111 -233t-303 -80h-26l-34 -122h-124l38 136q-127 27 -197.5 102.5t-70.5 196.5q0 153 110.5 233t303.5 80h25l34 122h124zM370 117l102 364q-247 -3 -247 -188q0 -141 145 -176zM491 105q248 3 248 188
q0 142 -146 177z" />
    <glyph glyph-name="ugrave" unicode="&#xf9;" horiz-adv-x="987" 
d="M759 586h147v-586h-147v132q-58 -74 -142 -113t-204 -39q-158 0 -244.5 73t-87.5 235v298h148v-257q0 -113 52.5 -167t181.5 -54q135 0 215.5 62.5t80.5 182.5v233zM291 860l389 -80v-102l-389 80v102z" />
    <glyph glyph-name="uacute" unicode="&#xfa;" horiz-adv-x="987" 
d="M759 586h147v-586h-147v132q-58 -74 -142 -113t-204 -39q-158 0 -244.5 73t-87.5 235v298h148v-257q0 -113 52.5 -167t181.5 -54q135 0 215.5 62.5t80.5 182.5v233zM291 678v102l389 80v-102z" />
    <glyph glyph-name="ucircumflex" unicode="&#xfb;" horiz-adv-x="987" 
d="M759 586h147v-586h-147v132q-58 -74 -142 -113t-204 -39q-158 0 -244.5 73t-87.5 235v298h148v-257q0 -113 52.5 -167t181.5 -54q135 0 215.5 62.5t80.5 182.5v233zM279 780l207 80l207 -80v-107l-207 80l-207 -80v107z" />
    <glyph glyph-name="udieresis" unicode="&#xfc;" horiz-adv-x="987" 
d="M759 586h147v-586h-147v132q-58 -74 -142 -113t-204 -39q-158 0 -244.5 73t-87.5 235v298h148v-257q0 -113 52.5 -167t181.5 -54q135 0 215.5 62.5t80.5 182.5v233zM273 700v100h166v-100h-166zM533 700v100h166v-100h-166z" />
    <glyph glyph-name="yacute" unicode="&#xfd;" horiz-adv-x="1011" 
d="M787 586h160l-342 -625q-41 -76 -81 -123t-93 -72.5t-126 -25.5q-52 0 -98.5 6t-100.5 17v124q97 -22 173 -22q44 0 74.5 10.5t56 38t52.5 78.5l4 8h-78l-320 586h162l278 -510zM317 678v102l389 80v-102z" />
    <glyph glyph-name="thorn" unicode="&#xfe;" horiz-adv-x="970" 
d="M717.5 573q80.5 -30 130 -99.5t49.5 -180.5t-49.5 -180.5t-130 -99.5t-176.5 -30q-99 0 -177.5 28.5t-125.5 85.5v-285h-157v988h157v-311q47 57 125.5 85.5t177.5 28.5q96 0 176.5 -30zM678.5 159.5q60.5 45.5 60.5 133.5q0 89 -60.5 134t-189.5 45q-130 0 -190.5 -45
t-60.5 -134q0 -88 61 -133.5t190 -45.5t189.5 45.5z" />
    <glyph glyph-name="ydieresis" unicode="&#xff;" horiz-adv-x="1011" 
d="M787 586h160l-342 -625q-41 -76 -81 -123t-93 -72.5t-126 -25.5q-52 0 -98.5 6t-100.5 17v124q97 -22 173 -22q44 0 74.5 10.5t56 38t52.5 78.5l4 8h-78l-320 586h162l278 -510zM299 700v100h166v-100h-166zM559 700v100h166v-100h-166z" />
    <glyph glyph-name="Amacron" unicode="&#x100;" horiz-adv-x="1132" 
d="M1062 0h-171l-81 147h-487l-81 -147h-171l393 706h204zM566 588l-174 -316h349zM332 820v100h469v-100h-469z" />
    <glyph glyph-name="amacron" unicode="&#x101;" horiz-adv-x="938" 
d="M701 576.5q82 -29.5 123.5 -96.5t42.5 -180v-300h-147v74q-93 -43 -187 -67t-195 -24q-277 0 -277 198q0 108 98 156.5t254 48.5q150 0 307 -44q-3 85 -78.5 115.5t-169.5 30.5q-72 0 -149 -11t-170 -40l-43 111q98 29 189.5 43.5t191.5 14.5q128 0 210 -29.5zM543 123.5
q95 21.5 177 50.5v59q-151 41 -294 41q-208 0 -208 -89q0 -49 40.5 -66t125.5 -17q64 0 159 21.5zM249 700v100h469v-100h-469z" />
    <glyph glyph-name="Abreve" unicode="&#x102;" horiz-adv-x="1132" 
d="M1062 0h-171l-81 147h-487l-81 -147h-171l393 706h204zM566 588l-174 -316h349zM446 973q0 -53 31 -75t90 -22t89.5 22t30.5 75h107q0 -107 -60.5 -148.5t-166.5 -41.5t-166.5 41.5t-60.5 148.5h106z" />
    <glyph glyph-name="abreve" unicode="&#x103;" horiz-adv-x="938" 
d="M701 576.5q82 -29.5 123.5 -96.5t42.5 -180v-300h-147v74q-93 -43 -187 -67t-195 -24q-277 0 -277 198q0 108 98 156.5t254 48.5q150 0 307 -44q-3 85 -78.5 115.5t-169.5 30.5q-72 0 -149 -11t-170 -40l-43 111q98 29 189.5 43.5t191.5 14.5q128 0 210 -29.5zM543 123.5
q95 21.5 177 50.5v59q-151 41 -294 41q-208 0 -208 -89q0 -49 40.5 -66t125.5 -17q64 0 159 21.5zM363 853q0 -53 31 -75t90 -22t89.5 22t30.5 75h107q0 -107 -60.5 -148.5t-166.5 -41.5t-166.5 41.5t-60.5 148.5h106z" />
    <glyph glyph-name="Aogonek" unicode="&#x104;" horiz-adv-x="1132" 
d="M971 -125.5q34 -12.5 91 -12.5v-112q-128 0 -198 30.5t-70 103.5q0 43 32.5 73.5t75.5 42.5h-11l-81 147h-487l-81 -147h-171l393 706h204l394 -706h-10q-56 -9 -85.5 -28.5t-29.5 -47.5q0 -37 34 -49.5zM566 588l-174 -316h349z" />
    <glyph glyph-name="aogonek" unicode="&#x105;" horiz-adv-x="974" 
d="M777 -126q32 -12 94 -12v-112q-133 0 -201 28t-68 96q0 45 32 76.5t89 49.5h-3v74q-93 -43 -187 -67t-195 -24q-277 0 -277 198q0 108 98 156.5t254 48.5q150 0 307 -44q-3 85 -78.5 115.5t-169.5 30.5q-72 0 -149 -11t-170 -40l-43 111q98 29 189.5 43.5t191.5 14.5
q128 0 210 -29.5t123.5 -96.5t42.5 -180v-300h-6q-116 -9 -116 -76q0 -38 32 -50zM543 123.5q95 21.5 177 50.5v59q-151 41 -294 41q-208 0 -208 -89q0 -49 40.5 -66t125.5 -17q64 0 159 21.5z" />
    <glyph glyph-name="Cacute" unicode="&#x106;" horiz-adv-x="1018" 
d="M184.5 629q113.5 97 334.5 97q129 0 221.5 -35.5t144 -98.5t62.5 -147h-166q-13 68 -80 107.5t-182 39.5q-138 0 -211.5 -59t-73.5 -179q0 -121 73.5 -180.5t211.5 -59.5q114 0 181.5 40.5t80.5 109.5h167q-12 -84 -63.5 -148t-144 -100t-221.5 -36q-221 0 -334.5 98
t-113.5 276t113.5 275zM324 798v102l389 80v-102z" />
    <glyph glyph-name="cacute" unicode="&#x107;" horiz-adv-x="944" 
d="M178 527q110 79 301 79q168 0 270.5 -62t127.5 -186h-157q-19 62 -77.5 92.5t-163.5 30.5q-257 0 -257 -188t257 -188q104 0 163 30.5t78 92.5h157q-25 -123 -127.5 -185.5t-270.5 -62.5q-191 0 -301 79t-110 234t110 234zM288 678v102l389 80v-102z" />
    <glyph glyph-name="Cdotaccent" unicode="&#x10a;" horiz-adv-x="1018" 
d="M184.5 629q113.5 97 334.5 97q129 0 221.5 -35.5t144 -98.5t62.5 -147h-166q-13 68 -80 107.5t-182 39.5q-138 0 -211.5 -59t-73.5 -179q0 -121 73.5 -180.5t211.5 -59.5q114 0 181.5 40.5t80.5 109.5h167q-12 -84 -63.5 -148t-144 -100t-221.5 -36q-221 0 -334.5 98
t-113.5 276t113.5 275zM433 820v100h172v-100h-172z" />
    <glyph glyph-name="cdotaccent" unicode="&#x10b;" horiz-adv-x="944" 
d="M178 527q110 79 301 79q168 0 270.5 -62t127.5 -186h-157q-19 62 -77.5 92.5t-163.5 30.5q-257 0 -257 -188t257 -188q104 0 163 30.5t78 92.5h157q-25 -123 -127.5 -185.5t-270.5 -62.5q-191 0 -301 79t-110 234t110 234zM396 700v100h172v-100h-172z" />
    <glyph glyph-name="Ccaron" unicode="&#x10c;" horiz-adv-x="1018" 
d="M184.5 629q113.5 97 334.5 97q129 0 221.5 -35.5t144 -98.5t62.5 -147h-166q-13 68 -80 107.5t-182 39.5q-138 0 -211.5 -59t-73.5 -179q0 -121 73.5 -180.5t211.5 -59.5q114 0 181.5 40.5t80.5 109.5h167q-12 -84 -63.5 -148t-144 -100t-221.5 -36q-221 0 -334.5 98
t-113.5 276t113.5 275zM312 969l207 -80l207 80v-107l-207 -80l-207 80v107z" />
    <glyph glyph-name="ccaron" unicode="&#x10d;" horiz-adv-x="944" 
d="M178 527q110 79 301 79q168 0 270.5 -62t127.5 -186h-157q-19 62 -77.5 92.5t-163.5 30.5q-257 0 -257 -188t257 -188q104 0 163 30.5t78 92.5h157q-25 -123 -127.5 -185.5t-270.5 -62.5q-191 0 -301 79t-110 234t110 234zM276 849l207 -80l207 80v-107l-207 -80l-207 80
v107z" />
    <glyph glyph-name="Dcaron" unicode="&#x10e;" horiz-adv-x="999" 
d="M759.5 667q77.5 -39 123.5 -118.5t46 -195.5t-46 -195.5t-123.5 -118.5t-172.5 -39h-506v706h506q95 0 172.5 -39zM514 134q87 0 140.5 17.5t82 65t28.5 136.5q0 90 -28.5 137.5t-82 64.5t-140.5 17h-280v-438h280zM228 963l207 -80l207 80v-107l-207 -80l-207 80v107z
" />
    <glyph glyph-name="dcaron" unicode="&#x10f;" horiz-adv-x="1172" 
d="M736 800h147v-800h-147v101q-45 -59 -122.5 -90t-183.5 -31q-102 0 -183.5 34t-130 104t-48.5 175t48.5 175t130 104t183.5 34q106 0 183.5 -31t122.5 -90v315zM668.5 157q67.5 49 67.5 136q0 88 -67.5 136.5t-191.5 48.5q-123 0 -187 -48.5t-64 -136.5t64 -136.5
t187 -48.5q124 0 191.5 49zM943 675v125h150v-125l-74 -193h-70l47 193h-53z" />
    <glyph glyph-name="Dcroat" unicode="&#x110;" horiz-adv-x="1022" 
d="M782.5 667q77.5 -39 123.5 -118.5t46 -195.5t-46 -195.5t-123.5 -118.5t-172.5 -39h-506v323h-80v60h80v323h506q95 0 172.5 -39zM538 134q86 0 139.5 17.5t82 65t28.5 136.5q0 90 -28.5 137.5t-82 64.5t-139.5 17h-280v-189h246v-60h-246v-189h280z" />
    <glyph glyph-name="dcroat" unicode="&#x111;" horiz-adv-x="1037" 
d="M977 743v-100h-94v-643h-147v101q-45 -59 -122.5 -90t-183.5 -31q-102 0 -183.5 34t-130 104t-48.5 175t48.5 175t130 104t183.5 34q106 0 183.5 -31t122.5 -90v158h-286v100h286v57h147v-57h94zM668.5 157q67.5 49 67.5 136q0 88 -67.5 136.5t-191.5 48.5
q-123 0 -187 -48.5t-64 -136.5t64 -136.5t187 -48.5q124 0 191.5 49z" />
    <glyph glyph-name="Emacron" unicode="&#x112;" horiz-adv-x="894" 
d="M821 706v-128h-587v-161h567v-128h-567v-161h587v-128h-740v706h740zM225 820v100h469v-100h-469z" />
    <glyph glyph-name="emacron" unicode="&#x113;" horiz-adv-x="951" 
d="M643.5 127q54.5 25 77.5 71h154q-27 -104 -127.5 -161t-263.5 -57q-191 0 -303.5 79.5t-112.5 233.5q0 103 52.5 173t144.5 105t210 35q189 0 299 -81.5t110 -263.5h-660q10 -83 76 -121t187 -38q102 0 156.5 25zM232 365h489q-19 65 -80.5 95.5t-165.5 30.5
q-203 0 -243 -126zM247 700v100h469v-100h-469z" />
    <glyph glyph-name="Edotaccent" unicode="&#x116;" horiz-adv-x="894" 
d="M821 706v-128h-587v-161h567v-128h-567v-161h587v-128h-740v706h740zM374 820v100h172v-100h-172z" />
    <glyph glyph-name="edotaccent" unicode="&#x117;" horiz-adv-x="951" 
d="M643.5 127q54.5 25 77.5 71h154q-27 -104 -127.5 -161t-263.5 -57q-191 0 -303.5 79.5t-112.5 233.5q0 103 52.5 173t144.5 105t210 35q189 0 299 -81.5t110 -263.5h-660q10 -83 76 -121t187 -38q102 0 156.5 25zM232 365h489q-19 65 -80.5 95.5t-165.5 30.5
q-203 0 -243 -126zM396 700v100h172v-100h-172z" />
    <glyph glyph-name="Eogonek" unicode="&#x118;" horiz-adv-x="894" 
d="M821 578h-587v-161h567v-128h-567v-161h587v-128h-23q-55 -10 -79 -28.5t-24 -47.5q0 -38 32 -50t94 -12v-112q-133 0 -201 30.5t-68 103.5q0 45 33 74.5t95 41.5h-599v706h740v-128z" />
    <glyph glyph-name="eogonek" unicode="&#x119;" horiz-adv-x="945" 
d="M643.5 127q54.5 25 77.5 71h154q-22 -82 -90.5 -135.5t-177.5 -72.5q-38 -12 -51 -24.5t-13 -31.5q0 -24 21.5 -35.5t53.5 -14t87 -2.5v-112q-101 0 -162.5 9.5t-93.5 34.5t-32 73q0 33 22 55.5t72 37.5h-27q-191 0 -303.5 79.5t-112.5 233.5q0 103 52.5 173t144.5 105
t210 35q189 0 299 -81.5t110 -263.5h-660q10 -83 76 -121t187 -38q102 0 156.5 25zM232 365h489q-19 65 -80.5 95.5t-165.5 30.5q-203 0 -243 -126z" />
    <glyph glyph-name="Ecaron" unicode="&#x11a;" horiz-adv-x="894" 
d="M821 706v-128h-587v-161h567v-128h-567v-161h587v-128h-740v706h740zM253 969l207 -80l207 80v-107l-207 -80l-207 80v107z" />
    <glyph glyph-name="ecaron" unicode="&#x11b;" horiz-adv-x="951" 
d="M643.5 127q54.5 25 77.5 71h154q-27 -104 -127.5 -161t-263.5 -57q-191 0 -303.5 79.5t-112.5 233.5q0 103 52.5 173t144.5 105t210 35q189 0 299 -81.5t110 -263.5h-660q10 -83 76 -121t187 -38q102 0 156.5 25zM232 365h489q-19 65 -80.5 95.5t-165.5 30.5
q-203 0 -243 -126zM275 849l207 -80l207 80v-107l-207 -80l-207 80v107z" />
    <glyph glyph-name="Gbreve" unicode="&#x11e;" horiz-adv-x="1018" 
d="M125 553q54 84 155.5 128.5t240.5 44.5q127 0 220 -35.5t145 -97.5t62 -140h-166q-14 64 -80 101.5t-180 37.5q-113 0 -177 -38.5t-87.5 -93t-23.5 -110.5t25 -110.5t92.5 -93t186.5 -38.5q84 0 142 12t123 39v99h-288v116h433v-286q-110 -59 -205.5 -83.5t-208.5 -24.5
q-142 0 -246.5 44.5t-160.5 129t-56 199.5q0 116 54 200zM399 973q0 -53 31 -75t90 -22t89.5 22t30.5 75h107q0 -107 -60.5 -148.5t-166.5 -41.5t-166.5 41.5t-60.5 148.5h106z" />
    <glyph glyph-name="gbreve" unicode="&#x11f;" horiz-adv-x="964" 
d="M735 586h148v-513q-1 -173 -96 -253t-281 -80q-182 0 -384 48l10 119l23 -4q92 -18 166 -28t149 -10q99 0 156.5 23.5t83 72.5t25.5 129v15q-44 -58 -119.5 -88.5t-178.5 -30.5q-102 0 -185.5 33t-133.5 103t-50 174q0 105 50 174.5t133 102.5t186 33t178.5 -30.5
t119.5 -88.5v99zM670 162q65 48 65 134t-65 134t-190 48t-190 -48t-65 -134t65 -134t190 -48t190 48zM358 853q0 -53 31 -75t90 -22t89.5 22t30.5 75h107q0 -107 -60.5 -148.5t-166.5 -41.5t-166.5 41.5t-60.5 148.5h106z" />
    <glyph glyph-name="Gdotaccent" unicode="&#x120;" horiz-adv-x="1018" 
d="M125 553q54 84 155.5 128.5t240.5 44.5q127 0 220 -35.5t145 -97.5t62 -140h-166q-14 64 -80 101.5t-180 37.5q-113 0 -177 -38.5t-87.5 -93t-23.5 -110.5t25 -110.5t92.5 -93t186.5 -38.5q84 0 142 12t123 39v99h-288v116h433v-286q-110 -59 -205.5 -83.5t-208.5 -24.5
q-142 0 -246.5 44.5t-160.5 129t-56 199.5q0 116 54 200zM434 820v100h172v-100h-172z" />
    <glyph glyph-name="gdotaccent" unicode="&#x121;" horiz-adv-x="964" 
d="M735 586h148v-513q-1 -173 -96 -253t-281 -80q-182 0 -384 48l10 119l23 -4q92 -18 166 -28t149 -10q99 0 156.5 23.5t83 72.5t25.5 129v15q-44 -58 -119.5 -88.5t-178.5 -30.5q-102 0 -185.5 33t-133.5 103t-50 174q0 105 50 174.5t133 102.5t186 33t178.5 -30.5
t119.5 -88.5v99zM670 162q65 48 65 134t-65 134t-190 48t-190 -48t-65 -134t65 -134t190 -48t190 48zM393 700v100h172v-100h-172z" />
    <glyph glyph-name="uni0122" unicode="&#x122;" horiz-adv-x="1018" 
d="M125 553q54 84 155.5 128.5t240.5 44.5q127 0 220 -35.5t145 -97.5t62 -140h-166q-14 64 -80 101.5t-180 37.5q-113 0 -177 -38.5t-87.5 -93t-23.5 -110.5t25 -110.5t92.5 -93t186.5 -38.5q84 0 142 12t123 39v99h-288v116h433v-286q-110 -59 -205.5 -83.5t-208.5 -24.5
q-142 0 -246.5 44.5t-160.5 129t-56 199.5q0 116 54 200zM474 -183v106h145v-106l-76 -110h-69l54 110h-54z" />
    <glyph glyph-name="uni0123" unicode="&#x123;" horiz-adv-x="964" 
d="M735 586h148v-513q-1 -173 -96 -253t-281 -80q-182 0 -384 48l10 119l23 -4q92 -18 166 -28t149 -10q99 0 156.5 23.5t83 72.5t25.5 129v15q-44 -58 -119.5 -88.5t-178.5 -30.5q-102 0 -185.5 33t-133.5 103t-50 174q0 105 50 174.5t133 102.5t186 33t178.5 -30.5
t119.5 -88.5v99zM670 162q65 48 65 134t-65 134t-190 48t-190 -48t-65 -134t65 -134t190 -48t190 48zM552 813v-106h-145v106l75 110h70l-55 -110h55z" />
    <glyph glyph-name="Hbar" unicode="&#x126;" horiz-adv-x="1103" 
d="M986 613h70v-100h-70v-513h-154v286h-561v-286h-154v513h-70v100h70v93h154v-93h561v93h154v-93zM271 420h561v93h-561v-93z" />
    <glyph glyph-name="hbar" unicode="&#x127;" horiz-adv-x="1054" 
d="M885.5 533q86.5 -73 87.5 -235v-298h-148v257q0 113 -52.5 167t-181.5 54q-135 0 -215.5 -62.5t-80.5 -182.5v-233h-147v643h-87v100h87v57h147v-57h293v-100h-293v-188q58 73 142.5 112t203.5 39q158 0 244.5 -73z" />
    <glyph glyph-name="Imacron" unicode="&#x12a;" horiz-adv-x="315" 
d="M81 706h153v-706h-153v706zM-77 820v100h469v-100h-469z" />
    <glyph glyph-name="imacron" unicode="&#x12b;" horiz-adv-x="316" 
d="M81 0v586h154v-586h-154zM-77 700v100h469v-100h-469z" />
    <glyph glyph-name="Iogonek" unicode="&#x12e;" horiz-adv-x="323" 
d="M165.5 -126q32.5 -12 93.5 -12v-112q-132 0 -200.5 30.5t-68.5 103.5q0 44 28 70t80 46h-19v706h154v-706h3q-54 -10 -78.5 -28.5t-24.5 -47.5q0 -38 32.5 -50z" />
    <glyph glyph-name="iogonek" unicode="&#x12f;" horiz-adv-x="319" 
d="M54 800h181v-112h-181v112zM174 -126q32 -12 94 -12v-112q-133 0 -201.5 30.5t-68.5 103.5q0 28 12.5 49t27.5 34t43 33v586h154v-586h3q-50 -10 -73 -28.5t-23 -47.5q0 -38 32 -50z" />
    <glyph glyph-name="Idotaccent" unicode="&#x130;" horiz-adv-x="315" 
d="M81 706h153v-706h-153v706zM72 820v100h172v-100h-172z" />
    <glyph glyph-name="dotlessi" unicode="&#x131;" horiz-adv-x="316" 
d="M81 0v586h154v-586h-154z" />
    <glyph glyph-name="uni0136" unicode="&#x136;" horiz-adv-x="1015" 
d="M706 706h239l-389 -310l389 -396h-208l-298 303l-205 -164v-139h-153v706h153v-377zM400 -183v106h145v-106l-76 -110h-69l54 110h-54z" />
    <glyph glyph-name="uni0137" unicode="&#x137;" horiz-adv-x="945" 
d="M631 586h246l-376 -257l376 -329h-209l-284 249l-156 -107v-142h-147v800h147v-490zM368 -183v106h145v-106l-76 -110h-69l54 110h-54z" />
    <glyph glyph-name="Lacute" unicode="&#x139;" horiz-adv-x="827" 
d="M234 706v-572h525v-134h-678v706h153zM81 798v102l389 80v-102z" />
    <glyph glyph-name="lacute" unicode="&#x13a;" horiz-adv-x="309" 
d="M81 0v800h147v-800h-147zM-40 892v102l389 80v-102z" />
    <glyph glyph-name="uni013B" unicode="&#x13b;" horiz-adv-x="827" 
d="M234 706v-572h525v-134h-678v706h153zM351 -183v106h145v-106l-76 -110h-69l54 110h-54z" />
    <glyph glyph-name="uni013C" unicode="&#x13c;" horiz-adv-x="309" 
d="M81 0v800h147v-800h-147zM82 -183v106h145v-106l-76 -110h-69l54 110h-54z" />
    <glyph glyph-name="Lcaron" unicode="&#x13d;" horiz-adv-x="827" 
d="M234 706v-572h525v-134h-678v706h153zM526 574v106h145v-106l-76 -110h-69l54 110h-54z" />
    <glyph glyph-name="lcaron" unicode="&#x13e;" horiz-adv-x="471" 
d="M81 0v800h147v-800h-147zM293 674v106h145v-106l-76 -110h-69l54 110h-54z" />
    <glyph glyph-name="Lslash" unicode="&#x141;" horiz-adv-x="969" 
d="M322 318v-184h525v-134h-679v250l-102 -44v130l102 44v326h154v-258l281 122v-130z" />
    <glyph glyph-name="lslash" unicode="&#x142;" horiz-adv-x="552" 
d="M346 498l138 63v-110l-138 -63v-388h-147v322l-131 -60v110l131 60v368h147v-302z" />
    <glyph glyph-name="Nacute" unicode="&#x143;" horiz-adv-x="1055" 
d="M820 142v564h154v-706h-223l-517 564v-564h-153v706h223zM346 798v102l389 80v-102z" />
    <glyph glyph-name="nacute" unicode="&#x144;" horiz-adv-x="987" 
d="M818.5 533q86.5 -73 87.5 -235v-298h-147v257q0 113 -53 167t-182 54q-135 0 -215.5 -62.5t-80.5 -182.5v-233h-147v586h147v-132q58 74 142 113t204 39q158 0 244.5 -73zM325 678v102l389 80v-102z" />
    <glyph glyph-name="uni0145" unicode="&#x145;" horiz-adv-x="1055" 
d="M820 142v564h154v-706h-223l-517 564v-564h-153v706h223zM423 -183v106h145v-106l-76 -110h-69l54 110h-54z" />
    <glyph glyph-name="uni0146" unicode="&#x146;" horiz-adv-x="987" 
d="M818.5 533q86.5 -73 87.5 -235v-298h-147v257q0 113 -53 167t-182 54q-135 0 -215.5 -62.5t-80.5 -182.5v-233h-147v586h147v-132q58 74 142 113t204 39q158 0 244.5 -73zM420 -183v106h145v-106l-76 -110h-69l54 110h-54z" />
    <glyph glyph-name="Ncaron" unicode="&#x147;" horiz-adv-x="1055" 
d="M820 142v564h154v-706h-223l-517 564v-564h-153v706h223zM334 969l207 -80l207 80v-107l-207 -80l-207 80v107z" />
    <glyph glyph-name="ncaron" unicode="&#x148;" horiz-adv-x="987" 
d="M818.5 533q86.5 -73 87.5 -235v-298h-147v257q0 113 -53 167t-182 54q-135 0 -215.5 -62.5t-80.5 -182.5v-233h-147v586h147v-132q58 74 142 113t204 39q158 0 244.5 -73zM313 849l207 -80l207 80v-107l-207 -80l-207 80v107z" />
    <glyph glyph-name="Eng" unicode="&#x14a;" horiz-adv-x="1055" 
d="M820 706h154v-706q0 -133 -67 -201.5t-211 -68.5q-87 0 -177 22v123q47 -10 75.5 -13.5t78.5 -3.5q56 0 85.5 16.5t40.5 47t11 78.5h-59l-517 564v-564h-153v706h223l516 -564v564z" />
    <glyph glyph-name="eng" unicode="&#x14b;" horiz-adv-x="987" 
d="M818.5 533q86.5 -73 87.5 -235v-298q0 -131 -65 -193.5t-206 -62.5q-91 0 -177 15v116q34 -4 62 -7t51 -3q71 0 110.5 10t58.5 39t19 86v257q0 113 -53 167t-182 54q-135 0 -215.5 -62.5t-80.5 -182.5v-233h-147v586h147v-132q58 74 142 113t204 39q158 0 244.5 -73z" />
    <glyph glyph-name="Omacron" unicode="&#x14c;" horiz-adv-x="1054" 
d="M187 79q-116 99 -116 275q0 175 116 273.5t340 98.5t340 -98.5t116 -273.5q0 -116 -51 -199.5t-153.5 -129t-251.5 -45.5q-224 0 -340 99zM819 354q0 238 -292 238q-146 0 -219.5 -58.5t-73.5 -179.5q0 -240 293 -240q292 0 292 240zM292 820v100h469v-100h-469z" />
    <glyph glyph-name="omacron" unicode="&#x14d;" horiz-adv-x="964" 
d="M178.5 60q-110.5 80 -110.5 233t110.5 233t303.5 80q192 0 303 -80t111 -233t-111 -233t-303 -80q-193 0 -303.5 80zM739 293q0 188 -257 188t-257 -188t257 -188t257 188zM247 700v100h469v-100h-469z" />
    <glyph glyph-name="Ohungarumlaut" unicode="&#x150;" horiz-adv-x="1054" 
d="M187 79q-116 99 -116 275q0 175 116 273.5t340 98.5t340 -98.5t116 -273.5q0 -116 -51 -199.5t-153.5 -129t-251.5 -45.5q-224 0 -340 99zM819 354q0 238 -292 238q-146 0 -219.5 -58.5t-73.5 -179.5q0 -240 293 -240q292 0 292 240zM310 806v107l207 80v-107zM577 806
v107l207 80v-107z" />
    <glyph glyph-name="ohungarumlaut" unicode="&#x151;" horiz-adv-x="964" 
d="M178.5 60q-110.5 80 -110.5 233t110.5 233t303.5 80q192 0 303 -80t111 -233t-111 -233t-303 -80q-193 0 -303.5 80zM739 293q0 188 -257 188t-257 -188t257 -188t257 188zM265 686v107l207 80v-107zM532 686v107l207 80v-107z" />
    <glyph glyph-name="OE" unicode="&#x152;" horiz-adv-x="1710" 
d="M1636 578h-586v-161h566v-128h-566v-161h586v-128h-740v107q-57 -62 -150 -94.5t-219 -32.5q-224 0 -340 99t-116 275q0 175 116 273.5t340 98.5q126 0 219 -32.5t150 -93.5v106h740v-128zM819 354q0 238 -292 238q-146 0 -219.5 -58.5t-73.5 -179.5q0 -240 293 -240
q292 0 292 240z" />
    <glyph glyph-name="oe" unicode="&#x153;" horiz-adv-x="1665" 
d="M1357 127q55 25 78 71h154q-28 -104 -128.5 -161t-262.5 -57q-123 0 -215 33t-144 99q-51 -65 -142.5 -98.5t-214.5 -33.5q-193 0 -303.5 80t-110.5 233t110.5 233t303.5 80q124 0 215.5 -33.5t141.5 -99.5q52 66 143 99.5t206 33.5q189 0 299 -81.5t110 -263.5h-660
q10 -83 76 -121t188 -38q101 0 156 25zM945 365h489q-19 65 -80.5 95.5t-165.5 30.5q-203 0 -243 -126zM739 293q0 188 -257 188t-257 -188t257 -188t257 188z" />
    <glyph glyph-name="Racute" unicode="&#x154;" horiz-adv-x="981" 
d="M855.5 261q28.5 -34 28.5 -89v-172h-154v138q0 36 -7.5 54t-27.5 25.5t-59 7.5h-402v-225h-153v706h532q133 0 205.5 -53t72.5 -163q0 -140 -117 -187q53 -8 81.5 -42zM234 575v-218h340q48 0 78.5 5.5t52.5 29t22 74.5t-22 74.5t-52.5 29t-78.5 5.5h-340zM261 798v102
l389 80v-102z" />
    <glyph glyph-name="racute" unicode="&#x155;" horiz-adv-x="722" 
d="M661 583v-131q-44 13 -79.5 18t-75.5 5q-68 0 -133 -25t-145 -94v-356h-147v586h147v-109q65 72 131 100.5t147 28.5q86 0 155 -23zM163 678v102l389 80v-102z" />
    <glyph glyph-name="uni0156" unicode="&#x156;" horiz-adv-x="981" 
d="M855.5 261q28.5 -34 28.5 -89v-172h-154v138q0 36 -7.5 54t-27.5 25.5t-59 7.5h-402v-225h-153v706h532q133 0 205.5 -53t72.5 -163q0 -140 -117 -187q53 -8 81.5 -42zM234 575v-218h340q48 0 78.5 5.5t52.5 29t22 74.5t-22 74.5t-52.5 29t-78.5 5.5h-340zM427 -183v106
h145v-106l-76 -110h-69l54 110h-54z" />
    <glyph glyph-name="uni0157" unicode="&#x157;" horiz-adv-x="722" 
d="M661 583v-131q-44 13 -79.5 18t-75.5 5q-68 0 -133 -25t-145 -94v-356h-147v586h147v-109q65 72 131 100.5t147 28.5q86 0 155 -23zM82 -183v106h145v-106l-76 -110h-69l54 110h-54z" />
    <glyph glyph-name="Rcaron" unicode="&#x158;" horiz-adv-x="981" 
d="M855.5 261q28.5 -34 28.5 -89v-172h-154v138q0 36 -7.5 54t-27.5 25.5t-59 7.5h-402v-225h-153v706h532q133 0 205.5 -53t72.5 -163q0 -140 -117 -187q53 -8 81.5 -42zM234 575v-218h340q48 0 78.5 5.5t52.5 29t22 74.5t-22 74.5t-52.5 29t-78.5 5.5h-340zM249 969
l207 -80l207 80v-107l-207 -80l-207 80v107z" />
    <glyph glyph-name="rcaron" unicode="&#x159;" horiz-adv-x="722" 
d="M661 583v-131q-44 13 -79.5 18t-75.5 5q-68 0 -133 -25t-145 -94v-356h-147v586h147v-109q65 72 131 100.5t147 28.5q86 0 155 -23zM151 849l207 -80l207 80v-107l-207 -80l-207 80v107z" />
    <glyph glyph-name="Sacute" unicode="&#x15a;" horiz-adv-x="1035" 
d="M234 230q0 -62 69.5 -93.5t237.5 -31.5q142 0 201 23.5t59 72.5q0 35 -21.5 51.5t-79.5 25t-189 17.5q-152 9 -241.5 32.5t-132.5 69t-43 122.5q0 109 106.5 158t304.5 49q203 0 315.5 -60.5t114.5 -177.5h-164q0 41 -28.5 66t-89.5 36t-162 11q-91 0 -142 -9.5t-71 -28
t-20 -48.5q0 -32 21 -49t76.5 -26.5t168.5 -17.5q168 -12 253.5 -27.5t136.5 -58t51 -128.5q0 -128 -110 -178t-310 -50q-228 0 -347.5 57.5t-126.5 192.5h163zM323 798v102l389 80v-102z" />
    <glyph glyph-name="sacute" unicode="&#x15b;" horiz-adv-x="949" 
d="M225 198q4 -37 30 -59t84 -32.5t158 -10.5q96 0 144.5 8t65.5 23.5t17 44.5q0 27 -17.5 39.5t-67 19.5t-171.5 16q-141 10 -217.5 24.5t-117 49t-40.5 99.5q0 103 102 144.5t279 41.5q178 0 278.5 -41t109.5 -150h-158q-3 32 -28 49t-75.5 23.5t-138.5 6.5
q-117 0 -164.5 -16.5t-47.5 -47.5q0 -22 17.5 -33t67.5 -19t163 -17l37 -3q131 -11 198 -24t108 -48.5t41 -106.5q0 -113 -94.5 -156t-280.5 -43q-203 0 -319 46.5t-120 171.5h157zM280 678v102l389 80v-102z" />
    <glyph glyph-name="Scedilla" unicode="&#x15e;" horiz-adv-x="1035" 
d="M856.5 31q-108.5 -50 -304.5 -51l-13 -60q34 16 80 16q45 0 73 -19.5t28 -54.5q0 -56 -60 -82.5t-155 -26.5q-41 0 -101 7v84q80 -12 125 -12q64 0 64 29q0 23 -34 23q-25 0 -60 -15l-69 26l18 88q-180 10 -275 68.5t-102 178.5h163q0 -62 69.5 -93.5t237.5 -31.5
q142 0 201 23.5t59 72.5q0 35 -21.5 51.5t-79.5 25t-189 17.5q-152 9 -241.5 32.5t-132.5 69t-43 122.5q0 109 106.5 158t304.5 49q203 0 315.5 -60.5t114.5 -177.5h-164q0 41 -28.5 66t-89.5 36t-162 11q-91 0 -142 -9.5t-71 -28t-20 -48.5q0 -32 21 -49t76.5 -26.5
t168.5 -17.5q168 -12 253.5 -27.5t136.5 -58t51 -128.5q0 -127 -108.5 -177z" />
    <glyph glyph-name="scedilla" unicode="&#x15f;" horiz-adv-x="949" 
d="M788 23q-94 -43 -279 -43l-13 -60q34 16 80 16q45 0 73 -19.5t28 -54.5q0 -56 -60 -82.5t-155 -26.5q-41 0 -101 7v84q80 -12 125 -12q64 0 64 29q0 23 -34 23q-25 0 -60 -15l-69 26l18 88q-156 9 -244.5 58t-92.5 157h157q4 -37 30 -59t84 -32.5t158 -10.5q96 0 144.5 8
t65.5 23.5t17 44.5q0 27 -17.5 39.5t-67 19.5t-171.5 16q-141 10 -217.5 24.5t-117 49t-40.5 99.5q0 103 102 144.5t279 41.5q178 0 278.5 -41t109.5 -150h-158q-3 32 -28 49t-75.5 23.5t-138.5 6.5q-117 0 -164.5 -16.5t-47.5 -47.5q0 -22 17.5 -33t67.5 -19t163 -17l37 -3
q131 -11 198 -24t108 -48.5t41 -106.5q0 -113 -94 -156z" />
    <glyph glyph-name="Scaron" unicode="&#x160;" horiz-adv-x="1035" 
d="M234 230q0 -62 69.5 -93.5t237.5 -31.5q142 0 201 23.5t59 72.5q0 35 -21.5 51.5t-79.5 25t-189 17.5q-152 9 -241.5 32.5t-132.5 69t-43 122.5q0 109 106.5 158t304.5 49q203 0 315.5 -60.5t114.5 -177.5h-164q0 41 -28.5 66t-89.5 36t-162 11q-91 0 -142 -9.5t-71 -28
t-20 -48.5q0 -32 21 -49t76.5 -26.5t168.5 -17.5q168 -12 253.5 -27.5t136.5 -58t51 -128.5q0 -128 -110 -178t-310 -50q-228 0 -347.5 57.5t-126.5 192.5h163zM311 969l207 -80l207 80v-107l-207 -80l-207 80v107z" />
    <glyph glyph-name="scaron" unicode="&#x161;" horiz-adv-x="949" 
d="M225 198q4 -37 30 -59t84 -32.5t158 -10.5q96 0 144.5 8t65.5 23.5t17 44.5q0 27 -17.5 39.5t-67 19.5t-171.5 16q-141 10 -217.5 24.5t-117 49t-40.5 99.5q0 103 102 144.5t279 41.5q178 0 278.5 -41t109.5 -150h-158q-3 32 -28 49t-75.5 23.5t-138.5 6.5
q-117 0 -164.5 -16.5t-47.5 -47.5q0 -22 17.5 -33t67.5 -19t163 -17l37 -3q131 -11 198 -24t108 -48.5t41 -106.5q0 -113 -94.5 -156t-280.5 -43q-203 0 -319 46.5t-120 171.5h157zM268 849l207 -80l207 80v-107l-207 -80l-207 80v107z" />
    <glyph glyph-name="uni0162" unicode="&#x162;" horiz-adv-x="1001" 
d="M931 706v-134h-353v-572h-154v572h-353v134h860zM688 -73.5q28 -19.5 28 -54.5q0 -56 -60 -82.5t-155 -26.5q-41 0 -101 7v84q79 -12 125 -12q64 0 64 29q0 23 -34 23q-25 0 -60 -15l-69 26l19 95h105l-15 -70q34 16 80 16q45 0 73 -19.5z" />
    <glyph glyph-name="uni0163" unicode="&#x163;" horiz-adv-x="738" 
d="M664 464h-287v-212q0 -59 10.5 -89t38.5 -42.5t85 -12.5q63 0 153 13v-123q-105 -18 -187 -18h-13l-12 -57q34 16 80 16q45 0 73 -19.5t28 -54.5q0 -56 -60 -82.5t-155 -26.5q-41 0 -101 7v84q80 -12 125 -12q64 0 64 29q0 23 -34 23q-25 0 -60 -15l-69 26l19 94
q-71 19 -101.5 74t-30.5 162v236h-162v122h162v131l147 46v-177h287v-122z" />
    <glyph glyph-name="Tcaron" unicode="&#x164;" horiz-adv-x="1001" 
d="M931 706v-134h-353v-572h-154v572h-353v134h860zM294 969l207 -80l207 80v-107l-207 -80l-207 80v107z" />
    <glyph glyph-name="tcaron" unicode="&#x165;" horiz-adv-x="738" 
d="M607 729l-75 -107h-70l55 107h-55v103h145v-103zM664 464h-287v-212q0 -59 10.5 -89t38.5 -42.5t85 -12.5q63 0 153 13v-123q-105 -18 -187 -18q-93 0 -146.5 23t-77 76.5t-23.5 148.5v236h-162v122h162v131l147 46v-177h287v-122z" />
    <glyph glyph-name="Tbar" unicode="&#x166;" horiz-adv-x="1001" 
d="M931 706v-134h-353v-198h238v-100h-238v-274h-154v274h-239v100h239v198h-353v134h860z" />
    <glyph glyph-name="tbar" unicode="&#x167;" horiz-adv-x="738" 
d="M664 464h-287v-91h287v-100h-287v-21q0 -59 10.5 -89t38.5 -42.5t85 -12.5q63 0 153 13v-123q-105 -18 -187 -18q-93 0 -146.5 23t-77 76.5t-23.5 148.5v45h-162v100h162v91h-162v122h162v131l147 46v-177h287v-122z" />
    <glyph glyph-name="Umacron" unicode="&#x16a;" horiz-adv-x="1041" 
d="M961 344q0 -184 -106 -274t-334 -90q-229 0 -334.5 89.5t-105.5 274.5v362h153v-359q0 -64 20.5 -114.5t84 -84.5t182.5 -34t182 34t83.5 84.5t20.5 114.5v359h154v-362zM286 820v100h469v-100h-469z" />
    <glyph glyph-name="umacron" unicode="&#x16b;" horiz-adv-x="987" 
d="M759 586h147v-586h-147v132q-58 -74 -142 -113t-204 -39q-158 0 -244.5 73t-87.5 235v298h148v-257q0 -113 52.5 -167t181.5 -54q135 0 215.5 62.5t80.5 182.5v233zM251 700v100h469v-100h-469z" />
    <glyph glyph-name="Uring" unicode="&#x16e;" horiz-adv-x="1041" 
d="M961 344q0 -184 -106 -274t-334 -90q-229 0 -334.5 89.5t-105.5 274.5v362h153v-359q0 -64 20.5 -114.5t84 -84.5t182.5 -34t182 34t83.5 84.5t20.5 114.5v359h154v-362zM308 912q0 132 213 132t213 -132t-213 -132t-213 132zM628 912q0 59 -107 59t-107 -59t107 -59
t107 59z" />
    <glyph glyph-name="uring" unicode="&#x16f;" horiz-adv-x="987" 
d="M759 586h147v-586h-147v132q-58 -74 -142 -113t-204 -39q-158 0 -244.5 73t-87.5 235v298h148v-257q0 -113 52.5 -167t181.5 -54q135 0 215.5 62.5t80.5 182.5v233zM273 792q0 132 213 132t213 -132t-213 -132t-213 132zM593 792q0 59 -107 59t-107 -59t107 -59t107 59z
" />
    <glyph glyph-name="Uhungarumlaut" unicode="&#x170;" horiz-adv-x="1041" 
d="M961 344q0 -184 -106 -274t-334 -90q-229 0 -334.5 89.5t-105.5 274.5v362h153v-359q0 -64 20.5 -114.5t84 -84.5t182.5 -34t182 34t83.5 84.5t20.5 114.5v359h154v-362zM304 806v107l207 80v-107zM571 806v107l207 80v-107z" />
    <glyph glyph-name="uhungarumlaut" unicode="&#x171;" horiz-adv-x="987" 
d="M759 586h147v-586h-147v132q-58 -74 -142 -113t-204 -39q-158 0 -244.5 73t-87.5 235v298h148v-257q0 -113 52.5 -167t181.5 -54q135 0 215.5 62.5t80.5 182.5v233zM269 686v107l207 80v-107zM536 686v107l207 80v-107z" />
    <glyph glyph-name="Uogonek" unicode="&#x172;" horiz-adv-x="1041" 
d="M807 706h154v-362q0 -145 -65.5 -231.5t-202.5 -116.5q-53 -13 -70 -27t-17 -35q0 -24 21.5 -35.5t53 -14t86.5 -2.5v-112q-105 0 -164.5 7.5t-91.5 31.5t-32 71q0 71 99 102q-36 -2 -57 -2q-229 0 -334.5 89.5t-105.5 274.5v362h153v-359q0 -64 20.5 -114.5t84 -84.5
t182.5 -34t182 34t83.5 84.5t20.5 114.5v359z" />
    <glyph glyph-name="uogonek" unicode="&#x173;" horiz-adv-x="987" 
d="M906 0q-116 -9 -116 -78q0 -36 30 -48t86 -12v-112q-126 0 -193 31.5t-67 100.5q0 45 34 72.5t97 45.5h-18v132q-58 -74 -142 -113t-204 -39q-158 0 -244.5 73t-87.5 235v298h148v-257q0 -113 52.5 -167t181.5 -54q135 0 215.5 62.5t80.5 182.5v233h147v-586z" />
    <glyph glyph-name="Wcircumflex" unicode="&#x174;" horiz-adv-x="1635" 
d="M1165 127l238 579h161l-295 -706h-208l-245 593l-256 -593h-209l-280 706h161l225 -579l250 579h220zM611 900l207 80l207 -80v-107l-207 80l-207 -80v107z" />
    <glyph glyph-name="wcircumflex" unicode="&#x175;" horiz-adv-x="1525" 
d="M1087 100l216 486h154l-260 -586h-218l-216 448l-217 -448h-218l-260 586h153l217 -487l233 487h183zM556 780l207 80l207 -80v-107l-207 80l-207 -80v107z" />
    <glyph glyph-name="Ycircumflex" unicode="&#x176;" horiz-adv-x="1130" 
d="M565 364l295 342h199l-414 -473v-233h-161v233l-413 473h199zM358 900l207 80l207 -80v-107l-207 80l-207 -80v107z" />
    <glyph glyph-name="ycircumflex" unicode="&#x177;" horiz-adv-x="1011" 
d="M787 586h160l-342 -625q-41 -76 -81 -123t-93 -72.5t-126 -25.5q-52 0 -98.5 6t-100.5 17v124q97 -22 173 -22q44 0 74.5 10.5t56 38t52.5 78.5l4 8h-78l-320 586h162l278 -510zM305 780l207 80l207 -80v-107l-207 80l-207 -80v107z" />
    <glyph glyph-name="Ydieresis" unicode="&#x178;" horiz-adv-x="1130" 
d="M565 364l295 342h199l-414 -473v-233h-161v233l-413 473h199zM352 820v100h166v-100h-166zM612 820v100h166v-100h-166z" />
    <glyph glyph-name="Zacute" unicode="&#x179;" horiz-adv-x="958" 
d="M81 706h796v-134l-563 -438h563v-134h-796v134l562 438h-562v134zM284 798v102l389 80v-102z" />
    <glyph glyph-name="zacute" unicode="&#x17a;" horiz-adv-x="862" 
d="M81 586h700v-122l-482 -342h482v-122h-700v122l482 342h-482v122zM236 678v102l389 80v-102z" />
    <glyph glyph-name="Zdotaccent" unicode="&#x17b;" horiz-adv-x="958" 
d="M81 706h796v-134l-563 -438h563v-134h-796v134l562 438h-562v134zM393 820v100h172v-100h-172z" />
    <glyph glyph-name="zdotaccent" unicode="&#x17c;" horiz-adv-x="862" 
d="M81 586h700v-122l-482 -342h482v-122h-700v122l482 342h-482v122zM345 700v100h172v-100h-172z" />
    <glyph glyph-name="Zcaron" unicode="&#x17d;" horiz-adv-x="958" 
d="M81 706h796v-134l-563 -438h563v-134h-796v134l562 438h-562v134zM272 969l207 -80l207 80v-107l-207 -80l-207 80v107z" />
    <glyph glyph-name="zcaron" unicode="&#x17e;" horiz-adv-x="862" 
d="M81 586h700v-122l-482 -342h482v-122h-700v122l482 342h-482v122zM224 849l207 -80l207 80v-107l-207 -80l-207 80v107z" />
    <glyph glyph-name="uni0218" unicode="&#x218;" horiz-adv-x="1035" 
d="M234 230q0 -62 69.5 -93.5t237.5 -31.5q142 0 201 23.5t59 72.5q0 35 -21.5 51.5t-79.5 25t-189 17.5q-152 9 -241.5 32.5t-132.5 69t-43 122.5q0 109 106.5 158t304.5 49q203 0 315.5 -60.5t114.5 -177.5h-164q0 41 -28.5 66t-89.5 36t-162 11q-91 0 -142 -9.5t-71 -28
t-20 -48.5q0 -32 21 -49t76.5 -26.5t168.5 -17.5q168 -12 253.5 -27.5t136.5 -58t51 -128.5q0 -128 -110 -178t-310 -50q-228 0 -347.5 57.5t-126.5 192.5h163zM446 -193v106h145v-106l-76 -110h-69l54 110h-54z" />
    <glyph glyph-name="uni0219" unicode="&#x219;" horiz-adv-x="949" 
d="M225 198q4 -37 30 -59t84 -32.5t158 -10.5q96 0 144.5 8t65.5 23.5t17 44.5q0 27 -17.5 39.5t-67 19.5t-171.5 16q-141 10 -217.5 24.5t-117 49t-40.5 99.5q0 103 102 144.5t279 41.5q178 0 278.5 -41t109.5 -150h-158q-3 32 -28 49t-75.5 23.5t-138.5 6.5
q-117 0 -164.5 -16.5t-47.5 -47.5q0 -22 17.5 -33t67.5 -19t163 -17l37 -3q131 -11 198 -24t108 -48.5t41 -106.5q0 -113 -94.5 -156t-280.5 -43q-203 0 -319 46.5t-120 171.5h157zM402 -193v106h145v-106l-76 -110h-69l54 110h-54z" />
    <glyph glyph-name="uni021A" unicode="&#x21a;" horiz-adv-x="1001" 
d="M931 706v-134h-353v-572h-154v572h-353v134h860zM429 -183v106h145v-106l-76 -110h-69l54 110h-54z" />
    <glyph glyph-name="uni021B" unicode="&#x21b;" horiz-adv-x="738" 
d="M664 464h-287v-212q0 -59 10.5 -89t38.5 -42.5t85 -12.5q63 0 153 13v-123q-105 -18 -187 -18q-93 0 -146.5 23t-77 76.5t-23.5 148.5v236h-162v122h162v131l147 46v-177h287v-122zM379 -186v106h145v-106l-76 -110h-69l54 110h-54z" />
    <glyph glyph-name="circumflex" unicode="&#x2c6;" horiz-adv-x="575" 
d="M81 780l207 80l207 -80v-107l-207 80l-207 -80v107z" />
    <glyph glyph-name="caron" unicode="&#x2c7;" horiz-adv-x="575" 
d="M81 849l207 -80l207 80v-107l-207 -80l-207 80v107z" />
    <glyph glyph-name="breve" unicode="&#x2d8;" horiz-adv-x="615" 
d="M187 853q0 -53 31 -75t90 -22t89.5 22t30.5 75h107q0 -107 -60.5 -148.5t-166.5 -41.5t-166.5 41.5t-60.5 148.5h106z" />
    <glyph glyph-name="dotaccent" unicode="&#x2d9;" horiz-adv-x="334" 
d="M81 700v100h172v-100h-172z" />
    <glyph glyph-name="ring" unicode="&#x2da;" horiz-adv-x="588" 
d="M81 792q0 132 213 132t213 -132t-213 -132t-213 132zM401 792q0 59 -107 59t-107 -59t107 -59t107 59z" />
    <glyph glyph-name="ogonek" unicode="&#x2db;" horiz-adv-x="449" 
d="M369 -230q-101 0 -163 9.5t-95 34.5t-33 73q0 35 20.5 60t63.5 53h93q-24 -20 -37.5 -35.5t-13.5 -36.5q0 -27 22.5 -39.5t55 -15.5t87.5 -3v-100z" />
    <glyph glyph-name="tilde" unicode="&#x2dc;" horiz-adv-x="754" 
d="M81 674q0 85 41 142t126 57q46 0 78 -14.5t71 -42.5q28 -20 47.5 -30t42.5 -10q33 0 46.5 23.5t13.5 66.5h126q0 -85 -41.5 -142t-125.5 -57q-46 0 -79 15t-70 42q-29 21 -48.5 30.5t-41.5 9.5q-33 0 -46.5 -23.5t-13.5 -66.5h-126z" />
    <glyph glyph-name="hungarumlaut" unicode="&#x2dd;" horiz-adv-x="635" 
d="M81 686v107l207 80v-107zM348 686v107l207 80v-107z" />
    <glyph glyph-name="gravecomb" unicode="&#x300;" 
d="M-483 860l389 -80v-102l-389 80v102z" />
    <glyph glyph-name="acutecomb" unicode="&#x301;" 
d="M-469 678v102l389 80v-102z" />
    <glyph glyph-name="uni0302" unicode="&#x302;" 
d="M-494 780l207 80l207 -80v-107l-207 80l-207 -80v107z" />
    <glyph glyph-name="tildecomb" unicode="&#x303;" 
d="M-673 674q0 85 41 142t126 57q46 0 78 -14.5t71 -42.5q28 -20 47.5 -30t42.5 -10q33 0 46.5 23.5t13.5 66.5h126q0 -85 -41.5 -142t-125.5 -57q-46 0 -79 15t-70 42q-29 21 -48.5 30.5t-41.5 9.5q-33 0 -46.5 -23.5t-13.5 -66.5h-126z" />
    <glyph glyph-name="uni0304" unicode="&#x304;" 
d="M-549 700v100h469v-100h-469z" />
    <glyph glyph-name="uni0306" unicode="&#x306;" 
d="M-428 853q0 -53 31 -75t90 -22t89.5 22t30.5 75h107q0 -107 -60.5 -148.5t-166.5 -41.5t-166.5 41.5t-60.5 148.5h106z" />
    <glyph glyph-name="uni0307" unicode="&#x307;" 
d="M-253 700v100h172v-100h-172z" />
    <glyph glyph-name="uni0308" unicode="&#x308;" 
d="M-507 700v100h166v-100h-166zM-247 700v100h166v-100h-166z" />
    <glyph glyph-name="uni030A" unicode="&#x30a;" 
d="M-507 792q0 132 213 132t213 -132t-213 -132t-213 132zM-187 792q0 59 -107 59t-107 -59t107 -59t107 59z" />
    <glyph glyph-name="uni030B" unicode="&#x30b;" 
d="M-554 686v107l207 80v-107zM-287 686v107l207 80v-107z" />
    <glyph glyph-name="uni030C" unicode="&#x30c;" 
d="M-494 849l207 -80l207 80v-107l-207 -80l-207 80v107z" />
    <glyph glyph-name="uni0312" unicode="&#x312;" 
d="M-80 813v-106h-145v106l75 110h70l-55 -110h55z" />
    <glyph glyph-name="uni0326" unicode="&#x326;" 
d="M-225 -183v106h145v-106l-76 -110h-69l54 110h-54z" />
    <glyph glyph-name="uni0327" unicode="&#x327;" 
d="M-108 -73.5q28 -19.5 28 -54.5q0 -56 -60 -82.5t-155 -26.5q-41 0 -101 7v84q79 -12 125 -12q64 0 64 29q0 23 -34 23q-25 0 -60 -15l-69 26l19 95h105l-15 -70q34 16 80 16q45 0 73 -19.5z" />
    <glyph glyph-name="uni0328" unicode="&#x328;" 
d="M-80 -230q-101 0 -163 9.5t-95 34.5t-33 73q0 35 20.5 60t63.5 53h93q-24 -20 -37.5 -35.5t-13.5 -36.5q0 -27 22.5 -39.5t55 -15.5t87.5 -3v-100z" />
    <glyph glyph-name="uni0335" unicode="&#x335;" 
d="M-560 290v100h480v-100h-480z" />
    <glyph glyph-name="uni0336" unicode="&#x336;" 
d="M-1080 290v100h1000v-100h-1000z" />
    <glyph glyph-name="uni0337" unicode="&#x337;" 
d="M-229 745h148l-267 -895h-148z" />
    <glyph glyph-name="uni0338" unicode="&#x338;" 
d="M-212 720h132l-260 -870h-132z" />
    <glyph glyph-name="Wgrave" unicode="&#x1e80;" horiz-adv-x="1635" 
d="M1165 127l238 579h161l-295 -706h-208l-245 593l-256 -593h-209l-280 706h161l225 -579l250 579h220zM622 980l389 -80v-102l-389 80v102z" />
    <glyph glyph-name="wgrave" unicode="&#x1e81;" horiz-adv-x="1525" 
d="M1087 100l216 486h154l-260 -586h-218l-216 448l-217 -448h-218l-260 586h153l217 -487l233 487h183zM568 860l389 -80v-102l-389 80v102z" />
    <glyph glyph-name="Wacute" unicode="&#x1e82;" horiz-adv-x="1635" 
d="M1165 127l238 579h161l-295 -706h-208l-245 593l-256 -593h-209l-280 706h161l225 -579l250 579h220zM623 798v102l389 80v-102z" />
    <glyph glyph-name="wacute" unicode="&#x1e83;" horiz-adv-x="1525" 
d="M1087 100l216 486h154l-260 -586h-218l-216 448l-217 -448h-218l-260 586h153l217 -487l233 487h183zM568 678v102l389 80v-102z" />
    <glyph glyph-name="Wdieresis" unicode="&#x1e84;" horiz-adv-x="1635" 
d="M1165 127l238 579h161l-295 -706h-208l-245 593l-256 -593h-209l-280 706h161l225 -579l250 579h220zM605 820v100h166v-100h-166zM865 820v100h166v-100h-166z" />
    <glyph glyph-name="wdieresis" unicode="&#x1e85;" horiz-adv-x="1525" 
d="M1087 100l216 486h154l-260 -586h-218l-216 448l-217 -448h-218l-260 586h153l217 -487l233 487h183zM550 700v100h166v-100h-166zM810 700v100h166v-100h-166z" />
    <glyph glyph-name="Ygrave" unicode="&#x1ef2;" horiz-adv-x="1130" 
d="M565 364l295 342h199l-414 -473v-233h-161v233l-413 473h199zM370 980l389 -80v-102l-389 80v102z" />
    <glyph glyph-name="ygrave" unicode="&#x1ef3;" horiz-adv-x="1011" 
d="M787 586h160l-342 -625q-41 -76 -81 -123t-93 -72.5t-126 -25.5q-52 0 -98.5 6t-100.5 17v124q97 -22 173 -22q44 0 74.5 10.5t56 38t52.5 78.5l4 8h-78l-320 586h162l278 -510zM317 860l389 -80v-102l-389 80v102z" />
    <glyph glyph-name="endash" unicode="&#x2013;" horiz-adv-x="1201" 
d="M101 279v122h1000v-122h-1000z" />
    <glyph glyph-name="emdash" unicode="&#x2014;" horiz-adv-x="1401" 
d="M101 279v122h1200v-122h-1200z" />
    <glyph glyph-name="quoteleft" unicode="&#x2018;" horiz-adv-x="373" 
d="M245 428h-154l63 338h131z" />
    <glyph glyph-name="quoteright" unicode="&#x2019;" horiz-adv-x="369" 
d="M128 766h154l-63 -338h-131z" />
    <glyph glyph-name="quotesinglbase" unicode="&#x201a;" horiz-adv-x="319" 
d="M81 0v125h150v-125l-74 -193h-70l47 193h-53z" />
    <glyph glyph-name="quotedblleft" unicode="&#x201c;" horiz-adv-x="607" 
d="M245 428h-154l63 338h131zM479 428h-154l63 338h131z" />
    <glyph glyph-name="quotedblright" unicode="&#x201d;" horiz-adv-x="607" 
d="M128 766h154l-63 -338h-131zM362 766h154l-63 -338h-131z" />
    <glyph glyph-name="quotedblbase" unicode="&#x201e;" horiz-adv-x="553" 
d="M315 0v125h150v-125l-74 -193h-70l47 193h-53zM81 0v125h150v-125l-74 -193h-70l47 193h-53z" />
    <glyph glyph-name="dagger" unicode="&#x2020;" horiz-adv-x="893" 
d="M518 586h294v-128h-294v-608h-142v608h-295v128h295v214h142v-214z" />
    <glyph glyph-name="daggerdbl" unicode="&#x2021;" horiz-adv-x="893" 
d="M812 586v-128h-294v-266h294v-128h-294v-214h-142v214h-295v128h295v266h-295v128h295v214h142v-214h294z" />
    <glyph glyph-name="bullet" unicode="&#x2022;" horiz-adv-x="457" 
d="M117 240.5q-36 25.5 -36 80.5q0 54 36 79.5t112 25.5q75 0 111.5 -25.5t36.5 -79.5t-36.5 -80t-111.5 -26q-76 0 -112 25.5z" />
    <glyph glyph-name="ellipsis" unicode="&#x2026;" horiz-adv-x="823" 
d="M81 0v125h150v-125h-150zM333 0v125h150v-125h-150zM585 0v125h150v-125h-150z" />
    <glyph glyph-name="perthousand" unicode="&#x2030;" horiz-adv-x="2103" 
d="M198 283q-61 34 -89 88.5t-28 116.5t28 116t89 88t154 34t154.5 -34t89.5 -88t28 -116t-28 -116.5t-89.5 -88.5t-154.5 -34t-154 34zM939 706h158l-534 -706h-159zM450.5 395.5q34.5 33.5 34.5 92.5t-34.5 92.5t-98.5 33.5t-98.5 -33.5t-34.5 -92.5t34.5 -92.5
t98.5 -33.5t98.5 33.5zM996 14q-61 34 -89.5 88.5t-28.5 116.5q0 61 28.5 115.5t89.5 88.5t154 34t154.5 -34t89.5 -88t28 -116t-28 -116.5t-89.5 -88.5t-154.5 -34t-154 34zM1596 14q-61 34 -89 88.5t-28 116.5t28 116t89 88t154 34q94 0 155 -34t89 -88t28 -116
t-28 -116.5t-89 -88.5t-155 -34q-93 0 -154 34zM1248.5 126.5q34.5 33.5 34.5 92.5t-34.5 92.5t-98.5 33.5t-98.5 -33.5t-34.5 -92.5t34.5 -92.5t98.5 -33.5t98.5 33.5zM1849 126.5q35 33.5 35 92.5t-34.5 92.5t-99.5 33.5q-64 0 -98 -33.5t-34 -92.5t34 -92.5t98 -33.5
t99 33.5z" />
    <glyph glyph-name="guilsinglleft" unicode="&#x2039;" horiz-adv-x="618" 
d="M81 293l260 293h197l-260 -293l260 -293h-197z" />
    <glyph glyph-name="guilsinglright" unicode="&#x203a;" horiz-adv-x="618" 
d="M81 586h197l260 -293l-260 -293h-197l260 293z" />
    <glyph glyph-name="fraction" unicode="&#x2044;" horiz-adv-x="582" 
d="M351 745h148l-267 -895h-148z" />
    <glyph glyph-name="Euro" unicode="&#x20ac;" horiz-adv-x="895" 
d="M411 563q-55 -32 -74 -100h361v-74h-373q-1 -12 -1 -38q0 -22 1 -32h373v-74h-362q19 -69 74 -101.5t160 -32.5q54 0 107.5 7.5t136.5 25.5v-131q-86 -18 -148.5 -25.5t-135.5 -7.5q-311 0 -360 265h-89v74h81q-1 10 -1 32q0 26 1 38h-81v74h90q25 124 113 193.5
t246 69.5q73 0 135.5 -7.5t148.5 -25.5v-131q-83 18 -136.5 25.5t-107.5 7.5q-104 0 -159 -32z" />
    <glyph glyph-name="trademark" unicode="&#x2122;" horiz-adv-x="1127" 
d="M254 634h-173v66h416v-66h-173v-271h-70v271zM617 363h-70v337h110l139 -274l140 274h110v-337h-70v265l-136 -265h-87l-136 265v-265z" />
    <glyph glyph-name="arrowleft" unicode="&#x2190;" horiz-adv-x="861" 
d="M781 408v-116h-485l154 -156l-87 -84l-282 299l282 297l87 -84l-154 -156h485z" />
    <glyph glyph-name="arrowup" unicode="&#x2191;" horiz-adv-x="757" 
d="M437 521v-484h-116v484l-156 -154l-84 87l297 283l299 -283l-84 -87z" />
    <glyph glyph-name="arrowright" unicode="&#x2192;" horiz-adv-x="861" 
d="M565 292h-484v116h484l-154 156l87 84l283 -297l-283 -299l-87 84z" />
    <glyph glyph-name="arrowdown" unicode="&#x2193;" horiz-adv-x="757" 
d="M321 666h116v-484l156 154l84 -87l-299 -283l-297 283l84 87l156 -154v484z" />
    <glyph glyph-name="arrowboth" unicode="&#x2194;" horiz-adv-x="1479" 
d="M1029 564l87 84l283 -297l-283 -299l-87 84l154 156h-887l154 -156l-87 -84l-282 299l282 297l87 -84l-154 -156h887z" />
    <glyph glyph-name="arrowupdn" unicode="&#x2195;" horiz-adv-x="757" 
d="M437 22l156 154l84 -87l-299 -283l-297 283l84 87l156 -154v586l-156 -155l-84 87l297 283l299 -283l-84 -87l-156 155v-586z" />
    <glyph glyph-name="uni2196" unicode="&#x2196;" horiz-adv-x="708" 
d="M627 181l-81 -82l-343 343l-1 -220l-121 2l11 412l410 10l2 -121l-219 -1z" />
    <glyph glyph-name="uni2197" unicode="&#x2197;" horiz-adv-x="708" 
d="M505 440l-343 -343l-82 82l343 342l-220 2l3 121l410 -10l11 -412l-121 -2z" />
    <glyph glyph-name="uni2198" unicode="&#x2198;" horiz-adv-x="708" 
d="M80 521l82 82l343 -343l1 220l121 -2l-11 -412l-410 -10l-3 121l220 2z" />
    <glyph glyph-name="uni2199" unicode="&#x2199;" horiz-adv-x="708" 
d="M203 260l343 343l81 -82l-342 -342l219 -2l-2 -121l-410 10l-11 412l121 2z" />
    <glyph glyph-name="emptyset" unicode="&#x2205;" horiz-adv-x="1177" 
d="M978 663q56 -60 84.5 -140t28.5 -172q0 -132 -58 -237t-171 -166t-273 -61q-181 0 -306 81l-116 -116l-77 77l109 109q-56 61 -84.5 141t-28.5 172q0 131 58.5 236t172 165.5t272.5 60.5q181 0 306 -79l114 114l77 -77zM303 142l491 491q-83 49 -205 49
q-165 0 -255.5 -87.5t-90.5 -243.5q0 -126 60 -209zM843 106q90 88 90 245q0 128 -59 208l-491 -491q83 -50 206 -50q164 0 254 88z" />
    <glyph glyph-name="product" unicode="&#x220f;" horiz-adv-x="1218" 
d="M1138 800v-128h-218v-822h-141v822h-374v-822h-141v822h-183v128h1057z" />
    <glyph glyph-name="minus" unicode="&#x2212;" horiz-adv-x="961" 
d="M81 279v122h800v-122h-800z" />
    <glyph glyph-name="integral" unicode="&#x222b;" horiz-adv-x="1034" 
d="M81 -22q91 0 149 9.5t111.5 57.5t71.5 153l48 254q31 163 104 238.5t160.5 92.5t228.5 17v-128q-92 0 -150 -9.5t-111.5 -57.5t-71.5 -153l-48 -254q-31 -163 -104 -238.5t-160 -92.5t-228 -17v128z" />
    <glyph glyph-name="approxequal" unicode="&#x2248;" horiz-adv-x="961" 
d="M81 380q0 137 52 214.5t165 77.5q45 0 81.5 -13t63.5 -31t63 -48q43 -35 72.5 -52t66.5 -17q49 0 71.5 37.5t22.5 123.5h142q0 -137 -52 -214.5t-165 -77.5q-65 0 -110 23.5t-99 68.5q-43 35 -72.5 52t-66.5 17q-49 0 -71 -37t-22 -124h-142zM81 14q0 137 52 214.5
t165 77.5q45 0 81.5 -13t63.5 -31t63 -48q43 -35 72.5 -52t66.5 -17q49 0 71.5 37.5t22.5 123.5h142q0 -137 -52 -214.5t-165 -77.5q-65 0 -110 23.5t-99 68.5q-43 35 -72.5 52t-66.5 17q-49 0 -71 -37t-22 -124h-142z" />
    <glyph glyph-name="notequal" unicode="&#x2260;" horiz-adv-x="961" 
d="M881 561v-122h-290l-59 -198h349v-122h-386l-68 -227h-147l68 227h-267v122h303l59 198h-362v122h399l67 226h148l-68 -226h254z" />
    <glyph glyph-name="lessequal" unicode="&#x2264;" horiz-adv-x="975" 
d="M225 482l656 -123v-137l-800 158v204l800 158v-137zM94 24v122h800v-122h-800z" />
    <glyph glyph-name="greaterequal" unicode="&#x2265;" horiz-adv-x="975" 
d="M81 24v122h800v-122h-800zM95 605v137l800 -158v-204l-800 -158v137l656 123z" />
    <glyph glyph-name="lozenge" unicode="&#x25ca;" horiz-adv-x="969" 
d="M584 800l304 -476l-304 -477h-198l-305 477l305 476h198zM240 324l245 -383l243 383l-243 382z" />
    <glyph glyph-name="A.ss01" horiz-adv-x="1293" 
d="M1223 0h-171l-87 154h-636l-87 -154h-171l393 706h365zM566 572l-166 -293h494l-166 293h-162z" />
    <glyph glyph-name="Aacute.ss01" horiz-adv-x="1293" 
d="M1223 0h-171l-87 154h-636l-87 -154h-171l393 706h365zM566 572l-166 -293h494l-166 293h-162zM452 798v102l389 80v-102z" />
    <glyph glyph-name="Abreve.ss01" horiz-adv-x="1293" 
d="M1223 0h-171l-87 154h-636l-87 -154h-171l393 706h365zM566 572l-166 -293h494l-166 293h-162zM526 973q0 -53 31 -75t90 -22t89.5 22t30.5 75h107q0 -107 -60.5 -148.5t-166.5 -41.5t-166.5 41.5t-60.5 148.5h106z" />
    <glyph glyph-name="Acircumflex.ss01" horiz-adv-x="1293" 
d="M1223 0h-171l-87 154h-636l-87 -154h-171l393 706h365zM566 572l-166 -293h494l-166 293h-162zM440 900l207 80l207 -80v-107l-207 80l-207 -80v107z" />
    <glyph glyph-name="Adieresis.ss01" horiz-adv-x="1293" 
d="M1223 0h-171l-87 154h-636l-87 -154h-171l393 706h365zM566 572l-166 -293h494l-166 293h-162zM434 820v100h166v-100h-166zM694 820v100h166v-100h-166z" />
    <glyph glyph-name="Agrave.ss01" horiz-adv-x="1293" 
d="M1223 0h-171l-87 154h-636l-87 -154h-171l393 706h365zM566 572l-166 -293h494l-166 293h-162zM452 980l389 -80v-102l-389 80v102z" />
    <glyph glyph-name="Amacron.ss01" horiz-adv-x="1293" 
d="M1223 0h-171l-87 154h-636l-87 -154h-171l393 706h365zM566 572l-166 -293h494l-166 293h-162zM412 820v100h469v-100h-469z" />
    <glyph glyph-name="Aogonek.ss01" horiz-adv-x="1293" 
d="M1223 0h-171l-87 154h-636l-87 -154h-171l393 706h365zM566 572l-166 -293h494l-166 293h-162zM1285 -230q-101 0 -163 9.5t-95 34.5t-33 73q0 35 20.5 60t63.5 53h93q-24 -20 -37.5 -35.5t-13.5 -36.5q0 -27 22.5 -39.5t55 -15.5t87.5 -3v-100z" />
    <glyph glyph-name="Aring.ss01" horiz-adv-x="1293" 
d="M1223 0h-171l-87 154h-636l-87 -154h-171l393 706h365zM566 572l-166 -293h494l-166 293h-162zM434 912q0 132 213 132t213 -132t-213 -132t-213 132zM754 912q0 59 -107 59t-107 -59t107 -59t107 59z" />
    <glyph glyph-name="Atilde.ss01" horiz-adv-x="1293" 
d="M1223 0h-171l-87 154h-636l-87 -154h-171l393 706h365zM566 572l-166 -293h494l-166 293h-162zM351 794q0 85 41 142t126 57q46 0 78 -14.5t71 -42.5q28 -20 47.5 -30t42.5 -10q33 0 46.5 23.5t13.5 66.5h126q0 -85 -41.5 -142t-125.5 -57q-46 0 -79 15t-70 42
q-29 21 -48.5 30.5t-41.5 9.5q-33 0 -46.5 -23.5t-13.5 -66.5h-126z" />
    <glyph glyph-name="K.ss01" horiz-adv-x="1031" 
d="M752 706h205l-354 -353l354 -353h-205l-292 286h-226v-286h-153v706h153v-286h225z" />
    <glyph glyph-name="uni0136.ss01" horiz-adv-x="1031" 
d="M752 706h205l-354 -353l354 -353h-205l-292 286h-226v-286h-153v706h153v-286h225zM403 -183v106h145v-106l-76 -110h-69l54 110h-54z" />
    <glyph glyph-name="R.ss01" horiz-adv-x="975" 
d="M861 310.5q-43 -60.5 -120 -86.5l156 -224h-181l-140 208h-342v-208h-153v706h552q125 0 198 -66t73 -183q0 -86 -43 -146.5zM234 575v-236h340q50 0 83.5 6t58.5 32t25 80t-25 80t-58.5 32t-83.5 6h-340z" />
    <glyph glyph-name="Racute.ss01" horiz-adv-x="975" 
d="M861 310.5q-43 -60.5 -120 -86.5l156 -224h-181l-140 208h-342v-208h-153v706h552q125 0 198 -66t73 -183q0 -86 -43 -146.5zM234 575v-236h340q50 0 83.5 6t58.5 32t25 80t-25 80t-58.5 32t-83.5 6h-340zM261 798v102l389 80v-102z" />
    <glyph glyph-name="Rcaron.ss01" horiz-adv-x="975" 
d="M861 310.5q-43 -60.5 -120 -86.5l156 -224h-181l-140 208h-342v-208h-153v706h552q125 0 198 -66t73 -183q0 -86 -43 -146.5zM234 575v-236h340q50 0 83.5 6t58.5 32t25 80t-25 80t-58.5 32t-83.5 6h-340zM249 969l207 -80l207 80v-107l-207 -80l-207 80v107z" />
    <glyph glyph-name="uni0156.ss01" horiz-adv-x="975" 
d="M861 310.5q-43 -60.5 -120 -86.5l156 -224h-181l-140 208h-342v-208h-153v706h552q125 0 198 -66t73 -183q0 -86 -43 -146.5zM234 575v-236h340q50 0 83.5 6t58.5 32t25 80t-25 80t-58.5 32t-83.5 6h-340zM397 -183v106h145v-106l-76 -110h-69l54 110h-54z" />
    <glyph glyph-name="V.ss01" horiz-adv-x="1293" 
d="M1052 706h171l-394 -706h-365l-393 706h171l324 -572h162z" />
    <glyph glyph-name="W.ss01" horiz-adv-x="1825" 
d="M1353 134l239 572h162l-294 -706h-342l-205 561l-206 -561h-342l-294 706h162l239 -572h125l211 572h209l211 -572h125z" />
    <glyph glyph-name="Wacute.ss01" horiz-adv-x="1825" 
d="M1353 134l239 572h162l-294 -706h-342l-205 561l-206 -561h-342l-294 706h162l239 -572h125l211 572h209l211 -572h125zM718 798v102l389 80v-102z" />
    <glyph glyph-name="Wcircumflex.ss01" horiz-adv-x="1825" 
d="M1353 134l239 572h162l-294 -706h-342l-205 561l-206 -561h-342l-294 706h162l239 -572h125l211 572h209l211 -572h125zM706 900l207 80l207 -80v-107l-207 80l-207 -80v107z" />
    <glyph glyph-name="Wdieresis.ss01" horiz-adv-x="1825" 
d="M1353 134l239 572h162l-294 -706h-342l-205 561l-206 -561h-342l-294 706h162l239 -572h125l211 572h209l211 -572h125zM700 820v100h166v-100h-166zM960 820v100h166v-100h-166z" />
    <glyph glyph-name="Wgrave.ss01" horiz-adv-x="1825" 
d="M1353 134l239 572h162l-294 -706h-342l-205 561l-206 -561h-342l-294 706h162l239 -572h125l211 572h209l211 -572h125zM718 980l389 -80v-102l-389 80v102z" />
    <glyph glyph-name="i.loclTRK" horiz-adv-x="316" 
d="M68 688v112h180v-112h-180zM81 0v586h154v-586h-154z" />
    <glyph glyph-name="a.001" horiz-adv-x="938" 
d="M701 576.5q82 -29.5 123.5 -96.5t42.5 -180v-300h-147v74q-93 -43 -187 -67t-195 -24q-277 0 -277 198q0 108 98 156.5t254 48.5q150 0 307 -44q-3 85 -78.5 115.5t-169.5 30.5q-72 0 -149 -11t-170 -40l-43 111q98 29 189.5 43.5t191.5 14.5q128 0 210 -29.5zM543 123.5
q95 21.5 177 50.5v59q-151 41 -294 41q-208 0 -208 -89q0 -49 40.5 -66t125.5 -17q64 0 159 21.5z" />
    <glyph glyph-name="a.ss01" horiz-adv-x="970" 
d="M735 584h155v-586h-155v103q-44 -59 -121.5 -90t-183.5 -31q-102 0 -183.5 34t-130 104t-48.5 175t48.5 175t130 104t183.5 34q106 0 183.5 -31t121.5 -90v99zM667.5 157q67.5 49 67.5 136q0 88 -67 136.5t-191 48.5t-188 -48.5t-64 -136.5t64.5 -136.5t187.5 -48.5
t190.5 49z" />
    <glyph glyph-name="aacute.ss01" horiz-adv-x="970" 
d="M735 584h155v-586h-155v103q-44 -59 -121.5 -90t-183.5 -31q-102 0 -183.5 34t-130 104t-48.5 175t48.5 175t130 104t183.5 34q106 0 183.5 -31t121.5 -90v99zM667.5 157q67.5 49 67.5 136q0 88 -67 136.5t-191 48.5t-188 -48.5t-64 -136.5t64.5 -136.5t187.5 -48.5
t190.5 49zM289 678v102l389 80v-102z" />
    <glyph glyph-name="abreve.ss01" horiz-adv-x="970" 
d="M735 584h155v-586h-155v103q-44 -59 -121.5 -90t-183.5 -31q-102 0 -183.5 34t-130 104t-48.5 175t48.5 175t130 104t183.5 34q106 0 183.5 -31t121.5 -90v99zM667.5 157q67.5 49 67.5 136q0 88 -67 136.5t-191 48.5t-188 -48.5t-64 -136.5t64.5 -136.5t187.5 -48.5
t190.5 49zM363 853q0 -53 31 -75t90 -22t89.5 22t30.5 75h107q0 -107 -60.5 -148.5t-166.5 -41.5t-166.5 41.5t-60.5 148.5h106z" />
    <glyph glyph-name="acircumflex.ss01" horiz-adv-x="970" 
d="M735 584h155v-586h-155v103q-44 -59 -121.5 -90t-183.5 -31q-102 0 -183.5 34t-130 104t-48.5 175t48.5 175t130 104t183.5 34q106 0 183.5 -31t121.5 -90v99zM667.5 157q67.5 49 67.5 136q0 88 -67 136.5t-191 48.5t-188 -48.5t-64 -136.5t64.5 -136.5t187.5 -48.5
t190.5 49zM277 780l207 80l207 -80v-107l-207 80l-207 -80v107z" />
    <glyph glyph-name="adieresis.ss01" horiz-adv-x="970" 
d="M735 584h155v-586h-155v103q-44 -59 -121.5 -90t-183.5 -31q-102 0 -183.5 34t-130 104t-48.5 175t48.5 175t130 104t183.5 34q106 0 183.5 -31t121.5 -90v99zM667.5 157q67.5 49 67.5 136q0 88 -67 136.5t-191 48.5t-188 -48.5t-64 -136.5t64.5 -136.5t187.5 -48.5
t190.5 49zM271 700v100h166v-100h-166zM531 700v100h166v-100h-166z" />
    <glyph glyph-name="agrave.ss01" horiz-adv-x="970" 
d="M735 584h155v-586h-155v103q-44 -59 -121.5 -90t-183.5 -31q-102 0 -183.5 34t-130 104t-48.5 175t48.5 175t130 104t183.5 34q106 0 183.5 -31t121.5 -90v99zM667.5 157q67.5 49 67.5 136q0 88 -67 136.5t-191 48.5t-188 -48.5t-64 -136.5t64.5 -136.5t187.5 -48.5
t190.5 49zM289 860l389 -80v-102l-389 80v102z" />
    <glyph glyph-name="amacron.ss01" horiz-adv-x="970" 
d="M735 584h155v-586h-155v103q-44 -59 -121.5 -90t-183.5 -31q-102 0 -183.5 34t-130 104t-48.5 175t48.5 175t130 104t183.5 34q106 0 183.5 -31t121.5 -90v99zM667.5 157q67.5 49 67.5 136q0 88 -67 136.5t-191 48.5t-188 -48.5t-64 -136.5t64.5 -136.5t187.5 -48.5
t190.5 49zM249 700v100h469v-100h-469z" />
    <glyph glyph-name="aogonek.ss01" horiz-adv-x="970" 
d="M806.5 -111.5q22.5 -12.5 55 -15.5t87.5 -3v-100q-101 0 -163 9.5t-95 34.5t-33 73q0 34 20 59t61 52h-4v103q-44 -59 -121.5 -90t-183.5 -31q-102 0 -183.5 34t-130 104t-48.5 175t48.5 175t130 104t183.5 34q106 0 183.5 -31t121.5 -90v99h155v-586h-57
q-23 -19 -36 -34.5t-13 -35.5q0 -27 22.5 -39.5zM667.5 157q67.5 49 67.5 136q0 88 -67 136.5t-191 48.5t-188 -48.5t-64 -136.5t64.5 -136.5t187.5 -48.5t190.5 49z" />
    <glyph glyph-name="aring.ss01" horiz-adv-x="970" 
d="M735 584h155v-586h-155v103q-44 -59 -121.5 -90t-183.5 -31q-102 0 -183.5 34t-130 104t-48.5 175t48.5 175t130 104t183.5 34q106 0 183.5 -31t121.5 -90v99zM667.5 157q67.5 49 67.5 136q0 88 -67 136.5t-191 48.5t-188 -48.5t-64 -136.5t64.5 -136.5t187.5 -48.5
t190.5 49zM271 792q0 132 213 132t213 -132t-213 -132t-213 132zM591 792q0 59 -107 59t-107 -59t107 -59t107 59z" />
    <glyph glyph-name="atilde.ss01" horiz-adv-x="970" 
d="M735 584h155v-586h-155v103q-44 -59 -121.5 -90t-183.5 -31q-102 0 -183.5 34t-130 104t-48.5 175t48.5 175t130 104t183.5 34q106 0 183.5 -31t121.5 -90v99zM667.5 157q67.5 49 67.5 136q0 88 -67 136.5t-191 48.5t-188 -48.5t-64 -136.5t64.5 -136.5t187.5 -48.5
t190.5 49zM188 674q0 85 41 142t126 57q46 0 78 -14.5t71 -42.5q28 -20 47.5 -30t42.5 -10q33 0 46.5 23.5t13.5 66.5h126q0 -85 -41.5 -142t-125.5 -57q-46 0 -79 15t-70 42q-29 21 -48.5 30.5t-41.5 9.5q-33 0 -46.5 -23.5t-13.5 -66.5h-126z" />
    <glyph glyph-name="g.ss01" horiz-adv-x="992" 
d="M948 586v-86q-29 0 -99 11q39 -45 39 -115q0 -67 -36.5 -113t-126.5 -72t-245 -26q-125 0 -175.5 -2t-71 -10t-20.5 -27t22 -27.5t79 -10.5t195 -2q140 0 228 -14.5t134.5 -53.5t46.5 -111q0 -77 -52 -118t-139.5 -55t-217.5 -14q-137 0 -229 10t-150.5 42t-58.5 95
q0 53 40.5 81.5t102.5 39.5q-136 28 -136 113q0 79 119 102q-68 26 -97 69.5t-29 103.5q0 66 36 112t126.5 72t246.5 26q134 0 222 -20h246zM623 303.5q53 9.5 77.5 32t24.5 60.5t-24.5 60t-77.5 31.5t-143 9.5q-91 0 -144 -9.5t-77.5 -31.5t-24.5 -60t24.5 -60.5t77.5 -32
t144 -9.5q90 0 143 9.5zM748 -32.5q-28 14.5 -83 19t-156 4.5h-27q-103 -1 -156.5 -6t-78.5 -19t-25 -43t32.5 -43.5t91.5 -19t163 -4.5q102 0 156.5 4.5t82.5 18.5t28 44t-28 44.5z" />
    <glyph glyph-name="gbreve.ss01" horiz-adv-x="992" 
d="M948 586v-86q-29 0 -99 11q39 -45 39 -115q0 -67 -36.5 -113t-126.5 -72t-245 -26q-125 0 -175.5 -2t-71 -10t-20.5 -27t22 -27.5t79 -10.5t195 -2q140 0 228 -14.5t134.5 -53.5t46.5 -111q0 -77 -52 -118t-139.5 -55t-217.5 -14q-137 0 -229 10t-150.5 42t-58.5 95
q0 53 40.5 81.5t102.5 39.5q-136 28 -136 113q0 79 119 102q-68 26 -97 69.5t-29 103.5q0 66 36 112t126.5 72t246.5 26q134 0 222 -20h246zM623 303.5q53 9.5 77.5 32t24.5 60.5t-24.5 60t-77.5 31.5t-143 9.5q-91 0 -144 -9.5t-77.5 -31.5t-24.5 -60t24.5 -60.5t77.5 -32
t144 -9.5q90 0 143 9.5zM748 -32.5q-28 14.5 -83 19t-156 4.5h-27q-103 -1 -156.5 -6t-78.5 -19t-25 -43t32.5 -43.5t91.5 -19t163 -4.5q102 0 156.5 4.5t82.5 18.5t28 44t-28 44.5zM357 853q0 -53 31 -75t90 -22t89.5 22t30.5 75h107q0 -107 -60.5 -148.5t-166.5 -41.5
t-166.5 41.5t-60.5 148.5h106z" />
    <glyph glyph-name="uni0123.ss01" horiz-adv-x="992" 
d="M948 586v-86q-29 0 -99 11q39 -45 39 -115q0 -67 -36.5 -113t-126.5 -72t-245 -26q-125 0 -175.5 -2t-71 -10t-20.5 -27t22 -27.5t79 -10.5t195 -2q140 0 228 -14.5t134.5 -53.5t46.5 -111q0 -77 -52 -118t-139.5 -55t-217.5 -14q-137 0 -229 10t-150.5 42t-58.5 95
q0 53 40.5 81.5t102.5 39.5q-136 28 -136 113q0 79 119 102q-68 26 -97 69.5t-29 103.5q0 66 36 112t126.5 72t246.5 26q134 0 222 -20h246zM623 303.5q53 9.5 77.5 32t24.5 60.5t-24.5 60t-77.5 31.5t-143 9.5q-91 0 -144 -9.5t-77.5 -31.5t-24.5 -60t24.5 -60.5t77.5 -32
t144 -9.5q90 0 143 9.5zM748 -32.5q-28 14.5 -83 19t-156 4.5h-27q-103 -1 -156.5 -6t-78.5 -19t-25 -43t32.5 -43.5t91.5 -19t163 -4.5q102 0 156.5 4.5t82.5 18.5t28 44t-28 44.5zM551 813v-106h-145v106l75 110h70l-55 -110h55z" />
    <glyph glyph-name="gdotaccent.ss01" horiz-adv-x="992" 
d="M948 586v-86q-29 0 -99 11q39 -45 39 -115q0 -67 -36.5 -113t-126.5 -72t-245 -26q-125 0 -175.5 -2t-71 -10t-20.5 -27t22 -27.5t79 -10.5t195 -2q140 0 228 -14.5t134.5 -53.5t46.5 -111q0 -77 -52 -118t-139.5 -55t-217.5 -14q-137 0 -229 10t-150.5 42t-58.5 95
q0 53 40.5 81.5t102.5 39.5q-136 28 -136 113q0 79 119 102q-68 26 -97 69.5t-29 103.5q0 66 36 112t126.5 72t246.5 26q134 0 222 -20h246zM623 303.5q53 9.5 77.5 32t24.5 60.5t-24.5 60t-77.5 31.5t-143 9.5q-91 0 -144 -9.5t-77.5 -31.5t-24.5 -60t24.5 -60.5t77.5 -32
t144 -9.5q90 0 143 9.5zM748 -32.5q-28 14.5 -83 19t-156 4.5h-27q-103 -1 -156.5 -6t-78.5 -19t-25 -43t32.5 -43.5t91.5 -19t163 -4.5q102 0 156.5 4.5t82.5 18.5t28 44t-28 44.5zM392 700v100h172v-100h-172z" />
    </font>
</defs>
</svg>
