<?xml version="1.0" standalone="no"?>
<!DOCTYPE svg PUBLIC "-//W3C//DTD SVG 1.1//EN" "http://www.w3.org/Graphics/SVG/1.1/DTD/svg11.dtd" >
<svg xmlns="http://www.w3.org/2000/svg" xmlns:xlink="http://www.w3.org/1999/xlink" version="1.1">
<metadata>
Created by FontForge 20170731 at Fri Oct  2 23:02:24 2020
 By Aleksey,,,
Pangram Pangram
</metadata>
<defs>
<font id="MonumentExtended-Regular" horiz-adv-x="0" >
  <font-face 
    font-family="Monument Extended"
    font-weight="400"
    font-stretch="normal"
    units-per-em="1000"
    panose-1="0 0 5 0 0 0 0 0 0 0"
    ascent="800"
    descent="-200"
    x-height="583"
    cap-height="703"
    bbox="-1087 -301 2007 1078"
    underline-thickness="83"
    underline-position="-142"
    unicode-range="U+0020-25CA"
  />
<missing-glyph horiz-adv-x="550" 
d="M102 800h349v-1100h-349v1100zM366 690v36h-181v-36h71v-41h-72v-36h182v36h-72v41h72zM294 507v77h-110v-114h182v37h-72zM220 547h36v-40h-36v40zM366 404v36h-182v-36h72v-41h-72v-36h110v77h72zM366 264v110h-36v-72h-146v-38h182zM366 116v124h-110v-61h38v25h36
v-52h-110v88h-36v-124h182zM366 -74v124h-182v-124h182zM220 14h110v-52h-110v52zM366 -136v36h-182v-36h77l-77 -52v-36h182v36h-112l77 52h35z" />
    <glyph glyph-name="f_f" unicode="ff" horiz-adv-x="1182" 
d="M963 695q-54 0 -80.5 -8.5t-36.5 -31.5t-11 -72h272v-109h-272v-474h-125v474h-334v-474h-125v474h-176v109h176v14q0 108 56 155.5t177 47.5h157v-105h-137q-54 0 -80.5 -8.5t-36.5 -31.5t-11 -72h334v14q0 108 56 155.5t177 47.5h164v-105h-144z" />
    <glyph glyph-name="f_f_i" unicode="ffi" horiz-adv-x="1380" 
d="M963 695q-54 0 -80.5 -8.5t-36.5 -31.5t-11 -72h459v-583h-125v474h-334v-474h-125v474h-334v-474h-125v474h-176v109h176v14q0 108 56 155.5t177 47.5h167v-105h-147q-54 0 -80.5 -8.5t-36.5 -31.5t-11 -72h334v14q0 108 56 155.5t177 47.5h351v-105h-331z" />
    <glyph glyph-name="f_i" unicode="fi" horiz-adv-x="921" 
d="M504 695q-54 0 -80.5 -8.5t-36.5 -31.5t-11 -72h459v-583h-125v474h-334v-474h-125v474h-176v109h176v14q0 108 56 155.5t177 47.5h351v-105h-331z" />
    <glyph glyph-name="f_l" unicode="fl" horiz-adv-x="947" 
d="M861 800v-800h-125v695h-232q-54 0 -80.5 -8.5t-36.5 -31.5t-11 -72h260v-109h-260v-474h-125v474h-176v109h176v14q0 108 56 155.5t177 47.5h377z" />
    <glyph glyph-name=".notdef" horiz-adv-x="550" 
d="M102 800h349v-1100h-349v1100zM366 690v36h-181v-36h71v-41h-72v-36h182v36h-72v41h72zM294 507v77h-110v-114h182v37h-72zM220 547h36v-40h-36v40zM366 404v36h-182v-36h72v-41h-72v-36h110v77h72zM366 264v110h-36v-72h-146v-38h182zM366 116v124h-110v-61h38v25h36
v-52h-110v88h-36v-124h182zM366 -74v124h-182v-124h182zM220 14h110v-52h-110v52zM366 -136v36h-182v-36h77l-77 -52v-36h182v36h-112l77 52h35z" />
    <glyph glyph-name=".null" 
 />
    <glyph glyph-name="nonmarkingreturn" horiz-adv-x="333" 
 />
    <glyph glyph-name="space" unicode=" " horiz-adv-x="399" 
 />
    <glyph glyph-name="exclam" unicode="!" horiz-adv-x="301" 
d="M86 700h129l-1 -495h-126zM88 0v110h126v-110h-126z" />
    <glyph glyph-name="quotedbl" unicode="&#x22;" horiz-adv-x="560" 
d="M336 763h138l-11 -328h-115zM86 763h138l-11 -328h-115z" />
    <glyph glyph-name="numbersign" unicode="#" horiz-adv-x="1388" 
d="M1281 535v-109h-243l-75 -252h218v-109h-251l-64 -215h-128l64 215h-337l-64 -215h-128l64 215h-231v109h264l75 252h-239v109h272l58 195h128l-58 -195h337l58 195h128l-58 -195h210zM498 174h337l75 252h-337z" />
    <glyph glyph-name="dollar" unicode="$" horiz-adv-x="1067" 
d="M873 31q-107 -49 -298 -51v-80h-83v81q-194 8 -297 65.5t-109 181.5h138q0 -63 60.5 -97t207.5 -40v213q-138 10 -219.5 32.5t-120 66.5t-38.5 117q0 105 97 152t281 51v77h83v-78q178 -8 276 -67.5t99 -168.5h-137q0 61 -55.5 90.5t-182.5 35.5v-203
q149 -11 230.5 -26.5t128 -56.5t46.5 -121q0 -125 -107 -174zM270.5 463q19.5 -18 70.5 -29t151 -19v198q-94 -1 -146.5 -12.5t-73.5 -32.5t-21 -54t19.5 -51zM575 90q142 1 205 28t63 80q0 37 -20.5 55t-75 27.5t-172.5 17.5v-208z" />
    <glyph glyph-name="percent" unicode="%" horiz-adv-x="1498" 
d="M200 283q-60 34 -87 87.5t-27 115.5t27 115.5t87 87.5t154 34t154 -34t87 -87.5t27 -115.5t-27 -115.5t-87 -87.5t-154 -34t-154 34zM952 703h149l-556 -703h-149zM458 388.5q37 34.5 37 97.5t-37 97.5t-104 34.5q-66 0 -103 -34.5t-37 -97.5t37 -97.5t103 -34.5
q67 0 104 34.5zM990 14q-60 34 -87 87.5t-27 115.5t27 115.5t87 87.5t153 34q95 0 155 -34t87 -87.5t27 -115.5t-27 -115.5t-87 -87.5t-155 -34q-93 0 -153 34zM1247 119.5q37 34.5 37 97.5t-37 97.5t-104 34.5q-66 0 -103 -34.5t-37 -97.5t37 -97.5t103 -34.5
q67 0 104 34.5z" />
    <glyph glyph-name="ampersand" unicode="&#x26;" horiz-adv-x="1071" 
d="M985 0h-205l-67 48q-59 -33 -130.5 -50.5t-148.5 -17.5q-171 0 -259.5 51.5t-88.5 147.5q0 76 50.5 119t137.5 73q-41 40 -63 81.5t-22 91.5q0 83 67.5 129.5t178.5 46.5q107 0 174 -44.5t67 -124.5q0 -48 -23 -81t-63 -56.5t-108 -49.5l74 -52l161 -117q48 61 54 148
h128q-6 -125 -88 -217zM321 535q0 -30 21.5 -58.5t63.5 -60.5q57 22 87 39t42.5 35t12.5 42q0 39 -29 61t-85 22q-113 0 -113 -80zM617 119l-138 100l-55 39q-46 31 -78 55q-65 -25 -95.5 -49.5t-30.5 -65.5q0 -56 58.5 -84t168.5 -28q95 0 170 33z" />
    <glyph glyph-name="quotesingle" unicode="'" horiz-adv-x="310" 
d="M86 763h138l-11 -328h-115z" />
    <glyph glyph-name="parenleft" unicode="(" horiz-adv-x="633" 
d="M206 677.5q120 122.5 340 122.5v-111q-150 0 -236.5 -92t-86.5 -296q0 -205 87 -297.5t236 -92.5v-111q-219 0 -339.5 123.5t-120.5 377.5t120 376.5z" />
    <glyph glyph-name="parenright" unicode=")" horiz-adv-x="633" 
d="M425.5 -76.5q-120.5 -123.5 -339.5 -123.5v111q150 0 237 92.5t87 297.5t-87 296.5t-237 91.5v111q220 0 340 -122.5t120 -376.5t-120.5 -377.5z" />
    <glyph glyph-name="asterisk" unicode="*" horiz-adv-x="663" 
d="M138 415l-52 90l163 80l-163 80l52 91l151 -99l-11 145l106 1l-10 -146l151 99l52 -91l-163 -80l163 -80l-52 -90l-151 98l10 -146h-104l10 146z" />
    <glyph glyph-name="plus" unicode="+" horiz-adv-x="973" 
d="M543 394h343v-108h-343v-286h-114v286h-343v108h343v286h114v-286z" />
    <glyph glyph-name="comma" unicode="," horiz-adv-x="299" 
d="M86 0v110h127v-110l-64 -185h-60l42 185h-45z" />
    <glyph glyph-name="hyphen" unicode="-" horiz-adv-x="1013" 
d="M106 286v108h800v-108h-800z" />
    <glyph glyph-name="period" unicode="." horiz-adv-x="299" 
d="M86 0v110h127v-110h-127z" />
    <glyph glyph-name="slash" unicode="/" horiz-adv-x="565" 
d="M351 730h128l-263 -880h-128z" />
    <glyph glyph-name="zero" unicode="0" horiz-adv-x="978" 
d="M181 79.5q-105 99.5 -105 272.5q0 113 46 196.5t138.5 129t228.5 45.5t228 -46t138 -129t46 -196t-46 -196.5t-138 -129.5t-228 -46q-203 0 -308 99.5zM693 160q72 67 72 192t-72 191.5t-204 66.5t-204 -66.5t-72 -191.5t72 -192t204 -67t204 67z" />
    <glyph glyph-name="one" unicode="1" horiz-adv-x="829" 
d="M478 703v-592h265v-111h-657v111h265l1 466l-222 -82l-44 111l260 97h132z" />
    <glyph glyph-name="two" unicode="2" horiz-adv-x="949" 
d="M811.5 376.5q-51.5 -50.5 -125 -77.5t-190.5 -56q-82 -20 -130.5 -35.5t-84 -39t-43.5 -57.5h624v-111h-784v75q4 79 58 130t127.5 79t191.5 59q92 24 145.5 42.5t89 48t35.5 73.5q0 53 -48 80t-177 27q-134 0 -195.5 -38.5t-61.5 -119.5h-138q4 267 396 267
q175 0 268.5 -50t93.5 -166q0 -80 -51.5 -130.5z" />
    <glyph glyph-name="three" unicode="3" horiz-adv-x="950" 
d="M874 193q0 -213 -386 -213q-198 0 -304 61t-108 197h137q0 -58 30.5 -90t91 -45t159.5 -13q89 0 141.5 9.5t77 32t24.5 62.5q0 46 -32 70.5t-104 34.5t-200 10v87q123 0 193 10.5t101.5 35.5t31.5 72q0 35 -21 56.5t-72 32.5t-140 11q-108 0 -168.5 -14.5t-86.5 -46.5
t-26 -88h-135q1 136 108 197t302 61q376 0 376 -211q0 -109 -130 -159q140 -47 140 -160z" />
    <glyph glyph-name="four" unicode="4" horiz-adv-x="974" 
d="M724 244h164v-110h-164v-134h-127v134h-511v110l511 459h127v-459zM597 558l-350 -314h350v314z" />
    <glyph glyph-name="five" unicode="5" horiz-adv-x="947" 
d="M724.5 464.5q68.5 -29.5 107 -84t38.5 -127.5q0 -133 -102.5 -203t-279.5 -70q-183 0 -297 55.5t-115 178.5h138q1 -58 72 -91t206 -33q126 0 183.5 42t57.5 113q0 67 -48.5 105.5t-170.5 38.5q-58 0 -119.5 -15.5t-153.5 -56.5l-124 28l86 358h616v-110h-514l-40 -172
q78 41 146.5 57t154.5 16q90 0 158.5 -29.5z" />
    <glyph glyph-name="six" unicode="6" horiz-adv-x="971" 
d="M792 432q93 -62 93 -189t-97.5 -195t-282.5 -68q-152 0 -241.5 33t-132 109.5t-45.5 211.5v8v10q5 202 116 286.5t309 84.5q91 0 158 -7t165 -22v-110q-27 4 -38 5q-77 12 -135 18t-126 6q-108 0 -172.5 -16.5t-99 -62t-38.5 -130.5q44 37 124 63.5t181 26.5
q169 0 262 -62zM688.5 127.5q59.5 37.5 59.5 112.5t-59.5 112t-202.5 37q-262 0 -262 -149q0 -73 64.5 -111.5t197.5 -38.5q143 0 202.5 37.5z" />
    <glyph glyph-name="seven" unicode="7" horiz-adv-x="846" 
d="M51 703h743v-112q-151 -87 -242 -174t-133.5 -188t-42.5 -229h-136q0 183 87.5 329.5t293.5 261.5h-570v112z" />
    <glyph glyph-name="eight" unicode="8" horiz-adv-x="980" 
d="M903 192q0 -102 -95.5 -157t-317.5 -55q-223 0 -317.5 54.5t-94.5 157.5q0 134 163 186q-95 48 -95 145q0 102 83 151t261 49q177 0 260.5 -49t83.5 -151q0 -95 -95 -145q164 -52 164 -186zM329 594.5q-48 -21.5 -48 -73.5t48 -73.5t161 -21.5t161 21.5t48 73.5
t-47.5 73.5t-161.5 21.5q-113 0 -161 -21.5zM702.5 116q61.5 28 61.5 87q0 39 -25.5 63.5t-85.5 37t-163 12.5t-163 -12.5t-85.5 -37t-25.5 -63.5q0 -59 61.5 -87t212.5 -28t212.5 28z" />
    <glyph glyph-name="nine" unicode="9" horiz-adv-x="973" 
d="M886 351v0q-5 -201 -115.5 -286t-308.5 -85q-93 0 -164.5 7.5t-158.5 21.5v110l34 -5q87 -12 142 -18t123 -6q108 0 172.5 16.5t99 62t38.5 130.5q-45 -37 -124.5 -63.5t-180.5 -26.5q-169 0 -262 61.5t-93 188.5t97.5 195.5t281.5 68.5q153 0 242.5 -33.5t131.5 -110
t45 -211.5v-8v-9zM749 463q0 73 -64.5 111.5t-197.5 38.5q-144 0 -203 -37.5t-59 -112.5q0 -76 59 -112.5t203 -36.5q262 0 262 149z" />
    <glyph glyph-name="colon" unicode=":" horiz-adv-x="299" 
d="M86 0v110h127v-110h-127zM86 300v110h127v-110h-127z" />
    <glyph glyph-name="semicolon" unicode=";" horiz-adv-x="299" 
d="M86 0v110h127v-110l-64 -185h-60l42 185h-45zM86 300v110h127v-110h-127z" />
    <glyph glyph-name="less" unicode="&#x3c;" horiz-adv-x="973" 
d="M86 429l800 171v-122l-661 -138l661 -138v-122l-800 171v178z" />
    <glyph glyph-name="equal" unicode="=" horiz-adv-x="973" 
d="M86 446v108h800v-108h-800zM86 126v108h800v-108h-800z" />
    <glyph glyph-name="greater" unicode="&#x3e;" horiz-adv-x="973" 
d="M86 478v122l800 -171v-178l-800 -171v122l661 138z" />
    <glyph glyph-name="question" unicode="?" horiz-adv-x="925" 
d="M352 205q0 64 29.5 103t71 59.5t107.5 41.5q51 17 78 29t45.5 31.5t18.5 49.5q0 44 -51 69.5t-165 25.5q-139 0 -202 -39.5t-63 -132.5h-135q3 281 393 281q174 0 267 -49.5t93 -152.5q0 -56 -27.5 -92t-67 -56t-103.5 -42q-54 -19 -83.5 -32.5t-50 -36.5t-20.5 -57h-135
zM352 0v110h127v-110h-127z" />
    <glyph glyph-name="at" unicode="@" horiz-adv-x="1342" 
d="M1167 -60l53 -88q-90 -54 -211 -90t-291 -36q-317 0 -474.5 134.5t-157.5 407.5q0 259 157 397.5t457 138.5q271 0 413.5 -118.5t142.5 -384.5q0 -150 -51 -238.5t-177 -88.5q-82 0 -127.5 33.5t-63.5 87.5q-58 -90 -207 -90q-128 0 -193 71.5t-65 188.5t65 188.5
t193 71.5q135 0 195 -74v64h116v-321q0 -58 18 -88.5t70 -30.5q58 0 79.5 55t21.5 176q0 149 -49 234.5t-142.5 120.5t-238.5 35q-241 0 -364 -103t-123 -325q0 -231 125 -332.5t380 -101.5q249 0 449 106zM789 151q36 40 36 114q0 75 -35.5 114.5t-127.5 39.5t-127.5 -39.5
t-35.5 -114.5t35.5 -114.5t127.5 -39.5q91 0 127 40z" />
    <glyph glyph-name="A" unicode="A" horiz-adv-x="1129" 
d="M1052 0h-145l-87 152h-511l-87 -152h-146l407 703h162zM564 597l-192 -335h384z" />
    <glyph glyph-name="B" unicode="B" horiz-adv-x="1011" 
d="M907.5 297q26.5 -41 26.5 -99q0 -93 -56.5 -145.5t-173.5 -52.5h-618v703h613q113 0 163 -50t50 -128q0 -50 -20 -91.5t-58 -70.5q47 -25 73.5 -66zM214 593v-185h440q46 0 69.5 4.5t38 24t14.5 63.5t-14.5 64t-38 24.5t-69.5 4.5h-440zM676 110q45 0 68.5 4.5t38 25.5
t14.5 66t-14.5 66t-38 25.5t-68.5 4.5h-462v-192h462z" />
    <glyph glyph-name="C" unicode="C" horiz-adv-x="1030" 
d="M190 625q114 98 337 98q129 0 221 -36t142.5 -97.5t61.5 -140.5h-138q-14 76 -87.5 118t-199.5 42q-313 0 -313 -257q0 -132 81 -195t232 -63q125 0 198.5 43t88.5 119h139q-11 -79 -62 -141.5t-143 -98.5t-221 -36q-223 0 -337 98.5t-114 273.5t114 273z" />
    <glyph glyph-name="D" unicode="D" horiz-adv-x="1011" 
d="M763 664q78 -39 124.5 -118t46.5 -195q0 -115 -46.5 -194t-124.5 -118t-174 -39h-503v703h503q96 0 174 -39zM524 114q96 0 154.5 20t88.5 71.5t30 145.5q0 95 -30 146.5t-88.5 71.5t-154.5 20h-310v-475h310z" />
    <glyph glyph-name="E" unicode="E" horiz-adv-x="904" 
d="M826 703v-112h-612v-184h592v-111h-592v-185h612v-111h-740v703h740z" />
    <glyph glyph-name="F" unicode="F" horiz-adv-x="904" 
d="M826 703v-114h-612v-236h552v-114h-552v-239h-128v703h740z" />
    <glyph glyph-name="G" unicode="G" horiz-adv-x="1030" 
d="M129.5 548q53.5 84 155 129.5t242.5 45.5q128 0 220.5 -36t144 -97t61.5 -138h-138q-15 74 -88.5 115.5t-199.5 41.5t-195.5 -43t-93.5 -101t-24 -115q0 -56 26.5 -114.5t98.5 -101.5t200 -43q91 0 153 12.5t131 42.5v114h-305v106h435v-275q-112 -61 -206.5 -86
t-208.5 -25q-142 0 -246.5 45.5t-160 129t-55.5 196.5t53.5 197z" />
    <glyph glyph-name="H" unicode="H" horiz-adv-x="1030" 
d="M816 408v295h128v-703h-128v294h-602v-294h-128v703h128v-295h602z" />
    <glyph glyph-name="I" unicode="I" horiz-adv-x="300" 
d="M86 703h128v-703h-128v703z" />
    <glyph glyph-name="J" unicode="J" horiz-adv-x="1013" 
d="M926 351q0 -183 -102.5 -272.5t-317.5 -89.5t-317.5 89t-102.5 273h128q0 -68 20 -121.5t84.5 -90t187.5 -36.5q124 0 188.5 36.5t84.5 90t20 121.5v238h-366v114h493v-352z" />
    <glyph glyph-name="K" unicode="K" horiz-adv-x="1013" 
d="M734 703h203l-404 -316l404 -387h-181l-323 308l-219 -171v-137h-128v703h128v-407z" />
    <glyph glyph-name="L" unicode="L" horiz-adv-x="829" 
d="M214 703v-589h540v-114h-668v703h128z" />
    <glyph glyph-name="M" unicode="M" horiz-adv-x="1257" 
d="M1171 703v-703h-128v586l-356 -586h-117l-356 586v-586h-128v703h201l342 -556l341 556h201z" />
    <glyph glyph-name="N" unicode="N" horiz-adv-x="1047" 
d="M833 122v581h128v-703h-183l-564 581v-581h-128v703h183z" />
    <glyph glyph-name="O" unicode="O" horiz-adv-x="1058" 
d="M190 79q-114 99 -114 273t114 272.5t339 98.5q224 0 338 -98.5t114 -272.5t-114 -273t-338 -99q-225 0 -339 99zM844 352q0 257 -315 257q-154 0 -234.5 -62t-80.5 -195q0 -258 315 -258t315 258z" />
    <glyph glyph-name="P" unicode="P" horiz-adv-x="977" 
d="M772 673q61 -30 95 -87t34 -135q0 -77 -34 -134t-95 -87t-142 -30h-416v-200h-128v703h544q81 0 142 -30zM579 314q52 0 89.5 7t66 37t28.5 93t-28.5 93.5t-66 37.5t-89.5 7h-365v-275h365z" />
    <glyph glyph-name="Q" unicode="Q" horiz-adv-x="1035" 
d="M889 100l86 -86l-82 -82l-99 100q-106 -52 -265 -52q-225 0 -339 99t-114 273t114 272.5t339 98.5q224 0 338 -98.5t114 -272.5q0 -157 -92 -252zM703 122l-124 125l82 82l136 -137q47 61 47 160q0 257 -315 257q-154 0 -234.5 -62t-80.5 -195q0 -258 315 -258
q105 0 174 28z" />
    <glyph glyph-name="R" unicode="R" horiz-adv-x="979" 
d="M847 266q27 -33 27 -87v-179h-127v148q0 37 -8 55.5t-28.5 26t-61.5 7.5h-435v-237h-128v703h525q129 0 200.5 -51.5t71.5 -160.5q0 -136 -115 -184q52 -8 79 -41zM214 590v-241h364q51 0 84.5 6t58.5 32.5t25 82.5q0 55 -25 81.5t-58.5 32.5t-84.5 6h-364z" />
    <glyph glyph-name="S" unicode="S" horiz-adv-x="1047" 
d="M214 228q0 -69 75.5 -103.5t261.5 -34.5q150 0 216 27t66 81q0 39 -23.5 57.5t-86 27.5t-202.5 18q-154 9 -243 31t-131.5 66.5t-42.5 121.5q0 109 106 156t305 47q200 0 312 -60t113 -177h-137q0 46 -30.5 73.5t-97.5 40.5t-177 13q-100 0 -156 -11t-78.5 -32.5
t-22.5 -55.5q0 -35 23 -54t82 -29.5t180 -18.5q169 -12 255.5 -26.5t137.5 -56t51 -124.5q0 -127 -110.5 -176t-307.5 -49q-228 0 -348.5 56.5t-127.5 191.5h138z" />
    <glyph glyph-name="T" unicode="T" horiz-adv-x="1013" 
d="M936 703v-114h-366v-589h-127v589h-367v114h860z" />
    <glyph glyph-name="U" unicode="U" horiz-adv-x="1053" 
d="M966 342q0 -184 -106 -273t-334 -89q-229 0 -334.5 88.5t-105.5 273.5v361h128v-359q0 -70 21 -123.5t90 -90t201 -36.5t201 37t90.5 90.5t21.5 122.5v359h127v-361z" />
    <glyph glyph-name="V" unicode="V" horiz-adv-x="1129" 
d="M564 106l343 597h145l-407 -703h-162l-407 703h146z" />
    <glyph glyph-name="W" unicode="W" horiz-adv-x="1627" 
d="M1156 114l258 589h137l-312 -703h-167l-259 611l-275 -611h-168l-294 703h137l242 -589l264 589h190z" />
    <glyph glyph-name="X" unicode="X" horiz-adv-x="1135" 
d="M274 0h-189l395 351l-395 352h189l293 -263l294 263h189l-396 -352l396 -351h-189l-294 263z" />
    <glyph glyph-name="Y" unicode="Y" horiz-adv-x="1131" 
d="M566 341l320 362h169l-421 -472v-231h-137v231l-421 472h169z" />
    <glyph glyph-name="Z" unicode="Z" horiz-adv-x="965" 
d="M86 703h793v-114l-594 -475h594v-114h-793v114l594 475h-594v114z" />
    <glyph glyph-name="bracketleft" unicode="[" horiz-adv-x="633" 
d="M546 800v-111h-323v-778h323v-111h-460v1000h460z" />
    <glyph glyph-name="backslash" unicode="\" horiz-adv-x="564" 
d="M349 -150l-263 880h128l263 -880h-128z" />
    <glyph glyph-name="bracketright" unicode="]" horiz-adv-x="633" 
d="M86 800h460v-1000h-460v111h324v778h-324v111z" />
    <glyph glyph-name="asciicircum" unicode="^" horiz-adv-x="974" 
d="M572 800l315 -450h-145l-255 364l-255 -364h-146l317 450h169z" />
    <glyph glyph-name="underscore" unicode="_" horiz-adv-x="1213" 
d="M106 -185v110h1000v-110h-1000z" />
    <glyph glyph-name="grave" unicode="`" horiz-adv-x="562" 
d="M86 860l389 -80v-102l-389 80v102z" />
    <glyph glyph-name="a" unicode="a" horiz-adv-x="938" 
d="M694 574q82 -29 124.5 -96t43.5 -180v-298h-125v72q-103 -43 -195.5 -67t-198.5 -24q-138 0 -207.5 49.5t-69.5 150.5q0 107 98 156t256 49q154 0 317 -47q-2 93 -84.5 124.5t-180.5 31.5q-71 0 -145.5 -11t-165.5 -40l-46 99q96 30 184.5 45t184.5 15q128 0 210 -29z
M547.5 113.5q98.5 24.5 189.5 58.5v63q-72 21 -146.5 33.5t-162.5 12.5q-107 0 -167 -24t-60 -76q0 -54 45 -73t135 -19q68 0 166.5 24.5z" />
    <glyph glyph-name="b" unicode="b" horiz-adv-x="971" 
d="M715 568.5q84 -34.5 132.5 -104.5t48.5 -173q0 -102 -48.5 -172t-132.5 -104.5t-191 -34.5q-110 0 -189 31.5t-124 89.5v-101h-125v800h125v-319q45 59 124 90.5t189 31.5q107 0 191 -34.5zM691.5 144q69.5 53 69.5 147t-69.5 147t-200.5 53q-133 0 -206.5 -53.5
t-73.5 -146.5t73.5 -146.5t206.5 -53.5q131 0 200.5 53z" />
    <glyph glyph-name="c" unicode="c" horiz-adv-x="947" 
d="M185 524q110 79 297 79q162 0 263.5 -61.5t126.5 -182.5h-136q-20 68 -82 101t-172 33q-273 0 -273 -202q0 -201 273 -201q110 0 172 33t82 100h136q-25 -121 -126.5 -182t-263.5 -61q-187 0 -297 78.5t-110 232.5t110 233z" />
    <glyph glyph-name="d" unicode="d" horiz-adv-x="971" 
d="M760 800h125v-800h-125v101q-45 -59 -124 -90t-189 -31q-107 0 -191 34.5t-132.5 104.5t-48.5 172q0 103 48.5 173t132.5 104.5t191 34.5q110 0 189 -31t124 -90v318zM686.5 144.5q73.5 53.5 73.5 146.5t-73.5 146.5t-205.5 53.5t-201.5 -53t-69.5 -147t69.5 -147
t201.5 -53t205.5 53.5z" />
    <glyph glyph-name="e" unicode="e" horiz-adv-x="956" 
d="M653.5 116q58.5 27 83.5 77h135q-27 -101 -128 -157t-257 -56q-188 0 -300 78.5t-112 232.5q0 103 52.5 173t143.5 104.5t206 34.5q186 0 295 -80t109 -263h-670q10 -89 79.5 -130t197.5 -41q107 0 165.5 27zM219 362h519q-19 69 -84.5 101.5t-176.5 32.5
q-217 0 -258 -134z" />
    <glyph glyph-name="f" unicode="f" horiz-adv-x="721" 
d="M431 694.5q-31 -10.5 -42.5 -36t-12.5 -75.5h270v-109h-270v-474h-125v474h-176v109h176v14q0 214 218 214q53 0 86.5 -1.5t90.5 -8.5v-101q-70 5 -122 5q-62 0 -93 -10.5z" />
    <glyph glyph-name="g" unicode="g" horiz-adv-x="971" 
d="M760 583h125v-508q0 -174 -97 -254.5t-281 -80.5q-178 0 -372 47l4 105q104 -20 177.5 -31t155.5 -11q110 0 172.5 27t89 81t26.5 142q-44 -57 -120.5 -87.5t-183.5 -30.5q-108 0 -194 34t-136.5 103.5t-50.5 173.5q0 103 50.5 172.5t136.5 103.5t194 34
q107 0 183.5 -30.5t120.5 -87.5v98zM689 147q71 53 71 146q0 92 -71 145t-204 53t-204 -53t-71 -145q0 -93 71 -146t204 -53t204 53z" />
    <glyph glyph-name="h" unicode="h" horiz-adv-x="983" 
d="M807 529q88 -74 90 -238v-291h-125v263q0 117 -55.5 172.5t-191.5 55.5q-142 0 -228 -66t-86 -193v-232h-125v800h125v-347q57 74 142 112t205 38q161 0 249 -74z" />
    <glyph glyph-name="i" unicode="i" horiz-adv-x="298" 
d="M86 660v140h125v-140h-125zM86 0v583h125v-583h-125z" />
    <glyph glyph-name="j" unicode="j" horiz-adv-x="518" 
d="M315 660v140h125v-140h-125zM440 27q0 -97 -18 -159t-65 -95t-134 -33q-91 0 -177 15v105q34 -4 63.5 -7t59.5 -3q65 0 94.5 14t40.5 52t11 120v547h125v-556z" />
    <glyph glyph-name="k" unicode="k" horiz-adv-x="937" 
d="M644 583h218l-385 -260l385 -323h-188l-300 254l-163 -110v-144h-125v800h125v-509z" />
    <glyph glyph-name="l" unicode="l" horiz-adv-x="298" 
d="M86 0v800h125v-800h-125z" />
    <glyph glyph-name="m" unicode="m" horiz-adv-x="1429" 
d="M1269 533.5q72 -69.5 74 -214.5v-319h-125v308q0 93 -45.5 138t-152.5 45q-62 0 -118 -25t-90.5 -74.5t-34.5 -118.5v-273h-125v308q0 93 -45.5 138t-151.5 45q-63 0 -119 -25t-90.5 -74.5t-34.5 -118.5v-273h-125v583h125v-118q106 138 287 138q208 0 261 -163
q108 163 305 163q133 0 205 -69.5z" />
    <glyph glyph-name="n" unicode="n" horiz-adv-x="983" 
d="M807 529q88 -74 90 -238v-291h-125v263q0 117 -55.5 172.5t-191.5 55.5q-142 0 -228 -66t-86 -193v-232h-125v583h125v-130q57 74 142 112t205 38q161 0 249 -74z" />
    <glyph glyph-name="o" unicode="o" horiz-adv-x="971" 
d="M186.5 59q-111.5 79 -111.5 232t111.5 232.5t299.5 79.5t299 -79.5t111 -232.5t-111 -232t-299 -79t-299.5 79zM691 140.5q70 50.5 70 150.5q0 101 -70 151.5t-205 50.5q-136 0 -206 -50.5t-70 -151.5t70 -151t206 -50q135 0 205 50.5z" />
    <glyph glyph-name="p" unicode="p" horiz-adv-x="971" 
d="M715 568.5q84 -34.5 132.5 -104.5t48.5 -173q0 -102 -48.5 -172t-132.5 -104.5t-191 -34.5q-110 0 -189 31.5t-124 89.5v-341h-125v823h125v-102q45 59 124 90.5t189 31.5q107 0 191 -34.5zM691.5 144q69.5 53 69.5 147q0 93 -73 146.5t-206 53.5q-132 0 -201.5 -53
t-69.5 -147q0 -93 73.5 -146.5t206.5 -53.5q131 0 200.5 53z" />
    <glyph glyph-name="q" unicode="q" horiz-adv-x="971" 
d="M760 583h125v-823h-125v341q-45 -59 -124 -90t-189 -31q-107 0 -191 34.5t-132.5 104.5t-48.5 172q0 103 48.5 173t132.5 104.5t191 34.5q110 0 189 -31t124 -90v101zM686.5 144.5q73.5 53.5 73.5 146.5q0 94 -69.5 147t-201.5 53q-133 0 -206 -53.5t-73 -146.5
q0 -94 69.5 -147t201.5 -53t205.5 53.5z" />
    <glyph glyph-name="r" unicode="r" horiz-adv-x="722" 
d="M656 581v-112q-80 21 -155 21q-69 0 -136 -24.5t-154 -92.5v-373h-125v583h125v-104q69 70 137.5 97t149.5 27q83 0 158 -22z" />
    <glyph glyph-name="s" unicode="s" horiz-adv-x="964" 
d="M210 198q5 -41 34.5 -65t92.5 -35.5t171 -11.5q104 0 157 8.5t71 26t18 48.5q0 28 -18.5 41.5t-72.5 21t-183 17.5q-142 10 -218.5 24.5t-117.5 48t-41 98.5q0 101 101 142t278 41q179 0 278.5 -40t108.5 -149h-135q-4 34 -31.5 52t-82.5 25t-152 7q-128 0 -179 -18
t-51 -52q0 -23 19 -35t73 -20.5t173 -18.5l45 -4q128 -11 194 -23.5t106.5 -47.5t40.5 -104q0 -110 -93 -152.5t-278 -42.5q-131 0 -225.5 17t-154 65t-63.5 136h135z" />
    <glyph glyph-name="t" unicode="t" horiz-adv-x="755" 
d="M671 474h-297v-225q0 -67 11 -99.5t41 -45.5t92 -13q61 0 153 12v-107q-106 -16 -181 -16q-94 0 -145.5 23t-73.5 78.5t-22 157.5v235h-174v109h174v136l125 42v-178h297v-109z" />
    <glyph glyph-name="u" unicode="u" horiz-adv-x="984" 
d="M772 583h125v-582h-125v130q-57 -74 -142 -112.5t-205 -38.5q-161 0 -249 74t-90 238v291h125v-263q0 -116 56 -172t192 -56q141 0 227 66t86 193v232z" />
    <glyph glyph-name="v" unicode="v" horiz-adv-x="1001" 
d="M501 77l285 506h140l-330 -583h-192l-329 583h140z" />
    <glyph glyph-name="w" unicode="w" horiz-adv-x="1505" 
d="M1071 85l225 498h134l-263 -583h-190l-224 464l-225 -464h-190l-263 583h133l226 -498l239 498h159z" />
    <glyph glyph-name="x" unicode="x" horiz-adv-x="1011" 
d="M266 0h-191l352 291l-352 292h191l240 -211l240 211h190l-352 -292l352 -291h-190l-240 211z" />
    <glyph glyph-name="y" unicode="y" horiz-adv-x="1017" 
d="M803 583h140l-358 -637q-39 -71 -77 -115t-88 -67.5t-119 -23.5q-52 0 -94 5t-97 15v109q91 -19 168 -19q63 0 104 28t81 100l12 22h-71l-329 583h143l293 -519z" />
    <glyph glyph-name="z" unicode="z" horiz-adv-x="869" 
d="M86 583h697v-109l-502 -365h502v-109h-697v109l502 365h-502v109z" />
    <glyph glyph-name="braceleft" unicode="{" horiz-adv-x="633" 
d="M86 365q52 0 79.5 6.5t45 34t17.5 87.5q0 20 -1 31q-2 36 -2 50q0 89 30 137.5t99 68.5t192 20v-111q-85 0 -126 -10t-59 -41t-18 -97q0 -13 2 -51l1 -22q0 -91 -41.5 -124t-86.5 -33v-20q49 0 91.5 -37.5t35.5 -141.5q-2 -38 -2 -52q0 -67 18 -98t59 -41t126 -10v-111
q-128 0 -196 20t-96.5 67t-28.5 135q0 17 2 57q1 11 1 31q0 60 -17.5 87t-45 33.5t-79.5 6.5v128z" />
    <glyph glyph-name="bar" unicode="|" horiz-adv-x="295" 
d="M86 -150v950h123v-950h-123z" />
    <glyph glyph-name="braceright" unicode="}" horiz-adv-x="635" 
d="M549 237q-51 0 -78.5 -6.5t-45 -33t-17.5 -85.5q0 -21 1 -33q2 -40 2 -55q0 -89 -28.5 -136.5t-97 -67.5t-196.5 -20v111q85 0 126 10t59 41t18 98q0 14 -2 52l-1 22q0 91 41.5 124t86.5 33v20q-49 0 -91.5 37.5t-35.5 141.5q2 38 2 51q0 66 -18 97t-59 41t-126 10v111
q124 0 193 -20t99 -69t30 -139q0 -14 -2 -48q-1 -12 -1 -33q0 -59 17.5 -86t45 -33.5t78.5 -6.5v-128z" />
    <glyph glyph-name="asciitilde" unicode="~" horiz-adv-x="973" 
d="M86 198q0 285 219 285q47 0 85 -14t64.5 -33t63.5 -51q42 -38 72.5 -56.5t69.5 -18.5q50 0 74 40.5t24 132.5h128q0 -285 -218 -285q-47 0 -85 14t-65.5 33.5t-62.5 50.5q-43 38 -73 56t-69 18q-51 0 -74.5 -40t-23.5 -132h-129z" />
    <glyph glyph-name="exclamdown" unicode="&#xa1;" horiz-adv-x="310" 
d="M214 490h-126v110h126v-110zM214 395l1 -495h-129l2 495h126z" />
    <glyph glyph-name="cent" unicode="&#xa2;" horiz-adv-x="967" 
d="M525 150q95 4 149 36.5t72 95.5h136q-24 -114 -116.5 -175t-240.5 -67v-140h-82v140q-166 10 -262 88.5t-96 221.5t96 221.5t262 88.5v140h82v-140q148 -6 240.5 -67t116.5 -175h-136q-18 63 -72 95.5t-149 36.5v-400zM443 151v398q-224 -17 -224 -199t224 -199z" />
    <glyph glyph-name="sterling" unicode="&#xa3;" horiz-adv-x="913" 
d="M449 594.5q-50 -16.5 -69 -48.5t-19 -85q0 -17 4 -61h345v-78h-337q-4 -125 -184 -211h637v-111h-740v111l24 20q51 41 78 66.5t43 56t16 68.5h-161v78h146q-9 42 -9 81q0 111 79 176.5t240 65.5q72 0 133.5 -7t150.5 -23v-112q-81 16 -133 23t-104 7q-90 0 -140 -16.5z
" />
    <glyph glyph-name="currency" unicode="&#xa4;" horiz-adv-x="989" 
d="M869.5 191.5q-36.5 -63.5 -105.5 -102.5l121 -145l-79 -78l-153 181q-73 -17 -157 -17t-158 17l-153 -181l-78 78l121 145q-69 38 -106 102t-37 150q0 85 35.5 148t102.5 102l-116 138l78 78l148 -172q73 18 163 18t163 -18l147 172l79 -78l-116 -138q66 -39 101.5 -102
t35.5 -148q0 -86 -36.5 -149.5zM290 190q70 -50 206 -50q135 0 205 50.5t70 150.5q0 101 -70 151.5t-205 50.5q-136 0 -206 -50.5t-70 -151.5t70 -151z" />
    <glyph glyph-name="yen" unicode="&#xa5;" horiz-adv-x="1155" 
d="M896 703h169l-333 -373h241v-78h-310l-19 -21v-38h329v-78h-329v-115h-137v115h-326v78h326v38l-19 21h-307v78h238l-333 373h169l321 -362z" />
    <glyph glyph-name="brokenbar" unicode="&#xa6;" horiz-adv-x="295" 
d="M86 425v375h123v-375h-123zM86 -150v375h123v-375h-123z" />
    <glyph glyph-name="section" unicode="&#xa7;" horiz-adv-x="1020" 
d="M895.5 107.5q38.5 -42.5 38.5 -115.5q0 -75 -47.5 -117.5t-134.5 -59t-219 -16.5q-199 0 -312.5 54.5t-114.5 169.5h135q0 -46 32 -71.5t99 -36t179 -10.5q102 0 155 9t73 28t20 54q0 36 -22.5 55t-81.5 30t-179 19q-157 10 -244 25.5t-135.5 51.5t-48.5 104t40 107.5
t115 57.5q-82 23 -119.5 65t-37.5 114q0 110 102.5 151.5t298.5 41.5q192 0 300.5 -54.5t109.5 -169.5h-135q0 46 -29.5 71.5t-92.5 36t-171 10.5q-98 0 -151 -9t-75 -28.5t-22 -54.5t22.5 -53.5t79.5 -29.5t173 -19q158 -11 244.5 -26t135 -51t48.5 -104q0 -127 -152 -163
q85 -24 123.5 -66.5zM246 253.5q25 -18.5 86 -28t190 -17.5q42 -2 59 -2q112 0 160.5 26t48.5 77q0 37 -25 55.5t-85 28t-190 18.5q-42 2 -58 2q-113 0 -162 -26.5t-49 -77.5q0 -37 25 -55.5z" />
    <glyph glyph-name="dieresis" unicode="&#xa8;" horiz-adv-x="595" 
d="M86 700v100h163v-100h-163zM346 700v100h163v-100h-163z" />
    <glyph glyph-name="copyright" unicode="&#xa9;" horiz-adv-x="998" 
d="M274 34q-93 44 -140.5 125.5t-47.5 191.5t47.5 190.5t140.5 124.5t225 44t224.5 -43.5t140 -124.5t47.5 -191t-47.5 -191.5t-140 -125.5t-224.5 -44t-225 44zM753.5 131.5q91.5 78.5 91.5 219.5t-91 219t-255 78q-163 0 -254.5 -78.5t-91.5 -218.5q0 -93 41.5 -160
t119 -102.5t185.5 -35.5q163 0 254.5 78.5zM333 489q64 47 174 47q188 0 219 -144h-66q-12 42 -49 62t-105 20q-81 0 -125.5 -30t-44.5 -94q0 -123 170 -123q68 0 105 19.5t49 61.5h66q-31 -144 -219 -144q-110 0 -174 47t-64 139t64 139z" />
    <glyph glyph-name="guillemotleft" unicode="&#xab;" horiz-adv-x="949" 
d="M427 291l260 292h175l-260 -292l260 -291h-175zM86 291l260 292h175l-260 -292l260 -291h-175z" />
    <glyph glyph-name="logicalnot" unicode="&#xac;" horiz-adv-x="973" 
d="M86 398h800v-318h-113v209h-687v109z" />
    <glyph glyph-name="registered" unicode="&#xae;" horiz-adv-x="998" 
d="M275 26.5q-93 46.5 -141 130.5t-48 194t48 194t141 131t224 47q132 0 224.5 -47t140 -130.5t47.5 -194.5t-47.5 -194.5t-140 -130t-224.5 -46.5q-131 0 -224 46.5zM755.5 125.5q89.5 82.5 89.5 225.5q0 144 -89.5 226.5t-256.5 82.5q-111 0 -189 -38t-117.5 -107.5
t-39.5 -163.5t40 -163.5t117.5 -107t188.5 -37.5q167 0 256.5 82.5zM344 186v340h191q78 0 113.5 -32.5t35.5 -88.5q0 -40 -22 -72t-67 -44l84 -103h-85l-75 97h-108v-97h-67zM532 346q49 0 67.5 12.5t18.5 46.5q0 33 -19 46t-67 13h-121v-118h121z" />
    <glyph glyph-name="macron" unicode="&#xaf;" horiz-adv-x="642" 
d="M86 700v100h469v-100h-469z" />
    <glyph glyph-name="degree" unicode="&#xb0;" horiz-adv-x="711" 
d="M199 281q-60 34 -86.5 87.5t-26.5 116.5t26.5 116.5t86.5 87.5t156 34q97 0 157.5 -34t86.5 -87.5t26 -116.5t-26 -116.5t-86.5 -87.5t-157.5 -34q-96 0 -156 34zM460 386.5q37 34.5 37 98.5t-37 98.5t-105 34.5q-67 0 -104 -34.5t-37 -98.5t37 -98.5t104 -34.5
q68 0 105 34.5z" />
    <glyph glyph-name="plusminus" unicode="&#xb1;" horiz-adv-x="973" 
d="M543 701v-177h343v-108h-343v-177h-114v177h-343v108h343v177h114zM886 46h-800v108h800v-108z" />
    <glyph glyph-name="acute" unicode="&#xb4;" horiz-adv-x="562" 
d="M86 678v102l389 80v-102z" />
    <glyph glyph-name="paragraph" unicode="&#xb6;" horiz-adv-x="904" 
d="M562 800v-950h-123v523q-126 0 -198.5 13.5t-113.5 59.5t-41 140t41 140.5t113.5 60t198.5 13.5h123zM695 -150v950h123v-950h-123z" />
    <glyph glyph-name="periodcentered" unicode="&#xb7;" horiz-adv-x="308" 
d="M86 256v110h127v-110h-127z" />
    <glyph glyph-name="cedilla" unicode="&#xb8;" horiz-adv-x="489" 
d="M374.5 -75q27.5 -19 27.5 -54q0 -56 -59.5 -82t-154.5 -26q-42 0 -102 7v82q79 -12 127 -12q34 0 50.5 7t16.5 23q0 23 -36 23q-26 0 -64 -15l-69 27l19 95h106l-15 -74q36 18 82 18q44 0 71.5 -19z" />
    <glyph glyph-name="guillemotright" unicode="&#xbb;" horiz-adv-x="984" 
d="M121 583h175l260 -292l-260 -291h-175l260 291zM463 583h174l260 -292l-260 -291h-174l260 291z" />
    <glyph glyph-name="questiondown" unicode="&#xbf;" horiz-adv-x="925" 
d="M573 600v-110h-126v110h126zM573 395q0 -64 -29.5 -103t-70.5 -59.5t-107 -41.5q-51 -17 -78 -29t-45.5 -31.5t-18.5 -49.5q0 -44 51 -69.5t164 -25.5q139 0 202 40t63 132h135q-1 -281 -393 -281q-360 0 -360 203q0 56 28 91.5t67 55t103 42.5q53 18 83 32.5t50.5 37
t20.5 56.5h135z" />
    <glyph glyph-name="Agrave" unicode="&#xc0;" horiz-adv-x="1129" 
d="M1052 0h-145l-87 152h-511l-87 -152h-146l407 703h162zM564 597l-192 -335h384zM370 980l389 -80v-102l-389 80v102z" />
    <glyph glyph-name="Aacute" unicode="&#xc1;" horiz-adv-x="1129" 
d="M1052 0h-145l-87 152h-511l-87 -152h-146l407 703h162zM564 597l-192 -335h384zM369 798v102l389 80v-102z" />
    <glyph glyph-name="Acircumflex" unicode="&#xc2;" horiz-adv-x="1129" 
d="M1052 0h-145l-87 152h-511l-87 -152h-146l407 703h162zM564 597l-192 -335h384zM357 900l207 80l207 -80v-107l-207 80l-207 -80v107z" />
    <glyph glyph-name="Atilde" unicode="&#xc3;" horiz-adv-x="1129" 
d="M1052 0h-145l-87 152h-511l-87 -152h-146l407 703h162zM564 597l-192 -335h384zM272 798q0 82 43 137.5t126 55.5q45 0 76.5 -15t68.5 -42q28 -21 47 -31t42 -10q33 0 46.5 23.5t13.5 66.5h122q0 -83 -42.5 -138.5t-125.5 -55.5q-46 0 -77.5 15t-68.5 43q-26 21 -45.5 31
t-42.5 10q-33 0 -46.5 -24t-13.5 -66h-123z" />
    <glyph glyph-name="Adieresis" unicode="&#xc4;" horiz-adv-x="1129" 
d="M1052 0h-145l-87 152h-511l-87 -152h-146l407 703h162zM564 597l-192 -335h384zM353 820v100h163v-100h-163zM613 820v100h163v-100h-163z" />
    <glyph glyph-name="Aring" unicode="&#xc5;" horiz-adv-x="1129" 
d="M1052 0h-145l-87 152h-511l-87 -152h-146l407 703h162zM564 597l-192 -335h384zM353 912q0 132 212 132q211 0 211 -132t-211 -132q-212 0 -212 132zM673 912q0 61 -108 61q-56 0 -82.5 -15.5t-26.5 -45.5t26.5 -45.5t82.5 -15.5q108 0 108 61z" />
    <glyph glyph-name="AE" unicode="&#xc6;" horiz-adv-x="1507" 
d="M1430 703v-112h-612v-184h592v-111h-592v-185h612v-111h-740v161h-376l-85 -161h-153l370 703h984zM542 591l-169 -320h317v320h-148z" />
    <glyph glyph-name="Ccedilla" unicode="&#xc7;" horiz-adv-x="1030" 
d="M953 256q-11 -77 -59.5 -138t-136 -98t-209.5 -40l-13 -64q36 18 82 18q44 0 71.5 -19t27.5 -54q0 -56 -59.5 -82t-154.5 -26q-42 0 -102 7v82q80 -12 127 -12q34 0 50.5 7t16.5 23q0 23 -36 23q-26 0 -64 -15l-69 27l18 89q-182 18 -274.5 114.5t-92.5 253.5
q0 175 114 273t337 98q129 0 221 -36t142.5 -97.5t61.5 -140.5h-138q-14 76 -87.5 118t-199.5 42q-313 0 -313 -257q0 -132 81 -195t232 -63q125 0 198.5 43t88.5 119h139z" />
    <glyph glyph-name="Egrave" unicode="&#xc8;" horiz-adv-x="904" 
d="M826 703v-112h-612v-184h592v-111h-592v-185h612v-111h-740v703h740zM265 980l389 -80v-102l-389 80v102z" />
    <glyph glyph-name="Eacute" unicode="&#xc9;" horiz-adv-x="904" 
d="M826 703v-112h-612v-184h592v-111h-592v-185h612v-111h-740v703h740zM265 798v102l389 80v-102z" />
    <glyph glyph-name="Ecircumflex" unicode="&#xca;" horiz-adv-x="904" 
d="M826 703v-112h-612v-184h592v-111h-592v-185h612v-111h-740v703h740zM253 900l207 80l207 -80v-107l-207 80l-207 -80v107z" />
    <glyph glyph-name="Edieresis" unicode="&#xcb;" horiz-adv-x="904" 
d="M826 703v-112h-612v-184h592v-111h-592v-185h612v-111h-740v703h740zM249 820v100h163v-100h-163zM509 820v100h163v-100h-163z" />
    <glyph glyph-name="Igrave" unicode="&#xcc;" horiz-adv-x="300" 
d="M86 703h128v-703h-128v703zM-45 980l389 -80v-102l-389 80v102z" />
    <glyph glyph-name="Iacute" unicode="&#xcd;" horiz-adv-x="300" 
d="M86 703h128v-703h-128v703zM-45 798v102l389 80v-102z" />
    <glyph glyph-name="Icircumflex" unicode="&#xce;" horiz-adv-x="300" 
d="M86 703h128v-703h-128v703zM-57 900l207 80l207 -80v-107l-207 80l-207 -80v107z" />
    <glyph glyph-name="Idieresis" unicode="&#xcf;" horiz-adv-x="300" 
d="M86 703h128v-703h-128v703zM-62 820v100h163v-100h-163zM198 820v100h163v-100h-163z" />
    <glyph glyph-name="Eth" unicode="&#xd0;" horiz-adv-x="1032" 
d="M785 664q78 -39 124.5 -118t46.5 -195q0 -115 -46.5 -194t-125 -118t-174.5 -39h-502v321h-80v60h80v322h502q97 0 175 -39zM545 114q96 0 154.5 20t88.5 71.5t30 145.5q0 95 -30 146.5t-88.5 71.5t-154.5 20h-310v-208h273v-60h-273v-207h310z" />
    <glyph glyph-name="Ntilde" unicode="&#xd1;" horiz-adv-x="1047" 
d="M833 122v581h128v-703h-183l-564 581v-581h-128v703h183zM248 798q0 82 43 137.5t126 55.5q45 0 76.5 -15t68.5 -42q28 -21 47 -31t42 -10q33 0 46.5 23.5t13.5 66.5h122q0 -83 -42.5 -138.5t-125.5 -55.5q-46 0 -77.5 15t-68.5 43q-26 21 -45.5 31t-42.5 10
q-33 0 -46.5 -24t-13.5 -66h-123z" />
    <glyph glyph-name="Ograve" unicode="&#xd2;" horiz-adv-x="1058" 
d="M190 79q-114 99 -114 273t114 272.5t339 98.5q224 0 338 -98.5t114 -272.5t-114 -273t-338 -99q-225 0 -339 99zM844 352q0 257 -315 257q-154 0 -234.5 -62t-80.5 -195q0 -258 315 -258t315 258zM334 980l389 -80v-102l-389 80v102z" />
    <glyph glyph-name="Oacute" unicode="&#xd3;" horiz-adv-x="1058" 
d="M190 79q-114 99 -114 273t114 272.5t339 98.5q224 0 338 -98.5t114 -272.5t-114 -273t-338 -99q-225 0 -339 99zM844 352q0 257 -315 257q-154 0 -234.5 -62t-80.5 -195q0 -258 315 -258t315 258zM334 798v102l389 80v-102z" />
    <glyph glyph-name="Ocircumflex" unicode="&#xd4;" horiz-adv-x="1058" 
d="M190 79q-114 99 -114 273t114 272.5t339 98.5q224 0 338 -98.5t114 -272.5t-114 -273t-338 -99q-225 0 -339 99zM844 352q0 257 -315 257q-154 0 -234.5 -62t-80.5 -195q0 -258 315 -258t315 258zM322 900l207 80l207 -80v-107l-207 80l-207 -80v107z" />
    <glyph glyph-name="Otilde" unicode="&#xd5;" horiz-adv-x="1058" 
d="M190 79q-114 99 -114 273t114 272.5t339 98.5q224 0 338 -98.5t114 -272.5t-114 -273t-338 -99q-225 0 -339 99zM844 352q0 257 -315 257q-154 0 -234.5 -62t-80.5 -195q0 -258 315 -258t315 258zM236 798q0 82 43 137.5t126 55.5q45 0 76.5 -15t68.5 -42q28 -21 47 -31
t42 -10q33 0 46.5 23.5t13.5 66.5h122q0 -83 -42.5 -138.5t-125.5 -55.5q-46 0 -77.5 15t-68.5 43q-26 21 -45.5 31t-42.5 10q-33 0 -46.5 -24t-13.5 -66h-123z" />
    <glyph glyph-name="Odieresis" unicode="&#xd6;" horiz-adv-x="1058" 
d="M190 79q-114 99 -114 273t114 272.5t339 98.5q224 0 338 -98.5t114 -272.5t-114 -273t-338 -99q-225 0 -339 99zM844 352q0 257 -315 257q-154 0 -234.5 -62t-80.5 -195q0 -258 315 -258t315 258zM317 820v100h163v-100h-163zM577 820v100h163v-100h-163z" />
    <glyph glyph-name="multiply" unicode="&#xd7;" horiz-adv-x="920" 
d="M569 339l265 -153l-55 -94l-319 184l-319 -184l-55 94l265 153l-264 153l54 94l319 -184l319 184l54 -94z" />
    <glyph glyph-name="Oslash" unicode="&#xd8;" horiz-adv-x="1058" 
d="M681 709q149 -31 224.5 -123.5t75.5 -233.5q0 -174 -114 -273t-338 -99q-25 0 -37 1l-30 -115h-117l33 128q-150 30 -226 123t-76 235q0 174 114 272.5t339 98.5q25 0 37 -1l29 112h118zM407 106l130 503h-8q-154 0 -234.5 -62t-80.5 -195q0 -202 193 -246zM844 352
q0 201 -192 245l-131 -503h8q315 0 315 258z" />
    <glyph glyph-name="Ugrave" unicode="&#xd9;" horiz-adv-x="1053" 
d="M966 342q0 -184 -106 -273t-334 -89q-229 0 -334.5 88.5t-105.5 273.5v361h128v-359q0 -70 21 -123.5t90 -90t201 -36.5t201 37t90.5 90.5t21.5 122.5v359h127v-361zM332 980l389 -80v-102l-389 80v102z" />
    <glyph glyph-name="Uacute" unicode="&#xda;" horiz-adv-x="1053" 
d="M966 342q0 -184 -106 -273t-334 -89q-229 0 -334.5 88.5t-105.5 273.5v361h128v-359q0 -70 21 -123.5t90 -90t201 -36.5t201 37t90.5 90.5t21.5 122.5v359h127v-361zM331 798v102l389 80v-102z" />
    <glyph glyph-name="Ucircumflex" unicode="&#xdb;" horiz-adv-x="1053" 
d="M966 342q0 -184 -106 -273t-334 -89q-229 0 -334.5 88.5t-105.5 273.5v361h128v-359q0 -70 21 -123.5t90 -90t201 -36.5t201 37t90.5 90.5t21.5 122.5v359h127v-361zM319 900l207 80l207 -80v-107l-207 80l-207 -80v107z" />
    <glyph glyph-name="Udieresis" unicode="&#xdc;" horiz-adv-x="1053" 
d="M966 342q0 -184 -106 -273t-334 -89q-229 0 -334.5 88.5t-105.5 273.5v361h128v-359q0 -70 21 -123.5t90 -90t201 -36.5t201 37t90.5 90.5t21.5 122.5v359h127v-361zM315 820v100h163v-100h-163zM575 820v100h163v-100h-163z" />
    <glyph glyph-name="Yacute" unicode="&#xdd;" horiz-adv-x="1131" 
d="M566 341l320 362h169l-421 -472v-231h-137v231l-421 472h169zM370 798v102l389 80v-102z" />
    <glyph glyph-name="Thorn" unicode="&#xde;" horiz-adv-x="984" 
d="M638 604q80 0 141.5 -30t95 -86.5t33.5 -133.5t-33.5 -133.5t-95 -86.5t-141.5 -30h-415v-104h-137v703h137v-99h415zM586 218q53 0 90.5 7t66 36.5t28.5 92.5t-28.5 92.5t-66 36.5t-90.5 7h-363v-272h363z" />
    <glyph glyph-name="germandbls" unicode="&#xdf;" horiz-adv-x="957" 
d="M835 319q45 -43 45 -123q0 -94 -54 -135t-155.5 -51t-318.5 -10v110q171 0 249.5 6t111 26t32.5 64t-32.5 63.5t-111 25.5t-249.5 6v103q121 0 178 6.5t83 28t26 70.5q0 55 -45.5 79.5t-140.5 24.5q-86 0 -136 -16.5t-73.5 -59t-23.5 -121.5v-416h-134v414
q0 119 41.5 186.5t121 95t205.5 27.5q152 0 236 -45.5t84 -154.5q0 -89 -75 -143q91 -18 136 -61z" />
    <glyph glyph-name="agrave" unicode="&#xe0;" horiz-adv-x="938" 
d="M694 574q82 -29 124.5 -96t43.5 -180v-298h-125v72q-103 -43 -195.5 -67t-198.5 -24q-138 0 -207.5 49.5t-69.5 150.5q0 107 98 156t256 49q154 0 317 -47q-2 93 -84.5 124.5t-180.5 31.5q-71 0 -145.5 -11t-165.5 -40l-46 99q96 30 184.5 45t184.5 15q128 0 210 -29z
M547.5 113.5q98.5 24.5 189.5 58.5v63q-72 21 -146.5 33.5t-162.5 12.5q-107 0 -167 -24t-60 -76q0 -54 45 -73t135 -19q68 0 166.5 24.5zM289 860l389 -80v-102l-389 80v102z" />
    <glyph glyph-name="aacute" unicode="&#xe1;" horiz-adv-x="938" 
d="M694 574q82 -29 124.5 -96t43.5 -180v-298h-125v72q-103 -43 -195.5 -67t-198.5 -24q-138 0 -207.5 49.5t-69.5 150.5q0 107 98 156t256 49q154 0 317 -47q-2 93 -84.5 124.5t-180.5 31.5q-71 0 -145.5 -11t-165.5 -40l-46 99q96 30 184.5 45t184.5 15q128 0 210 -29z
M547.5 113.5q98.5 24.5 189.5 58.5v63q-72 21 -146.5 33.5t-162.5 12.5q-107 0 -167 -24t-60 -76q0 -54 45 -73t135 -19q68 0 166.5 24.5zM289 678v102l389 80v-102z" />
    <glyph glyph-name="acircumflex" unicode="&#xe2;" horiz-adv-x="938" 
d="M694 574q82 -29 124.5 -96t43.5 -180v-298h-125v72q-103 -43 -195.5 -67t-198.5 -24q-138 0 -207.5 49.5t-69.5 150.5q0 107 98 156t256 49q154 0 317 -47q-2 93 -84.5 124.5t-180.5 31.5q-71 0 -145.5 -11t-165.5 -40l-46 99q96 30 184.5 45t184.5 15q128 0 210 -29z
M547.5 113.5q98.5 24.5 189.5 58.5v63q-72 21 -146.5 33.5t-162.5 12.5q-107 0 -167 -24t-60 -76q0 -54 45 -73t135 -19q68 0 166.5 24.5zM277 780l207 80l207 -80v-107l-207 80l-207 -80v107z" />
    <glyph glyph-name="atilde" unicode="&#xe3;" horiz-adv-x="938" 
d="M694 574q82 -29 124.5 -96t43.5 -180v-298h-125v72q-103 -43 -195.5 -67t-198.5 -24q-138 0 -207.5 49.5t-69.5 150.5q0 107 98 156t256 49q154 0 317 -47q-2 93 -84.5 124.5t-180.5 31.5q-71 0 -145.5 -11t-165.5 -40l-46 99q96 30 184.5 45t184.5 15q128 0 210 -29z
M547.5 113.5q98.5 24.5 189.5 58.5v63q-72 21 -146.5 33.5t-162.5 12.5q-107 0 -167 -24t-60 -76q0 -54 45 -73t135 -19q68 0 166.5 24.5zM191 678q0 82 43 137.5t126 55.5q45 0 76.5 -15t68.5 -42q28 -21 47 -31t42 -10q33 0 46.5 23.5t13.5 66.5h122q0 -83 -42.5 -138.5
t-125.5 -55.5q-46 0 -77.5 15t-68.5 43q-26 21 -45.5 31t-42.5 10q-33 0 -46.5 -24t-13.5 -66h-123z" />
    <glyph glyph-name="adieresis" unicode="&#xe4;" horiz-adv-x="938" 
d="M694 574q82 -29 124.5 -96t43.5 -180v-298h-125v72q-103 -43 -195.5 -67t-198.5 -24q-138 0 -207.5 49.5t-69.5 150.5q0 107 98 156t256 49q154 0 317 -47q-2 93 -84.5 124.5t-180.5 31.5q-71 0 -145.5 -11t-165.5 -40l-46 99q96 30 184.5 45t184.5 15q128 0 210 -29z
M547.5 113.5q98.5 24.5 189.5 58.5v63q-72 21 -146.5 33.5t-162.5 12.5q-107 0 -167 -24t-60 -76q0 -54 45 -73t135 -19q68 0 166.5 24.5zM273 700v100h163v-100h-163zM533 700v100h163v-100h-163z" />
    <glyph glyph-name="aring" unicode="&#xe5;" horiz-adv-x="938" 
d="M694 574q82 -29 124.5 -96t43.5 -180v-298h-125v72q-103 -43 -195.5 -67t-198.5 -24q-138 0 -207.5 49.5t-69.5 150.5q0 107 98 156t256 49q154 0 317 -47q-2 93 -84.5 124.5t-180.5 31.5q-71 0 -145.5 -11t-165.5 -40l-46 99q96 30 184.5 45t184.5 15q128 0 210 -29z
M547.5 113.5q98.5 24.5 189.5 58.5v63q-72 21 -146.5 33.5t-162.5 12.5q-107 0 -167 -24t-60 -76q0 -54 45 -73t135 -19q68 0 166.5 24.5zM273 792q0 132 212 132q211 0 211 -132t-211 -132q-212 0 -212 132zM593 792q0 61 -108 61q-56 0 -82.5 -15.5t-26.5 -45.5
t26.5 -45.5t82.5 -15.5q108 0 108 61z" />
    <glyph glyph-name="ae" unicode="&#xe6;" horiz-adv-x="1619" 
d="M1316 116q59 27 83 77h135q-26 -101 -127.5 -157t-257.5 -56q-126 0 -220 36t-143 108q-75 -72 -199 -107.5t-234 -35.5q-139 0 -213 48t-74 142q0 117 95 160t263 43h305q0 69 -83.5 94t-177.5 25q-67 0 -140 -11t-161 -40l-50 97q91 31 178.5 46.5t180.5 15.5
q122 0 205 -27.5t128 -87.5q53 58 139 87.5t191 29.5q186 0 295.5 -80t109.5 -263h-670q10 -89 79 -130t197 -41q107 0 166 27zM882 362h519q-19 69 -85 101.5t-177 32.5q-216 0 -257 -134zM729 271h-299q-82 0 -128.5 -5t-73.5 -25t-27 -62q0 -50 46 -70t131 -20
q91 0 183.5 26t167.5 77v79z" />
    <glyph glyph-name="ccedilla" unicode="&#xe7;" horiz-adv-x="947" 
d="M654 123q62 33 82 100h136q-24 -117 -120 -178t-249 -65l-13 -63q36 18 82 18q44 0 71.5 -19t27.5 -54q0 -56 -59.5 -82t-154.5 -26q-43 0 -102 7v82q80 -12 127 -12q34 0 50.5 7t16.5 23q0 23 -36 23q-26 0 -64 -15l-69 27l18 88q-151 17 -237 94.5t-86 212.5
q0 154 110 233t297 79q162 0 263.5 -61.5t126.5 -182.5h-136q-20 68 -82 101t-172 33q-273 0 -273 -202q0 -201 273 -201q110 0 172 33z" />
    <glyph glyph-name="egrave" unicode="&#xe8;" horiz-adv-x="956" 
d="M653.5 116q58.5 27 83.5 77h135q-27 -101 -128 -157t-257 -56q-188 0 -300 78.5t-112 232.5q0 103 52.5 173t143.5 104.5t206 34.5q186 0 295 -80t109 -263h-670q10 -89 79.5 -130t197.5 -41q107 0 165.5 27zM219 362h519q-19 69 -84.5 101.5t-176.5 32.5
q-217 0 -258 -134zM291 860l389 -80v-102l-389 80v102z" />
    <glyph glyph-name="eacute" unicode="&#xe9;" horiz-adv-x="956" 
d="M653.5 116q58.5 27 83.5 77h135q-27 -101 -128 -157t-257 -56q-188 0 -300 78.5t-112 232.5q0 103 52.5 173t143.5 104.5t206 34.5q186 0 295 -80t109 -263h-670q10 -89 79.5 -130t197.5 -41q107 0 165.5 27zM219 362h519q-19 69 -84.5 101.5t-176.5 32.5
q-217 0 -258 -134zM290 678v102l389 80v-102z" />
    <glyph glyph-name="ecircumflex" unicode="&#xea;" horiz-adv-x="956" 
d="M653.5 116q58.5 27 83.5 77h135q-27 -101 -128 -157t-257 -56q-188 0 -300 78.5t-112 232.5q0 103 52.5 173t143.5 104.5t206 34.5q186 0 295 -80t109 -263h-670q10 -89 79.5 -130t197.5 -41q107 0 165.5 27zM219 362h519q-19 69 -84.5 101.5t-176.5 32.5
q-217 0 -258 -134zM278 780l207 80l207 -80v-107l-207 80l-207 -80v107z" />
    <glyph glyph-name="edieresis" unicode="&#xeb;" horiz-adv-x="956" 
d="M653.5 116q58.5 27 83.5 77h135q-27 -101 -128 -157t-257 -56q-188 0 -300 78.5t-112 232.5q0 103 52.5 173t143.5 104.5t206 34.5q186 0 295 -80t109 -263h-670q10 -89 79.5 -130t197.5 -41q107 0 165.5 27zM219 362h519q-19 69 -84.5 101.5t-176.5 32.5
q-217 0 -258 -134zM274 700v100h163v-100h-163zM534 700v100h163v-100h-163z" />
    <glyph glyph-name="igrave" unicode="&#xec;" horiz-adv-x="306" 
d="M86 0v583h134v-583h-134zM-42 860l389 -80v-102l-389 80v102z" />
    <glyph glyph-name="iacute" unicode="&#xed;" horiz-adv-x="306" 
d="M86 0v583h134v-583h-134zM-42 678v102l389 80v-102z" />
    <glyph glyph-name="icircumflex" unicode="&#xee;" horiz-adv-x="306" 
d="M86 0v583h134v-583h-134zM-54 780l207 80l207 -80v-107l-207 80l-207 -80v107z" />
    <glyph glyph-name="idieresis" unicode="&#xef;" horiz-adv-x="306" 
d="M86 0v583h134v-583h-134zM-58 700v100h163v-100h-163zM202 700v100h163v-100h-163z" />
    <glyph glyph-name="ntilde" unicode="&#xf1;" horiz-adv-x="983" 
d="M807 529q88 -74 90 -238v-291h-125v263q0 117 -55.5 172.5t-191.5 55.5q-142 0 -228 -66t-86 -193v-232h-125v583h125v-130q57 74 142 112t205 38q161 0 249 -74zM233 678q0 82 43 137.5t126 55.5q45 0 76.5 -15t68.5 -42q28 -21 47 -31t42 -10q33 0 46.5 23.5t13.5 66.5
h122q0 -83 -42.5 -138.5t-125.5 -55.5q-46 0 -77.5 15t-68.5 43q-26 21 -45.5 31t-42.5 10q-33 0 -46.5 -24t-13.5 -66h-123z" />
    <glyph glyph-name="ograve" unicode="&#xf2;" horiz-adv-x="971" 
d="M186.5 59q-111.5 79 -111.5 232t111.5 232.5t299.5 79.5t299 -79.5t111 -232.5t-111 -232t-299 -79t-299.5 79zM691 140.5q70 50.5 70 150.5q0 101 -70 151.5t-205 50.5q-136 0 -206 -50.5t-70 -151.5t70 -151t206 -50q135 0 205 50.5zM291 860l389 -80v-102l-389 80v102
z" />
    <glyph glyph-name="oacute" unicode="&#xf3;" horiz-adv-x="971" 
d="M186.5 59q-111.5 79 -111.5 232t111.5 232.5t299.5 79.5t299 -79.5t111 -232.5t-111 -232t-299 -79t-299.5 79zM691 140.5q70 50.5 70 150.5q0 101 -70 151.5t-205 50.5q-136 0 -206 -50.5t-70 -151.5t70 -151t206 -50q135 0 205 50.5zM290 678v102l389 80v-102z" />
    <glyph glyph-name="ocircumflex" unicode="&#xf4;" horiz-adv-x="971" 
d="M186.5 59q-111.5 79 -111.5 232t111.5 232.5t299.5 79.5t299 -79.5t111 -232.5t-111 -232t-299 -79t-299.5 79zM691 140.5q70 50.5 70 150.5q0 101 -70 151.5t-205 50.5q-136 0 -206 -50.5t-70 -151.5t70 -151t206 -50q135 0 205 50.5zM278 780l207 80l207 -80v-107
l-207 80l-207 -80v107z" />
    <glyph glyph-name="otilde" unicode="&#xf5;" horiz-adv-x="971" 
d="M186.5 59q-111.5 79 -111.5 232t111.5 232.5t299.5 79.5t299 -79.5t111 -232.5t-111 -232t-299 -79t-299.5 79zM691 140.5q70 50.5 70 150.5q0 101 -70 151.5t-205 50.5q-136 0 -206 -50.5t-70 -151.5t70 -151t206 -50q135 0 205 50.5zM193 678q0 82 43 137.5t126 55.5
q45 0 76.5 -15t68.5 -42q28 -21 47 -31t42 -10q33 0 46.5 23.5t13.5 66.5h122q0 -83 -42.5 -138.5t-125.5 -55.5q-46 0 -77.5 15t-68.5 43q-26 21 -45.5 31t-42.5 10q-33 0 -46.5 -24t-13.5 -66h-123z" />
    <glyph glyph-name="odieresis" unicode="&#xf6;" horiz-adv-x="971" 
d="M186.5 59q-111.5 79 -111.5 232t111.5 232.5t299.5 79.5t299 -79.5t111 -232.5t-111 -232t-299 -79t-299.5 79zM691 140.5q70 50.5 70 150.5q0 101 -70 151.5t-205 50.5q-136 0 -206 -50.5t-70 -151.5t70 -151t206 -50q135 0 205 50.5zM274 700v100h163v-100h-163z
M534 700v100h163v-100h-163z" />
    <glyph glyph-name="divide" unicode="&#xf7;" horiz-adv-x="973" 
d="M421 500v107h123v-107h-123zM86 283v109h800v-109h-800zM421 70v107h123v-107h-123z" />
    <glyph glyph-name="oslash" unicode="&#xf8;" horiz-adv-x="971" 
d="M631 589q125 -27 195 -102.5t70 -195.5q0 -153 -111 -232t-299 -79q-21 0 -32 1l-36 -125h-119l40 138q-124 27 -194 102t-70 195q0 153 111.5 232.5t299.5 79.5q21 0 31 -1l36 124h118zM371 102l114 391q-135 0 -205 -50.5t-70 -151.5q0 -153 161 -189zM486 90
q135 0 205 50.5t70 150.5q0 153 -161 191z" />
    <glyph glyph-name="ugrave" unicode="&#xf9;" horiz-adv-x="984" 
d="M772 583h125v-582h-125v130q-57 -74 -142 -112.5t-205 -38.5q-161 0 -249 74t-90 238v291h125v-263q0 -116 56 -172t192 -56q141 0 227 66t86 193v232zM287 860l389 -80v-102l-389 80v102z" />
    <glyph glyph-name="uacute" unicode="&#xfa;" horiz-adv-x="984" 
d="M772 583h125v-582h-125v130q-57 -74 -142 -112.5t-205 -38.5q-161 0 -249 74t-90 238v291h125v-263q0 -116 56 -172t192 -56q141 0 227 66t86 193v232zM286 678v102l389 80v-102z" />
    <glyph glyph-name="ucircumflex" unicode="&#xfb;" horiz-adv-x="984" 
d="M772 583h125v-582h-125v130q-57 -74 -142 -112.5t-205 -38.5q-161 0 -249 74t-90 238v291h125v-263q0 -116 56 -172t192 -56q141 0 227 66t86 193v232zM274 780l207 80l207 -80v-107l-207 80l-207 -80v107z" />
    <glyph glyph-name="udieresis" unicode="&#xfc;" horiz-adv-x="984" 
d="M772 583h125v-582h-125v130q-57 -74 -142 -112.5t-205 -38.5q-161 0 -249 74t-90 238v291h125v-263q0 -116 56 -172t192 -56q141 0 227 66t86 193v232zM270 700v100h163v-100h-163zM530 700v100h163v-100h-163z" />
    <glyph glyph-name="yacute" unicode="&#xfd;" horiz-adv-x="1017" 
d="M803 583h140l-358 -637q-39 -71 -77 -115t-88 -67.5t-119 -23.5q-52 0 -94 5t-97 15v109q91 -19 168 -19q63 0 104 28t81 100l12 22h-71l-329 583h143l293 -519zM322 678v102l389 80v-102z" />
    <glyph glyph-name="thorn" unicode="&#xfe;" horiz-adv-x="980" 
d="M715 570.5q83 -30.5 135 -99.5t52 -180q0 -110 -52 -179.5t-135 -100t-182 -30.5q-103 0 -183.5 28t-128.5 88v-292h-135v995h135v-315q48 60 128.5 88t183.5 28q99 0 182 -30.5zM701.5 144.5q65.5 50.5 65.5 146.5q0 198 -273 198t-273 -198q0 -197 273 -197
q142 0 207.5 50.5z" />
    <glyph glyph-name="ydieresis" unicode="&#xff;" horiz-adv-x="1017" 
d="M803 583h140l-358 -637q-39 -71 -77 -115t-88 -67.5t-119 -23.5q-52 0 -94 5t-97 15v109q91 -19 168 -19q63 0 104 28t81 100l12 22h-71l-329 583h143l293 -519zM306 700v100h163v-100h-163zM566 700v100h163v-100h-163z" />
    <glyph glyph-name="Amacron" unicode="&#x100;" horiz-adv-x="1129" 
d="M1052 0h-145l-87 152h-511l-87 -152h-146l407 703h162zM564 597l-192 -335h384zM329 820v100h469v-100h-469z" />
    <glyph glyph-name="amacron" unicode="&#x101;" horiz-adv-x="938" 
d="M694 574q82 -29 124.5 -96t43.5 -180v-298h-125v72q-103 -43 -195.5 -67t-198.5 -24q-138 0 -207.5 49.5t-69.5 150.5q0 107 98 156t256 49q154 0 317 -47q-2 93 -84.5 124.5t-180.5 31.5q-71 0 -145.5 -11t-165.5 -40l-46 99q96 30 184.5 45t184.5 15q128 0 210 -29z
M547.5 113.5q98.5 24.5 189.5 58.5v63q-72 21 -146.5 33.5t-162.5 12.5q-107 0 -167 -24t-60 -76q0 -54 45 -73t135 -19q68 0 166.5 24.5zM249 700v100h469v-100h-469z" />
    <glyph glyph-name="Abreve" unicode="&#x102;" horiz-adv-x="1129" 
d="M1052 0h-145l-87 152h-511l-87 -152h-146l407 703h162zM564 597l-192 -335h384zM440 971q0 -54 32 -76t92 -22t92.5 22t32.5 76h102q0 -109 -60 -149.5t-167 -40.5t-167 40.5t-60 149.5h103z" />
    <glyph glyph-name="abreve" unicode="&#x103;" horiz-adv-x="938" 
d="M694 574q82 -29 124.5 -96t43.5 -180v-298h-125v72q-103 -43 -195.5 -67t-198.5 -24q-138 0 -207.5 49.5t-69.5 150.5q0 107 98 156t256 49q154 0 317 -47q-2 93 -84.5 124.5t-180.5 31.5q-71 0 -145.5 -11t-165.5 -40l-46 99q96 30 184.5 45t184.5 15q128 0 210 -29z
M547.5 113.5q98.5 24.5 189.5 58.5v63q-72 21 -146.5 33.5t-162.5 12.5q-107 0 -167 -24t-60 -76q0 -54 45 -73t135 -19q68 0 166.5 24.5zM360 851q0 -54 32 -76t92 -22t92.5 22t32.5 76h102q0 -109 -60 -149.5t-167 -40.5t-167 40.5t-60 149.5h103z" />
    <glyph glyph-name="Aogonek" unicode="&#x104;" horiz-adv-x="1129" 
d="M1052 -145v-105q-117 0 -180 30t-63 100q0 44 32.5 75.5t70.5 44.5h-5l-87 152h-511l-87 -152h-146l407 703h162l407 -703h-3q-111 -23 -111 -80q0 -65 114 -65zM564 597l-192 -335h384z" />
    <glyph glyph-name="aogonek" unicode="&#x105;" horiz-adv-x="981" 
d="M778 -131.5q31 -13.5 85 -13.5v-105q-122 0 -183.5 27.5t-61.5 93.5q0 85 120 129h-1v72q-103 -43 -195.5 -67t-198.5 -24q-138 0 -207.5 49.5t-69.5 150.5q0 107 98 156t256 49q154 0 317 -47q-2 93 -84.5 124.5t-180.5 31.5q-71 0 -145.5 -11t-165.5 -40l-46 99
q96 30 184.5 45t184.5 15q128 0 210 -29t124.5 -96t43.5 -180v-298h-3q-58 -5 -85 -26.5t-27 -53.5q0 -38 31 -51.5zM547.5 113.5q98.5 24.5 189.5 58.5v63q-72 21 -146.5 33.5t-162.5 12.5q-107 0 -167 -24t-60 -76q0 -54 45 -73t135 -19q68 0 166.5 24.5z" />
    <glyph glyph-name="Cacute" unicode="&#x106;" horiz-adv-x="1030" 
d="M190 625q114 98 337 98q129 0 221 -36t142.5 -97.5t61.5 -140.5h-138q-14 76 -87.5 118t-199.5 42q-313 0 -313 -257q0 -132 81 -195t232 -63q125 0 198.5 43t88.5 119h139q-11 -79 -62 -141.5t-143 -98.5t-221 -36q-223 0 -337 98.5t-114 273.5t114 273zM332 798v102
l389 80v-102z" />
    <glyph glyph-name="cacute" unicode="&#x107;" horiz-adv-x="947" 
d="M185 524q110 79 297 79q162 0 263.5 -61.5t126.5 -182.5h-136q-20 68 -82 101t-172 33q-273 0 -273 -202q0 -201 273 -201q110 0 172 33t82 100h136q-25 -121 -126.5 -182t-263.5 -61q-187 0 -297 78.5t-110 232.5t110 233zM291 678v102l389 80v-102z" />
    <glyph glyph-name="Cdotaccent" unicode="&#x10a;" horiz-adv-x="1030" 
d="M190 625q114 98 337 98q129 0 221 -36t142.5 -97.5t61.5 -140.5h-138q-14 76 -87.5 118t-199.5 42q-313 0 -313 -257q0 -132 81 -195t232 -63q125 0 198.5 43t88.5 119h139q-11 -79 -62 -141.5t-143 -98.5t-221 -36q-223 0 -337 98.5t-114 273.5t114 273zM444 820v100
h165v-100h-165z" />
    <glyph glyph-name="cdotaccent" unicode="&#x10b;" horiz-adv-x="947" 
d="M185 524q110 79 297 79q162 0 263.5 -61.5t126.5 -182.5h-136q-20 68 -82 101t-172 33q-273 0 -273 -202q0 -201 273 -201q110 0 172 33t82 100h136q-25 -121 -126.5 -182t-263.5 -61q-187 0 -297 78.5t-110 232.5t110 233zM404 700v100h165v-100h-165z" />
    <glyph glyph-name="Ccaron" unicode="&#x10c;" horiz-adv-x="1030" 
d="M190 625q114 98 337 98q129 0 221 -36t142.5 -97.5t61.5 -140.5h-138q-14 76 -87.5 118t-199.5 42q-313 0 -313 -257q0 -132 81 -195t232 -63q125 0 198.5 43t88.5 119h139q-11 -79 -62 -141.5t-143 -98.5t-221 -36q-223 0 -337 98.5t-114 273.5t114 273zM320 969
l207 -80l207 80v-107l-207 -80l-207 80v107z" />
    <glyph glyph-name="ccaron" unicode="&#x10d;" horiz-adv-x="947" 
d="M185 524q110 79 297 79q162 0 263.5 -61.5t126.5 -182.5h-136q-20 68 -82 101t-172 33q-273 0 -273 -202q0 -201 273 -201q110 0 172 33t82 100h136q-25 -121 -126.5 -182t-263.5 -61q-187 0 -297 78.5t-110 232.5t110 233zM279 849l207 -80l207 80v-107l-207 -80
l-207 80v107z" />
    <glyph glyph-name="Dcaron" unicode="&#x10e;" horiz-adv-x="1011" 
d="M763 664q78 -39 124.5 -118t46.5 -195q0 -115 -46.5 -194t-124.5 -118t-174 -39h-503v703h503q96 0 174 -39zM524 114q96 0 154.5 20t88.5 71.5t30 145.5q0 95 -30 146.5t-88.5 71.5t-154.5 20h-310v-475h310zM233 967l207 -80l207 80v-107l-207 -80l-207 80v107z" />
    <glyph glyph-name="dcaron" unicode="&#x10f;" horiz-adv-x="1162" 
d="M760 800h125v-800h-125v101q-45 -59 -124 -90t-189 -31q-107 0 -191 34.5t-132.5 104.5t-48.5 172q0 103 48.5 173t132.5 104.5t191 34.5q110 0 189 -31t124 -90v318zM686.5 144.5q73.5 53.5 73.5 146.5t-73.5 146.5t-205.5 53.5t-201.5 -53t-69.5 -147t69.5 -147
t201.5 -53t205.5 53.5zM945 690v110h127v-110l-64 -185h-60l42 185h-45z" />
    <glyph glyph-name="Dcroat" unicode="&#x110;" horiz-adv-x="1032" 
d="M785 664q78 -39 124.5 -118t46.5 -195q0 -115 -46.5 -194t-125 -118t-174.5 -39h-502v321h-80v60h80v322h502q97 0 175 -39zM545 114q96 0 154.5 20t88.5 71.5t30 145.5q0 95 -30 146.5t-88.5 71.5t-154.5 20h-310v-208h273v-60h-273v-207h310z" />
    <glyph glyph-name="dcroat" unicode="&#x111;" horiz-adv-x="1049" 
d="M982 741v-100h-97v-641h-125v101q-45 -59 -124 -90t-189 -31q-107 0 -191 34.5t-132.5 104.5t-48.5 172q0 103 48.5 173t132.5 104.5t191 34.5q110 0 189 -31t124 -90v159h-306v100h306v59h125v-59h97zM686.5 144.5q73.5 53.5 73.5 146.5t-73.5 146.5t-205.5 53.5
t-201.5 -53t-69.5 -147t69.5 -147t201.5 -53t205.5 53.5z" />
    <glyph glyph-name="Emacron" unicode="&#x112;" horiz-adv-x="904" 
d="M826 703v-112h-612v-184h592v-111h-592v-185h612v-111h-740v703h740zM225 820v100h469v-100h-469z" />
    <glyph glyph-name="emacron" unicode="&#x113;" horiz-adv-x="956" 
d="M653.5 116q58.5 27 83.5 77h135q-27 -101 -128 -157t-257 -56q-188 0 -300 78.5t-112 232.5q0 103 52.5 173t143.5 104.5t206 34.5q186 0 295 -80t109 -263h-670q10 -89 79.5 -130t197.5 -41q107 0 165.5 27zM219 362h519q-19 69 -84.5 101.5t-176.5 32.5
q-217 0 -258 -134zM250 700v100h469v-100h-469z" />
    <glyph glyph-name="Edotaccent" unicode="&#x116;" horiz-adv-x="904" 
d="M826 703v-112h-612v-184h592v-111h-592v-185h612v-111h-740v703h740zM377 820v100h165v-100h-165z" />
    <glyph glyph-name="edotaccent" unicode="&#x117;" horiz-adv-x="956" 
d="M653.5 116q58.5 27 83.5 77h135q-27 -101 -128 -157t-257 -56q-188 0 -300 78.5t-112 232.5q0 103 52.5 173t143.5 104.5t206 34.5q186 0 295 -80t109 -263h-670q10 -89 79.5 -130t197.5 -41q107 0 165.5 27zM219 362h519q-19 69 -84.5 101.5t-176.5 32.5
q-217 0 -258 -134zM403 700v100h165v-100h-165z" />
    <glyph glyph-name="Eogonek" unicode="&#x118;" horiz-adv-x="904" 
d="M826 591h-612v-184h592v-111h-592v-185h612v-111h-21q-49 -12 -71.5 -31t-22.5 -49q0 -38 30.5 -51.5t84.5 -13.5v-105q-123 0 -184 29.5t-61 100.5q0 48 35 78t94 42h-624v703h740v-112z" />
    <glyph glyph-name="eogonek" unicode="&#x119;" horiz-adv-x="953" 
d="M653.5 116q58.5 27 83.5 77h135q-21 -78 -87 -130t-169 -72q-44 -13 -58 -26.5t-14 -34.5q0 -26 22.5 -38t55.5 -14.5t88 -2.5v-105q-101 0 -162.5 9.5t-93.5 34.5t-32 73q0 34 23 56.5t77 37.5q-11 -1 -35 -1q-188 0 -300 78.5t-112 232.5q0 103 52.5 173t143.5 104.5
t206 34.5q186 0 295 -80t109 -263h-670q10 -89 79.5 -130t197.5 -41q107 0 165.5 27zM219 362h519q-19 69 -84.5 101.5t-176.5 32.5q-217 0 -258 -134z" />
    <glyph glyph-name="Ecaron" unicode="&#x11a;" horiz-adv-x="904" 
d="M826 703v-112h-612v-184h592v-111h-592v-185h612v-111h-740v703h740zM253 969l207 -80l207 80v-107l-207 -80l-207 80v107z" />
    <glyph glyph-name="ecaron" unicode="&#x11b;" horiz-adv-x="956" 
d="M653.5 116q58.5 27 83.5 77h135q-27 -101 -128 -157t-257 -56q-188 0 -300 78.5t-112 232.5q0 103 52.5 173t143.5 104.5t206 34.5q186 0 295 -80t109 -263h-670q10 -89 79.5 -130t197.5 -41q107 0 165.5 27zM219 362h519q-19 69 -84.5 101.5t-176.5 32.5
q-217 0 -258 -134zM278 849l207 -80l207 80v-107l-207 -80l-207 80v107z" />
    <glyph glyph-name="Gbreve" unicode="&#x11e;" horiz-adv-x="1030" 
d="M129.5 548q53.5 84 155 129.5t242.5 45.5q128 0 220.5 -36t144 -97t61.5 -138h-138q-15 74 -88.5 115.5t-199.5 41.5t-195.5 -43t-93.5 -101t-24 -115q0 -56 26.5 -114.5t98.5 -101.5t200 -43q91 0 153 12.5t131 42.5v114h-305v106h435v-275q-112 -61 -206.5 -86
t-208.5 -25q-142 0 -246.5 45.5t-160 129t-55.5 196.5t53.5 197zM401 971q0 -54 32 -76t92 -22t92.5 22t32.5 76h102q0 -109 -60 -149.5t-167 -40.5t-167 40.5t-60 149.5h103z" />
    <glyph glyph-name="gbreve" unicode="&#x11f;" horiz-adv-x="971" 
d="M760 583h125v-508q0 -174 -97 -254.5t-281 -80.5q-178 0 -372 47l4 105q104 -20 177.5 -31t155.5 -11q110 0 172.5 27t89 81t26.5 142q-44 -57 -120.5 -87.5t-183.5 -30.5q-108 0 -194 34t-136.5 103.5t-50.5 173.5q0 103 50.5 172.5t136.5 103.5t194 34
q107 0 183.5 -30.5t120.5 -87.5v98zM689 147q71 53 71 146q0 92 -71 145t-204 53t-204 -53t-71 -145q0 -93 71 -146t204 -53t204 53zM360 851q0 -54 32 -76t92 -22t92.5 22t32.5 76h102q0 -109 -60 -149.5t-167 -40.5t-167 40.5t-60 149.5h103z" />
    <glyph glyph-name="Gdotaccent" unicode="&#x120;" horiz-adv-x="1030" 
d="M129.5 548q53.5 84 155 129.5t242.5 45.5q128 0 220.5 -36t144 -97t61.5 -138h-138q-15 74 -88.5 115.5t-199.5 41.5t-195.5 -43t-93.5 -101t-24 -115q0 -56 26.5 -114.5t98.5 -101.5t200 -43q91 0 153 12.5t131 42.5v114h-305v106h435v-275q-112 -61 -206.5 -86
t-208.5 -25q-142 0 -246.5 45.5t-160 129t-55.5 196.5t53.5 197zM443 820v100h165v-100h-165z" />
    <glyph glyph-name="gdotaccent" unicode="&#x121;" horiz-adv-x="971" 
d="M760 583h125v-508q0 -174 -97 -254.5t-281 -80.5q-178 0 -372 47l4 105q104 -20 177.5 -31t155.5 -11q110 0 172.5 27t89 81t26.5 142q-44 -57 -120.5 -87.5t-183.5 -30.5q-108 0 -194 34t-136.5 103.5t-50.5 173.5q0 103 50.5 172.5t136.5 103.5t194 34
q107 0 183.5 -30.5t120.5 -87.5v98zM689 147q71 53 71 146q0 92 -71 145t-204 53t-204 -53t-71 -145q0 -93 71 -146t204 -53t204 53zM402 700v100h165v-100h-165z" />
    <glyph glyph-name="uni0122" unicode="&#x122;" horiz-adv-x="1030" 
d="M129.5 548q53.5 84 155 129.5t242.5 45.5q128 0 220.5 -36t144 -97t61.5 -138h-138q-15 74 -88.5 115.5t-199.5 41.5t-195.5 -43t-93.5 -101t-24 -115q0 -56 26.5 -114.5t98.5 -101.5t200 -43q91 0 153 12.5t131 42.5v114h-305v106h435v-275q-112 -61 -206.5 -86
t-208.5 -25q-142 0 -246.5 45.5t-160 129t-55.5 196.5t53.5 197zM489 -181v102h130v-102l-68 -110h-62l51 110h-51z" />
    <glyph glyph-name="uni0123" unicode="&#x123;" horiz-adv-x="971" 
d="M760 583h125v-508q0 -174 -97 -254.5t-281 -80.5q-178 0 -372 47l4 105q104 -20 177.5 -31t155.5 -11q110 0 172.5 27t89 81t26.5 142q-44 -57 -120.5 -87.5t-183.5 -30.5q-108 0 -194 34t-136.5 103.5t-50.5 173.5q0 103 50.5 172.5t136.5 103.5t194 34
q107 0 183.5 -30.5t120.5 -87.5v98zM689 147q71 53 71 146q0 92 -71 145t-204 53t-204 -53t-71 -145q0 -93 71 -146t204 -53t204 53zM549 811v-102h-130v102l68 110h62l-50 -110h50z" />
    <glyph glyph-name="Hbar" unicode="&#x126;" horiz-adv-x="1095" 
d="M976 605h70v-100h-70v-505h-127v294h-603v-294h-127v505h-70v100h70v98h127v-98h603v98h127v-98zM246 408h603v97h-603v-97z" />
    <glyph glyph-name="hbar" unicode="&#x127;" horiz-adv-x="1052" 
d="M876 529q88 -74 90 -238v-291h-125v263q0 117 -56 172.5t-192 55.5q-141 0 -227 -66t-86 -193v-232h-125v641h-89v100h89v59h125v-59h315v-100h-315v-188q117 150 347 150q161 0 249 -74z" />
    <glyph glyph-name="Imacron" unicode="&#x12a;" horiz-adv-x="300" 
d="M86 703h128v-703h-128v703zM-85 820v100h469v-100h-469z" />
    <glyph glyph-name="imacron" unicode="&#x12b;" horiz-adv-x="306" 
d="M86 0v583h134v-583h-134zM-82 700v100h469v-100h-469z" />
    <glyph glyph-name="Iogonek" unicode="&#x12e;" horiz-adv-x="309" 
d="M150 -131.5q31 -13.5 85 -13.5v-105q-123 0 -184 29.5t-61 100.5q0 44 27.5 70.5t75.5 49.5h-8v703h128v-703h1q-49 -12 -72 -31t-23 -49q0 -38 31 -51.5z" />
    <glyph glyph-name="iogonek" unicode="&#x12f;" horiz-adv-x="308" 
d="M52 800h168v-105h-168v105zM160 -131.5q31 -13.5 85 -13.5v-105q-123 0 -184 29.5t-61 100.5q0 30 13.5 52.5t26 32.5t46.5 35v583h134v-583h1q-47 -12 -69.5 -31t-22.5 -49q0 -38 31 -51.5z" />
    <glyph glyph-name="Idotaccent" unicode="&#x130;" horiz-adv-x="300" 
d="M86 703h128v-703h-128v703zM67 820v100h165v-100h-165z" />
    <glyph glyph-name="dotlessi" unicode="&#x131;" horiz-adv-x="306" 
d="M86 0v583h134v-583h-134z" />
    <glyph glyph-name="uni0136" unicode="&#x136;" horiz-adv-x="1013" 
d="M734 703h203l-404 -316l404 -387h-181l-323 308l-219 -171v-137h-128v703h128v-407zM403 -181v102h130v-102l-68 -110h-62l51 110h-51z" />
    <glyph glyph-name="uni0137" unicode="&#x137;" horiz-adv-x="937" 
d="M644 583h218l-385 -260l385 -323h-188l-300 254l-163 -110v-144h-125v800h125v-509zM366 -181v102h130v-102l-68 -110h-62l51 110h-51z" />
    <glyph glyph-name="Lacute" unicode="&#x139;" horiz-adv-x="829" 
d="M214 703v-589h540v-114h-668v703h128zM86 798v102l389 80v-102z" />
    <glyph glyph-name="lacute" unicode="&#x13a;" horiz-adv-x="298" 
d="M86 0v800h125v-800h-125zM-47 896v102l389 80v-102z" />
    <glyph glyph-name="uni013B" unicode="&#x13b;" horiz-adv-x="829" 
d="M214 703v-589h540v-114h-668v703h128zM359 -181v102h130v-102l-68 -110h-62l51 110h-51z" />
    <glyph glyph-name="uni013C" unicode="&#x13c;" horiz-adv-x="298" 
d="M86 0v800h125v-800h-125zM83 -181v102h130v-102l-68 -110h-62l51 110h-51z" />
    <glyph glyph-name="Lcaron" unicode="&#x13d;" horiz-adv-x="829" 
d="M214 703v-589h540v-114h-668v703h128zM531 578v102h130v-102l-68 -110h-62l51 110h-51z" />
    <glyph glyph-name="lcaron" unicode="&#x13e;" horiz-adv-x="444" 
d="M86 0v800h125v-800h-125zM276 678v102h130v-102l-68 -110h-62l51 110h-51z" />
    <glyph glyph-name="Lslash" unicode="&#x141;" horiz-adv-x="988" 
d="M309 296v-182h540v-114h-668v236l-101 -48v121l101 48v346h128v-286l299 142v-121z" />
    <glyph glyph-name="lslash" unicode="&#x142;" horiz-adv-x="538" 
d="M327 501l136 61v-110l-136 -61v-391h-125v335l-127 -57v110l127 57v355h125v-299z" />
    <glyph glyph-name="Nacute" unicode="&#x143;" horiz-adv-x="1047" 
d="M833 122v581h128v-703h-183l-564 581v-581h-128v703h183zM346 798v102l389 80v-102z" />
    <glyph glyph-name="nacute" unicode="&#x144;" horiz-adv-x="983" 
d="M807 529q88 -74 90 -238v-291h-125v263q0 117 -55.5 172.5t-191.5 55.5q-142 0 -228 -66t-86 -193v-232h-125v583h125v-130q57 74 142 112t205 38q161 0 249 -74zM330 678v102l389 80v-102z" />
    <glyph glyph-name="uni0145" unicode="&#x145;" horiz-adv-x="1047" 
d="M833 122v581h128v-703h-183l-564 581v-581h-128v703h183zM433 -181v102h130v-102l-68 -110h-62l51 110h-51z" />
    <glyph glyph-name="uni0146" unicode="&#x146;" horiz-adv-x="983" 
d="M807 529q88 -74 90 -238v-291h-125v263q0 117 -55.5 172.5t-191.5 55.5q-142 0 -228 -66t-86 -193v-232h-125v583h125v-130q57 74 142 112t205 38q161 0 249 -74zM425 -181v102h130v-102l-68 -110h-62l51 110h-51z" />
    <glyph glyph-name="Ncaron" unicode="&#x147;" horiz-adv-x="1047" 
d="M833 122v581h128v-703h-183l-564 581v-581h-128v703h183zM334 969l207 -80l207 80v-107l-207 -80l-207 80v107z" />
    <glyph glyph-name="ncaron" unicode="&#x148;" horiz-adv-x="983" 
d="M807 529q88 -74 90 -238v-291h-125v263q0 117 -55.5 172.5t-191.5 55.5q-142 0 -228 -66t-86 -193v-232h-125v583h125v-130q57 74 142 112t205 38q161 0 249 -74zM318 849l207 -80l207 80v-107l-207 -80l-207 80v107z" />
    <glyph glyph-name="Eng" unicode="&#x14a;" horiz-adv-x="1047" 
d="M833 703h128v-703q0 -133 -67 -201.5t-211 -68.5q-91 0 -177 24v106q48 -11 77.5 -15t87.5 -4q62 0 95.5 19t45 53t11.5 87h-45l-564 581v-581h-128v703h183l564 -581v581z" />
    <glyph glyph-name="eng" unicode="&#x14b;" horiz-adv-x="983" 
d="M807 529q88 -74 90 -238v-291q0 -130 -64.5 -191.5t-204.5 -61.5q-92 0 -177 15v98q34 -4 62 -7t51 -3q78 0 121 11t65 43t22 96v263q0 117 -55.5 172.5t-191.5 55.5q-142 0 -228 -66t-86 -193v-232h-125v583h125v-130q57 74 142 112t205 38q161 0 249 -74z" />
    <glyph glyph-name="Omacron" unicode="&#x14c;" horiz-adv-x="1058" 
d="M190 79q-114 99 -114 273t114 272.5t339 98.5q224 0 338 -98.5t114 -272.5t-114 -273t-338 -99q-225 0 -339 99zM844 352q0 257 -315 257q-154 0 -234.5 -62t-80.5 -195q0 -258 315 -258t315 258zM294 820v100h469v-100h-469z" />
    <glyph glyph-name="omacron" unicode="&#x14d;" horiz-adv-x="971" 
d="M186.5 59q-111.5 79 -111.5 232t111.5 232.5t299.5 79.5t299 -79.5t111 -232.5t-111 -232t-299 -79t-299.5 79zM691 140.5q70 50.5 70 150.5q0 101 -70 151.5t-205 50.5q-136 0 -206 -50.5t-70 -151.5t70 -151t206 -50q135 0 205 50.5zM250 700v100h469v-100h-469z" />
    <glyph glyph-name="Ohungarumlaut" unicode="&#x150;" horiz-adv-x="1058" 
d="M190 79q-114 99 -114 273t114 272.5t339 98.5q224 0 338 -98.5t114 -272.5t-114 -273t-338 -99q-225 0 -339 99zM844 352q0 257 -315 257q-154 0 -234.5 -62t-80.5 -195q0 -258 315 -258t315 258zM312 807v107l207 80v-107zM579 807v107l207 80v-107z" />
    <glyph glyph-name="ohungarumlaut" unicode="&#x151;" horiz-adv-x="971" 
d="M186.5 59q-111.5 79 -111.5 232t111.5 232.5t299.5 79.5t299 -79.5t111 -232.5t-111 -232t-299 -79t-299.5 79zM691 140.5q70 50.5 70 150.5q0 101 -70 151.5t-205 50.5q-136 0 -206 -50.5t-70 -151.5t70 -151t206 -50q135 0 205 50.5zM268 687v107l207 80v-107zM535 687
v107l207 80v-107z" />
    <glyph glyph-name="OE" unicode="&#x152;" horiz-adv-x="1717" 
d="M1640 591h-613v-184h593v-111h-593v-185h613v-111h-740v112q-56 -64 -149 -98t-222 -34q-225 0 -339 99t-114 273t114 272.5t339 98.5q129 0 222 -33.5t149 -97.5v111h740v-112zM844 352q0 257 -315 257q-154 0 -234.5 -62t-80.5 -195q0 -258 315 -258t315 258z" />
    <glyph glyph-name="oe" unicode="&#x153;" horiz-adv-x="1677" 
d="M1374.5 116q58.5 27 83.5 77h135q-27 -101 -128 -157t-257 -56q-125 0 -218.5 35.5t-143.5 105.5q-49 -70 -142 -105.5t-218 -35.5q-188 0 -299.5 79t-111.5 232t111.5 232.5t299.5 79.5q125 0 218.5 -35.5t142.5 -106.5q50 70 142 106t209 36q186 0 295 -80t109 -263
h-670q10 -89 79.5 -130t197.5 -41q107 0 165.5 27zM940 362h519q-19 69 -84.5 101.5t-176.5 32.5q-217 0 -258 -134zM691 140.5q70 50.5 70 150.5q0 101 -70 151.5t-205 50.5q-136 0 -206 -50.5t-70 -151.5t70 -151t206 -50q135 0 205 50.5z" />
    <glyph glyph-name="Racute" unicode="&#x154;" horiz-adv-x="979" 
d="M847 266q27 -33 27 -87v-179h-127v148q0 37 -8 55.5t-28.5 26t-61.5 7.5h-435v-237h-128v703h525q129 0 200.5 -51.5t71.5 -160.5q0 -136 -115 -184q52 -8 79 -41zM214 590v-241h364q51 0 84.5 6t58.5 32.5t25 82.5q0 55 -25 81.5t-58.5 32.5t-84.5 6h-364zM256 798v102
l389 80v-102z" />
    <glyph glyph-name="racute" unicode="&#x155;" horiz-adv-x="722" 
d="M656 581v-112q-80 21 -155 21q-69 0 -136 -24.5t-154 -92.5v-373h-125v583h125v-104q69 70 137.5 97t149.5 27q83 0 158 -22zM165 678v102l389 80v-102z" />
    <glyph glyph-name="uni0156" unicode="&#x156;" horiz-adv-x="979" 
d="M847 266q27 -33 27 -87v-179h-127v148q0 37 -8 55.5t-28.5 26t-61.5 7.5h-435v-237h-128v703h525q129 0 200.5 -51.5t71.5 -160.5q0 -136 -115 -184q52 -8 79 -41zM214 590v-241h364q51 0 84.5 6t58.5 32.5t25 82.5q0 55 -25 81.5t-58.5 32.5t-84.5 6h-364zM434 -181v102
h130v-102l-68 -110h-62l51 110h-51z" />
    <glyph glyph-name="uni0157" unicode="&#x157;" horiz-adv-x="722" 
d="M656 581v-112q-80 21 -155 21q-69 0 -136 -24.5t-154 -92.5v-373h-125v583h125v-104q69 70 137.5 97t149.5 27q83 0 158 -22zM83 -181v102h130v-102l-68 -110h-62l51 110h-51z" />
    <glyph glyph-name="Rcaron" unicode="&#x158;" horiz-adv-x="979" 
d="M847 266q27 -33 27 -87v-179h-127v148q0 37 -8 55.5t-28.5 26t-61.5 7.5h-435v-237h-128v703h525q129 0 200.5 -51.5t71.5 -160.5q0 -136 -115 -184q52 -8 79 -41zM214 590v-241h364q51 0 84.5 6t58.5 32.5t25 82.5q0 55 -25 81.5t-58.5 32.5t-84.5 6h-364zM244 969
l207 -80l207 80v-107l-207 -80l-207 80v107z" />
    <glyph glyph-name="rcaron" unicode="&#x159;" horiz-adv-x="722" 
d="M656 581v-112q-80 21 -155 21q-69 0 -136 -24.5t-154 -92.5v-373h-125v583h125v-104q69 70 137.5 97t149.5 27q83 0 158 -22zM153 849l207 -80l207 80v-107l-207 -80l-207 80v107z" />
    <glyph glyph-name="Sacute" unicode="&#x15a;" horiz-adv-x="1047" 
d="M214 228q0 -69 75.5 -103.5t261.5 -34.5q150 0 216 27t66 81q0 39 -23.5 57.5t-86 27.5t-202.5 18q-154 9 -243 31t-131.5 66.5t-42.5 121.5q0 109 106 156t305 47q200 0 312 -60t113 -177h-137q0 46 -30.5 73.5t-97.5 40.5t-177 13q-100 0 -156 -11t-78.5 -32.5
t-22.5 -55.5q0 -35 23 -54t82 -29.5t180 -18.5q169 -12 255.5 -26.5t137.5 -56t51 -124.5q0 -127 -110.5 -176t-307.5 -49q-228 0 -348.5 56.5t-127.5 191.5h138zM328 798v102l389 80v-102z" />
    <glyph glyph-name="sacute" unicode="&#x15b;" horiz-adv-x="964" 
d="M210 198q5 -41 34.5 -65t92.5 -35.5t171 -11.5q104 0 157 8.5t71 26t18 48.5q0 28 -18.5 41.5t-72.5 21t-183 17.5q-142 10 -218.5 24.5t-117.5 48t-41 98.5q0 101 101 142t278 41q179 0 278.5 -40t108.5 -149h-135q-4 34 -31.5 52t-82.5 25t-152 7q-128 0 -179 -18
t-51 -52q0 -23 19 -35t73 -20.5t173 -18.5l45 -4q128 -11 194 -23.5t106.5 -47.5t40.5 -104q0 -110 -93 -152.5t-278 -42.5q-131 0 -225.5 17t-154 65t-63.5 136h135zM287 678v102l389 80v-102z" />
    <glyph glyph-name="Scedilla" unicode="&#x15e;" horiz-adv-x="1047" 
d="M861 29.5q-109 -48.5 -304 -49.5l-13 -64q36 18 82 18q44 0 71.5 -19t27.5 -54q0 -56 -59.5 -82t-154.5 -26q-42 0 -102 7v82q80 -12 127 -12q34 0 50.5 7t16.5 23q0 23 -36 23q-26 0 -64 -15l-69 27l18 88q-179 11 -274.5 68.5t-101.5 176.5h138q0 -69 75.5 -103.5
t261.5 -34.5q150 0 216 27t66 81q0 39 -23.5 57.5t-86 27.5t-202.5 18q-154 9 -243 31t-131.5 66.5t-42.5 121.5q0 109 106 156t305 47q200 0 312 -60t113 -177h-137q0 46 -30.5 73.5t-97.5 40.5t-177 13q-100 0 -156 -11t-78.5 -32.5t-22.5 -55.5q0 -35 23 -54t82 -29.5
t180 -18.5q169 -12 255.5 -26.5t137.5 -56t51 -124.5q0 -127 -109 -175.5z" />
    <glyph glyph-name="scedilla" unicode="&#x15f;" horiz-adv-x="964" 
d="M516 -20l-13 -64q36 18 82 18q44 0 71.5 -19t27.5 -54q0 -56 -59.5 -82t-154.5 -26q-42 0 -102 7v82q79 -12 127 -12q34 0 50.5 7t16.5 23q0 23 -36 23q-26 0 -64 -15l-69 27l18 88q-154 9 -242 57.5t-94 157.5h135q5 -41 34.5 -65t92.5 -35.5t171 -11.5q104 0 157 8.5
t71 26t18 48.5q0 28 -18.5 41.5t-72.5 21t-183 17.5q-142 10 -218.5 24.5t-117.5 48t-41 98.5q0 101 101 142t278 41q179 0 278.5 -40t108.5 -149h-135q-4 34 -31.5 52t-82.5 25t-152 7q-128 0 -179 -18t-51 -52q0 -23 19 -35t73 -20.5t173 -18.5l45 -4q128 -11 194 -23.5
t106.5 -47.5t40.5 -104q0 -110 -93 -152.5t-278 -42.5h-2z" />
    <glyph glyph-name="Scaron" unicode="&#x160;" horiz-adv-x="1047" 
d="M214 228q0 -69 75.5 -103.5t261.5 -34.5q150 0 216 27t66 81q0 39 -23.5 57.5t-86 27.5t-202.5 18q-154 9 -243 31t-131.5 66.5t-42.5 121.5q0 109 106 156t305 47q200 0 312 -60t113 -177h-137q0 46 -30.5 73.5t-97.5 40.5t-177 13q-100 0 -156 -11t-78.5 -32.5
t-22.5 -55.5q0 -35 23 -54t82 -29.5t180 -18.5q169 -12 255.5 -26.5t137.5 -56t51 -124.5q0 -127 -110.5 -176t-307.5 -49q-228 0 -348.5 56.5t-127.5 191.5h138zM316 969l207 -80l207 80v-107l-207 -80l-207 80v107z" />
    <glyph glyph-name="scaron" unicode="&#x161;" horiz-adv-x="964" 
d="M210 198q5 -41 34.5 -65t92.5 -35.5t171 -11.5q104 0 157 8.5t71 26t18 48.5q0 28 -18.5 41.5t-72.5 21t-183 17.5q-142 10 -218.5 24.5t-117.5 48t-41 98.5q0 101 101 142t278 41q179 0 278.5 -40t108.5 -149h-135q-4 34 -31.5 52t-82.5 25t-152 7q-128 0 -179 -18
t-51 -52q0 -23 19 -35t73 -20.5t173 -18.5l45 -4q128 -11 194 -23.5t106.5 -47.5t40.5 -104q0 -110 -93 -152.5t-278 -42.5q-131 0 -225.5 17t-154 65t-63.5 136h135zM275 849l207 -80l207 80v-107l-207 -80l-207 80v107z" />
    <glyph glyph-name="uni0162" unicode="&#x162;" horiz-adv-x="1013" 
d="M936 703v-114h-366v-589h-127v589h-367v114h860zM695.5 -75q27.5 -19 27.5 -54q0 -56 -59.5 -82t-154.5 -26q-42 0 -102 7v82q79 -12 127 -12q34 0 50.5 7t16.5 23q0 23 -36 23q-26 0 -64 -15l-69 27l19 95h106l-15 -74q36 18 82 18q44 0 71.5 -19z" />
    <glyph glyph-name="uni0163" unicode="&#x163;" horiz-adv-x="755" 
d="M671 474h-297v-225q0 -67 11 -99.5t41 -45.5t92 -13q61 0 153 12v-107q-106 -16 -181 -16h-18l-13 -63q36 18 82 18q44 0 71.5 -19t27.5 -54q0 -56 -59.5 -82t-154.5 -26q-42 0 -102 7v82q80 -12 127 -12q34 0 50.5 7t16.5 23q0 23 -36 23q-26 0 -64 -15l-69 27l19 95h11
q-72 19 -101 75.5t-29 172.5v235h-174v109h174v136l125 42v-178h297v-109z" />
    <glyph glyph-name="Tcaron" unicode="&#x164;" horiz-adv-x="1013" 
d="M936 703v-114h-366v-589h-127v589h-367v114h860zM299 969l207 -80l207 80v-107l-207 -80l-207 80v107z" />
    <glyph glyph-name="tcaron" unicode="&#x165;" horiz-adv-x="755" 
d="M598 727l-68 -109h-62l51 109h-51v101h130v-101zM671 474h-297v-225q0 -67 11 -99.5t41 -45.5t92 -13q61 0 153 12v-107q-106 -16 -181 -16q-94 0 -145.5 23t-73.5 78.5t-22 157.5v235h-174v109h174v136l125 42v-178h297v-109z" />
    <glyph glyph-name="Tbar" unicode="&#x166;" horiz-adv-x="1013" 
d="M936 703v-114h-366v-211h243v-100h-243v-278h-127v278h-243v100h243v211h-367v114h860z" />
    <glyph glyph-name="tbar" unicode="&#x167;" horiz-adv-x="755" 
d="M671 474h-297v-103h297v-100h-297v-22q0 -67 11 -99.5t41 -45.5t92 -13q61 0 153 12v-107q-106 -16 -181 -16q-94 0 -145.5 23t-73.5 78.5t-22 157.5v32h-174v100h174v103h-174v109h174v136l125 42v-178h297v-109z" />
    <glyph glyph-name="Umacron" unicode="&#x16a;" horiz-adv-x="1053" 
d="M966 342q0 -184 -106 -273t-334 -89q-229 0 -334.5 88.5t-105.5 273.5v361h128v-359q0 -70 21 -123.5t90 -90t201 -36.5t201 37t90.5 90.5t21.5 122.5v359h127v-361zM291 820v100h469v-100h-469z" />
    <glyph glyph-name="umacron" unicode="&#x16b;" horiz-adv-x="984" 
d="M772 583h125v-582h-125v130q-57 -74 -142 -112.5t-205 -38.5q-161 0 -249 74t-90 238v291h125v-263q0 -116 56 -172t192 -56q141 0 227 66t86 193v232zM246 700v100h469v-100h-469z" />
    <glyph glyph-name="Uring" unicode="&#x16e;" horiz-adv-x="1053" 
d="M966 342q0 -184 -106 -273t-334 -89q-229 0 -334.5 88.5t-105.5 273.5v361h128v-359q0 -70 21 -123.5t90 -90t201 -36.5t201 37t90.5 90.5t21.5 122.5v359h127v-361zM315 912q0 132 212 132q211 0 211 -132t-211 -132q-212 0 -212 132zM635 912q0 61 -108 61
q-56 0 -82.5 -15.5t-26.5 -45.5t26.5 -45.5t82.5 -15.5q108 0 108 61z" />
    <glyph glyph-name="uring" unicode="&#x16f;" horiz-adv-x="984" 
d="M772 583h125v-582h-125v130q-57 -74 -142 -112.5t-205 -38.5q-161 0 -249 74t-90 238v291h125v-263q0 -116 56 -172t192 -56q141 0 227 66t86 193v232zM270 792q0 132 212 132q211 0 211 -132t-211 -132q-212 0 -212 132zM590 792q0 61 -108 61q-56 0 -82.5 -15.5
t-26.5 -45.5t26.5 -45.5t82.5 -15.5q108 0 108 61z" />
    <glyph glyph-name="Uhungarumlaut" unicode="&#x170;" horiz-adv-x="1053" 
d="M966 342q0 -184 -106 -273t-334 -89q-229 0 -334.5 88.5t-105.5 273.5v361h128v-359q0 -70 21 -123.5t90 -90t201 -36.5t201 37t90.5 90.5t21.5 122.5v359h127v-361zM309 807v107l207 80v-107zM576 807v107l207 80v-107z" />
    <glyph glyph-name="uhungarumlaut" unicode="&#x171;" horiz-adv-x="984" 
d="M772 583h125v-582h-125v130q-57 -74 -142 -112.5t-205 -38.5q-161 0 -249 74t-90 238v291h125v-263q0 -116 56 -172t192 -56q141 0 227 66t86 193v232zM264 687v107l207 80v-107zM531 687v107l207 80v-107z" />
    <glyph glyph-name="Uogonek" unicode="&#x172;" horiz-adv-x="1053" 
d="M839 703h127v-361q0 -142 -62.5 -227t-193.5 -116q-61 -16 -80 -30.5t-19 -38.5q0 -26 22.5 -38t55.5 -14.5t88 -2.5v-105q-106 0 -165 7t-91 30.5t-32 70.5q0 75 106 104q-44 -2 -69 -2q-229 0 -334.5 88.5t-105.5 273.5v361h128v-359q0 -70 21 -123.5t90 -90t201 -36.5
t201 37t90.5 90.5t21.5 122.5v359z" />
    <glyph glyph-name="uogonek" unicode="&#x173;" horiz-adv-x="983" 
d="M772 583h125v-582h-125v130q-57 -74 -142 -112.5t-205 -38.5q-161 0 -249 74t-90 238v291h125v-263q0 -116 56 -172t192 -56q141 0 227 66t86 193v232zM897 0q-58 -5 -85 -26.5t-27 -54.5q0 -38 30 -51t82 -13v-105q-241 0 -241 131q0 45 32 72t91 47h118z" />
    <glyph glyph-name="Wcircumflex" unicode="&#x174;" horiz-adv-x="1627" 
d="M1156 114l258 589h137l-312 -703h-167l-259 611l-275 -611h-168l-294 703h137l242 -589l264 589h190zM606 900l207 80l207 -80v-107l-207 80l-207 -80v107z" />
    <glyph glyph-name="wcircumflex" unicode="&#x175;" horiz-adv-x="1505" 
d="M1071 85l225 498h134l-263 -583h-190l-224 464l-225 -464h-190l-263 583h133l226 -498l239 498h159zM545 780l207 80l207 -80v-107l-207 80l-207 -80v107z" />
    <glyph glyph-name="Ycircumflex" unicode="&#x176;" horiz-adv-x="1131" 
d="M566 341l320 362h169l-421 -472v-231h-137v231l-421 472h169zM358 900l207 80l207 -80v-107l-207 80l-207 -80v107z" />
    <glyph glyph-name="ycircumflex" unicode="&#x177;" horiz-adv-x="1017" 
d="M803 583h140l-358 -637q-39 -71 -77 -115t-88 -67.5t-119 -23.5q-52 0 -94 5t-97 15v109q91 -19 168 -19q63 0 104 28t81 100l12 22h-71l-329 583h143l293 -519zM310 780l207 80l207 -80v-107l-207 80l-207 -80v107z" />
    <glyph glyph-name="Ydieresis" unicode="&#x178;" horiz-adv-x="1131" 
d="M566 341l320 362h169l-421 -472v-231h-137v231l-421 472h169zM354 820v100h163v-100h-163zM614 820v100h163v-100h-163z" />
    <glyph glyph-name="Zacute" unicode="&#x179;" horiz-adv-x="965" 
d="M86 703h793v-114l-594 -475h594v-114h-793v114l594 475h-594v114zM287 798v102l389 80v-102z" />
    <glyph glyph-name="zacute" unicode="&#x17a;" horiz-adv-x="869" 
d="M86 583h697v-109l-502 -365h502v-109h-697v109l502 365h-502v109zM239 678v102l389 80v-102z" />
    <glyph glyph-name="Zdotaccent" unicode="&#x17b;" horiz-adv-x="965" 
d="M86 703h793v-114l-594 -475h594v-114h-793v114l594 475h-594v114zM400 820v100h165v-100h-165z" />
    <glyph glyph-name="zdotaccent" unicode="&#x17c;" horiz-adv-x="869" 
d="M86 583h697v-109l-502 -365h502v-109h-697v109l502 365h-502v109zM352 700v100h165v-100h-165z" />
    <glyph glyph-name="Zcaron" unicode="&#x17d;" horiz-adv-x="965" 
d="M86 703h793v-114l-594 -475h594v-114h-793v114l594 475h-594v114zM275 969l207 -80l207 80v-107l-207 -80l-207 80v107z" />
    <glyph glyph-name="zcaron" unicode="&#x17e;" horiz-adv-x="869" 
d="M86 583h697v-109l-502 -365h502v-109h-697v109l502 365h-502v109zM227 849l207 -80l207 80v-107l-207 -80l-207 80v107z" />
    <glyph glyph-name="uni0218" unicode="&#x218;" horiz-adv-x="1047" 
d="M214 228q0 -69 75.5 -103.5t261.5 -34.5q150 0 216 27t66 81q0 39 -23.5 57.5t-86 27.5t-202.5 18q-154 9 -243 31t-131.5 66.5t-42.5 121.5q0 109 106 156t305 47q200 0 312 -60t113 -177h-137q0 46 -30.5 73.5t-97.5 40.5t-177 13q-100 0 -156 -11t-78.5 -32.5
t-22.5 -55.5q0 -35 23 -54t82 -29.5t180 -18.5q169 -12 255.5 -26.5t137.5 -56t51 -124.5q0 -127 -110.5 -176t-307.5 -49q-228 0 -348.5 56.5t-127.5 191.5h138zM458 -191v102h130v-102l-68 -110h-62l51 110h-51z" />
    <glyph glyph-name="uni0219" unicode="&#x219;" horiz-adv-x="964" 
d="M210 198q5 -41 34.5 -65t92.5 -35.5t171 -11.5q104 0 157 8.5t71 26t18 48.5q0 28 -18.5 41.5t-72.5 21t-183 17.5q-142 10 -218.5 24.5t-117.5 48t-41 98.5q0 101 101 142t278 41q179 0 278.5 -40t108.5 -149h-135q-4 34 -31.5 52t-82.5 25t-152 7q-128 0 -179 -18
t-51 -52q0 -23 19 -35t73 -20.5t173 -18.5l45 -4q128 -11 194 -23.5t106.5 -47.5t40.5 -104q0 -110 -93 -152.5t-278 -42.5q-131 0 -225.5 17t-154 65t-63.5 136h135zM417 -191v102h130v-102l-68 -110h-62l51 110h-51z" />
    <glyph glyph-name="uni021A" unicode="&#x21a;" horiz-adv-x="1013" 
d="M936 703v-114h-366v-589h-127v589h-367v114h860zM441 -181v102h130v-102l-68 -110h-62l51 110h-51z" />
    <glyph glyph-name="uni021B" unicode="&#x21b;" horiz-adv-x="755" 
d="M671 474h-297v-225q0 -67 11 -99.5t41 -45.5t92 -13q61 0 153 12v-107q-106 -16 -181 -16q-94 0 -145.5 23t-73.5 78.5t-22 157.5v235h-174v109h174v136l125 42v-178h297v-109zM399 -182v102h130v-102l-68 -110h-62l51 110h-51z" />
    <glyph glyph-name="circumflex" unicode="&#x2c6;" horiz-adv-x="587" 
d="M86 780l207 80l207 -80v-107l-207 80l-207 -80v107z" />
    <glyph glyph-name="caron" unicode="&#x2c7;" horiz-adv-x="587" 
d="M86 849l207 -80l207 80v-107l-207 -80l-207 80v107z" />
    <glyph glyph-name="breve" unicode="&#x2d8;" horiz-adv-x="627" 
d="M189 851q0 -54 32 -76t92 -22t92.5 22t32.5 76h102q0 -109 -60 -149.5t-167 -40.5t-167 40.5t-60 149.5h103z" />
    <glyph glyph-name="dotaccent" unicode="&#x2d9;" horiz-adv-x="338" 
d="M86 700v100h165v-100h-165z" />
    <glyph glyph-name="ring" unicode="&#x2da;" horiz-adv-x="595" 
d="M86 792q0 132 212 132q211 0 211 -132t-211 -132q-212 0 -212 132zM406 792q0 61 -108 61q-56 0 -82.5 -15.5t-26.5 -45.5t26.5 -45.5t82.5 -15.5q108 0 108 61z" />
    <glyph glyph-name="ogonek" unicode="&#x2db;" horiz-adv-x="461" 
d="M374 -230q-101 0 -162.5 9.5t-94 34.5t-32.5 73q0 35 20.5 60t63.5 53h90q-23 -19 -37 -35.5t-14 -36.5q0 -27 22.5 -39.5t55.5 -15.5t88 -3v-100z" />
    <glyph glyph-name="tilde" unicode="&#x2dc;" horiz-adv-x="758" 
d="M86 678q0 82 43 137.5t126 55.5q45 0 76.5 -15t68.5 -42q28 -21 47 -31t42 -10q33 0 46.5 23.5t13.5 66.5h122q0 -83 -42.5 -138.5t-125.5 -55.5q-46 0 -77.5 15t-68.5 43q-26 21 -45.5 31t-42.5 10q-33 0 -46.5 -24t-13.5 -66h-123z" />
    <glyph glyph-name="hungarumlaut" unicode="&#x2dd;" horiz-adv-x="647" 
d="M86 687v107l207 80v-107zM353 687v107l207 80v-107z" />
    <glyph glyph-name="gravecomb" unicode="&#x300;" 
d="M-493 860l389 -80v-102l-389 80v102z" />
    <glyph glyph-name="acutecomb" unicode="&#x301;" 
d="M-476 678v102l389 80v-102z" />
    <glyph glyph-name="uni0302" unicode="&#x302;" 
d="M-501 780l207 80l207 -80v-107l-207 80l-207 -80v107z" />
    <glyph glyph-name="tildecomb" unicode="&#x303;" 
d="M-672 678q0 82 43 137.5t126 55.5q45 0 76.5 -15t68.5 -42q28 -21 47 -31t42 -10q33 0 46.5 23.5t13.5 66.5h122q0 -83 -42.5 -138.5t-125.5 -55.5q-46 0 -77.5 15t-68.5 43q-26 21 -45.5 31t-42.5 10q-33 0 -46.5 -24t-13.5 -66h-123z" />
    <glyph glyph-name="uni0304" unicode="&#x304;" 
d="M-556 700v100h469v-100h-469z" />
    <glyph glyph-name="uni0306" unicode="&#x306;" 
d="M-438 851q0 -54 32 -76t92 -22t92.5 22t32.5 76h102q0 -109 -60 -149.5t-167 -40.5t-167 40.5t-60 149.5h103z" />
    <glyph glyph-name="uni0307" unicode="&#x307;" 
d="M-252 700v100h165v-100h-165z" />
    <glyph glyph-name="uni0308" unicode="&#x308;" 
d="M-509 700v100h163v-100h-163zM-249 700v100h163v-100h-163z" />
    <glyph glyph-name="uni030A" unicode="&#x30a;" 
d="M-509 792q0 132 212 132q211 0 211 -132t-211 -132q-212 0 -212 132zM-189 792q0 61 -108 61q-56 0 -82.5 -15.5t-26.5 -45.5t26.5 -45.5t82.5 -15.5q108 0 108 61z" />
    <glyph glyph-name="uni030B" unicode="&#x30b;" 
d="M-561 687v107l207 80v-107zM-294 687v107l207 80v-107z" />
    <glyph glyph-name="uni030C" unicode="&#x30c;" 
d="M-501 849l207 -80l207 80v-107l-207 -80l-207 80v107z" />
    <glyph glyph-name="uni0312" unicode="&#x312;" 
d="M-87 811v-102h-130v102l68 110h62l-50 -110h50z" />
    <glyph glyph-name="uni0326" unicode="&#x326;" 
d="M-217 -181v102h130v-102l-68 -110h-62l51 110h-51z" />
    <glyph glyph-name="uni0327" unicode="&#x327;" 
d="M-114.5 -75q27.5 -19 27.5 -54q0 -56 -59.5 -82t-154.5 -26q-42 0 -102 7v82q79 -12 127 -12q34 0 50.5 7t16.5 23q0 23 -36 23q-26 0 -64 -15l-69 27l19 95h106l-15 -74q36 18 82 18q44 0 71.5 -19z" />
    <glyph glyph-name="uni0328" unicode="&#x328;" 
d="M-87 -230q-101 0 -162.5 9.5t-94 34.5t-32.5 73q0 35 20.5 60t63.5 53h90q-23 -19 -37 -35.5t-14 -36.5q0 -27 22.5 -39.5t55.5 -15.5t88 -3v-100z" />
    <glyph glyph-name="uni0335" unicode="&#x335;" 
d="M-567 290v100h480v-100h-480z" />
    <glyph glyph-name="uni0336" unicode="&#x336;" 
d="M-1087 290v100h1000v-100h-1000z" />
    <glyph glyph-name="uni0337" unicode="&#x337;" 
d="M-214 730h128l-263 -880h-128z" />
    <glyph glyph-name="uni0338" unicode="&#x338;" 
d="M-208 720h122l-260 -870h-122z" />
    <glyph glyph-name="Wgrave" unicode="&#x1e80;" horiz-adv-x="1627" 
d="M1156 114l258 589h137l-312 -703h-167l-259 611l-275 -611h-168l-294 703h137l242 -589l264 589h190zM619 980l389 -80v-102l-389 80v102z" />
    <glyph glyph-name="wgrave" unicode="&#x1e81;" horiz-adv-x="1505" 
d="M1071 85l225 498h134l-263 -583h-190l-224 464l-225 -464h-190l-263 583h133l226 -498l239 498h159zM558 860l389 -80v-102l-389 80v102z" />
    <glyph glyph-name="Wacute" unicode="&#x1e82;" horiz-adv-x="1627" 
d="M1156 114l258 589h137l-312 -703h-167l-259 611l-275 -611h-168l-294 703h137l242 -589l264 589h190zM618 798v102l389 80v-102z" />
    <glyph glyph-name="wacute" unicode="&#x1e83;" horiz-adv-x="1505" 
d="M1071 85l225 498h134l-263 -583h-190l-224 464l-225 -464h-190l-263 583h133l226 -498l239 498h159zM557 678v102l389 80v-102z" />
    <glyph glyph-name="Wdieresis" unicode="&#x1e84;" horiz-adv-x="1627" 
d="M1156 114l258 589h137l-312 -703h-167l-259 611l-275 -611h-168l-294 703h137l242 -589l264 589h190zM602 820v100h163v-100h-163zM862 820v100h163v-100h-163z" />
    <glyph glyph-name="wdieresis" unicode="&#x1e85;" horiz-adv-x="1505" 
d="M1071 85l225 498h134l-263 -583h-190l-224 464l-225 -464h-190l-263 583h133l226 -498l239 498h159zM541 700v100h163v-100h-163zM801 700v100h163v-100h-163z" />
    <glyph glyph-name="Ygrave" unicode="&#x1ef2;" horiz-adv-x="1131" 
d="M566 341l320 362h169l-421 -472v-231h-137v231l-421 472h169zM371 980l389 -80v-102l-389 80v102z" />
    <glyph glyph-name="ygrave" unicode="&#x1ef3;" horiz-adv-x="1017" 
d="M803 583h140l-358 -637q-39 -71 -77 -115t-88 -67.5t-119 -23.5q-52 0 -94 5t-97 15v109q91 -19 168 -19q63 0 104 28t81 100l12 22h-71l-329 583h143l293 -519zM323 860l389 -80v-102l-389 80v102z" />
    <glyph glyph-name="endash" unicode="&#x2013;" horiz-adv-x="1213" 
d="M106 286v108h1000v-108h-1000z" />
    <glyph glyph-name="emdash" unicode="&#x2014;" horiz-adv-x="1413" 
d="M106 286v108h1200v-108h-1200z" />
    <glyph glyph-name="quoteleft" unicode="&#x2018;" horiz-adv-x="365" 
d="M230 435h-134l62 328h112z" />
    <glyph glyph-name="quoteright" unicode="&#x2019;" horiz-adv-x="364" 
d="M135 763h134l-61 -328h-113z" />
    <glyph glyph-name="quotesinglbase" unicode="&#x201a;" horiz-adv-x="308" 
d="M86 0v110h127v-110l-64 -185h-60l42 185h-45z" />
    <glyph glyph-name="quotedblleft" unicode="&#x201c;" horiz-adv-x="579" 
d="M230 435h-134l62 328h112zM444 435h-134l61 328h113z" />
    <glyph glyph-name="quotedblright" unicode="&#x201d;" horiz-adv-x="579" 
d="M135 763h134l-61 -328h-113zM349 763h134l-61 -328h-113z" />
    <glyph glyph-name="quotedblbase" unicode="&#x201e;" horiz-adv-x="521" 
d="M300 0v110h127v-110l-64 -185h-60l42 185h-45zM86 0v110h127v-110l-64 -185h-60l42 185h-45z" />
    <glyph glyph-name="dagger" unicode="&#x2020;" horiz-adv-x="885" 
d="M505 583h294v-112h-294v-621h-123v621h-296v112h296v217h123v-217z" />
    <glyph glyph-name="daggerdbl" unicode="&#x2021;" horiz-adv-x="885" 
d="M799 583v-112h-294v-292h294v-111h-294v-218h-123v218h-296v111h296v292h-296v112h296v217h123v-217h294z" />
    <glyph glyph-name="bullet" unicode="&#x2022;" horiz-adv-x="437" 
d="M118.5 250q-32.5 23 -32.5 71t32.5 71t100.5 23q67 0 99.5 -23t32.5 -71t-32.5 -71t-99.5 -23q-68 0 -100.5 23z" />
    <glyph glyph-name="ellipsis" unicode="&#x2026;" horiz-adv-x="785" 
d="M86 0v110h127v-110h-127zM325 0v110h127v-110h-127zM564 0v110h127v-110h-127z" />
    <glyph glyph-name="perthousand" unicode="&#x2030;" horiz-adv-x="2093" 
d="M200 283q-60 34 -87 87.5t-27 115.5t27 115.5t87 87.5t154 34t154 -34t87 -87.5t27 -115.5t-27 -115.5t-87 -87.5t-154 -34t-154 34zM952 703h149l-556 -703h-149zM458 388.5q37 34.5 37 97.5t-37 97.5t-104 34.5q-66 0 -103 -34.5t-37 -97.5t37 -97.5t103 -34.5
q67 0 104 34.5zM990 14q-60 34 -87 87.5t-27 115.5t27 115.5t87 87.5t153 34q95 0 155 -34t87 -87.5t27 -115.5t-27 -115.5t-87 -87.5t-155 -34q-93 0 -153 34zM1584 14q-60 34 -86.5 87.5t-26.5 115.5t26.5 115.5t86.5 87.5t154 34q95 0 155 -34t87 -87.5t27 -115.5
t-27 -115.5t-87 -87.5t-155 -34q-94 0 -154 34zM1247 119.5q37 34.5 37 97.5t-37 97.5t-104 34.5q-66 0 -103 -34.5t-37 -97.5t37 -97.5t103 -34.5q67 0 104 34.5zM1842 119.5q37 34.5 37 97.5t-37 97.5t-104 34.5q-66 0 -103 -34.5t-37 -97.5t37 -97.5t103 -34.5
q67 0 104 34.5z" />
    <glyph glyph-name="guilsinglleft" unicode="&#x2039;" horiz-adv-x="607" 
d="M86 291l260 292h175l-260 -292l260 -291h-175z" />
    <glyph glyph-name="guilsinglright" unicode="&#x203a;" horiz-adv-x="607" 
d="M86 583h175l260 -292l-260 -291h-175l260 291z" />
    <glyph glyph-name="fraction" unicode="&#x2044;" horiz-adv-x="569" 
d="M351 730h128l-263 -880h-128z" />
    <glyph glyph-name="Euro" unicode="&#x20ac;" horiz-adv-x="910" 
d="M398 575.5q-60 -34.5 -81 -107.5h391v-78h-403q-1 -12 -1 -39q0 -25 1 -37h403v-77h-392q21 -75 81 -109.5t175 -34.5q53 0 109.5 7t142.5 24v-113q-88 -17 -150 -24t-134 -7q-312 0 -364 257h-90v77h81q-1 12 -1 37q0 26 1 39h-81v78h92q26 121 114.5 188t247.5 67
q73 0 135 -7.5t149 -24.5v-112q-86 17 -142.5 24t-109.5 7q-114 0 -174 -34.5z" />
    <glyph glyph-name="trademark" unicode="&#x2122;" horiz-adv-x="1126" 
d="M262 638h-176v62h418v-62h-176v-278h-66v278zM621 360h-67v340h104l139 -280l138 280h104v-340h-66v270l-135 -270h-82l-135 270v-270z" />
    <glyph glyph-name="arrowleft" unicode="&#x2190;" horiz-adv-x="873" 
d="M786 403v-106h-498l157 -163l-82 -80l-277 297l277 295l82 -80l-157 -163h498z" />
    <glyph glyph-name="arrowup" unicode="&#x2191;" horiz-adv-x="764" 
d="M435 537v-498h-106v498l-163 -157l-80 82l295 277l297 -277l-80 -82z" />
    <glyph glyph-name="arrowright" unicode="&#x2192;" horiz-adv-x="873" 
d="M585 297h-499v106h499l-158 163l82 80l277 -295l-277 -297l-82 80z" />
    <glyph glyph-name="arrowdown" unicode="&#x2193;" horiz-adv-x="764" 
d="M329 663h106v-499l163 158l80 -83l-297 -277l-295 277l80 83l163 -158v499z" />
    <glyph glyph-name="arrowboth" unicode="&#x2194;" horiz-adv-x="1499" 
d="M1054 566l82 80l277 -295l-277 -297l-82 80l157 163h-923l157 -163l-82 -80l-277 297l277 295l82 -80l-157 -163h923z" />
    <glyph glyph-name="arrowupdn" unicode="&#x2195;" horiz-adv-x="764" 
d="M435 20l163 158l80 -82l-297 -277l-295 277l80 82l163 -158v600l-163 -158l-80 82l295 277l297 -277l-80 -82l-163 158v-600z" />
    <glyph glyph-name="uni2196" unicode="&#x2196;" horiz-adv-x="718" 
d="M632 177l-75 -75l-353 352l-3 -226l-115 2l14 405l404 13l2 -115l-227 -3z" />
    <glyph glyph-name="uni2197" unicode="&#x2197;" horiz-adv-x="718" 
d="M514 454l-353 -352l-75 75l353 352l-227 4l2 114l404 -12l14 -406l-115 -1z" />
    <glyph glyph-name="uni2198" unicode="&#x2198;" horiz-adv-x="718" 
d="M86 523l75 75l353 -352l3 226l115 -1l-14 -406l-404 -12l-2 114l227 4z" />
    <glyph glyph-name="uni2199" unicode="&#x2199;" horiz-adv-x="718" 
d="M204 246l353 352l75 -75l-353 -352l227 -4l-2 -114l-404 12l-14 406l115 1z" />
    <glyph glyph-name="emptyset" unicode="&#x2205;" horiz-adv-x="1182" 
d="M974 669q59 -61 89 -142t30 -176q0 -132 -58 -236.5t-171 -165t-273 -60.5q-186 0 -313 84l-115 -115l-64 65l109 109q-59 61 -89.5 143t-30.5 176q0 131 58.5 235.5t172 164.5t272.5 60q185 0 313 -83l114 114l64 -65zM296 120l522 522q-91 57 -227 57
q-115 0 -197.5 -41t-126.5 -119.5t-44 -187.5q0 -141 73 -231zM788.5 42.5q82.5 41.5 126 120.5t43.5 188q0 143 -72 230l-522 -522q92 -58 227 -58q115 0 197.5 41.5z" />
    <glyph glyph-name="product" unicode="&#x220f;" horiz-adv-x="1195" 
d="M1109 800v-111h-218v-839h-123v839h-384v-839h-123v839h-175v111h1023z" />
    <glyph glyph-name="minus" unicode="&#x2212;" horiz-adv-x="973" 
d="M86 286v108h800v-108h-800z" />
    <glyph glyph-name="integral" unicode="&#x222b;" horiz-adv-x="1046" 
d="M86 -39h32q81 0 141.5 13.5t109.5 65.5t66 158l41 254q26 163 98 239t159 92.5t226 16.5v-111h-32q-81 0 -141.5 -13.5t-109.5 -65.5t-65 -158l-41 -254q-26 -163 -98 -239t-159 -92.5t-227 -16.5v111z" />
    <glyph glyph-name="approxequal" unicode="&#x2248;" horiz-adv-x="973" 
d="M86 381q0 285 219 285q47 0 85 -14t64.5 -33t63.5 -51q42 -38 72.5 -56.5t69.5 -18.5q50 0 74 40.5t24 132.5h128q0 -285 -218 -285q-47 0 -85 14t-65.5 33.5t-62.5 50.5q-43 38 -73 56t-69 18q-51 0 -74.5 -40t-23.5 -132h-129zM86 18q0 285 219 285q47 0 85 -14
t64.5 -33t63.5 -51q42 -38 72.5 -56.5t69.5 -18.5q50 0 74 40.5t24 132.5h128q0 -285 -218 -285q-47 0 -85 14t-65.5 33.5t-62.5 50.5q-43 38 -73 56t-69 18q-51 0 -74.5 -40t-23.5 -132h-129z" />
    <glyph glyph-name="notequal" unicode="&#x2260;" horiz-adv-x="973" 
d="M886 554v-108h-301l-63 -212h364v-108h-396l-68 -226h-128l68 226h-276v108h308l63 212h-371v108h403l68 226h128l-68 -226h269z" />
    <glyph glyph-name="lessequal" unicode="&#x2264;" horiz-adv-x="990" 
d="M225 482l661 -138v-122l-800 171v178l800 171v-122zM104 31v108h800v-108h-800z" />
    <glyph glyph-name="greaterequal" unicode="&#x2265;" horiz-adv-x="990" 
d="M86 31v108h800v-108h-800zM104 620v122l800 -171v-178l-800 -171v122l661 138z" />
    <glyph glyph-name="lozenge" unicode="&#x25ca;" horiz-adv-x="968" 
d="M568 800l313 -472l-313 -473h-167l-315 473l315 472h167zM230 328l254 -382l253 382l-253 382z" />
    <glyph glyph-name="A.ss01" horiz-adv-x="1282" 
d="M1206 0h-146l-95 161h-648l-95 -161h-146l407 703h315zM568 589l-187 -318h520l-187 318h-146z" />
    <glyph glyph-name="Aacute.ss01" horiz-adv-x="1282" 
d="M1206 0h-146l-95 161h-648l-95 -161h-146l407 703h315zM568 589l-187 -318h520l-187 318h-146zM446 798v102l389 80v-102z" />
    <glyph glyph-name="Abreve.ss01" horiz-adv-x="1282" 
d="M1206 0h-146l-95 161h-648l-95 -161h-146l407 703h315zM568 589l-187 -318h520l-187 318h-146zM517 971q0 -54 32 -76t92 -22t92.5 22t32.5 76h102q0 -109 -60 -149.5t-167 -40.5t-167 40.5t-60 149.5h103z" />
    <glyph glyph-name="Acircumflex.ss01" horiz-adv-x="1282" 
d="M1206 0h-146l-95 161h-648l-95 -161h-146l407 703h315zM568 589l-187 -318h520l-187 318h-146zM434 900l207 80l207 -80v-107l-207 80l-207 -80v107z" />
    <glyph glyph-name="Adieresis.ss01" horiz-adv-x="1282" 
d="M1206 0h-146l-95 161h-648l-95 -161h-146l407 703h315zM568 589l-187 -318h520l-187 318h-146zM429 820v100h163v-100h-163zM689 820v100h163v-100h-163z" />
    <glyph glyph-name="Agrave.ss01" horiz-adv-x="1282" 
d="M1206 0h-146l-95 161h-648l-95 -161h-146l407 703h315zM568 589l-187 -318h520l-187 318h-146zM446 980l389 -80v-102l-389 80v102z" />
    <glyph glyph-name="Amacron.ss01" horiz-adv-x="1282" 
d="M1206 0h-146l-95 161h-648l-95 -161h-146l407 703h315zM568 589l-187 -318h520l-187 318h-146zM406 820v100h469v-100h-469z" />
    <glyph glyph-name="Aogonek.ss01" horiz-adv-x="1282" 
d="M1206 0h-146l-95 161h-648l-95 -161h-146l407 703h315zM568 589l-187 -318h520l-187 318h-146zM1285 -230q-101 0 -162.5 9.5t-94 34.5t-32.5 73q0 35 20.5 60t63.5 53h90q-23 -19 -37 -35.5t-14 -36.5q0 -27 22.5 -39.5t55.5 -15.5t88 -3v-100z" />
    <glyph glyph-name="Aring.ss01" horiz-adv-x="1282" 
d="M1206 0h-146l-95 161h-648l-95 -161h-146l407 703h315zM568 589l-187 -318h520l-187 318h-146zM429 912q0 132 212 132q211 0 211 -132t-211 -132q-212 0 -212 132zM749 912q0 61 -108 61q-56 0 -82.5 -15.5t-26.5 -45.5t26.5 -45.5t82.5 -15.5q108 0 108 61z" />
    <glyph glyph-name="Atilde.ss01" horiz-adv-x="1282" 
d="M1206 0h-146l-95 161h-648l-95 -161h-146l407 703h315zM568 589l-187 -318h520l-187 318h-146zM348 798q0 82 43 137.5t126 55.5q45 0 76.5 -15t68.5 -42q28 -21 47 -31t42 -10q33 0 46.5 23.5t13.5 66.5h122q0 -83 -42.5 -138.5t-125.5 -55.5q-46 0 -77.5 15t-68.5 43
q-26 21 -45.5 31t-42.5 10q-33 0 -46.5 -24t-13.5 -66h-123z" />
    <glyph glyph-name="K.ss01" horiz-adv-x="1020" 
d="M762 703h180l-371 -351l371 -352h-180l-311 294h-237v-294h-128v703h128v-295h236z" />
    <glyph glyph-name="uni0136.ss01" horiz-adv-x="1020" 
d="M762 703h180l-371 -351l371 -352h-180l-311 294h-237v-294h-128v703h128v-295h236zM398 -181v102h130v-102l-68 -110h-62l51 110h-51z" />
    <glyph glyph-name="R.ss01" horiz-adv-x="977" 
d="M856.5 311q-44.5 -60 -122.5 -84l158 -227h-153l-146 212h-379v-212h-128v703h545q81 0 142 -29.5t94.5 -85t33.5 -131.5q0 -86 -44.5 -146zM214 590v-266h364q53 0 90.5 6.5t66 36t28.5 90.5t-28.5 90.5t-66 36t-90.5 6.5h-364z" />
    <glyph glyph-name="Racute.ss01" horiz-adv-x="977" 
d="M856.5 311q-44.5 -60 -122.5 -84l158 -227h-153l-146 212h-379v-212h-128v703h545q81 0 142 -29.5t94.5 -85t33.5 -131.5q0 -86 -44.5 -146zM214 590v-266h364q53 0 90.5 6.5t66 36t28.5 90.5t-28.5 90.5t-66 36t-90.5 6.5h-364zM256 798v102l389 80v-102z" />
    <glyph glyph-name="Rcaron.ss01" horiz-adv-x="977" 
d="M856.5 311q-44.5 -60 -122.5 -84l158 -227h-153l-146 212h-379v-212h-128v703h545q81 0 142 -29.5t94.5 -85t33.5 -131.5q0 -86 -44.5 -146zM214 590v-266h364q53 0 90.5 6.5t66 36t28.5 90.5t-28.5 90.5t-66 36t-90.5 6.5h-364zM244 969l207 -80l207 80v-107l-207 -80
l-207 80v107z" />
    <glyph glyph-name="uni0156.ss01" horiz-adv-x="977" 
d="M856.5 311q-44.5 -60 -122.5 -84l158 -227h-153l-146 212h-379v-212h-128v703h545q81 0 142 -29.5t94.5 -85t33.5 -131.5q0 -86 -44.5 -146zM214 590v-266h364q53 0 90.5 6.5t66 36t28.5 90.5t-28.5 90.5t-66 36t-90.5 6.5h-364zM404 -181v102h130v-102l-68 -110h-62
l51 110h-51z" />
    <glyph glyph-name="V.ss01" horiz-adv-x="1282" 
d="M1060 703h146l-408 -703h-315l-407 703h146l346 -589h146z" />
    <glyph glyph-name="W.ss01" horiz-adv-x="1838" 
d="M1363 114l262 589h137l-312 -703h-305l-225 572l-226 -572h-306l-312 703h138l261 -589h131l230 589h167l230 -589h130z" />
    <glyph glyph-name="Wacute.ss01" horiz-adv-x="1838" 
d="M1363 114l262 589h137l-312 -703h-305l-225 572l-226 -572h-306l-312 703h138l261 -589h131l230 589h167l230 -589h130zM724 798v102l389 80v-102z" />
    <glyph glyph-name="Wcircumflex.ss01" horiz-adv-x="1838" 
d="M1363 114l262 589h137l-312 -703h-305l-225 572l-226 -572h-306l-312 703h138l261 -589h131l230 589h167l230 -589h130zM712 900l207 80l207 -80v-107l-207 80l-207 -80v107z" />
    <glyph glyph-name="Wdieresis.ss01" horiz-adv-x="1838" 
d="M1363 114l262 589h137l-312 -703h-305l-225 572l-226 -572h-306l-312 703h138l261 -589h131l230 589h167l230 -589h130zM708 820v100h163v-100h-163zM968 820v100h163v-100h-163z" />
    <glyph glyph-name="Wgrave.ss01" horiz-adv-x="1838" 
d="M1363 114l262 589h137l-312 -703h-305l-225 572l-226 -572h-306l-312 703h138l261 -589h131l230 589h167l230 -589h130zM725 980l389 -80v-102l-389 80v102z" />
    <glyph glyph-name="i.loclTRK" horiz-adv-x="306" 
d="M69 695v105h168v-105h-168zM86 0v583h134v-583h-134z" />
    <glyph glyph-name="a.001" horiz-adv-x="938" 
d="M694 574q82 -29 124.5 -96t43.5 -180v-298h-125v72q-103 -43 -195.5 -67t-198.5 -24q-138 0 -207.5 49.5t-69.5 150.5q0 107 98 156t256 49q154 0 317 -47q-2 93 -84.5 124.5t-180.5 31.5q-71 0 -145.5 -11t-165.5 -40l-46 99q96 30 184.5 45t184.5 15q128 0 210 -29z
M547.5 113.5q98.5 24.5 189.5 58.5v63q-72 21 -146.5 33.5t-162.5 12.5q-107 0 -167 -24t-60 -76q0 -54 45 -73t135 -19q68 0 166.5 24.5z" />
    <glyph glyph-name="a.ss01" horiz-adv-x="980" 
d="M760 582h134v-583h-134v102q-45 -59 -124 -90t-189 -31q-107 0 -191 34.5t-132.5 104.5t-48.5 172q0 103 48.5 173t132.5 104.5t191 34.5q110 0 189 -31t124 -90v100zM686.5 144.5q73.5 53.5 73.5 146.5t-73.5 146.5t-205.5 53.5t-201.5 -53t-69.5 -147t69.5 -147
t201.5 -53t205.5 53.5z" />
    <glyph glyph-name="aacute.ss01" horiz-adv-x="980" 
d="M760 582h134v-583h-134v102q-45 -59 -124 -90t-189 -31q-107 0 -191 34.5t-132.5 104.5t-48.5 172q0 103 48.5 173t132.5 104.5t191 34.5q110 0 189 -31t124 -90v100zM686.5 144.5q73.5 53.5 73.5 146.5t-73.5 146.5t-205.5 53.5t-201.5 -53t-69.5 -147t69.5 -147
t201.5 -53t205.5 53.5zM294 678v102l389 80v-102z" />
    <glyph glyph-name="abreve.ss01" horiz-adv-x="980" 
d="M760 582h134v-583h-134v102q-45 -59 -124 -90t-189 -31q-107 0 -191 34.5t-132.5 104.5t-48.5 172q0 103 48.5 173t132.5 104.5t191 34.5q110 0 189 -31t124 -90v100zM686.5 144.5q73.5 53.5 73.5 146.5t-73.5 146.5t-205.5 53.5t-201.5 -53t-69.5 -147t69.5 -147
t201.5 -53t205.5 53.5zM365 851q0 -54 32 -76t92 -22t92.5 22t32.5 76h102q0 -109 -60 -149.5t-167 -40.5t-167 40.5t-60 149.5h103z" />
    <glyph glyph-name="acircumflex.ss01" horiz-adv-x="980" 
d="M760 582h134v-583h-134v102q-45 -59 -124 -90t-189 -31q-107 0 -191 34.5t-132.5 104.5t-48.5 172q0 103 48.5 173t132.5 104.5t191 34.5q110 0 189 -31t124 -90v100zM686.5 144.5q73.5 53.5 73.5 146.5t-73.5 146.5t-205.5 53.5t-201.5 -53t-69.5 -147t69.5 -147
t201.5 -53t205.5 53.5zM282 780l207 80l207 -80v-107l-207 80l-207 -80v107z" />
    <glyph glyph-name="adieresis.ss01" horiz-adv-x="980" 
d="M760 582h134v-583h-134v102q-45 -59 -124 -90t-189 -31q-107 0 -191 34.5t-132.5 104.5t-48.5 172q0 103 48.5 173t132.5 104.5t191 34.5q110 0 189 -31t124 -90v100zM686.5 144.5q73.5 53.5 73.5 146.5t-73.5 146.5t-205.5 53.5t-201.5 -53t-69.5 -147t69.5 -147
t201.5 -53t205.5 53.5zM278 700v100h163v-100h-163zM538 700v100h163v-100h-163z" />
    <glyph glyph-name="agrave.ss01" horiz-adv-x="980" 
d="M760 582h134v-583h-134v102q-45 -59 -124 -90t-189 -31q-107 0 -191 34.5t-132.5 104.5t-48.5 172q0 103 48.5 173t132.5 104.5t191 34.5q110 0 189 -31t124 -90v100zM686.5 144.5q73.5 53.5 73.5 146.5t-73.5 146.5t-205.5 53.5t-201.5 -53t-69.5 -147t69.5 -147
t201.5 -53t205.5 53.5zM295 860l389 -80v-102l-389 80v102z" />
    <glyph glyph-name="amacron.ss01" horiz-adv-x="980" 
d="M760 582h134v-583h-134v102q-45 -59 -124 -90t-189 -31q-107 0 -191 34.5t-132.5 104.5t-48.5 172q0 103 48.5 173t132.5 104.5t191 34.5q110 0 189 -31t124 -90v100zM686.5 144.5q73.5 53.5 73.5 146.5t-73.5 146.5t-205.5 53.5t-201.5 -53t-69.5 -147t69.5 -147
t201.5 -53t205.5 53.5zM254 700v100h469v-100h-469z" />
    <glyph glyph-name="aogonek.ss01" horiz-adv-x="980" 
d="M820.5 -111.5q22.5 -12.5 55.5 -15.5t88 -3v-100q-101 0 -162.5 9.5t-94 34.5t-32.5 73q0 35 20.5 60t63.5 53h1v101q-45 -59 -124 -90t-189 -31q-107 0 -191 34.5t-132.5 104.5t-48.5 172q0 103 48.5 173t132.5 104.5t191 34.5q110 0 189 -31t124 -90v100h134v-583h-46
q-23 -18 -36.5 -34.5t-13.5 -36.5q0 -27 22.5 -39.5zM686.5 144.5q73.5 53.5 73.5 146.5t-73.5 146.5t-205.5 53.5t-201.5 -53t-69.5 -147t69.5 -147t201.5 -53t205.5 53.5z" />
    <glyph glyph-name="aring.ss01" horiz-adv-x="980" 
d="M760 582h134v-583h-134v102q-45 -59 -124 -90t-189 -31q-107 0 -191 34.5t-132.5 104.5t-48.5 172q0 103 48.5 173t132.5 104.5t191 34.5q110 0 189 -31t124 -90v100zM686.5 144.5q73.5 53.5 73.5 146.5t-73.5 146.5t-205.5 53.5t-201.5 -53t-69.5 -147t69.5 -147
t201.5 -53t205.5 53.5zM278 792q0 132 212 132q211 0 211 -132t-211 -132q-212 0 -212 132zM598 792q0 61 -108 61q-56 0 -82.5 -15.5t-26.5 -45.5t26.5 -45.5t82.5 -15.5q108 0 108 61z" />
    <glyph glyph-name="atilde.ss01" horiz-adv-x="980" 
d="M760 582h134v-583h-134v102q-45 -59 -124 -90t-189 -31q-107 0 -191 34.5t-132.5 104.5t-48.5 172q0 103 48.5 173t132.5 104.5t191 34.5q110 0 189 -31t124 -90v100zM686.5 144.5q73.5 53.5 73.5 146.5t-73.5 146.5t-205.5 53.5t-201.5 -53t-69.5 -147t69.5 -147
t201.5 -53t205.5 53.5zM197 678q0 82 43 137.5t126 55.5q45 0 76.5 -15t68.5 -42q28 -21 47 -31t42 -10q33 0 46.5 23.5t13.5 66.5h122q0 -83 -42.5 -138.5t-125.5 -55.5q-46 0 -77.5 15t-68.5 43q-26 21 -45.5 31t-42.5 10q-33 0 -46.5 -24t-13.5 -66h-123z" />
    <glyph glyph-name="g.ss01" horiz-adv-x="994" 
d="M946 583v-83q-25 0 -99 10q39 -45 39 -116q0 -66 -35 -111.5t-124 -71.5t-245 -26q-123 0 -175.5 -2.5t-74 -10.5t-21.5 -28q0 -21 23 -29.5t80.5 -11t196.5 -2.5q135 0 222 -14t135 -52.5t48 -108.5q0 -77 -53 -117.5t-140 -54.5t-212 -14q-132 0 -224 10t-151.5 43
t-59.5 97q0 54 39.5 83t98.5 40q-129 30 -129 111q0 76 114 99q-67 26 -95 69t-28 102q0 66 35.5 111.5t124.5 71.5t246 26q135 0 221 -20h243zM638.5 299q57.5 10 84 32.5t26.5 62.5t-26.5 62.5t-84 32.5t-156.5 10t-157 -10t-84.5 -32.5t-26.5 -62.5t26.5 -62.5
t84.5 -32.5t157 -10t156.5 10zM757 -32q-31 16 -88 21t-158 5h-31q-105 -1 -161 -6t-83 -21t-27 -47q0 -32 36.5 -48t99 -21t166.5 -5q102 0 158.5 4.5t87.5 20.5t31 49q0 32 -31 48z" />
    <glyph glyph-name="gbreve.ss01" horiz-adv-x="994" 
d="M946 583v-83q-25 0 -99 10q39 -45 39 -116q0 -66 -35 -111.5t-124 -71.5t-245 -26q-123 0 -175.5 -2.5t-74 -10.5t-21.5 -28q0 -21 23 -29.5t80.5 -11t196.5 -2.5q135 0 222 -14t135 -52.5t48 -108.5q0 -77 -53 -117.5t-140 -54.5t-212 -14q-132 0 -224 10t-151.5 43
t-59.5 97q0 54 39.5 83t98.5 40q-129 30 -129 111q0 76 114 99q-67 26 -95 69t-28 102q0 66 35.5 111.5t124.5 71.5t246 26q135 0 221 -20h243zM638.5 299q57.5 10 84 32.5t26.5 62.5t-26.5 62.5t-84 32.5t-156.5 10t-157 -10t-84.5 -32.5t-26.5 -62.5t26.5 -62.5
t84.5 -32.5t157 -10t156.5 10zM757 -32q-31 16 -88 21t-158 5h-31q-105 -1 -161 -6t-83 -21t-27 -47q0 -32 36.5 -48t99 -21t166.5 -5q102 0 158.5 4.5t87.5 20.5t31 49q0 32 -31 48zM357 851q0 -54 32 -76t92 -22t92.5 22t32.5 76h102q0 -109 -60 -149.5t-167 -40.5
t-167 40.5t-60 149.5h103z" />
    <glyph glyph-name="uni0123.ss01" horiz-adv-x="994" 
d="M946 583v-83q-25 0 -99 10q39 -45 39 -116q0 -66 -35 -111.5t-124 -71.5t-245 -26q-123 0 -175.5 -2.5t-74 -10.5t-21.5 -28q0 -21 23 -29.5t80.5 -11t196.5 -2.5q135 0 222 -14t135 -52.5t48 -108.5q0 -77 -53 -117.5t-140 -54.5t-212 -14q-132 0 -224 10t-151.5 43
t-59.5 97q0 54 39.5 83t98.5 40q-129 30 -129 111q0 76 114 99q-67 26 -95 69t-28 102q0 66 35.5 111.5t124.5 71.5t246 26q135 0 221 -20h243zM638.5 299q57.5 10 84 32.5t26.5 62.5t-26.5 62.5t-84 32.5t-156.5 10t-157 -10t-84.5 -32.5t-26.5 -62.5t26.5 -62.5
t84.5 -32.5t157 -10t156.5 10zM757 -32q-31 16 -88 21t-158 5h-31q-105 -1 -161 -6t-83 -21t-27 -47q0 -32 36.5 -48t99 -21t166.5 -5q102 0 158.5 4.5t87.5 20.5t31 49q0 32 -31 48zM546 811v-102h-130v102l68 110h62l-50 -110h50z" />
    <glyph glyph-name="gdotaccent.ss01" horiz-adv-x="994" 
d="M946 583v-83q-25 0 -99 10q39 -45 39 -116q0 -66 -35 -111.5t-124 -71.5t-245 -26q-123 0 -175.5 -2.5t-74 -10.5t-21.5 -28q0 -21 23 -29.5t80.5 -11t196.5 -2.5q135 0 222 -14t135 -52.5t48 -108.5q0 -77 -53 -117.5t-140 -54.5t-212 -14q-132 0 -224 10t-151.5 43
t-59.5 97q0 54 39.5 83t98.5 40q-129 30 -129 111q0 76 114 99q-67 26 -95 69t-28 102q0 66 35.5 111.5t124.5 71.5t246 26q135 0 221 -20h243zM638.5 299q57.5 10 84 32.5t26.5 62.5t-26.5 62.5t-84 32.5t-156.5 10t-157 -10t-84.5 -32.5t-26.5 -62.5t26.5 -62.5
t84.5 -32.5t157 -10t156.5 10zM757 -32q-31 16 -88 21t-158 5h-31q-105 -1 -161 -6t-83 -21t-27 -47q0 -32 36.5 -48t99 -21t166.5 -5q102 0 158.5 4.5t87.5 20.5t31 49q0 32 -31 48zM398 700v100h165v-100h-165z" />
    </font>
</defs>
</svg>
