<?xml version="1.0" standalone="no"?>
<!DOCTYPE svg PUBLIC "-//W3C//DTD SVG 1.1//EN" "http://www.w3.org/Graphics/SVG/1.1/DTD/svg11.dtd" >
<svg xmlns="http://www.w3.org/2000/svg" xmlns:xlink="http://www.w3.org/1999/xlink" version="1.1">
<metadata>
Created by FontForge 20170731 at Fri Oct  2 23:02:23 2020
 By Aleksey,,,
Pangram Pangram
</metadata>
<defs>
<font id="MonumentExtended-Thin" horiz-adv-x="232" >
  <font-face 
    font-family="Monument Extended Thin"
    font-weight="100"
    font-stretch="normal"
    units-per-em="1000"
    panose-1="0 0 2 0 0 0 0 0 0 0"
    ascent="800"
    descent="-200"
    x-height="580"
    cap-height="700"
    bbox="-1020 -300 1696 1015"
    underline-thickness="30"
    underline-position="-90"
    unicode-range="U+0020-25CA"
  />
<missing-glyph horiz-adv-x="550" 
d="M102 800h349v-1100h-349v1100zM366 690v36h-181v-36h71v-41h-72v-36h182v36h-72v41h72zM294 507v77h-110v-114h182v37h-72zM220 547h36v-40h-36v40zM366 404v36h-182v-36h72v-41h-72v-36h110v77h72zM366 264v110h-36v-72h-146v-38h182zM366 116v124h-110v-61h38v25h36
v-52h-110v88h-36v-124h182zM366 -74v124h-182v-124h182zM220 14h110v-52h-110v52zM366 -136v36h-182v-36h77l-77 -52v-36h182v36h-112l77 52h35z" />
    <glyph glyph-name="f_f" unicode="ff" horiz-adv-x="1117" 
d="M899 770q-59 0 -88.5 -12.5t-41 -43t-11.5 -91.5v-43h289v-30h-289v-550h-32v550h-429v-550h-32v550h-185v30h185v42q0 64 13.5 102t50 57t105.5 19h248v-30h-244q-59 0 -88.5 -12.5t-41 -43t-11.5 -91.5v-43h429v42q0 64 13.5 102t50 57t105.5 19h152v-30h-148z" />
    <glyph glyph-name="f_f_i" unicode="ffi" horiz-adv-x="1329" 
d="M909 770q-59 0 -88.5 -12.5t-41 -43t-11.5 -91.5v-43h461v-580h-32v550h-429v-550h-32v550h-439v-550h-32v550h-185v30h185v42q0 64 13.5 102t50 57t105.5 19h269v-30h-265q-59 0 -88.5 -12.5t-41 -43t-11.5 -91.5v-43h439v42q0 64 13.5 102t50 57t105.5 19h324v-30h-320
z" />
    <glyph glyph-name="f_i" unicode="fi" horiz-adv-x="858" 
d="M438 770q-59 0 -88.5 -12.5t-41 -43t-11.5 -91.5v-43h461v-580h-32v550h-429v-550h-32v550h-185v30h185v42q0 64 13.5 102t50 57t105.5 19h324v-30h-320z" />
    <glyph glyph-name="f_l" unicode="fl" horiz-adv-x="858" 
d="M758 800v-800h-32v770h-288q-59 0 -88.5 -12.5t-41 -43t-11.5 -91.5v-43h289v-30h-289v-550h-32v550h-185v30h185v42q0 64 13.5 102t50 57t105.5 19h324z" />
    <glyph glyph-name=".notdef" horiz-adv-x="550" 
d="M102 800h349v-1100h-349v1100zM366 690v36h-181v-36h71v-41h-72v-36h182v36h-72v41h72zM294 507v77h-110v-114h182v37h-72zM220 547h36v-40h-36v40zM366 404v36h-182v-36h72v-41h-72v-36h110v77h72zM366 264v110h-36v-72h-146v-38h182zM366 116v124h-110v-61h38v25h36
v-52h-110v88h-36v-124h182zM366 -74v124h-182v-124h182zM220 14h110v-52h-110v52zM366 -136v36h-182v-36h77l-77 -52v-36h182v36h-112l77 52h35z" />
    <glyph glyph-name=".null" horiz-adv-x="0" 
 />
    <glyph glyph-name="nonmarkingreturn" horiz-adv-x="333" 
 />
    <glyph glyph-name="space" unicode=" " horiz-adv-x="400" 
 />
    <glyph glyph-name="exclam" unicode="!" horiz-adv-x="254" 
d="M111 700h32v-500h-32v500zM100 0v48h54v-48h-54z" />
    <glyph glyph-name="quotedbl" unicode="&#x22;" horiz-adv-x="370" 
d="M240 760h30l-5 -320h-20zM100 760h30l-5 -320h-20z" />
    <glyph glyph-name="numbersign" unicode="#" horiz-adv-x="1295" 
d="M1195 495v-30h-270l-99 -330h309v-30h-318l-76 -255h-32l76 255h-393l-76 -255h-32l76 255h-260v30h269l99 330h-308v30h317l67 225h32l-67 -225h393l67 225h32l-67 -225h261zM401 135h393l99 330h-393z" />
    <glyph glyph-name="dollar" unicode="$" horiz-adv-x="1006" 
d="M801 26q-95 -45 -282 -46v-80h-32v80q-139 2 -225.5 26.5t-129 80t-42.5 150.5h32q0 -82 39 -131t118 -71t208 -25v330q-148 9 -226 29.5t-109.5 59.5t-31.5 109q0 67 39.5 107t119.5 57.5t208 17.5v80h32v-80q178 -5 262.5 -64.5t84.5 -180.5h-32q0 111 -78.5 159.5
t-236.5 54.5v-321q149 -10 224 -24t114 -51t39 -111q0 -111 -95 -156zM185 440q33 -33 101.5 -47t200.5 -23v320h-19q-111 0 -180 -14.5t-102.5 -47.5t-33.5 -90q0 -65 33 -98zM778.5 48.5q85.5 38.5 85.5 133.5q0 62 -32.5 92.5t-102 43t-210.5 20.5v-328h4
q170 0 255.5 38.5z" />
    <glyph glyph-name="percent" unicode="%" horiz-adv-x="1265" 
d="M195.5 339.5q-50.5 30.5 -73 77.5t-22.5 98t22.5 97.5t73 77t129.5 30.5t130 -30.5t73.5 -77t22.5 -97.5t-22.5 -98t-73.5 -77.5t-130 -30.5t-129.5 30.5zM914 700h40l-603 -700h-40zM422.5 359q44.5 20 71.5 60t27 96q0 57 -27 96.5t-71.5 59t-97.5 19.5
q-52 0 -96.5 -19.5t-71.5 -59t-27 -96.5q0 -56 27 -96t71.5 -60t96.5 -20q53 0 97.5 20zM809.5 10.5q-50.5 30.5 -73 77.5t-22.5 98t22.5 97.5t73 77t129.5 30.5t130 -30.5t73.5 -77t22.5 -97.5t-22.5 -98t-73.5 -77.5t-130 -30.5t-129.5 30.5zM1036.5 30q44.5 20 71.5 60
t27 96q0 57 -27 96.5t-71.5 59t-97.5 19.5q-52 0 -96.5 -19.5t-71.5 -59t-27 -96.5q0 -56 27 -96t71.5 -60t96.5 -20q53 0 97.5 20z" />
    <glyph glyph-name="ampersand" unicode="&#x26;" horiz-adv-x="954" 
d="M854 0h-51l-111 86q-58 -52 -139.5 -79t-180.5 -27q-150 0 -211 52t-61 129q0 52 23 91t65 69.5t111 63.5q-56 46 -86 88.5t-30 91.5q0 67 50 111t149 44q62 0 104.5 -20.5t62.5 -54t20 -71.5q0 -40 -20.5 -71t-66 -60t-125.5 -65l109 -80l223 -171q38 42 58.5 96
t23.5 115h32q-6 -139 -89 -230zM245 482q30 -40 84 -83q9 5 27 13q69 32 107 55.5t56 48.5t18 58q0 58 -44.5 87t-110.5 29q-75 0 -121 -29t-46 -96q0 -43 30 -83zM667 105l-221 170q-22 17 -66 49l-54 40q-92 -42 -143 -89t-51 -114q0 -80 66.5 -115.5t173.5 -35.5
q190 0 295 95z" />
    <glyph glyph-name="quotesingle" unicode="'" horiz-adv-x="230" 
d="M100 760h30l-5 -320h-20z" />
    <glyph glyph-name="parenleft" unicode="(" horiz-adv-x="566" 
d="M191 673q91 127 275 127v-30q-161 0 -247.5 -110.5t-86.5 -358.5t87 -359.5t247 -111.5v-30q-184 0 -275 127.5t-91 373.5q0 245 91 372z" />
    <glyph glyph-name="parenright" unicode=")" horiz-adv-x="566" 
d="M375 -72.5q-91 -127.5 -275 -127.5v30q160 0 247 111.5t87 359.5t-86.5 358.5t-247.5 110.5v30q184 0 275 -127t91 -372q0 -246 -91 -373.5z" />
    <glyph glyph-name="asterisk" unicode="*" horiz-adv-x="566" 
d="M116 482l-16 28l156 88l-156 87l16 28l154 -92l-3 179h32l-2 -179l153 92l16 -28l-156 -88l156 -87l-16 -28l-153 92l2 -179h-32l3 179z" />
    <glyph glyph-name="plus" unicode="+" horiz-adv-x="920" 
d="M476 355h344v-30h-344v-325h-32v325h-344v30h344v325h32v-325z" />
    <glyph glyph-name="comma" unicode="," horiz-adv-x="234" 
d="M90 0v48h54v-48l-34 -140h-20l24 140h-24z" />
    <glyph glyph-name="hyphen" unicode="-" horiz-adv-x="960" 
d="M120 325v30h720v-30h-720z" />
    <glyph glyph-name="period" unicode="." horiz-adv-x="234" 
d="M90 0v48h54v-48h-54z" />
    <glyph glyph-name="slash" unicode="/" horiz-adv-x="492" 
d="M360 720h32l-260 -870h-32z" />
    <glyph glyph-name="zero" unicode="0" horiz-adv-x="912" 
d="M265 26q-83 46 -129 130t-46 195q0 110 46 193.5t129 129.5t191 46t191 -46t129 -129.5t46 -193.5t-46 -194t-129 -130.5t-191 -46.5t-191 46zM629 52q76 42 118.5 119t42.5 180q0 102 -42.5 179t-118.5 118.5t-173 41.5t-173 -41.5t-118.5 -118t-42.5 -179.5
t42.5 -180.5t118.5 -119t173 -41.5t173 42z" />
    <glyph glyph-name="one" unicode="1" horiz-adv-x="780" 
d="M406 700v-670h274v-30h-580v30h274v637l-263 -115l-11 28l274 120h32z" />
    <glyph glyph-name="two" unicode="2" horiz-adv-x="866" 
d="M731.5 396.5q-44.5 -47.5 -109 -75t-175.5 -60.5q-102 -30 -164.5 -55.5t-108 -68.5t-52.5 -107h654v-30h-686v10q0 82 48 134.5t117 82t183 63.5q104 31 164 56t101 66.5t41 104.5q0 85 -70.5 129t-200.5 44q-151 0 -236 -57t-85 -168h-32q0 121 90.5 188t262.5 67
q147 0 225 -52t78 -151q0 -73 -44.5 -120.5z" />
    <glyph glyph-name="three" unicode="3" horiz-adv-x="866" 
d="M734.5 305.5q41.5 -39.5 41.5 -115.5q0 -101 -81 -155.5t-252 -54.5q-168 0 -260.5 63.5t-92.5 181.5h32q0 -110 90.5 -162.5t240.5 -52.5q138 0 214.5 44t76.5 136q0 68 -41 101t-119.5 43.5t-220.5 10.5v30q133 0 211 11t119 44t41 98q0 162 -285 162
q-161 0 -244 -53.5t-83 -161.5h-32q0 120 89 182.5t260 62.5q168 0 247.5 -48.5t79.5 -138.5q0 -76 -39 -116t-114 -56q80 -16 121.5 -55.5z" />
    <glyph glyph-name="four" unicode="4" horiz-adv-x="974" 
d="M700 205h174v-30h-174v-175h-32v175h-568v30l568 495h32v-495zM668 658l-520 -453h520v453z" />
    <glyph glyph-name="five" unicode="5" horiz-adv-x="886" 
d="M645 468q69 -27 110 -80.5t41 -129.5q0 -82 -41.5 -145t-121.5 -98t-191 -35q-304 0 -352 230h32q46 -200 325 -200q99 0 170.5 31.5t109 87t37.5 126.5q0 69 -37 116t-98.5 70.5t-136.5 23.5q-87 0 -167.5 -25.5t-174.5 -79.5l-29 16l78 324h574v-30h-548l-65 -270
q74 45 158.5 70t173.5 25q84 0 153 -27z" />
    <glyph glyph-name="six" unicode="6" horiz-adv-x="912" 
d="M722.5 434.5q89.5 -60.5 89.5 -196.5q0 -127 -94.5 -192.5t-261.5 -65.5q-180 0 -268 85t-88 238q0 231 90.5 324t253.5 93q83 0 158.5 -11.5t156.5 -30.5v-30q-104 22 -166 32t-135 10q-115 0 -186 -39t-105 -121t-35 -216q30 76 117.5 128.5t228.5 52.5
q155 0 244.5 -60.5zM696.5 70.5q83.5 60.5 83.5 167.5q0 114 -75 170.5t-227 56.5q-96 0 -171 -29t-117 -81t-42 -117q0 -59 34 -111t103.5 -84.5t170.5 -32.5q157 0 240.5 60.5z" />
    <glyph glyph-name="seven" unicode="7" horiz-adv-x="783" 
d="M60 700h663v-30q-203 -92 -303 -258t-100 -412h-32q0 214 84.5 390t301.5 280h-614v30z" />
    <glyph glyph-name="eight" unicode="8" horiz-adv-x="912" 
d="M822 201q0 -103 -87.5 -162t-278.5 -59t-278.5 59t-87.5 162q0 152 204 191q-144 37 -144 151q0 82 69.5 129.5t236.5 47.5q306 0 306 -177q0 -114 -144 -151q204 -39 204 -191zM456 405q274 0 274 139q0 68 -65 107t-209 39t-209 -39t-65 -107q0 -139 274 -139z
M709.5 61.5q80.5 51.5 80.5 139.5q0 84 -81.5 129t-252.5 45t-252.5 -45t-81.5 -129q0 -88 80.5 -139.5t253.5 -51.5t253.5 51.5z" />
    <glyph glyph-name="nine" unicode="9" horiz-adv-x="912" 
d="M724 635q88 -85 88 -238q0 -231 -90.5 -324t-253.5 -93q-83 0 -158.5 11.5t-156.5 30.5v30q104 -22 166 -32t135 -10q115 0 186 39t105 121t35 216q-30 -76 -117.5 -128.5t-228.5 -52.5q-155 0 -244.5 60.5t-89.5 196.5q0 127 94.5 192.5t261.5 65.5q180 0 268 -85z
M605 264q75 29 117 81t42 117q0 59 -34 111t-103.5 84.5t-170.5 32.5q-157 0 -240.5 -60.5t-83.5 -167.5q0 -114 75 -170.5t227 -56.5q96 0 171 29z" />
    <glyph glyph-name="colon" unicode=":" horiz-adv-x="234" 
d="M90 0v48h54v-48h-54zM90 300v48h54v-48h-54z" />
    <glyph glyph-name="semicolon" unicode=";" horiz-adv-x="234" 
d="M90 0v48h54v-48l-34 -140h-20l24 140h-24zM90 300v48h54v-48h-54z" />
    <glyph glyph-name="less" unicode="&#x3c;" horiz-adv-x="900" 
d="M100 357l700 203v-32l-642 -188l642 -187v-32l-700 202v34z" />
    <glyph glyph-name="equal" unicode="=" horiz-adv-x="920" 
d="M100 485v30h720v-30h-720zM100 165v30h720v-30h-720z" />
    <glyph glyph-name="greater" unicode="&#x3e;" horiz-adv-x="900" 
d="M100 528v32l700 -203v-34l-700 -202v32l642 187z" />
    <glyph glyph-name="question" unicode="?" horiz-adv-x="846" 
d="M351 190q0 66 27.5 105.5t67.5 59t105 39.5q56 18 88 33t53.5 42t21.5 71q0 85 -73.5 117.5t-202.5 32.5q-158 0 -237 -51t-79 -179h-32q0 140 85 200t253 60q161 0 239.5 -41.5t78.5 -138.5q0 -53 -24.5 -85.5t-60 -50t-95.5 -36.5q-62 -20 -97.5 -37.5t-60.5 -51.5
t-25 -89h-32zM330 0v48h54v-48h-54z" />
    <glyph glyph-name="at" unicode="@" horiz-adv-x="1269" 
d="M957 -166q110 44 182 133l20 -20q-50 -60 -112 -100.5t-157 -63.5t-230 -23q-560 0 -560 508q0 258 137.5 390t412.5 132q258 0 388.5 -111t130.5 -363q0 -152 -37.5 -230.5t-133.5 -78.5q-77 0 -107 34.5t-33 97.5q-31 -57 -92 -88t-151 -31q-136 0 -205 69.5t-69 185.5
t69 185.5t205 69.5q89 0 150 -31t92 -87v98h32v-339q0 -44 8 -72.5t31.5 -45t69.5 -16.5q80 0 109.5 72t29.5 217q0 232 -122 333t-365 101q-260 0 -389 -123t-129 -369t129 -362t399 -116q187 0 297 44zM798.5 112.5q58.5 62.5 58.5 162.5t-58.5 162.5t-183.5 62.5
t-183.5 -62.5t-58.5 -162.5t58.5 -162.5t183.5 -62.5t183.5 62.5z" />
    <glyph glyph-name="A" unicode="A" horiz-adv-x="1053" 
d="M963 0h-36l-113 191h-575l-113 -191h-36l416 700h40zM526 675l-269 -454h539z" />
    <glyph glyph-name="B" unicode="B" horiz-adv-x="978" 
d="M888 187q0 -86 -55.5 -136.5t-152.5 -50.5h-580v700h530q109 0 163.5 -49t54.5 -129q0 -53 -26.5 -96.5t-82.5 -66.5q149 -34 149 -172zM132 670v-301h498q78 0 132 38.5t54 114.5q0 68 -47.5 108t-138.5 40h-498zM670 30q91 0 138.5 41.5t47.5 115.5q0 75 -54 113.5
t-132 38.5h-538v-309h538z" />
    <glyph glyph-name="C" unicode="C" horiz-adv-x="976" 
d="M141 545.5q51 83.5 145 129t219 45.5q105 0 187.5 -36t132 -97.5t61.5 -135.5h-32q-11 59 -52.5 113.5t-116.5 90t-180 35.5q-122 0 -208 -43.5t-130.5 -120.5t-44.5 -175q0 -99 44.5 -176t130.5 -121t208 -44q105 0 180 36t116.5 91t52.5 114h32q-11 -75 -60.5 -136.5
t-132 -98t-188.5 -36.5q-125 0 -219 46t-145 130t-51 195t51 194.5z" />
    <glyph glyph-name="D" unicode="D" horiz-adv-x="958" 
d="M689.5 661q81.5 -39 130 -118t48.5 -193t-48.5 -193t-130 -118t-179.5 -39h-410v700h410q98 0 179.5 -39zM500 30q102 0 177.5 38.5t117 110.5t41.5 171t-41.5 171t-117 110.5t-177.5 38.5h-368v-640h368z" />
    <glyph glyph-name="E" unicode="E" horiz-adv-x="850" 
d="M760 700v-30h-628v-305h608v-30h-608v-305h628v-30h-660v700h660z" />
    <glyph glyph-name="F" unicode="F" horiz-adv-x="850" 
d="M760 700v-30h-628v-340h568v-30h-568v-300h-32v700h660z" />
    <glyph glyph-name="G" unicode="G" horiz-adv-x="977" 
d="M144 544q54 84 148.5 130t213.5 46q114 0 196 -38.5t128 -99.5t57 -131h-32q-7 51 -44.5 106t-113.5 94t-191 39q-125 0 -212 -49t-129.5 -126.5t-42.5 -164.5t41 -165t126 -126.5t211 -48.5q109 0 187 22.5t168 73.5v190h-365v30h397v-236q-98 -57 -185 -83.5
t-202 -26.5q-118 0 -211.5 46t-146 130t-52.5 194t54 194z" />
    <glyph glyph-name="H" unicode="H" horiz-adv-x="970" 
d="M838 365v335h32v-700h-32v335h-706v-335h-32v700h32v-335h706z" />
    <glyph glyph-name="I" unicode="I" 
d="M100 700h32v-700h-32v700z" />
    <glyph glyph-name="J" unicode="J" horiz-adv-x="940" 
d="M840 351q0 -171 -86.5 -266t-283.5 -95q-198 0 -284 94.5t-86 266.5h32q0 -156 74.5 -243.5t263.5 -87.5t263.5 87.5t74.5 243.5v319h-389v30h421v-349z" />
    <glyph glyph-name="K" unicode="K" horiz-adv-x="936" 
d="M793 700h53l-402 -291l402 -409h-44l-384 390l-286 -207v-183h-32v700h32v-479z" />
    <glyph glyph-name="L" unicode="L" horiz-adv-x="810" 
d="M132 700v-670h588v-30h-620v700h32z" />
    <glyph glyph-name="M" unicode="M" horiz-adv-x="1162" 
d="M1025 700h37v-700h-32v652l-433 -652h-32l-433 652v-652h-32v700h37l444 -668z" />
    <glyph glyph-name="N" unicode="N" horiz-adv-x="982" 
d="M850 30v670h32v-700h-46l-704 670v-670h-32v700h46z" />
    <glyph glyph-name="O" unicode="O" horiz-adv-x="1020" 
d="M285.5 26q-94.5 46 -145 129.5t-50.5 195.5q0 111 50.5 194.5t145 129t224.5 45.5q129 0 224 -45.5t145.5 -129t50.5 -194.5t-50.5 -195t-145.5 -130t-224 -46q-130 0 -224.5 46zM719 53.5q88 43.5 133.5 120.5t45.5 177t-45.5 176.5t-133 119.5t-209.5 43t-209.5 -43
t-133 -119.5t-45.5 -176.5q0 -101 45.5 -178t133 -120t209.5 -43q121 0 209 43.5z" />
    <glyph glyph-name="P" unicode="P" horiz-adv-x="928" 
d="M707 671q63 -29 97 -83t34 -126t-34 -126t-97 -83t-147 -29h-428v-224h-32v700h460q84 0 147 -29zM560 254q112 0 179 53.5t67 154.5t-67 154.5t-179 53.5h-428v-416h428z" />
    <glyph glyph-name="Q" unicode="Q" horiz-adv-x="1012" 
d="M942 -39l-22 -22l-124 124q-111 -83 -286 -83q-130 0 -224.5 46t-145 129.5t-50.5 195.5q0 111 50.5 194.5t145 129t224.5 45.5q129 0 224 -45.5t145.5 -129t50.5 -194.5q0 -83 -28 -151t-82 -117zM773 86l-169 169l22 22l171 -171q49 45 75 108t26 137
q0 100 -45.5 176.5t-133 119.5t-209.5 43t-209.5 -43t-133 -119.5t-45.5 -176.5q0 -101 45.5 -178t133 -120t209.5 -43q160 0 263 76z" />
    <glyph glyph-name="R" unicode="R" horiz-adv-x="928" 
d="M777.5 281.5q30.5 -33.5 30.5 -87.5v-194h-32v194q0 48 -30 74t-80 26h-534v-294h-32v700h460q133 0 195.5 -49.5t62.5 -148.5q0 -139 -123 -180q52 -7 82.5 -40.5zM132 670v-346h428q116 0 171 43t55 135q0 91 -54 129.5t-172 38.5h-428z" />
    <glyph glyph-name="S" unicode="S" horiz-adv-x="966" 
d="M112 237q0 -86 42.5 -135.5t129.5 -70.5t229 -21q170 0 255.5 38.5t85.5 133.5q0 64 -34.5 94.5t-108 42.5t-228.5 21q-150 9 -229.5 29t-111.5 59.5t-32 109.5q0 68 39.5 107.5t119.5 57t209 17.5q194 0 286 -59.5t92 -185.5h-32q0 120 -90.5 167.5t-275.5 47.5
q-111 0 -180 -14.5t-102.5 -47.5t-33.5 -90q0 -65 34 -98t103 -47t204 -23q164 -11 242 -24.5t119.5 -50t41.5 -113.5q0 -112 -96.5 -157t-286.5 -45q-149 0 -240.5 23.5t-137 79.5t-45.5 154h32z" />
    <glyph glyph-name="T" unicode="T" horiz-adv-x="960" 
d="M870 700v-30h-374v-670h-32v670h-374v30h780z" />
    <glyph glyph-name="U" unicode="U" horiz-adv-x="980" 
d="M880 341q0 -361 -390 -361t-390 361v359h32v-359q0 -148 78.5 -239.5t279.5 -91.5t279.5 91.5t78.5 239.5v359h32v-359z" />
    <glyph glyph-name="V" unicode="V" horiz-adv-x="1053" 
d="M526 25l401 675h36l-417 -700h-40l-416 700h36z" />
    <glyph glyph-name="W" unicode="W" horiz-adv-x="1547" 
d="M1131 36l291 664h35l-308 -700h-36l-340 670l-340 -670h-36l-307 700h35l290 -664l338 664h40z" />
    <glyph glyph-name="X" unicode="X" horiz-adv-x="1000" 
d="M138 0h-48l385 350l-385 350h48l362 -330l362 330h48l-385 -350l385 -350h-48l-362 330z" />
    <glyph glyph-name="Y" unicode="Y" horiz-adv-x="1037" 
d="M518 268l387 432h42l-413 -462v-238h-32v238l-412 462h42z" />
    <glyph glyph-name="Z" unicode="Z" horiz-adv-x="910" 
d="M100 700h710v-30l-665 -640h665v-30h-710v30l665 640h-665v30z" />
    <glyph glyph-name="bracketleft" unicode="[" horiz-adv-x="566" 
d="M466 800v-30h-334v-940h334v-30h-366v1000h366z" />
    <glyph glyph-name="backslash" unicode="\" horiz-adv-x="492" 
d="M360 -150l-260 870h32l260 -870h-32z" />
    <glyph glyph-name="bracketright" unicode="]" horiz-adv-x="566" 
d="M100 800h366v-1000h-366v30h334v940h-334v30z" />
    <glyph glyph-name="asciicircum" unicode="^" horiz-adv-x="900" 
d="M471 800l329 -450h-40l-309 423l-311 -423h-40l331 450h40z" />
    <glyph glyph-name="underscore" unicode="_" horiz-adv-x="1160" 
d="M120 -145v30h920v-30h-920z" />
    <glyph glyph-name="grave" unicode="`" horiz-adv-x="549" 
d="M100 795l349 -80v-30l-349 80v30z" />
    <glyph glyph-name="a" unicode="a" horiz-adv-x="890" 
d="M724 542.5q75 -57.5 76 -177.5v-365h-32v81q-114 -49 -203.5 -75t-189.5 -26q-151 0 -218 51.5t-67 149.5q0 205 331 205q78 0 169.5 -17t177.5 -43v39q0 90 -45 135t-103 57.5t-124 12.5q-73 0 -153.5 -12.5t-196.5 -47.5l-11 29q188 61 361 61q153 0 228 -57.5z
M565.5 37.5q96.5 27.5 202.5 73.5v182q-89 28 -172 45.5t-175 17.5q-126 0 -212.5 -38.5t-86.5 -136.5q0 -89 62 -130t191 -41q94 0 190.5 27.5z" />
    <glyph glyph-name="b" unicode="b" horiz-adv-x="898" 
d="M647.5 562.5q78.5 -37.5 119.5 -107t41 -165.5t-41 -165.5t-119.5 -107t-187.5 -37.5q-124 0 -208.5 48.5t-119.5 136.5v-165h-32v800h32v-385q35 88 119.5 136.5t208.5 48.5q109 0 187.5 -37.5zM620.5 41.5q72.5 31.5 114 94.5t41.5 154t-41.5 154t-114 94.5
t-165.5 31.5t-166 -31.5t-115 -94.5t-42 -154t42 -154t115 -94.5t166 -31.5t165.5 31.5z" />
    <glyph glyph-name="c" unicode="c" horiz-adv-x="882" 
d="M184.5 518q94.5 82 269.5 82q138 0 224.5 -52t113.5 -148h-35q-27 84 -103.5 127t-199.5 43q-147 0 -239.5 -69.5t-92.5 -210.5t92.5 -210.5t239.5 -69.5q123 0 199.5 43t103.5 127h35q-27 -96 -113.5 -148t-224.5 -52q-175 0 -269.5 82t-94.5 228t94.5 228z" />
    <glyph glyph-name="d" unicode="d" horiz-adv-x="898" 
d="M766 800h32v-800h-32v165q-35 -88 -119.5 -136.5t-208.5 -48.5q-109 0 -187.5 37.5t-119.5 107t-41 165.5t41 165.5t119.5 107t187.5 37.5q124 0 208.5 -48.5t119.5 -136.5v385zM609 41.5q73 31.5 115 94.5t42 154t-42 154t-115 94.5t-166 31.5t-165.5 -31.5t-114 -94.5
t-41.5 -154t41.5 -154t114 -94.5t165.5 -31.5t166 31.5z" />
    <glyph glyph-name="e" unicode="e" horiz-adv-x="900" 
d="M663 52.5q75 42.5 100 117.5h35q-25 -89 -110 -139.5t-229 -50.5q-178 0 -273.5 82t-95.5 228t94.5 228t269.5 82q173 0 264.5 -81t91.5 -224h-688v-5q0 -141 93.5 -210.5t243.5 -69.5q129 0 204 42.5zM226 509q-91 -61 -102 -184h653q-9 122 -97 183.5t-226 61.5
q-137 0 -228 -61z" />
    <glyph glyph-name="f" unicode="f" horiz-adv-x="656" 
d="M349.5 768q-29.5 -12 -41 -42.5t-11.5 -91.5v-54h289v-30h-289v-550h-32v550h-185v30h185v53q0 64 13.5 101.5t50 56.5t105.5 19q71 0 152 -10v-30q-78 10 -148 10q-59 0 -88.5 -12z" />
    <glyph glyph-name="g" unicode="g" horiz-adv-x="898" 
d="M766 580h32v-563q0 -87 -26.5 -147.5t-95.5 -95t-192 -34.5q-85 0 -151.5 4t-195.5 16v30l29 -3q114 -10 174.5 -13.5t139.5 -3.5q112 0 174.5 28t87 81t24.5 137v149q-35 -89 -119 -137t-208 -48q-109 0 -187.5 37.5t-120 107t-41.5 165.5t41.5 165.5t120 107
t187.5 37.5q124 0 208 -48t119 -137v165zM610 41.5q73 31.5 114.5 94.5t41.5 154t-41.5 154t-114.5 94.5t-166 31.5t-166 -31.5t-114.5 -94.5t-41.5 -154t41.5 -154t114.5 -94.5t166 -31.5t166 31.5z" />
    <glyph glyph-name="h" unicode="h" horiz-adv-x="892" 
d="M651.5 570q67.5 -30 103.5 -101t37 -192v-277h-32v277q0 109 -31 173t-92 92t-158 28q-96 0 -175.5 -38.5t-125.5 -108.5t-46 -160v-263h-32v800h32v-399q43 94 135.5 146.5t211.5 52.5q105 0 172.5 -30z" />
    <glyph glyph-name="i" unicode="i" 
d="M100 700v100h32v-100h-32zM100 0v580h32v-580h-32z" />
    <glyph glyph-name="j" unicode="j" horiz-adv-x="431" 
d="M309 700v100h32v-100h-32zM341 -73q0 -66 -10 -105.5t-39 -60.5t-85 -21q-43 0 -147 20v30l22 -4q85 -16 121 -16q45 0 67.5 14.5t30.5 47t8 94.5v654h32v-653z" />
    <glyph glyph-name="k" unicode="k" horiz-adv-x="841" 
d="M694 580h57l-333 -218l333 -362h-42l-318 345l-259 -170v-175h-32v800h32v-589z" />
    <glyph glyph-name="l" unicode="l" 
d="M100 0v800h32v-800h-32z" />
    <glyph glyph-name="m" unicode="m" horiz-adv-x="1372" 
d="M1152.5 571q58.5 -29 88.5 -95.5t31 -178.5v-297h-32v297q0 100 -25 160t-77 86.5t-137 26.5q-86 0 -153.5 -31.5t-106.5 -97.5t-39 -164v-277h-32v297q0 100 -25 160t-77 86.5t-137 26.5q-86 0 -153.5 -31.5t-106.5 -97.5t-39 -164v-277h-32v580h32v-153
q38 87 116.5 130t182.5 43q115 0 178.5 -45.5t83.5 -151.5q35 99 115.5 148t192.5 49q93 0 151.5 -29z" />
    <glyph glyph-name="n" unicode="n" horiz-adv-x="892" 
d="M651.5 570q67.5 -30 103.5 -101t37 -192v-277h-32v277q0 109 -31 173t-92 92t-158 28q-96 0 -175.5 -38.5t-125.5 -108.5t-46 -160v-263h-32v580h32v-179q43 94 135.5 146.5t211.5 52.5q105 0 172.5 -30z" />
    <glyph glyph-name="o" unicode="o" horiz-adv-x="908" 
d="M260 17.5q-82 37.5 -126 107.5t-44 165t44 165t126 107.5t194 37.5t194 -37.5t126 -107.5t44 -165t-44 -165t-126 -107.5t-194 -37.5t-194 37.5zM625 41.5q75 31.5 118 94.5t43 154t-43 154t-118 94.5t-171 31.5t-171 -31.5t-118 -94.5t-43 -154t43 -154t118 -94.5
t171 -31.5t171 31.5z" />
    <glyph glyph-name="p" unicode="p" horiz-adv-x="898" 
d="M650 562.5q77 -37.5 117.5 -107t40.5 -165.5t-40.5 -165.5t-117.5 -107t-186 -37.5q-125 0 -211 49t-121 137v-406h-32v820h32v-166q35 88 121 137t211 49q109 0 186 -37.5zM623.5 41.5q71.5 31.5 112 94.5t40.5 154t-40.5 154t-112 94.5t-164.5 31.5t-167 -31.5
t-117 -94.5t-43 -154t43 -154t117 -94.5t167 -31.5t164.5 31.5z" />
    <glyph glyph-name="q" unicode="q" horiz-adv-x="898" 
d="M766 580h32v-820h-32v406q-35 -88 -121 -137t-211 -49q-109 0 -186 37.5t-117.5 107t-40.5 165.5t40.5 165.5t117.5 107t186 37.5q125 0 211 -49t121 -137v166zM606 41.5q74 31.5 117 94.5t43 154t-43 154t-117 94.5t-167 31.5t-164.5 -31.5t-112 -94.5t-40.5 -154
t40.5 -154t112 -94.5t164.5 -31.5t167 31.5z" />
    <glyph glyph-name="r" unicode="r" horiz-adv-x="658" 
d="M588 580v-30q-80 20 -165 20q-68 0 -139 -26t-152 -98v-446h-32v580h32v-100q71 69 141.5 94.5t149.5 25.5q85 0 165 -20z" />
    <glyph glyph-name="s" unicode="s" horiz-adv-x="903" 
d="M122 177q16 -94 105.5 -130.5t260.5 -36.5q108 0 171.5 13.5t92.5 43.5t29 81q0 56 -26 81t-81.5 34.5t-189.5 18.5l-34 3q-130 9 -200 25t-101.5 47t-31.5 87q0 89 82.5 122.5t245.5 33.5q105 0 175 -14.5t113 -52t56 -105.5h-32q-16 82 -95.5 112t-216.5 30
q-154 0 -225 -28t-71 -98q0 -47 29.5 -70.5t93 -35t198.5 -23.5l40 -3q123 -11 180.5 -22.5t90 -42.5t32.5 -94q0 -92 -77 -132.5t-248 -40.5q-178 0 -279.5 41.5t-118.5 155.5h32z" />
    <glyph glyph-name="t" unicode="t" horiz-adv-x="716" 
d="M626 550h-329v-360q0 -79 21 -118t60 -50.5t110 -11.5q30 0 57.5 3t80.5 12v-30q-85 -15 -138 -15q-80 0 -127 15.5t-71.5 61t-24.5 133.5v360h-185v30h185v159l32 21v-180h329v-30z" />
    <glyph glyph-name="u" unicode="u" horiz-adv-x="892" 
d="M760 580h32v-580h-32v179q-43 -94 -135.5 -146.5t-211.5 -52.5q-105 0 -172.5 30t-103.5 101t-37 192v277h32v-277q0 -109 31 -173t92 -92t158 -28q96 0 175.5 38.5t125.5 108.5t46 160v263z" />
    <glyph glyph-name="v" unicode="v" horiz-adv-x="919" 
d="M460 30l333 550h36l-351 -580h-36l-352 580h36z" />
    <glyph glyph-name="w" unicode="w" horiz-adv-x="1395" 
d="M1004 34l267 546h34l-283 -580h-35v1l-289 546l-291 -547h-35l-282 580h34l266 -546l289 546h37z" />
    <glyph glyph-name="x" unicode="x" horiz-adv-x="872" 
d="M137 0h-47l324 290l-324 290h47l299 -268l299 268h47l-324 -290l324 -290h-47l-299 268z" />
    <glyph glyph-name="y" unicode="y" horiz-adv-x="894" 
d="M768 580h36l-350 -621l-21 -38q-38 -69 -62.5 -104t-58 -56t-82.5 -21q-27 0 -54 3.5t-74 11.5v30l25 -4q29 -5 53.5 -8t49.5 -3q41 0 68.5 17t47.5 46.5t52 88.5l21 37l23 41h-20l-332 580h36l324 -566z" />
    <glyph glyph-name="z" unicode="z" horiz-adv-x="814" 
d="M100 580h614v-30l-567 -520h567v-30h-614v30l567 520h-567v30z" />
    <glyph glyph-name="braceleft" unicode="{" horiz-adv-x="560" 
d="M100 326q47 0 73 8t40 34t14 79q0 27 -5 74q-4 33 -4 69q0 115 57.5 162.5t184.5 47.5v-30q-82 0 -128 -18.5t-64.5 -56t-18.5 -98.5q0 -42 8 -106q4 -40 4 -53q0 -76 -29.5 -104t-71.5 -28v-10q42 0 71.5 -28t29.5 -104q0 -13 -4 -53q-8 -64 -8 -108q0 -61 18.5 -98.5
t64.5 -56t128 -18.5v-30q-89 0 -142 20t-77 64t-24 120q0 30 5 77t5 74q0 53 -14 79t-40 34t-73 8v50z" />
    <glyph glyph-name="bar" unicode="|" 
d="M100 -150v950h32v-950h-32z" />
    <glyph glyph-name="braceright" unicode="}" horiz-adv-x="560" 
d="M460 276q-47 0 -73 -8t-40 -34t-14 -79q0 -27 5 -74t5 -77q0 -76 -24 -120t-77 -64t-142 -20v30q82 0 128 18.5t64.5 56t18.5 98.5q0 44 -8 108q-4 40 -4 53q0 76 29.5 104t71.5 28v10q-42 0 -71.5 28t-29.5 104q0 13 4 53q8 64 8 106q0 61 -18.5 98.5t-64.5 56
t-128 18.5v30q127 0 184.5 -47.5t57.5 -162.5q0 -36 -4 -69q-5 -47 -5 -74q0 -53 14 -79t40 -34t73 -8v-50z" />
    <glyph glyph-name="asciitilde" unicode="~" horiz-adv-x="912" 
d="M100 220q0 95 33.5 167.5t142.5 72.5q44 0 78.5 -15t59.5 -37.5t57 -58.5q30 -33 51.5 -52.5t50 -33t63.5 -13.5q82 0 113 54.5t31 155.5h32q0 -95 -33.5 -167.5t-142.5 -72.5q-44 0 -78.5 15t-59.5 37.5t-57 58.5q-30 33 -51.5 52.5t-50 33t-63.5 13.5q-82 0 -113 -54.5
t-31 -155.5h-32z" />
    <glyph glyph-name="exclamdown" unicode="&#xa1;" horiz-adv-x="254" 
d="M154 552h-54v48h54v-48zM143 400v-500h-32v500h32z" />
    <glyph glyph-name="cent" unicode="&#xa2;" horiz-adv-x="902" 
d="M471 70q120 1 195 44.5t101 125.5h35q-27 -95 -111.5 -147t-219.5 -53v-140h-30v140q-164 6 -252.5 87.5t-88.5 222.5t88.5 222.5t252.5 87.5v140h30v-140q135 -1 219.5 -53t111.5 -147h-35q-26 82 -101 125.5t-195 44.5v-560zM217.5 145.5q85.5 -69.5 223.5 -75.5v560
q-138 -6 -223.5 -75.5t-85.5 -204.5t85.5 -204.5z" />
    <glyph glyph-name="sterling" unicode="&#xa3;" horiz-adv-x="840" 
d="M325.5 640q-51.5 -50 -51.5 -150q0 -42 9 -92q6 -39 9 -72h352v-30h-350q2 -103 -37.5 -166t-117.5 -100h601v-30h-640v30q62 36 97 68t52.5 79t14.5 119h-164v30h162q-7 51 -11 72q-9 45 -9 88q0 106 57 170t177 64q114 0 264 -30v-30q-71 16 -131 23t-133 7
q-99 0 -150.5 -50z" />
    <glyph glyph-name="currency" unicode="&#xa4;" horiz-adv-x="960" 
d="M804.5 181q-40.5 -68 -115.5 -107l171 -171l-22 -21l-179 179q-77 -31 -178 -31t-180 31l-179 -179l-22 21l172 172q-75 39 -115 106.5t-40 158.5q0 88 38.5 155.5t109.5 106.5l-165 165l22 21l172 -172q82 34 187 34t187 -34l170 172l22 -21l-163 -165
q71 -39 109.5 -106.5t38.5 -155.5q0 -91 -40.5 -159zM192 186q43 -63 118 -94.5t171 -31.5t171 31.5t118 94.5t43 154t-43 154t-118 94.5t-171 31.5t-171 -31.5t-118 -94.5t-43 -154t43 -154z" />
    <glyph glyph-name="yen" unicode="&#xa5;" horiz-adv-x="1057" 
d="M915 700h42l-389 -435h322v-30h-346v-70h346v-30h-346v-135h-32v135h-346v30h346v70h-346v30h322l-388 435h42l386 -432z" />
    <glyph glyph-name="brokenbar" unicode="&#xa6;" 
d="M100 435v365h32v-365h-32zM100 -150v365h32v-365h-32z" />
    <glyph glyph-name="section" unicode="&#xa7;" horiz-adv-x="866" 
d="M714 186.5q41 -16.5 60 -43.5t19 -71q0 -89 -75.5 -122.5t-222.5 -33.5q-150 0 -243 37.5t-111 134.5h32q28 -142 322 -142q138 0 202 28t64 98q0 43 -25 65t-74.5 33t-163.5 26l-38 5q-134 18 -201.5 34t-104.5 48t-37 90q0 69 50.5 104t160.5 45q-71 11 -112 27.5
t-60 43.5t-19 71q0 89 80 122.5t228 33.5q154 0 240 -37t104 -135h-32q-16 81 -98.5 111.5t-213.5 30.5q-139 0 -207.5 -28.5t-68.5 -97.5q0 -43 25 -65t74.5 -33t163.5 -26l38 -5q134 -18 201.5 -34t104.5 -48t37 -90q0 -69 -50.5 -104t-160.5 -45q71 -11 112 -27.5z
M178.5 303q29.5 -26 96 -41t205.5 -31l8 -1q107 0 171 13t93 41t29 74q0 49 -29.5 75t-96 41t-205.5 31l-8 1q-107 0 -171 -13t-93 -41t-29 -74q0 -49 29.5 -75z" />
    <glyph glyph-name="dieresis" unicode="&#xa8;" horiz-adv-x="464" 
d="M100 696v48h54v-48h-54zM310 696v48h54v-48h-54z" />
    <glyph glyph-name="copyright" unicode="&#xa9;" horiz-adv-x="1025" 
d="M296.5 34.5q-93.5 44.5 -145 126.5t-51.5 190t51.5 189.5t145 125.5t216.5 44q124 0 217 -44t144 -125.5t51 -189.5t-51 -190t-144.5 -126.5t-216.5 -44.5t-216.5 44.5zM715 63q86 43 132 118.5t46 169.5t-45.5 169t-131.5 117.5t-203 42.5t-203 -42.5t-132 -117.5
t-46 -169t46 -169.5t132.5 -118.5t202.5 -43t202 43zM347.5 488.5q57.5 51.5 167.5 51.5q92 0 143 -38.5t64 -101.5h-35q-29 110 -172 110q-82 0 -137.5 -39t-55.5 -121t55 -121t137 -39q144 0 173 110h35q-13 -63 -64 -101.5t-144 -38.5q-109 0 -166.5 51.5t-57.5 138.5
t57.5 138.5z" />
    <glyph glyph-name="guillemotleft" unicode="&#xab;" horiz-adv-x="754" 
d="M350 290l260 290h44l-260 -290l260 -290h-44zM100 290l260 290h44l-260 -290l260 -290h-44z" />
    <glyph glyph-name="logicalnot" unicode="&#xac;" horiz-adv-x="936" 
d="M836 355v-272h-32v242h-704v30h736z" />
    <glyph glyph-name="registered" unicode="&#xae;" horiz-adv-x="1025" 
d="M297 27q-94 47 -145.5 131t-51.5 193t51.5 192.5t145.5 130t216 46.5q123 0 216.5 -46.5t144.5 -130t51 -192.5t-51 -193t-144.5 -131t-216.5 -47q-122 0 -216 47zM715 55.5q86 45.5 132 123t46 172.5t-45.5 172t-132 122t-202.5 45t-202.5 -45t-132.5 -122.5t-46 -171.5
q0 -95 46 -172.5t132.5 -123t202.5 -45.5t202 45.5zM369 181v341h188q72 0 106 -31.5t34 -83.5q0 -45 -25.5 -76t-78.5 -39l89 -111h-39l-87 109h-155v-109h-32zM557 320q53 0 80.5 21t27.5 66q0 85 -108 85h-156v-172h156z" />
    <glyph glyph-name="macron" unicode="&#xaf;" horiz-adv-x="589" 
d="M100 715v30h389v-30h-389z" />
    <glyph glyph-name="degree" unicode="&#xb0;" horiz-adv-x="651" 
d="M152 370q-52 61 -52 145t52 144.5t173 60.5q122 0 174 -60.5t52 -144.5t-52 -145t-174 -61q-121 0 -173 61zM466.5 384.5q54.5 45.5 54.5 130.5t-54 130t-142 45q-87 0 -141 -45t-54 -130t54 -130.5t141 -45.5t141.5 45.5z" />
    <glyph glyph-name="plusminus" unicode="&#xb1;" horiz-adv-x="920" 
d="M476 700v-215h344v-30h-344v-215h-32v215h-344v30h344v215h32zM820 85h-720v30h720v-30z" />
    <glyph glyph-name="acute" unicode="&#xb4;" horiz-adv-x="549" 
d="M100 685v30l349 80v-30z" />
    <glyph glyph-name="paragraph" unicode="&#xb6;" horiz-adv-x="724" 
d="M455 800v-950h-32v570q-118 0 -185 13t-102.5 54t-35.5 123t35.5 123t102.5 54t185 13h32zM592 -150v950h32v-950h-32z" />
    <glyph glyph-name="periodcentered" unicode="&#xb7;" horiz-adv-x="254" 
d="M90 280v48h54v-48h-54z" />
    <glyph glyph-name="cedilla" unicode="&#xb8;" horiz-adv-x="452" 
d="M325.5 -76.5q26.5 -19.5 26.5 -61.5q0 -51 -45 -75t-120 -24q-34 0 -87 7v30q58 -9 93 -9q58 0 92.5 17.5t34.5 53.5q0 26 -20 40t-50 14q-37 0 -78 -19l-36 5l20 98h32l-17 -75q40 18 87 18q41 0 67.5 -19.5z" />
    <glyph glyph-name="guillemotright" unicode="&#xbb;" horiz-adv-x="754" 
d="M100 580h44l260 -290l-260 -290h-44l260 290zM350 580h44l260 -290l-260 -290h-44l260 290z" />
    <glyph glyph-name="questiondown" unicode="&#xbf;" horiz-adv-x="866" 
d="M536 600v-48h-54v48h54zM515 410q0 -66 -27.5 -105.5t-67.5 -59t-105 -39.5q-56 -18 -88 -33t-53.5 -42t-21.5 -71q0 -85 73.5 -117.5t202.5 -32.5q158 0 237 51t79 179h32q0 -140 -85 -200t-253 -60q-161 0 -239.5 41.5t-78.5 138.5q0 53 24.5 85.5t60 50t95.5 36.5
q62 20 97.5 37.5t60.5 51.5t25 89h32z" />
    <glyph glyph-name="Agrave" unicode="&#xc0;" horiz-adv-x="1053" 
d="M963 0h-36l-113 191h-575l-113 -191h-36l416 700h40zM526 675l-269 -454h539zM351 915l349 -80v-30l-349 80v30z" />
    <glyph glyph-name="Aacute" unicode="&#xc1;" horiz-adv-x="1053" 
d="M963 0h-36l-113 191h-575l-113 -191h-36l416 700h40zM526 675l-269 -454h539zM351 805v30l349 80v-30z" />
    <glyph glyph-name="Acircumflex" unicode="&#xc2;" horiz-adv-x="1053" 
d="M963 0h-36l-113 191h-575l-113 -191h-36l416 700h40zM526 675l-269 -454h539zM359 825l167 80l167 -80v-30l-167 80l-167 -80v30z" />
    <glyph glyph-name="Atilde" unicode="&#xc3;" horiz-adv-x="1053" 
d="M963 0h-36l-113 191h-575l-113 -191h-36l416 700h40zM526 675l-269 -454h539zM280 790q0 45 28 87.5t98 42.5q42 0 70 -15t59 -43q30 -26 53 -39t58 -13q48 0 71 26.5t23 73.5h32q0 -45 -28 -87.5t-98 -42.5q-42 0 -70 15t-59 43q-30 26 -53 39t-58 13q-48 0 -71 -26.5
t-23 -73.5h-32z" />
    <glyph glyph-name="Adieresis" unicode="&#xc4;" horiz-adv-x="1053" 
d="M963 0h-36l-113 191h-575l-113 -191h-36l416 700h40zM526 675l-269 -454h539zM394 816v48h54v-48h-54zM604 816v48h54v-48h-54z" />
    <glyph glyph-name="Aring" unicode="&#xc5;" horiz-adv-x="1053" 
d="M963 0h-36l-113 191h-575l-113 -191h-36l416 700h40zM526 675l-269 -454h539zM391.5 797.5q-43.5 27.5 -43.5 74.5t43.5 74.5t134.5 27.5t134.5 -27.5t43.5 -74.5t-43.5 -74.5t-134.5 -27.5t-134.5 27.5zM639.5 818q34.5 18 34.5 54t-34.5 54t-113.5 18t-113.5 -18
t-34.5 -54t34.5 -54t113.5 -18t113.5 18z" />
    <glyph glyph-name="AE" unicode="&#xc6;" horiz-adv-x="1435" 
d="M1345 670h-628v-305h608v-30h-608v-305h628v-30h-660v201h-453l-107 -201h-35l372 700h883v-30zM685 670h-204l-233 -439h437v439z" />
    <glyph glyph-name="Ccedilla" unicode="&#xc7;" horiz-adv-x="976" 
d="M685 46q75 36 116.5 91t52.5 114h32q-11 -75 -60.5 -136.5t-132 -98t-188.5 -36.5h-24l-15 -65q40 18 87 18q41 0 67.5 -19.5t26.5 -61.5q0 -51 -45 -75t-120 -24q-35 0 -87 7v30q58 -9 93 -9q58 0 92.5 17.5t34.5 53.5q0 26 -20 40t-50 14q-37 0 -78 -19l-36 5l18 90
q-109 10 -190 58.5t-125 128t-44 182.5q0 111 51 194.5t145 129t219 45.5q105 0 187.5 -36t132 -97.5t61.5 -135.5h-32q-11 59 -52.5 113.5t-116.5 90t-180 35.5q-122 0 -208 -43.5t-130.5 -120.5t-44.5 -175q0 -99 44.5 -176t130.5 -121t208 -44q105 0 180 36z" />
    <glyph glyph-name="Egrave" unicode="&#xc8;" horiz-adv-x="850" 
d="M760 700v-30h-628v-305h608v-30h-608v-305h628v-30h-660v700h660zM255 915l349 -80v-30l-349 80v30z" />
    <glyph glyph-name="Eacute" unicode="&#xc9;" horiz-adv-x="850" 
d="M760 700v-30h-628v-305h608v-30h-608v-305h628v-30h-660v700h660zM255 805v30l349 80v-30z" />
    <glyph glyph-name="Ecircumflex" unicode="&#xca;" horiz-adv-x="850" 
d="M760 700v-30h-628v-305h608v-30h-608v-305h628v-30h-660v700h660zM263 825l167 80l167 -80v-30l-167 80l-167 -80v30z" />
    <glyph glyph-name="Edieresis" unicode="&#xcb;" horiz-adv-x="850" 
d="M760 700v-30h-628v-305h608v-30h-608v-305h628v-30h-660v700h660zM298 816v48h54v-48h-54zM508 816v48h54v-48h-54z" />
    <glyph glyph-name="Igrave" unicode="&#xcc;" 
d="M-7 915l244 -80v-30l-244 80v30zM100 700h32v-700h-32v700z" />
    <glyph glyph-name="Iacute" unicode="&#xcd;" 
d="M100 700h32v-700h-32v700zM-59 805v30l349 80v-30z" />
    <glyph glyph-name="Icircumflex" unicode="&#xce;" 
d="M-1 825l117 80l117 -80v-30l-117 80l-117 -80v30zM132 0h-32v700h32v-700z" />
    <glyph glyph-name="Idieresis" unicode="&#xcf;" 
d="M24 816v48h38v-48h-38zM171 816v48h38v-48h-38zM100 700h32v-700h-32v700z" />
    <glyph glyph-name="Eth" unicode="&#xd0;" horiz-adv-x="1031" 
d="M762.5 661q81.5 -39 130 -118t48.5 -193t-48.5 -193t-130 -118t-179.5 -39h-410v335h-93v30h93v335h410q98 0 179.5 -39zM573 30q102 0 177.5 38.5t117 110.5t41.5 171t-41.5 171t-117 110.5t-177.5 38.5h-368v-305h275v-30h-275v-305h368z" />
    <glyph glyph-name="Ntilde" unicode="&#xd1;" horiz-adv-x="982" 
d="M850 30v670h32v-700h-46l-704 670v-670h-32v700h46zM245 790q0 45 28 87.5t98 42.5q42 0 70 -15t59 -43q30 -26 53 -39t58 -13q48 0 71 26.5t23 73.5h32q0 -45 -28 -87.5t-98 -42.5q-42 0 -70 15t-59 43q-30 26 -53 39t-58 13q-48 0 -71 -26.5t-23 -73.5h-32z" />
    <glyph glyph-name="Ograve" unicode="&#xd2;" horiz-adv-x="1020" 
d="M285.5 26q-94.5 46 -145 129.5t-50.5 195.5q0 111 50.5 194.5t145 129t224.5 45.5q129 0 224 -45.5t145.5 -129t50.5 -194.5t-50.5 -195t-145.5 -130t-224 -46q-130 0 -224.5 46zM719 53.5q88 43.5 133.5 120.5t45.5 177t-45.5 176.5t-133 119.5t-209.5 43t-209.5 -43
t-133 -119.5t-45.5 -176.5q0 -101 45.5 -178t133 -120t209.5 -43q121 0 209 43.5zM335 915l349 -80v-30l-349 80v30z" />
    <glyph glyph-name="Oacute" unicode="&#xd3;" horiz-adv-x="1020" 
d="M285.5 26q-94.5 46 -145 129.5t-50.5 195.5q0 111 50.5 194.5t145 129t224.5 45.5q129 0 224 -45.5t145.5 -129t50.5 -194.5t-50.5 -195t-145.5 -130t-224 -46q-130 0 -224.5 46zM719 53.5q88 43.5 133.5 120.5t45.5 177t-45.5 176.5t-133 119.5t-209.5 43t-209.5 -43
t-133 -119.5t-45.5 -176.5q0 -101 45.5 -178t133 -120t209.5 -43q121 0 209 43.5zM335 805v30l349 80v-30z" />
    <glyph glyph-name="Ocircumflex" unicode="&#xd4;" horiz-adv-x="1020" 
d="M285.5 26q-94.5 46 -145 129.5t-50.5 195.5q0 111 50.5 194.5t145 129t224.5 45.5q129 0 224 -45.5t145.5 -129t50.5 -194.5t-50.5 -195t-145.5 -130t-224 -46q-130 0 -224.5 46zM719 53.5q88 43.5 133.5 120.5t45.5 177t-45.5 176.5t-133 119.5t-209.5 43t-209.5 -43
t-133 -119.5t-45.5 -176.5q0 -101 45.5 -178t133 -120t209.5 -43q121 0 209 43.5zM343 825l167 80l167 -80v-30l-167 80l-167 -80v30z" />
    <glyph glyph-name="Otilde" unicode="&#xd5;" horiz-adv-x="1020" 
d="M285.5 26q-94.5 46 -145 129.5t-50.5 195.5q0 111 50.5 194.5t145 129t224.5 45.5q129 0 224 -45.5t145.5 -129t50.5 -194.5t-50.5 -195t-145.5 -130t-224 -46q-130 0 -224.5 46zM719 53.5q88 43.5 133.5 120.5t45.5 177t-45.5 176.5t-133 119.5t-209.5 43t-209.5 -43
t-133 -119.5t-45.5 -176.5q0 -101 45.5 -178t133 -120t209.5 -43q121 0 209 43.5zM264 790q0 45 28 87.5t98 42.5q42 0 70 -15t59 -43q30 -26 53 -39t58 -13q48 0 71 26.5t23 73.5h32q0 -45 -28 -87.5t-98 -42.5q-42 0 -70 15t-59 43q-30 26 -53 39t-58 13q-48 0 -71 -26.5
t-23 -73.5h-32z" />
    <glyph glyph-name="Odieresis" unicode="&#xd6;" horiz-adv-x="1020" 
d="M285.5 26q-94.5 46 -145 129.5t-50.5 195.5q0 111 50.5 194.5t145 129t224.5 45.5q129 0 224 -45.5t145.5 -129t50.5 -194.5t-50.5 -195t-145.5 -130t-224 -46q-130 0 -224.5 46zM719 53.5q88 43.5 133.5 120.5t45.5 177t-45.5 176.5t-133 119.5t-209.5 43t-209.5 -43
t-133 -119.5t-45.5 -176.5q0 -101 45.5 -178t133 -120t209.5 -43q121 0 209 43.5zM378 816v48h54v-48h-54zM588 816v48h54v-48h-54z" />
    <glyph glyph-name="multiply" unicode="&#xd7;" horiz-adv-x="839" 
d="M724 543l15 -26l-289 -167l289 -167l-15 -26l-304 176l-305 -176l-15 26l289 167l-289 167l15 26l305 -176z" />
    <glyph glyph-name="Oslash" unicode="&#xd8;" horiz-adv-x="1020" 
d="M633 708q141 -29 219 -123.5t78 -233.5q0 -111 -50.5 -195t-145.5 -130t-224 -46q-51 0 -93 7l-21 -72h-32l23 77q-141 29 -219 124t-78 235q0 111 50.5 194.5t145 129t224.5 45.5q51 0 93 -7l21 72h32zM193.5 136q71.5 -88 202.5 -115l198 663q-40 6 -84 6
q-122 0 -209.5 -43t-133 -119.5t-45.5 -176.5q0 -127 71.5 -215zM719 53.5q88 43.5 133.5 120.5t45.5 177q0 126 -71.5 213.5t-202.5 114.5l-198 -663q41 -6 84 -6q121 0 209 43.5z" />
    <glyph glyph-name="Ugrave" unicode="&#xd9;" horiz-adv-x="980" 
d="M880 341q0 -361 -390 -361t-390 361v359h32v-359q0 -148 78.5 -239.5t279.5 -91.5t279.5 91.5t78.5 239.5v359h32v-359zM315 915l349 -80v-30l-349 80v30z" />
    <glyph glyph-name="Uacute" unicode="&#xda;" horiz-adv-x="980" 
d="M880 341q0 -361 -390 -361t-390 361v359h32v-359q0 -148 78.5 -239.5t279.5 -91.5t279.5 91.5t78.5 239.5v359h32v-359zM315 805v30l349 80v-30z" />
    <glyph glyph-name="Ucircumflex" unicode="&#xdb;" horiz-adv-x="980" 
d="M880 341q0 -361 -390 -361t-390 361v359h32v-359q0 -148 78.5 -239.5t279.5 -91.5t279.5 91.5t78.5 239.5v359h32v-359zM323 825l167 80l167 -80v-30l-167 80l-167 -80v30z" />
    <glyph glyph-name="Udieresis" unicode="&#xdc;" horiz-adv-x="980" 
d="M880 341q0 -361 -390 -361t-390 361v359h32v-359q0 -148 78.5 -239.5t279.5 -91.5t279.5 91.5t78.5 239.5v359h32v-359zM358 816v48h54v-48h-54zM568 816v48h54v-48h-54z" />
    <glyph glyph-name="Yacute" unicode="&#xdd;" horiz-adv-x="1037" 
d="M518 268l387 432h42l-413 -462v-238h-32v238l-412 462h42zM343 805v30l349 80v-30z" />
    <glyph glyph-name="Thorn" unicode="&#xde;" horiz-adv-x="918" 
d="M560 590q128 0 198 -61t70 -177t-70 -177t-198 -61h-428v-114h-32v700h32v-110h428zM560 144q113 0 174.5 50.5t61.5 157.5t-61.5 157.5t-174.5 50.5h-428v-416h428z" />
    <glyph glyph-name="germandbls" unicode="&#xdf;" horiz-adv-x="876" 
d="M679.5 339q52.5 -17 79.5 -52.5t27 -96.5q0 -83 -45.5 -123t-145 -53.5t-292.5 -13.5v30q188 0 277 9t131.5 43t42.5 108q0 69 -42 99.5t-129 38t-280 7.5v30q181 0 266 38.5t85 132.5q0 82 -61 118t-180 36q-104 0 -164 -22.5t-88.5 -82t-28.5 -170.5v-415h-32v415
q0 116 30 182t97.5 94.5t185.5 28.5q135 0 204 -45t69 -139q0 -131 -145 -175q86 -5 138.5 -22z" />
    <glyph glyph-name="agrave" unicode="&#xe0;" horiz-adv-x="890" 
d="M724 542.5q75 -57.5 76 -177.5v-365h-32v81q-114 -49 -203.5 -75t-189.5 -26q-151 0 -218 51.5t-67 149.5q0 205 331 205q78 0 169.5 -17t177.5 -43v39q0 90 -45 135t-103 57.5t-124 12.5q-73 0 -153.5 -12.5t-196.5 -47.5l-11 29q188 61 361 61q153 0 228 -57.5z
M565.5 37.5q96.5 27.5 202.5 73.5v182q-89 28 -172 45.5t-175 17.5q-126 0 -212.5 -38.5t-86.5 -136.5q0 -89 62 -130t191 -41q94 0 190.5 27.5zM295 795l349 -80v-30l-349 80v30z" />
    <glyph glyph-name="aacute" unicode="&#xe1;" horiz-adv-x="890" 
d="M724 542.5q75 -57.5 76 -177.5v-365h-32v81q-114 -49 -203.5 -75t-189.5 -26q-151 0 -218 51.5t-67 149.5q0 205 331 205q78 0 169.5 -17t177.5 -43v39q0 90 -45 135t-103 57.5t-124 12.5q-73 0 -153.5 -12.5t-196.5 -47.5l-11 29q188 61 361 61q153 0 228 -57.5z
M565.5 37.5q96.5 27.5 202.5 73.5v182q-89 28 -172 45.5t-175 17.5q-126 0 -212.5 -38.5t-86.5 -136.5q0 -89 62 -130t191 -41q94 0 190.5 27.5zM295 685v30l349 80v-30z" />
    <glyph glyph-name="acircumflex" unicode="&#xe2;" horiz-adv-x="890" 
d="M724 542.5q75 -57.5 76 -177.5v-365h-32v81q-114 -49 -203.5 -75t-189.5 -26q-151 0 -218 51.5t-67 149.5q0 205 331 205q78 0 169.5 -17t177.5 -43v39q0 90 -45 135t-103 57.5t-124 12.5q-73 0 -153.5 -12.5t-196.5 -47.5l-11 29q188 61 361 61q153 0 228 -57.5z
M565.5 37.5q96.5 27.5 202.5 73.5v182q-89 28 -172 45.5t-175 17.5q-126 0 -212.5 -38.5t-86.5 -136.5q0 -89 62 -130t191 -41q94 0 190.5 27.5zM303 705l167 80l167 -80v-30l-167 80l-167 -80v30z" />
    <glyph glyph-name="atilde" unicode="&#xe3;" horiz-adv-x="890" 
d="M724 542.5q75 -57.5 76 -177.5v-365h-32v81q-114 -49 -203.5 -75t-189.5 -26q-151 0 -218 51.5t-67 149.5q0 205 331 205q78 0 169.5 -17t177.5 -43v39q0 90 -45 135t-103 57.5t-124 12.5q-73 0 -153.5 -12.5t-196.5 -47.5l-11 29q188 61 361 61q153 0 228 -57.5z
M565.5 37.5q96.5 27.5 202.5 73.5v182q-89 28 -172 45.5t-175 17.5q-126 0 -212.5 -38.5t-86.5 -136.5q0 -89 62 -130t191 -41q94 0 190.5 27.5zM224 670q0 45 28 87.5t98 42.5q42 0 70 -15t59 -43q30 -26 53 -39t58 -13q48 0 71 26.5t23 73.5h32q0 -45 -28 -87.5t-98 -42.5
q-42 0 -70 15t-59 43q-30 26 -53 39t-58 13q-48 0 -71 -26.5t-23 -73.5h-32z" />
    <glyph glyph-name="adieresis" unicode="&#xe4;" horiz-adv-x="890" 
d="M724 542.5q75 -57.5 76 -177.5v-365h-32v81q-114 -49 -203.5 -75t-189.5 -26q-151 0 -218 51.5t-67 149.5q0 205 331 205q78 0 169.5 -17t177.5 -43v39q0 90 -45 135t-103 57.5t-124 12.5q-73 0 -153.5 -12.5t-196.5 -47.5l-11 29q188 61 361 61q153 0 228 -57.5z
M565.5 37.5q96.5 27.5 202.5 73.5v182q-89 28 -172 45.5t-175 17.5q-126 0 -212.5 -38.5t-86.5 -136.5q0 -89 62 -130t191 -41q94 0 190.5 27.5zM338 696v48h54v-48h-54zM548 696v48h54v-48h-54z" />
    <glyph glyph-name="aring" unicode="&#xe5;" horiz-adv-x="890" 
d="M724 542.5q75 -57.5 76 -177.5v-365h-32v81q-114 -49 -203.5 -75t-189.5 -26q-151 0 -218 51.5t-67 149.5q0 205 331 205q78 0 169.5 -17t177.5 -43v39q0 90 -45 135t-103 57.5t-124 12.5q-73 0 -153.5 -12.5t-196.5 -47.5l-11 29q188 61 361 61q153 0 228 -57.5z
M565.5 37.5q96.5 27.5 202.5 73.5v182q-89 28 -172 45.5t-175 17.5q-126 0 -212.5 -38.5t-86.5 -136.5q0 -89 62 -130t191 -41q94 0 190.5 27.5zM335.5 677.5q-43.5 27.5 -43.5 74.5t43.5 74.5t134.5 27.5t134.5 -27.5t43.5 -74.5t-43.5 -74.5t-134.5 -27.5t-134.5 27.5z
M583.5 698q34.5 18 34.5 54t-34.5 54t-113.5 18t-113.5 -18t-34.5 -54t34.5 -54t113.5 -18t113.5 18z" />
    <glyph glyph-name="ae" unicode="&#xe6;" horiz-adv-x="1551" 
d="M1314 52.5q75 42.5 100 117.5h35q-25 -89 -110 -139.5t-229 -50.5q-149 0 -240.5 58t-118.5 164q-41 -111 -149.5 -166.5t-246.5 -55.5q-124 0 -194.5 44t-70.5 132q0 75 42.5 112t121 48.5t217.5 11.5h270q0 135 -82.5 188.5t-202.5 53.5q-133 0 -313 -61l-8 30
q168 61 321 61q139 0 213 -46.5t95 -136.5q35 88 122 135.5t219 47.5q173 0 264.5 -81t91.5 -224h-688v-5q0 -141 93.5 -210.5t243.5 -69.5q129 0 204 42.5zM877 509q-91 -61 -102 -184h653q-9 122 -97 183.5t-226 61.5q-137 0 -228 -61zM741 295l-266 3q-137 0 -206.5 -7.5
t-108 -36.5t-38.5 -93q0 -151 233 -151q140 0 246.5 57.5t139.5 175.5v52z" />
    <glyph glyph-name="ccedilla" unicode="&#xe7;" horiz-adv-x="882" 
d="M653.5 53q76.5 43 103.5 127h35q-27 -96 -113.5 -148t-224.5 -52h-7l-15 -65q40 18 87 18q41 0 67.5 -19.5t26.5 -61.5q0 -51 -45 -75t-120 -24q-35 0 -87 7v30q58 -9 93 -9q58 0 92.5 17.5t34.5 53.5q0 26 -20 40t-50 14q-37 0 -78 -19l-36 5l18 89q-156 10 -240.5 91
t-84.5 218q0 146 94.5 228t269.5 82q138 0 224.5 -52t113.5 -148h-35q-27 84 -103.5 127t-199.5 43q-147 0 -239.5 -69.5t-92.5 -210.5t92.5 -210.5t239.5 -69.5q123 0 199.5 43z" />
    <glyph glyph-name="egrave" unicode="&#xe8;" horiz-adv-x="900" 
d="M663 52.5q75 42.5 100 117.5h35q-25 -89 -110 -139.5t-229 -50.5q-178 0 -273.5 82t-95.5 228t94.5 228t269.5 82q173 0 264.5 -81t91.5 -224h-688v-5q0 -141 93.5 -210.5t243.5 -69.5q129 0 204 42.5zM226 509q-91 -61 -102 -184h653q-9 122 -97 183.5t-226 61.5
q-137 0 -228 -61zM283 795l349 -80v-30l-349 80v30z" />
    <glyph glyph-name="eacute" unicode="&#xe9;" horiz-adv-x="900" 
d="M663 52.5q75 42.5 100 117.5h35q-25 -89 -110 -139.5t-229 -50.5q-178 0 -273.5 82t-95.5 228t94.5 228t269.5 82q173 0 264.5 -81t91.5 -224h-688v-5q0 -141 93.5 -210.5t243.5 -69.5q129 0 204 42.5zM226 509q-91 -61 -102 -184h653q-9 122 -97 183.5t-226 61.5
q-137 0 -228 -61zM283 685v30l349 80v-30z" />
    <glyph glyph-name="ecircumflex" unicode="&#xea;" horiz-adv-x="900" 
d="M663 52.5q75 42.5 100 117.5h35q-25 -89 -110 -139.5t-229 -50.5q-178 0 -273.5 82t-95.5 228t94.5 228t269.5 82q173 0 264.5 -81t91.5 -224h-688v-5q0 -141 93.5 -210.5t243.5 -69.5q129 0 204 42.5zM226 509q-91 -61 -102 -184h653q-9 122 -97 183.5t-226 61.5
q-137 0 -228 -61zM291 705l167 80l167 -80v-30l-167 80l-167 -80v30z" />
    <glyph glyph-name="edieresis" unicode="&#xeb;" horiz-adv-x="900" 
d="M663 52.5q75 42.5 100 117.5h35q-25 -89 -110 -139.5t-229 -50.5q-178 0 -273.5 82t-95.5 228t94.5 228t269.5 82q173 0 264.5 -81t91.5 -224h-688v-5q0 -141 93.5 -210.5t243.5 -69.5q129 0 204 42.5zM226 509q-91 -61 -102 -184h653q-9 122 -97 183.5t-226 61.5
q-137 0 -228 -61zM326 696v48h54v-48h-54zM536 696v48h54v-48h-54z" />
    <glyph glyph-name="igrave" unicode="&#xec;" 
d="M100 0v580h32v-580h-32zM-59 795l349 -80v-30l-349 80v30z" />
    <glyph glyph-name="iacute" unicode="&#xed;" 
d="M100 0v580h32v-580h-32zM-59 685v30l349 80v-30z" />
    <glyph glyph-name="icircumflex" unicode="&#xee;" 
d="M100 0v580h32v-580h-32zM-51 705l167 80l167 -80v-30l-167 80l-167 -80v30z" />
    <glyph glyph-name="idieresis" unicode="&#xef;" 
d="M100 0v580h32v-580h-32zM-16 696v48h54v-48h-54zM194 696v48h54v-48h-54z" />
    <glyph glyph-name="ntilde" unicode="&#xf1;" horiz-adv-x="892" 
d="M651.5 570q67.5 -30 103.5 -101t37 -192v-277h-32v277q0 109 -31 173t-92 92t-158 28q-96 0 -175.5 -38.5t-125.5 -108.5t-46 -160v-263h-32v580h32v-179q43 94 135.5 146.5t211.5 52.5q105 0 172.5 -30zM239 670q0 45 28 87.5t98 42.5q42 0 70 -15t59 -43q30 -26 53 -39
t58 -13q48 0 71 26.5t23 73.5h32q0 -45 -28 -87.5t-98 -42.5q-42 0 -70 15t-59 43q-30 26 -53 39t-58 13q-48 0 -71 -26.5t-23 -73.5h-32z" />
    <glyph glyph-name="ograve" unicode="&#xf2;" horiz-adv-x="908" 
d="M260 17.5q-82 37.5 -126 107.5t-44 165t44 165t126 107.5t194 37.5t194 -37.5t126 -107.5t44 -165t-44 -165t-126 -107.5t-194 -37.5t-194 37.5zM625 41.5q75 31.5 118 94.5t43 154t-43 154t-118 94.5t-171 31.5t-171 -31.5t-118 -94.5t-43 -154t43 -154t118 -94.5
t171 -31.5t171 31.5zM279 795l349 -80v-30l-349 80v30z" />
    <glyph glyph-name="oacute" unicode="&#xf3;" horiz-adv-x="908" 
d="M260 17.5q-82 37.5 -126 107.5t-44 165t44 165t126 107.5t194 37.5t194 -37.5t126 -107.5t44 -165t-44 -165t-126 -107.5t-194 -37.5t-194 37.5zM625 41.5q75 31.5 118 94.5t43 154t-43 154t-118 94.5t-171 31.5t-171 -31.5t-118 -94.5t-43 -154t43 -154t118 -94.5
t171 -31.5t171 31.5zM279 685v30l349 80v-30z" />
    <glyph glyph-name="ocircumflex" unicode="&#xf4;" horiz-adv-x="908" 
d="M260 17.5q-82 37.5 -126 107.5t-44 165t44 165t126 107.5t194 37.5t194 -37.5t126 -107.5t44 -165t-44 -165t-126 -107.5t-194 -37.5t-194 37.5zM625 41.5q75 31.5 118 94.5t43 154t-43 154t-118 94.5t-171 31.5t-171 -31.5t-118 -94.5t-43 -154t43 -154t118 -94.5
t171 -31.5t171 31.5zM287 705l167 80l167 -80v-30l-167 80l-167 -80v30z" />
    <glyph glyph-name="otilde" unicode="&#xf5;" horiz-adv-x="908" 
d="M260 17.5q-82 37.5 -126 107.5t-44 165t44 165t126 107.5t194 37.5t194 -37.5t126 -107.5t44 -165t-44 -165t-126 -107.5t-194 -37.5t-194 37.5zM625 41.5q75 31.5 118 94.5t43 154t-43 154t-118 94.5t-171 31.5t-171 -31.5t-118 -94.5t-43 -154t43 -154t118 -94.5
t171 -31.5t171 31.5zM208 670q0 45 28 87.5t98 42.5q42 0 70 -15t59 -43q30 -26 53 -39t58 -13q48 0 71 26.5t23 73.5h32q0 -45 -28 -87.5t-98 -42.5q-42 0 -70 15t-59 43q-30 26 -53 39t-58 13q-48 0 -71 -26.5t-23 -73.5h-32z" />
    <glyph glyph-name="odieresis" unicode="&#xf6;" horiz-adv-x="908" 
d="M260 17.5q-82 37.5 -126 107.5t-44 165t44 165t126 107.5t194 37.5t194 -37.5t126 -107.5t44 -165t-44 -165t-126 -107.5t-194 -37.5t-194 37.5zM625 41.5q75 31.5 118 94.5t43 154t-43 154t-118 94.5t-171 31.5t-171 -31.5t-118 -94.5t-43 -154t43 -154t118 -94.5
t171 -31.5t171 31.5zM322 696v48h54v-48h-54zM532 696v48h54v-48h-54z" />
    <glyph glyph-name="divide" unicode="&#xf7;" horiz-adv-x="920" 
d="M100 325v30h720v-30h-720zM430 132v48h54v-48h-54zM430 500v48h54v-48h-54z" />
    <glyph glyph-name="oslash" unicode="&#xf8;" horiz-adv-x="908" 
d="M560 590q122 -24 190 -102.5t68 -197.5q0 -95 -44 -165t-126 -107.5t-194 -37.5q-35 0 -75 5l-39 -130h-32l40 135q-122 24 -190 102.5t-68 197.5q0 95 44 165t126 107.5t194 37.5q35 0 75 -5l39 130h32zM185.5 110q63.5 -69 171.5 -91l163 547q-28 4 -66 4
q-96 0 -171 -31.5t-118 -94.5t-43 -154q0 -111 63.5 -180zM625 41.5q75 31.5 118 94.5t43 154q0 111 -63.5 180t-171.5 91l-163 -547q28 -4 66 -4q96 0 171 31.5z" />
    <glyph glyph-name="ugrave" unicode="&#xf9;" horiz-adv-x="892" 
d="M760 580h32v-580h-32v179q-43 -94 -135.5 -146.5t-211.5 -52.5q-105 0 -172.5 30t-103.5 101t-37 192v277h32v-277q0 -109 31 -173t92 -92t158 -28q96 0 175.5 38.5t125.5 108.5t46 160v263zM294 795l349 -80v-30l-349 80v30z" />
    <glyph glyph-name="uacute" unicode="&#xfa;" horiz-adv-x="892" 
d="M760 580h32v-580h-32v179q-43 -94 -135.5 -146.5t-211.5 -52.5q-105 0 -172.5 30t-103.5 101t-37 192v277h32v-277q0 -109 31 -173t92 -92t158 -28q96 0 175.5 38.5t125.5 108.5t46 160v263zM294 685v30l349 80v-30z" />
    <glyph glyph-name="ucircumflex" unicode="&#xfb;" horiz-adv-x="892" 
d="M760 580h32v-580h-32v179q-43 -94 -135.5 -146.5t-211.5 -52.5q-105 0 -172.5 30t-103.5 101t-37 192v277h32v-277q0 -109 31 -173t92 -92t158 -28q96 0 175.5 38.5t125.5 108.5t46 160v263zM302 705l167 80l167 -80v-30l-167 80l-167 -80v30z" />
    <glyph glyph-name="udieresis" unicode="&#xfc;" horiz-adv-x="892" 
d="M760 580h32v-580h-32v179q-43 -94 -135.5 -146.5t-211.5 -52.5q-105 0 -172.5 30t-103.5 101t-37 192v277h32v-277q0 -109 31 -173t92 -92t158 -28q96 0 175.5 38.5t125.5 108.5t46 160v263zM337 696v48h54v-48h-54zM547 696v48h54v-48h-54z" />
    <glyph glyph-name="yacute" unicode="&#xfd;" horiz-adv-x="894" 
d="M768 580h36l-350 -621l-21 -38q-38 -69 -62.5 -104t-58 -56t-82.5 -21q-27 0 -54 3.5t-74 11.5v30l25 -4q29 -5 53.5 -8t49.5 -3q41 0 68.5 17t47.5 46.5t52 88.5l21 37l23 41h-20l-332 580h36l324 -566zM282 685v30l349 80v-30z" />
    <glyph glyph-name="thorn" unicode="&#xfe;" horiz-adv-x="898" 
d="M642 558.5q80 -41.5 123 -114.5t43 -164t-42.5 -158.5t-122.5 -104.5t-189 -37q-118 0 -200.5 40t-121.5 116v-376h-32v1040h32v-372q40 81 123 126.5t199 45.5q108 0 188 -41.5zM619.5 41q72.5 31 114.5 92t42 147q0 87 -42 153t-115.5 101.5t-164.5 35.5
q-92 0 -165 -34t-115 -99.5t-42 -156.5q0 -135 88.5 -202.5t233.5 -67.5q93 0 165.5 31z" />
    <glyph glyph-name="ydieresis" unicode="&#xff;" horiz-adv-x="894" 
d="M768 580h36l-350 -621l-21 -38q-38 -69 -62.5 -104t-58 -56t-82.5 -21q-27 0 -54 3.5t-74 11.5v30l25 -4q29 -5 53.5 -8t49.5 -3q41 0 68.5 17t47.5 46.5t52 88.5l21 37l23 41h-20l-332 580h36l324 -566zM325 696v48h54v-48h-54zM535 696v48h54v-48h-54z" />
    <glyph glyph-name="Amacron" unicode="&#x100;" horiz-adv-x="1053" 
d="M963 0h-36l-113 191h-575l-113 -191h-36l416 700h40zM526 675l-269 -454h539zM331 835v30h389v-30h-389z" />
    <glyph glyph-name="amacron" unicode="&#x101;" horiz-adv-x="890" 
d="M724 542.5q75 -57.5 76 -177.5v-365h-32v81q-114 -49 -203.5 -75t-189.5 -26q-151 0 -218 51.5t-67 149.5q0 205 331 205q78 0 169.5 -17t177.5 -43v39q0 90 -45 135t-103 57.5t-124 12.5q-73 0 -153.5 -12.5t-196.5 -47.5l-11 29q188 61 361 61q153 0 228 -57.5z
M565.5 37.5q96.5 27.5 202.5 73.5v182q-89 28 -172 45.5t-175 17.5q-126 0 -212.5 -38.5t-86.5 -136.5q0 -89 62 -130t191 -41q94 0 190.5 27.5zM275 715v30h389v-30h-389z" />
    <glyph glyph-name="Abreve" unicode="&#x102;" horiz-adv-x="1053" 
d="M963 0h-36l-113 191h-575l-113 -191h-36l416 700h40zM526 675l-269 -454h539zM365 950q0 -70 41 -95t120 -25t120 25t41 95h32q0 -80 -48.5 -115t-144.5 -35t-144.5 35t-48.5 115h32z" />
    <glyph glyph-name="abreve" unicode="&#x103;" horiz-adv-x="890" 
d="M724 542.5q75 -57.5 76 -177.5v-365h-32v81q-114 -49 -203.5 -75t-189.5 -26q-151 0 -218 51.5t-67 149.5q0 205 331 205q78 0 169.5 -17t177.5 -43v39q0 90 -45 135t-103 57.5t-124 12.5q-73 0 -153.5 -12.5t-196.5 -47.5l-11 29q188 61 361 61q153 0 228 -57.5z
M565.5 37.5q96.5 27.5 202.5 73.5v182q-89 28 -172 45.5t-175 17.5q-126 0 -212.5 -38.5t-86.5 -136.5q0 -89 62 -130t191 -41q94 0 190.5 27.5zM309 830q0 -70 41 -95t120 -25t120 25t41 95h32q0 -80 -48.5 -115t-144.5 -35t-144.5 35t-48.5 115h32z" />
    <glyph glyph-name="Aogonek" unicode="&#x104;" horiz-adv-x="1053" 
d="M868 -179q32 -21 95 -21v-30q-70 0 -114.5 24.5t-44.5 81.5q0 82 123 124l-113 191h-575l-113 -191h-36l416 700h40l417 -700q-39 -13 -64.5 -24.5t-44 -33t-18.5 -53.5q0 -47 32 -68zM526 675l-269 -454h539z" />
    <glyph glyph-name="aogonek" unicode="&#x105;" horiz-adv-x="898" 
d="M724 542.5q75 -57.5 76 -177.5v-365h-2q-43 -10 -85 -39t-42 -79q0 -37 34 -59.5t93 -22.5v-30q-67 0 -113 27t-46 79q0 77 127 124h2v81q-114 -49 -203.5 -75t-189.5 -26q-151 0 -218 51.5t-67 149.5q0 205 331 205q78 0 169.5 -17t177.5 -43v39q0 90 -45 135t-103 57.5
t-124 12.5q-73 0 -153.5 -12.5t-196.5 -47.5l-11 29q188 61 361 61q153 0 228 -57.5zM565.5 37.5q96.5 27.5 202.5 73.5v182q-89 28 -172 45.5t-175 17.5q-126 0 -212.5 -38.5t-86.5 -136.5q0 -89 62 -130t191 -41q94 0 190.5 27.5z" />
    <glyph glyph-name="Cacute" unicode="&#x106;" horiz-adv-x="976" 
d="M141 545.5q51 83.5 145 129t219 45.5q105 0 187.5 -36t132 -97.5t61.5 -135.5h-32q-11 59 -52.5 113.5t-116.5 90t-180 35.5q-122 0 -208 -43.5t-130.5 -120.5t-44.5 -175q0 -99 44.5 -176t130.5 -121t208 -44q105 0 180 36t116.5 91t52.5 114h32q-11 -75 -60.5 -136.5
t-132 -98t-188.5 -36.5q-125 0 -219 46t-145 130t-51 195t51 194.5zM321 805v30l349 80v-30z" />
    <glyph glyph-name="cacute" unicode="&#x107;" horiz-adv-x="882" 
d="M184.5 518q94.5 82 269.5 82q138 0 224.5 -52t113.5 -148h-35q-27 84 -103.5 127t-199.5 43q-147 0 -239.5 -69.5t-92.5 -210.5t92.5 -210.5t239.5 -69.5q123 0 199.5 43t103.5 127h35q-27 -96 -113.5 -148t-224.5 -52q-175 0 -269.5 82t-94.5 228t94.5 228zM280 685v30
l349 80v-30z" />
    <glyph glyph-name="Cdotaccent" unicode="&#x10a;" horiz-adv-x="976" 
d="M141 545.5q51 83.5 145 129t219 45.5q105 0 187.5 -36t132 -97.5t61.5 -135.5h-32q-11 59 -52.5 113.5t-116.5 90t-180 35.5q-122 0 -208 -43.5t-130.5 -120.5t-44.5 -175q0 -99 44.5 -176t130.5 -121t208 -44q105 0 180 36t116.5 91t52.5 114h32q-11 -75 -60.5 -136.5
t-132 -98t-188.5 -36.5q-125 0 -219 46t-145 130t-51 195t51 194.5zM469 816v48h54v-48h-54z" />
    <glyph glyph-name="cdotaccent" unicode="&#x10b;" horiz-adv-x="882" 
d="M184.5 518q94.5 82 269.5 82q138 0 224.5 -52t113.5 -148h-35q-27 84 -103.5 127t-199.5 43q-147 0 -239.5 -69.5t-92.5 -210.5t92.5 -210.5t239.5 -69.5q123 0 199.5 43t103.5 127h35q-27 -96 -113.5 -148t-224.5 -52q-175 0 -269.5 82t-94.5 228t94.5 228zM428 696v48
h54v-48h-54z" />
    <glyph glyph-name="Ccaron" unicode="&#x10c;" horiz-adv-x="976" 
d="M141 545.5q51 83.5 145 129t219 45.5q105 0 187.5 -36t132 -97.5t61.5 -135.5h-32q-11 59 -52.5 113.5t-116.5 90t-180 35.5q-122 0 -208 -43.5t-130.5 -120.5t-44.5 -175q0 -99 44.5 -176t130.5 -121t208 -44q105 0 180 36t116.5 91t52.5 114h32q-11 -75 -60.5 -136.5
t-132 -98t-188.5 -36.5q-125 0 -219 46t-145 130t-51 195t51 194.5zM329 907l167 -80l167 80v-30l-167 -80l-167 80v30z" />
    <glyph glyph-name="ccaron" unicode="&#x10d;" horiz-adv-x="882" 
d="M184.5 518q94.5 82 269.5 82q138 0 224.5 -52t113.5 -148h-35q-27 84 -103.5 127t-199.5 43q-147 0 -239.5 -69.5t-92.5 -210.5t92.5 -210.5t239.5 -69.5q123 0 199.5 43t103.5 127h35q-27 -96 -113.5 -148t-224.5 -52q-175 0 -269.5 82t-94.5 228t94.5 228zM288 787
l167 -80l167 80v-30l-167 -80l-167 80v30z" />
    <glyph glyph-name="Dcaron" unicode="&#x10e;" horiz-adv-x="958" 
d="M689.5 661q81.5 -39 130 -118t48.5 -193t-48.5 -193t-130 -118t-179.5 -39h-410v700h410q98 0 179.5 -39zM500 30q102 0 177.5 38.5t117 110.5t41.5 171t-41.5 171t-117 110.5t-177.5 38.5h-368v-640h368zM247 907l167 -80l167 80v-30l-167 -80l-167 80v30z" />
    <glyph glyph-name="dcaron" unicode="&#x10f;" horiz-adv-x="1030" 
d="M766 800h32v-800h-32v165q-35 -88 -119.5 -136.5t-208.5 -48.5q-109 0 -187.5 37.5t-119.5 107t-41 165.5t41 165.5t119.5 107t187.5 37.5q124 0 208.5 -48.5t119.5 -136.5v385zM609 41.5q73 31.5 115 94.5t42 154t-42 154t-115 94.5t-166 31.5t-165.5 -31.5t-114 -94.5
t-41.5 -154t41.5 -154t114 -94.5t165.5 -31.5t166 31.5zM876 752v48h54v-48l-34 -140h-20l24 140h-24z" />
    <glyph glyph-name="Dcroat" unicode="&#x110;" horiz-adv-x="1031" 
d="M762.5 661q81.5 -39 130 -118t48.5 -193t-48.5 -193t-130 -118t-179.5 -39h-410v335h-93v30h93v335h410q98 0 179.5 -39zM573 30q102 0 177.5 38.5t117 110.5t41.5 171t-41.5 171t-117 110.5t-177.5 38.5h-368v-305h275v-30h-275v-305h368z" />
    <glyph glyph-name="dcroat" unicode="&#x111;" horiz-adv-x="938" 
d="M858 700v-30h-60v-670h-32v165q-35 -88 -119.5 -136.5t-208.5 -48.5q-109 0 -187.5 37.5t-119.5 107t-41 165.5t41 165.5t119.5 107t187.5 37.5q124 0 208.5 -48.5t119.5 -136.5v255h-275v30h275v100h32v-100h60zM609 41.5q73 31.5 115 94.5t42 154t-42 154t-115 94.5
t-166 31.5t-165.5 -31.5t-114 -94.5t-41.5 -154t41.5 -154t114 -94.5t165.5 -31.5t166 31.5z" />
    <glyph glyph-name="Emacron" unicode="&#x112;" horiz-adv-x="850" 
d="M760 700v-30h-628v-305h608v-30h-608v-305h628v-30h-660v700h660zM235 835v30h389v-30h-389z" />
    <glyph glyph-name="emacron" unicode="&#x113;" horiz-adv-x="900" 
d="M663 52.5q75 42.5 100 117.5h35q-25 -89 -110 -139.5t-229 -50.5q-178 0 -273.5 82t-95.5 228t94.5 228t269.5 82q173 0 264.5 -81t91.5 -224h-688v-5q0 -141 93.5 -210.5t243.5 -69.5q129 0 204 42.5zM226 509q-91 -61 -102 -184h653q-9 122 -97 183.5t-226 61.5
q-137 0 -228 -61zM263 715v30h389v-30h-389z" />
    <glyph glyph-name="Edotaccent" unicode="&#x116;" horiz-adv-x="850" 
d="M760 700v-30h-628v-305h608v-30h-608v-305h628v-30h-660v700h660zM403 816v48h54v-48h-54z" />
    <glyph glyph-name="edotaccent" unicode="&#x117;" horiz-adv-x="900" 
d="M663 52.5q75 42.5 100 117.5h35q-25 -89 -110 -139.5t-229 -50.5q-178 0 -273.5 82t-95.5 228t94.5 228t269.5 82q173 0 264.5 -81t91.5 -224h-688v-5q0 -141 93.5 -210.5t243.5 -69.5q129 0 204 42.5zM226 509q-91 -61 -102 -184h653q-9 122 -97 183.5t-226 61.5
q-137 0 -228 -61zM431 696v48h54v-48h-54z" />
    <glyph glyph-name="Eogonek" unicode="&#x118;" horiz-adv-x="850" 
d="M760 670h-628v-305h608v-30h-608v-305h628v-30q-56 -7 -91.5 -34t-35.5 -74q0 -43 33.5 -67.5t93.5 -24.5v-30q-68 0 -113.5 29t-45.5 87q0 40 31 70.5t86 43.5h-618v700h660v-30z" />
    <glyph glyph-name="eogonek" unicode="&#x119;" horiz-adv-x="900" 
d="M663 52.5q75 42.5 100 117.5h35q-18 -63 -67 -108t-129 -66q-141 -40 -141 -114q0 -40 32.5 -61t119.5 -21v-30q-95 0 -139.5 25.5t-44.5 80.5q0 30 22.5 58.5t75.5 48.5q-33 -3 -68 -3q-178 0 -273.5 82t-95.5 228t94.5 228t269.5 82q173 0 264.5 -81t91.5 -224h-688v-5
q0 -141 93.5 -210.5t243.5 -69.5q129 0 204 42.5zM226 509q-91 -61 -102 -184h653q-9 122 -97 183.5t-226 61.5q-137 0 -228 -61z" />
    <glyph glyph-name="Ecaron" unicode="&#x11a;" horiz-adv-x="850" 
d="M760 700v-30h-628v-305h608v-30h-608v-305h628v-30h-660v700h660zM263 907l167 -80l167 80v-30l-167 -80l-167 80v30z" />
    <glyph glyph-name="ecaron" unicode="&#x11b;" horiz-adv-x="900" 
d="M663 52.5q75 42.5 100 117.5h35q-25 -89 -110 -139.5t-229 -50.5q-178 0 -273.5 82t-95.5 228t94.5 228t269.5 82q173 0 264.5 -81t91.5 -224h-688v-5q0 -141 93.5 -210.5t243.5 -69.5q129 0 204 42.5zM226 509q-91 -61 -102 -184h653q-9 122 -97 183.5t-226 61.5
q-137 0 -228 -61zM291 787l167 -80l167 80v-30l-167 -80l-167 80v30z" />
    <glyph glyph-name="Gbreve" unicode="&#x11e;" horiz-adv-x="977" 
d="M144 544q54 84 148.5 130t213.5 46q114 0 196 -38.5t128 -99.5t57 -131h-32q-7 51 -44.5 106t-113.5 94t-191 39q-125 0 -212 -49t-129.5 -126.5t-42.5 -164.5t41 -165t126 -126.5t211 -48.5q109 0 187 22.5t168 73.5v190h-365v30h397v-236q-98 -57 -185 -83.5
t-202 -26.5q-118 0 -211.5 46t-146 130t-52.5 194t54 194zM345 950q0 -70 41 -95t120 -25t120 25t41 95h32q0 -80 -48.5 -115t-144.5 -35t-144.5 35t-48.5 115h32z" />
    <glyph glyph-name="gbreve" unicode="&#x11f;" horiz-adv-x="898" 
d="M766 580h32v-563q0 -87 -26.5 -147.5t-95.5 -95t-192 -34.5q-85 0 -151.5 4t-195.5 16v30l29 -3q114 -10 174.5 -13.5t139.5 -3.5q112 0 174.5 28t87 81t24.5 137v149q-35 -89 -119 -137t-208 -48q-109 0 -187.5 37.5t-120 107t-41.5 165.5t41.5 165.5t120 107
t187.5 37.5q124 0 208 -48t119 -137v165zM610 41.5q73 31.5 114.5 94.5t41.5 154t-41.5 154t-114.5 94.5t-166 31.5t-166 -31.5t-114.5 -94.5t-41.5 -154t41.5 -154t114.5 -94.5t166 -31.5t166 31.5zM284 830q0 -70 41 -95t120 -25t120 25t41 95h32q0 -80 -48.5 -115
t-144.5 -35t-144.5 35t-48.5 115h32z" />
    <glyph glyph-name="Gdotaccent" unicode="&#x120;" horiz-adv-x="977" 
d="M144 544q54 84 148.5 130t213.5 46q114 0 196 -38.5t128 -99.5t57 -131h-32q-7 51 -44.5 106t-113.5 94t-191 39q-125 0 -212 -49t-129.5 -126.5t-42.5 -164.5t41 -165t126 -126.5t211 -48.5q109 0 187 22.5t168 73.5v190h-365v30h397v-236q-98 -57 -185 -83.5
t-202 -26.5q-118 0 -211.5 46t-146 130t-52.5 194t54 194zM479 816v48h54v-48h-54z" />
    <glyph glyph-name="gdotaccent" unicode="&#x121;" horiz-adv-x="898" 
d="M766 580h32v-563q0 -87 -26.5 -147.5t-95.5 -95t-192 -34.5q-85 0 -151.5 4t-195.5 16v30l29 -3q114 -10 174.5 -13.5t139.5 -3.5q112 0 174.5 28t87 81t24.5 137v149q-35 -89 -119 -137t-208 -48q-109 0 -187.5 37.5t-120 107t-41.5 165.5t41.5 165.5t120 107
t187.5 37.5q124 0 208 -48t119 -137v165zM610 41.5q73 31.5 114.5 94.5t41.5 154t-41.5 154t-114.5 94.5t-166 31.5t-166 -31.5t-114.5 -94.5t-41.5 -154t41.5 -154t114.5 -94.5t166 -31.5t166 31.5zM418 696v48h54v-48h-54z" />
    <glyph glyph-name="uni0122" unicode="&#x122;" horiz-adv-x="977" 
d="M144 544q54 84 148.5 130t213.5 46q114 0 196 -38.5t128 -99.5t57 -131h-32q-7 51 -44.5 106t-113.5 94t-191 39q-125 0 -212 -49t-129.5 -126.5t-42.5 -164.5t41 -165t126 -126.5t211 -48.5q109 0 187 22.5t168 73.5v190h-365v30h397v-236q-98 -57 -185 -83.5
t-202 -26.5q-118 0 -211.5 46t-146 130t-52.5 194t54 194zM475 -134v48h54v-48l-41 -96h-20l29 96h-22z" />
    <glyph glyph-name="uni0123" unicode="&#x123;" horiz-adv-x="898" 
d="M766 580h32v-563q0 -87 -26.5 -147.5t-95.5 -95t-192 -34.5q-85 0 -151.5 4t-195.5 16v30l29 -3q114 -10 174.5 -13.5t139.5 -3.5q112 0 174.5 28t87 81t24.5 137v149q-35 -89 -119 -137t-208 -48q-109 0 -187.5 37.5t-120 107t-41.5 165.5t41.5 165.5t120 107
t187.5 37.5q124 0 208 -48t119 -137v165zM610 41.5q73 31.5 114.5 94.5t41.5 154t-41.5 154t-114.5 94.5t-166 31.5t-166 -31.5t-114.5 -94.5t-41.5 -154t41.5 -154t114.5 -94.5t166 -31.5t166 31.5zM468 764v-48h-54v48l41 96h20l-29 -96h22z" />
    <glyph glyph-name="Hbar" unicode="&#x126;" horiz-adv-x="1030" 
d="M900 580h80v-30h-80v-550h-32v335h-706v-335h-32v550h-80v30h80v120h32v-120h706v120h32v-120zM162 365h706v185h-706v-185z" />
    <glyph glyph-name="hbar" unicode="&#x127;" horiz-adv-x="932" 
d="M691.5 570q67.5 -30 103.5 -101t37 -192v-277h-32v277q0 109 -31 173t-92 92t-158 28q-96 0 -175.5 -38.5t-125.5 -108.5t-46 -160v-263h-32v670h-60v30h60v100h32v-100h275v-30h-275v-269q43 94 135.5 146.5t211.5 52.5q105 0 172.5 -30z" />
    <glyph glyph-name="Imacron" unicode="&#x12a;" 
d="M18 835v30h195v-30h-195zM100 700h32v-700h-32v700z" />
    <glyph glyph-name="imacron" unicode="&#x12b;" 
d="M100 0v580h32v-580h-32zM-79 715v30h389v-30h-389z" />
    <glyph glyph-name="Iogonek" unicode="&#x12e;" horiz-adv-x="229" 
d="M65.5 -175.5q33.5 -24.5 93.5 -24.5v-30q-68 0 -113.5 29t-45.5 87q0 37 26.5 66t70.5 48v700h32v-700q-5 -3 -33.5 -16.5t-46 -37t-17.5 -54.5q0 -43 33.5 -67.5z" />
    <glyph glyph-name="iogonek" unicode="&#x12f;" 
d="M69 744h54v-48h-54v48zM68.5 -175.5q33.5 -24.5 93.5 -24.5v-30q-68 0 -113.5 29t-45.5 87q0 37 26.5 66t70.5 48v580h32v-580q-5 -3 -33.5 -16.5t-46 -37t-17.5 -54.5q0 -43 33.5 -67.5z" />
    <glyph glyph-name="Idotaccent" unicode="&#x130;" 
d="M100 700h32v-700h-32v700zM89 816v48h54v-48h-54z" />
    <glyph glyph-name="dotlessi" unicode="&#x131;" 
d="M100 0v580h32v-580h-32z" />
    <glyph glyph-name="uni0136" unicode="&#x136;" horiz-adv-x="936" 
d="M793 700h53l-402 -291l402 -409h-44l-384 390l-286 -207v-183h-32v700h32v-479zM432 -134v48h54v-48l-41 -96h-20l29 96h-22z" />
    <glyph glyph-name="uni0137" unicode="&#x137;" horiz-adv-x="841" 
d="M694 580h57l-333 -218l333 -362h-42l-318 345l-259 -170v-175h-32v800h32v-589zM378 -134v48h54v-48l-41 -96h-20l29 96h-22z" />
    <glyph glyph-name="Lacute" unicode="&#x139;" horiz-adv-x="810" 
d="M132 700v-670h588v-30h-620v700h32zM100 805v30l349 80v-30z" />
    <glyph glyph-name="lacute" unicode="&#x13a;" 
d="M100 0v800h32v-800h-32zM-59 905v30l349 80v-30z" />
    <glyph glyph-name="uni013B" unicode="&#x13b;" horiz-adv-x="810" 
d="M132 700v-670h588v-30h-620v700h32zM386 -134v48h54v-48l-41 -96h-20l29 96h-22z" />
    <glyph glyph-name="uni013C" unicode="&#x13c;" 
d="M100 0v800h32v-800h-32zM92 -134v48h54v-48l-41 -96h-20l29 96h-22z" />
    <glyph glyph-name="Lcaron" unicode="&#x13d;" horiz-adv-x="810" 
d="M132 700v-670h588v-30h-620v700h32zM533 632v48h54v-48l-41 -96h-20l29 96h-22z" />
    <glyph glyph-name="lcaron" unicode="&#x13e;" horiz-adv-x="305" 
d="M100 0v800h32v-800h-32zM201 732v48h54v-48l-41 -96h-20l29 96h-22z" />
    <glyph glyph-name="Lslash" unicode="&#x141;" horiz-adv-x="980" 
d="M232 316v-286h588v-30h-620v300l-120 -60v32l120 60v368h32v-352l370 184v-32z" />
    <glyph glyph-name="lslash" unicode="&#x142;" horiz-adv-x="392" 
d="M212 439l130 65v-32l-130 -65v-407h-32v391l-130 -65v32l130 65v377h32v-361z" />
    <glyph glyph-name="Nacute" unicode="&#x143;" horiz-adv-x="982" 
d="M850 30v670h32v-700h-46l-704 670v-670h-32v700h46zM316 805v30l349 80v-30z" />
    <glyph glyph-name="nacute" unicode="&#x144;" horiz-adv-x="892" 
d="M651.5 570q67.5 -30 103.5 -101t37 -192v-277h-32v277q0 109 -31 173t-92 92t-158 28q-96 0 -175.5 -38.5t-125.5 -108.5t-46 -160v-263h-32v580h32v-179q43 94 135.5 146.5t211.5 52.5q105 0 172.5 -30zM310 685v30l349 80v-30z" />
    <glyph glyph-name="uni0145" unicode="&#x145;" horiz-adv-x="982" 
d="M850 30v670h32v-700h-46l-704 670v-670h-32v700h46zM467 -134v48h54v-48l-41 -96h-20l29 96h-22z" />
    <glyph glyph-name="uni0146" unicode="&#x146;" horiz-adv-x="892" 
d="M651.5 570q67.5 -30 103.5 -101t37 -192v-277h-32v277q0 109 -31 173t-92 92t-158 28q-96 0 -175.5 -38.5t-125.5 -108.5t-46 -160v-263h-32v580h32v-179q43 94 135.5 146.5t211.5 52.5q105 0 172.5 -30zM441 -134v48h54v-48l-41 -96h-20l29 96h-22z" />
    <glyph glyph-name="Ncaron" unicode="&#x147;" horiz-adv-x="982" 
d="M850 30v670h32v-700h-46l-704 670v-670h-32v700h46zM324 907l167 -80l167 80v-30l-167 -80l-167 80v30z" />
    <glyph glyph-name="ncaron" unicode="&#x148;" horiz-adv-x="892" 
d="M651.5 570q67.5 -30 103.5 -101t37 -192v-277h-32v277q0 109 -31 173t-92 92t-158 28q-96 0 -175.5 -38.5t-125.5 -108.5t-46 -160v-263h-32v580h32v-179q43 94 135.5 146.5t211.5 52.5q105 0 172.5 -30zM318 787l167 -80l167 80v-30l-167 -80l-167 80v30z" />
    <glyph glyph-name="Eng" unicode="&#x14a;" horiz-adv-x="982" 
d="M850 700h32v-700q0 -84 -16.5 -137.5t-64 -83t-137.5 -29.5q-88 0 -177 25v30q50 -13 90 -19t87 -6q70 0 110 19.5t58 67t18 133.5h-14l-704 670v-670h-32v700h46l704 -670v670z" />
    <glyph glyph-name="eng" unicode="&#x14b;" horiz-adv-x="892" 
d="M651.5 570q67.5 -30 103.5 -101t37 -192v-277q0 -84 -16.5 -137.5t-64 -83t-137.5 -29.5q-88 0 -177 25v30q50 -13 90 -19t87 -6q70 0 110 19.5t58 67t18 133.5v277q0 109 -31 173t-92 92t-158 28q-96 0 -175.5 -38.5t-125.5 -108.5t-46 -160v-263h-32v580h32v-179
q43 94 135.5 146.5t211.5 52.5q105 0 172.5 -30z" />
    <glyph glyph-name="Omacron" unicode="&#x14c;" horiz-adv-x="1020" 
d="M285.5 26q-94.5 46 -145 129.5t-50.5 195.5q0 111 50.5 194.5t145 129t224.5 45.5q129 0 224 -45.5t145.5 -129t50.5 -194.5t-50.5 -195t-145.5 -130t-224 -46q-130 0 -224.5 46zM719 53.5q88 43.5 133.5 120.5t45.5 177t-45.5 176.5t-133 119.5t-209.5 43t-209.5 -43
t-133 -119.5t-45.5 -176.5q0 -101 45.5 -178t133 -120t209.5 -43q121 0 209 43.5zM315 835v30h389v-30h-389z" />
    <glyph glyph-name="omacron" unicode="&#x14d;" horiz-adv-x="908" 
d="M260 17.5q-82 37.5 -126 107.5t-44 165t44 165t126 107.5t194 37.5t194 -37.5t126 -107.5t44 -165t-44 -165t-126 -107.5t-194 -37.5t-194 37.5zM625 41.5q75 31.5 118 94.5t43 154t-43 154t-118 94.5t-171 31.5t-171 -31.5t-118 -94.5t-43 -154t43 -154t118 -94.5
t171 -31.5t171 31.5zM259 715v30h389v-30h-389z" />
    <glyph glyph-name="Ohungarumlaut" unicode="&#x150;" horiz-adv-x="1020" 
d="M285.5 26q-94.5 46 -145 129.5t-50.5 195.5q0 111 50.5 194.5t145 129t224.5 45.5q129 0 224 -45.5t145.5 -129t50.5 -194.5t-50.5 -195t-145.5 -130t-224 -46q-130 0 -224.5 46zM719 53.5q88 43.5 133.5 120.5t45.5 177t-45.5 176.5t-133 119.5t-209.5 43t-209.5 -43
t-133 -119.5t-45.5 -176.5q0 -101 45.5 -178t133 -120t209.5 -43q121 0 209 43.5zM323 805v30l187 80v-30zM550 805v30l187 80v-30z" />
    <glyph glyph-name="ohungarumlaut" unicode="&#x151;" horiz-adv-x="908" 
d="M260 17.5q-82 37.5 -126 107.5t-44 165t44 165t126 107.5t194 37.5t194 -37.5t126 -107.5t44 -165t-44 -165t-126 -107.5t-194 -37.5t-194 37.5zM625 41.5q75 31.5 118 94.5t43 154t-43 154t-118 94.5t-171 31.5t-171 -31.5t-118 -94.5t-43 -154t43 -154t118 -94.5
t171 -31.5t171 31.5zM267 685v30l187 80v-30zM494 685v30l187 80v-30z" />
    <glyph glyph-name="OE" unicode="&#x152;" horiz-adv-x="1648" 
d="M1558 670h-628v-305h608v-30h-608v-305h628v-30h-660v192q-45 -100 -145 -156t-243 -56q-130 0 -224.5 46t-145 129.5t-50.5 195.5q0 111 50.5 194.5t145 129t224.5 45.5q143 0 243 -55.5t145 -154.5v190h660v-30zM719 53.5q88 43.5 133.5 120.5t45.5 177t-45.5 176.5
t-133 119.5t-209.5 43t-209.5 -43t-133 -119.5t-45.5 -176.5q0 -101 45.5 -178t133 -120t209.5 -43q121 0 209 43.5z" />
    <glyph glyph-name="oe" unicode="&#x153;" horiz-adv-x="1596" 
d="M1359 52.5q75 42.5 100 117.5h35q-25 -89 -110 -139.5t-229 -50.5q-142 0 -232.5 53t-120.5 150q-32 -96 -123 -149.5t-225 -53.5q-112 0 -194 37.5t-126 107.5t-44 165t44 165t126 107.5t194 37.5q134 0 225 -53.5t123 -149.5q30 97 119.5 150t228.5 53q173 0 264.5 -81
t91.5 -224h-688v-5q0 -141 93.5 -210.5t243.5 -69.5q129 0 204 42.5zM625 41.5q75 31.5 118 94.5t43 154t-43 154t-118 94.5t-171 31.5t-171 -31.5t-118 -94.5t-43 -154t43 -154t118 -94.5t171 -31.5t171 31.5zM922 509q-91 -61 -102 -184h653q-9 122 -97 183.5t-226 61.5
q-137 0 -228 -61z" />
    <glyph glyph-name="Racute" unicode="&#x154;" horiz-adv-x="928" 
d="M777.5 281.5q30.5 -33.5 30.5 -87.5v-194h-32v194q0 48 -30 74t-80 26h-534v-294h-32v700h460q133 0 195.5 -49.5t62.5 -148.5q0 -139 -123 -180q52 -7 82.5 -40.5zM132 670v-346h428q116 0 171 43t55 135q0 91 -54 129.5t-172 38.5h-428zM264 805v30l349 80v-30z" />
    <glyph glyph-name="racute" unicode="&#x155;" horiz-adv-x="658" 
d="M588 580v-30q-80 20 -165 20q-68 0 -139 -26t-152 -98v-446h-32v580h32v-100q71 69 141.5 94.5t149.5 25.5q85 0 165 -20zM164 685v30l349 80v-30z" />
    <glyph glyph-name="uni0156" unicode="&#x156;" horiz-adv-x="928" 
d="M777.5 281.5q30.5 -33.5 30.5 -87.5v-194h-32v194q0 48 -30 74t-80 26h-534v-294h-32v700h460q133 0 195.5 -49.5t62.5 -148.5q0 -139 -123 -180q52 -7 82.5 -40.5zM132 670v-346h428q116 0 171 43t55 135q0 91 -54 129.5t-172 38.5h-428zM445 -134v48h54v-48l-41 -96
h-20l29 96h-22z" />
    <glyph glyph-name="uni0157" unicode="&#x157;" horiz-adv-x="658" 
d="M588 580v-30q-80 20 -165 20q-68 0 -139 -26t-152 -98v-446h-32v580h32v-100q71 69 141.5 94.5t149.5 25.5q85 0 165 -20zM92 -134v48h54v-48l-41 -96h-20l29 96h-22z" />
    <glyph glyph-name="Rcaron" unicode="&#x158;" horiz-adv-x="928" 
d="M777.5 281.5q30.5 -33.5 30.5 -87.5v-194h-32v194q0 48 -30 74t-80 26h-534v-294h-32v700h460q133 0 195.5 -49.5t62.5 -148.5q0 -139 -123 -180q52 -7 82.5 -40.5zM132 670v-346h428q116 0 171 43t55 135q0 91 -54 129.5t-172 38.5h-428zM272 907l167 -80l167 80v-30
l-167 -80l-167 80v30z" />
    <glyph glyph-name="rcaron" unicode="&#x159;" horiz-adv-x="658" 
d="M588 580v-30q-80 20 -165 20q-68 0 -139 -26t-152 -98v-446h-32v580h32v-100q71 69 141.5 94.5t149.5 25.5q85 0 165 -20zM172 787l167 -80l167 80v-30l-167 -80l-167 80v30z" />
    <glyph glyph-name="Sacute" unicode="&#x15a;" horiz-adv-x="966" 
d="M112 237q0 -86 42.5 -135.5t129.5 -70.5t229 -21q170 0 255.5 38.5t85.5 133.5q0 64 -34.5 94.5t-108 42.5t-228.5 21q-150 9 -229.5 29t-111.5 59.5t-32 109.5q0 68 39.5 107.5t119.5 57t209 17.5q194 0 286 -59.5t92 -185.5h-32q0 120 -90.5 167.5t-275.5 47.5
q-111 0 -180 -14.5t-102.5 -47.5t-33.5 -90q0 -65 34 -98t103 -47t204 -23q164 -11 242 -24.5t119.5 -50t41.5 -113.5q0 -112 -96.5 -157t-286.5 -45q-149 0 -240.5 23.5t-137 79.5t-45.5 154h32zM308 805v30l349 80v-30z" />
    <glyph glyph-name="sacute" unicode="&#x15b;" horiz-adv-x="903" 
d="M122 177q16 -94 105.5 -130.5t260.5 -36.5q108 0 171.5 13.5t92.5 43.5t29 81q0 56 -26 81t-81.5 34.5t-189.5 18.5l-34 3q-130 9 -200 25t-101.5 47t-31.5 87q0 89 82.5 122.5t245.5 33.5q105 0 175 -14.5t113 -52t56 -105.5h-32q-16 82 -95.5 112t-216.5 30
q-154 0 -225 -28t-71 -98q0 -47 29.5 -70.5t93 -35t198.5 -23.5l40 -3q123 -11 180.5 -22.5t90 -42.5t32.5 -94q0 -92 -77 -132.5t-248 -40.5q-178 0 -279.5 41.5t-118.5 155.5h32zM275 685v30l349 80v-30z" />
    <glyph glyph-name="Scedilla" unicode="&#x15e;" horiz-adv-x="966" 
d="M475 -20l-15 -65q40 18 87 18q41 0 67.5 -19.5t26.5 -61.5q0 -51 -45 -75t-120 -24q-34 0 -87 7v30q58 -9 93 -9q58 0 92.5 17.5t34.5 53.5q0 26 -20 40t-50 14q-37 0 -78 -19l-36 5l18 89q-127 4 -206 30t-118 80.5t-39 145.5h32q0 -86 42.5 -135.5t129.5 -70.5t229 -21
q170 0 255.5 38.5t85.5 133.5q0 64 -34.5 94.5t-108 42.5t-228.5 21q-150 9 -229.5 29t-111.5 59.5t-32 109.5q0 68 39.5 107.5t119.5 57t209 17.5q194 0 286 -59.5t92 -185.5h-32q0 120 -90.5 167.5t-275.5 47.5q-111 0 -180 -14.5t-102.5 -47.5t-33.5 -90q0 -65 34 -98
t103 -47t204 -23q164 -11 242 -24.5t119.5 -50t41.5 -113.5q0 -112 -96.5 -157t-286.5 -45h-28z" />
    <glyph glyph-name="scedilla" unicode="&#x15f;" horiz-adv-x="903" 
d="M442 -19l-15 -66q40 18 87 18q41 0 67.5 -19.5t26.5 -61.5q0 -51 -45 -75t-120 -24q-34 0 -87 7v30q58 -9 93 -9q58 0 92.5 17.5t34.5 53.5q0 26 -20 40t-50 14q-37 0 -78 -19l-36 5l18 90q-141 7 -223 51t-97 144h32q16 -94 105.5 -130.5t260.5 -36.5q108 0 171.5 13.5
t92.5 43.5t29 81q0 56 -26 81t-81.5 34.5t-189.5 18.5l-34 3q-130 9 -200 25t-101.5 47t-31.5 87q0 89 82.5 122.5t245.5 33.5q105 0 175 -14.5t113 -52t56 -105.5h-32q-16 82 -95.5 112t-216.5 30q-154 0 -225 -28t-71 -98q0 -47 29.5 -70.5t93 -35t198.5 -23.5l40 -3
q123 -11 180.5 -22.5t90 -42.5t32.5 -94q0 -92 -77 -132.5t-248 -40.5q-31 0 -46 1z" />
    <glyph glyph-name="Scaron" unicode="&#x160;" horiz-adv-x="966" 
d="M112 237q0 -86 42.5 -135.5t129.5 -70.5t229 -21q170 0 255.5 38.5t85.5 133.5q0 64 -34.5 94.5t-108 42.5t-228.5 21q-150 9 -229.5 29t-111.5 59.5t-32 109.5q0 68 39.5 107.5t119.5 57t209 17.5q194 0 286 -59.5t92 -185.5h-32q0 120 -90.5 167.5t-275.5 47.5
q-111 0 -180 -14.5t-102.5 -47.5t-33.5 -90q0 -65 34 -98t103 -47t204 -23q164 -11 242 -24.5t119.5 -50t41.5 -113.5q0 -112 -96.5 -157t-286.5 -45q-149 0 -240.5 23.5t-137 79.5t-45.5 154h32zM316 907l167 -80l167 80v-30l-167 -80l-167 80v30z" />
    <glyph glyph-name="scaron" unicode="&#x161;" horiz-adv-x="903" 
d="M122 177q16 -94 105.5 -130.5t260.5 -36.5q108 0 171.5 13.5t92.5 43.5t29 81q0 56 -26 81t-81.5 34.5t-189.5 18.5l-34 3q-130 9 -200 25t-101.5 47t-31.5 87q0 89 82.5 122.5t245.5 33.5q105 0 175 -14.5t113 -52t56 -105.5h-32q-16 82 -95.5 112t-216.5 30
q-154 0 -225 -28t-71 -98q0 -47 29.5 -70.5t93 -35t198.5 -23.5l40 -3q123 -11 180.5 -22.5t90 -42.5t32.5 -94q0 -92 -77 -132.5t-248 -40.5q-178 0 -279.5 41.5t-118.5 155.5h32zM283 787l167 -80l167 80v-30l-167 -80l-167 80v30z" />
    <glyph glyph-name="uni0162" unicode="&#x162;" horiz-adv-x="960" 
d="M870 700v-30h-374v-670h-32v670h-374v30h780zM633.5 -76.5q26.5 -19.5 26.5 -61.5q0 -51 -45 -75t-120 -24q-34 0 -87 7v30q58 -9 93 -9q58 0 92.5 17.5t34.5 53.5q0 26 -20 40t-50 14q-37 0 -78 -19l-36 5l20 98h32l-17 -75q40 18 87 18q41 0 67.5 -19.5z" />
    <glyph glyph-name="uni0163" unicode="&#x163;" horiz-adv-x="716" 
d="M626 550h-329v-360q0 -79 21 -118t60 -50.5t110 -11.5q30 0 57.5 3t80.5 12v-30q-85 -15 -138 -15q-44 0 -72 4l-16 -69q40 18 87 18q41 0 67.5 -19.5t26.5 -61.5q0 -51 -45 -75t-120 -24q-34 0 -87 7v30q58 -9 93 -9q58 0 92.5 17.5t34.5 53.5q0 26 -20 40t-50 14
q-37 0 -78 -19l-36 5l20 97q-62 14 -91 59.5t-29 141.5v360h-185v30h185v159l32 21v-180h329v-30z" />
    <glyph glyph-name="Tcaron" unicode="&#x164;" horiz-adv-x="960" 
d="M870 700v-30h-374v-670h-32v670h-374v30h780zM313 907l167 -80l167 80v-30l-167 -80l-167 80v30z" />
    <glyph glyph-name="tcaron" unicode="&#x165;" horiz-adv-x="716" 
d="M626 550h-329v-360q0 -79 21 -118t60 -50.5t110 -11.5q30 0 57.5 3t80.5 12v-30q-85 -15 -138 -15q-80 0 -127 15.5t-71.5 61t-24.5 133.5v360h-185v30h185v159l32 21v-180h329v-30zM429 732v48h54v-48l-41 -96h-20l29 96h-22z" />
    <glyph glyph-name="Tbar" unicode="&#x166;" horiz-adv-x="960" 
d="M870 700v-30h-374v-293h234v-30h-234v-347h-32v347h-234v30h234v293h-374v30h780z" />
    <glyph glyph-name="tbar" unicode="&#x167;" horiz-adv-x="716" 
d="M626 550h-329v-205h329v-30h-329v-125q0 -79 21 -118t60 -50.5t110 -11.5q30 0 57.5 3t80.5 12v-30q-85 -15 -138 -15q-80 0 -127 15.5t-71.5 61t-24.5 133.5v125h-185v30h185v205h-185v30h185v159l32 21v-180h329v-30z" />
    <glyph glyph-name="Umacron" unicode="&#x16a;" horiz-adv-x="980" 
d="M880 341q0 -361 -390 -361t-390 361v359h32v-359q0 -148 78.5 -239.5t279.5 -91.5t279.5 91.5t78.5 239.5v359h32v-359zM295 835v30h389v-30h-389z" />
    <glyph glyph-name="umacron" unicode="&#x16b;" horiz-adv-x="892" 
d="M760 580h32v-580h-32v179q-43 -94 -135.5 -146.5t-211.5 -52.5q-105 0 -172.5 30t-103.5 101t-37 192v277h32v-277q0 -109 31 -173t92 -92t158 -28q96 0 175.5 38.5t125.5 108.5t46 160v263zM274 715v30h389v-30h-389z" />
    <glyph glyph-name="Uring" unicode="&#x16e;" horiz-adv-x="980" 
d="M880 341q0 -361 -390 -361t-390 361v359h32v-359q0 -148 78.5 -239.5t279.5 -91.5t279.5 91.5t78.5 239.5v359h32v-359zM355.5 797.5q-43.5 27.5 -43.5 74.5t43.5 74.5t134.5 27.5t134.5 -27.5t43.5 -74.5t-43.5 -74.5t-134.5 -27.5t-134.5 27.5zM603.5 818
q34.5 18 34.5 54t-34.5 54t-113.5 18t-113.5 -18t-34.5 -54t34.5 -54t113.5 -18t113.5 18z" />
    <glyph glyph-name="uring" unicode="&#x16f;" horiz-adv-x="892" 
d="M760 580h32v-580h-32v179q-43 -94 -135.5 -146.5t-211.5 -52.5q-105 0 -172.5 30t-103.5 101t-37 192v277h32v-277q0 -109 31 -173t92 -92t158 -28q96 0 175.5 38.5t125.5 108.5t46 160v263zM334.5 677.5q-43.5 27.5 -43.5 74.5t43.5 74.5t134.5 27.5t134.5 -27.5
t43.5 -74.5t-43.5 -74.5t-134.5 -27.5t-134.5 27.5zM582.5 698q34.5 18 34.5 54t-34.5 54t-113.5 18t-113.5 -18t-34.5 -54t34.5 -54t113.5 -18t113.5 18z" />
    <glyph glyph-name="Uhungarumlaut" unicode="&#x170;" horiz-adv-x="980" 
d="M880 341q0 -361 -390 -361t-390 361v359h32v-359q0 -148 78.5 -239.5t279.5 -91.5t279.5 91.5t78.5 239.5v359h32v-359zM303 805v30l187 80v-30zM530 805v30l187 80v-30z" />
    <glyph glyph-name="uhungarumlaut" unicode="&#x171;" horiz-adv-x="892" 
d="M760 580h32v-580h-32v179q-43 -94 -135.5 -146.5t-211.5 -52.5q-105 0 -172.5 30t-103.5 101t-37 192v277h32v-277q0 -109 31 -173t92 -92t158 -28q96 0 175.5 38.5t125.5 108.5t46 160v263zM282 685v30l187 80v-30zM509 685v30l187 80v-30z" />
    <glyph glyph-name="Uogonek" unicode="&#x172;" horiz-adv-x="1000" 
d="M848 700h32v-359q0 -276 -228 -341h-1q-4 -2 -7 -2q-146 -41 -146 -116q0 -40 32.5 -61t119.5 -21v-30q-95 0 -139.5 25.5t-44.5 80.5q0 31 22.5 59.5t76.5 48.5q-31 -4 -75 -4q-390 0 -390 361v359h32v-359q0 -148 78.5 -239.5t279.5 -91.5t279.5 91.5t78.5 239.5v359z
" />
    <glyph glyph-name="uogonek" unicode="&#x173;" horiz-adv-x="892" 
d="M760 580h32v-580q-43 -10 -85 -39t-42 -79q0 -37 34 -59.5t93 -22.5v-30q-67 0 -113 27t-46 79q0 77 127 124v179q-43 -94 -135.5 -146.5t-211.5 -52.5q-105 0 -172.5 30t-103.5 101t-37 192v277h32v-277q0 -109 31 -173t92 -92t158 -28q96 0 175.5 38.5t125.5 108.5
t46 160v263z" />
    <glyph glyph-name="Wcircumflex" unicode="&#x174;" horiz-adv-x="1547" 
d="M1131 36l291 664h35l-308 -700h-36l-340 670l-340 -670h-36l-307 700h35l290 -664l338 664h40zM606 825l167 80l167 -80v-30l-167 80l-167 -80v30z" />
    <glyph glyph-name="wcircumflex" unicode="&#x175;" horiz-adv-x="1395" 
d="M1004 34l267 546h34l-283 -580h-35v1l-289 546l-291 -547h-35l-282 580h34l266 -546l289 546h37zM530 705l167 80l167 -80v-30l-167 80l-167 -80v30z" />
    <glyph glyph-name="Ycircumflex" unicode="&#x176;" horiz-adv-x="1037" 
d="M518 268l387 432h42l-413 -462v-238h-32v238l-412 462h42zM351 825l167 80l167 -80v-30l-167 80l-167 -80v30z" />
    <glyph glyph-name="ycircumflex" unicode="&#x177;" horiz-adv-x="894" 
d="M768 580h36l-350 -621l-21 -38q-38 -69 -62.5 -104t-58 -56t-82.5 -21q-27 0 -54 3.5t-74 11.5v30l25 -4q29 -5 53.5 -8t49.5 -3q41 0 68.5 17t47.5 46.5t52 88.5l21 37l23 41h-20l-332 580h36l324 -566zM290 705l167 80l167 -80v-30l-167 80l-167 -80v30z" />
    <glyph glyph-name="Ydieresis" unicode="&#x178;" horiz-adv-x="1037" 
d="M518 268l387 432h42l-413 -462v-238h-32v238l-412 462h42zM386 816v48h54v-48h-54zM596 816v48h54v-48h-54z" />
    <glyph glyph-name="Zacute" unicode="&#x179;" horiz-adv-x="910" 
d="M100 700h710v-30l-665 -640h665v-30h-710v30l665 640h-665v30zM280 805v30l349 80v-30z" />
    <glyph glyph-name="zacute" unicode="&#x17a;" horiz-adv-x="814" 
d="M100 580h614v-30l-567 -520h567v-30h-614v30l567 520h-567v30zM232 685v30l349 80v-30z" />
    <glyph glyph-name="Zdotaccent" unicode="&#x17b;" horiz-adv-x="910" 
d="M100 700h710v-30l-665 -640h665v-30h-710v30l665 640h-665v30zM428 816v48h54v-48h-54z" />
    <glyph glyph-name="zdotaccent" unicode="&#x17c;" horiz-adv-x="814" 
d="M100 580h614v-30l-567 -520h567v-30h-614v30l567 520h-567v30zM380 696v48h54v-48h-54z" />
    <glyph glyph-name="Zcaron" unicode="&#x17d;" horiz-adv-x="910" 
d="M100 700h710v-30l-665 -640h665v-30h-710v30l665 640h-665v30zM288 907l167 -80l167 80v-30l-167 -80l-167 80v30z" />
    <glyph glyph-name="zcaron" unicode="&#x17e;" horiz-adv-x="814" 
d="M100 580h614v-30l-567 -520h567v-30h-614v30l567 520h-567v30zM240 787l167 -80l167 80v-30l-167 -80l-167 80v30z" />
    <glyph glyph-name="uni0218" unicode="&#x218;" horiz-adv-x="966" 
d="M112 237q0 -86 42.5 -135.5t129.5 -70.5t229 -21q170 0 255.5 38.5t85.5 133.5q0 64 -34.5 94.5t-108 42.5t-228.5 21q-150 9 -229.5 29t-111.5 59.5t-32 109.5q0 68 39.5 107.5t119.5 57t209 17.5q194 0 286 -59.5t92 -185.5h-32q0 120 -90.5 167.5t-275.5 47.5
q-111 0 -180 -14.5t-102.5 -47.5t-33.5 -90q0 -65 34 -98t103 -47t204 -23q164 -11 242 -24.5t119.5 -50t41.5 -113.5q0 -112 -96.5 -157t-286.5 -45q-149 0 -240.5 23.5t-137 79.5t-45.5 154h32zM459 -144v48h54v-48l-41 -96h-20l29 96h-22z" />
    <glyph glyph-name="uni0219" unicode="&#x219;" horiz-adv-x="903" 
d="M122 177q16 -94 105.5 -130.5t260.5 -36.5q108 0 171.5 13.5t92.5 43.5t29 81q0 56 -26 81t-81.5 34.5t-189.5 18.5l-34 3q-130 9 -200 25t-101.5 47t-31.5 87q0 89 82.5 122.5t245.5 33.5q105 0 175 -14.5t113 -52t56 -105.5h-32q-16 82 -95.5 112t-216.5 30
q-154 0 -225 -28t-71 -98q0 -47 29.5 -70.5t93 -35t198.5 -23.5l40 -3q123 -11 180.5 -22.5t90 -42.5t32.5 -94q0 -92 -77 -132.5t-248 -40.5q-178 0 -279.5 41.5t-118.5 155.5h32zM426 -144v48h54v-48l-41 -96h-20l29 96h-22z" />
    <glyph glyph-name="uni021A" unicode="&#x21a;" horiz-adv-x="960" 
d="M870 700v-30h-374v-670h-32v670h-374v30h780zM456 -134v48h54v-48l-41 -96h-20l29 96h-22z" />
    <glyph glyph-name="uni021B" unicode="&#x21b;" horiz-adv-x="716" 
d="M626 550h-329v-360q0 -79 21 -118t60 -50.5t110 -11.5q30 0 57.5 3t80.5 12v-30q-85 -15 -138 -15q-80 0 -127 15.5t-71.5 61t-24.5 133.5v360h-185v30h185v159l32 21v-180h329v-30zM410 -134v48h54v-48l-41 -96h-20l29 96h-22z" />
    <glyph glyph-name="circumflex" unicode="&#x2c6;" horiz-adv-x="534" 
d="M100 705l167 80l167 -80v-30l-167 80l-167 -80v30z" />
    <glyph glyph-name="caron" unicode="&#x2c7;" horiz-adv-x="534" 
d="M100 787l167 -80l167 80v-30l-167 -80l-167 80v30z" />
    <glyph glyph-name="breve" unicode="&#x2d8;" horiz-adv-x="586" 
d="M132 830q0 -70 41 -95t120 -25t120 25t41 95h32q0 -80 -48.5 -115t-144.5 -35t-144.5 35t-48.5 115h32z" />
    <glyph glyph-name="dotaccent" unicode="&#x2d9;" horiz-adv-x="254" 
d="M100 696v48h54v-48h-54z" />
    <glyph glyph-name="ring" unicode="&#x2da;" horiz-adv-x="556" 
d="M143.5 677.5q-43.5 27.5 -43.5 74.5t43.5 74.5t134.5 27.5t134.5 -27.5t43.5 -74.5t-43.5 -74.5t-134.5 -27.5t-134.5 27.5zM391.5 698q34.5 18 34.5 54t-34.5 54t-113.5 18t-113.5 -18t-34.5 -54t34.5 -54t113.5 -18t113.5 18z" />
    <glyph glyph-name="ogonek" unicode="&#x2db;" horiz-adv-x="384" 
d="M284 -230q-95 0 -139.5 25.5t-44.5 80.5q0 32 22 61.5t70 62.5h24q-5 -4 -30 -23.5t-39.5 -44t-14.5 -50.5q0 -40 32.5 -61t119.5 -21v-30z" />
    <glyph glyph-name="tilde" unicode="&#x2dc;" horiz-adv-x="692" 
d="M100 670q0 45 28 87.5t98 42.5q42 0 70 -15t59 -43q30 -26 53 -39t58 -13q48 0 71 26.5t23 73.5h32q0 -45 -28 -87.5t-98 -42.5q-42 0 -70 15t-59 43q-30 26 -53 39t-58 13q-48 0 -71 -26.5t-23 -73.5h-32z" />
    <glyph glyph-name="hungarumlaut" unicode="&#x2dd;" horiz-adv-x="614" 
d="M100 685v30l187 80v-30zM327 685v30l187 80v-30z" />
    <glyph glyph-name="gravecomb" unicode="&#x300;" horiz-adv-x="0" 
d="M-469 795l349 -80v-30l-349 80v30z" />
    <glyph glyph-name="acutecomb" unicode="&#x301;" horiz-adv-x="0" 
d="M-449 685v30l349 80v-30z" />
    <glyph glyph-name="uni0302" unicode="&#x302;" horiz-adv-x="0" 
d="M-434 705l167 80l167 -80v-30l-167 80l-167 -80v30z" />
    <glyph glyph-name="tildecomb" unicode="&#x303;" horiz-adv-x="0" 
d="M-592 670q0 45 28 87.5t98 42.5q42 0 70 -15t59 -43q30 -26 53 -39t58 -13q48 0 71 26.5t23 73.5h32q0 -45 -28 -87.5t-98 -42.5q-42 0 -70 15t-59 43q-30 26 -53 39t-58 13q-48 0 -71 -26.5t-23 -73.5h-32z" />
    <glyph glyph-name="uni0304" unicode="&#x304;" horiz-adv-x="0" 
d="M-489 715v30h389v-30h-389z" />
    <glyph glyph-name="uni0306" unicode="&#x306;" horiz-adv-x="0" 
d="M-454 830q0 -70 41 -95t120 -25t120 25t41 95h32q0 -80 -48.5 -115t-144.5 -35t-144.5 35t-48.5 115h32z" />
    <glyph glyph-name="uni0307" unicode="&#x307;" horiz-adv-x="0" 
d="M-154 696v48h54v-48h-54z" />
    <glyph glyph-name="uni0308" unicode="&#x308;" horiz-adv-x="0" 
d="M-364 696v48h54v-48h-54zM-154 696v48h54v-48h-54z" />
    <glyph glyph-name="uni030A" unicode="&#x30a;" horiz-adv-x="0" 
d="M-412.5 677.5q-43.5 27.5 -43.5 74.5t43.5 74.5t134.5 27.5t134.5 -27.5t43.5 -74.5t-43.5 -74.5t-134.5 -27.5t-134.5 27.5zM-164.5 698q34.5 18 34.5 54t-34.5 54t-113.5 18t-113.5 -18t-34.5 -54t34.5 -54t113.5 -18t113.5 18z" />
    <glyph glyph-name="uni030B" unicode="&#x30b;" horiz-adv-x="0" 
d="M-514 685v30l187 80v-30zM-287 685v30l187 80v-30z" />
    <glyph glyph-name="uni030C" unicode="&#x30c;" horiz-adv-x="0" 
d="M-434 787l167 -80l167 80v-30l-167 -80l-167 80v30z" />
    <glyph glyph-name="uni0312" unicode="&#x312;" horiz-adv-x="0" 
d="M-107 764v-48h-54v48l41 96h20l-29 -96h22z" />
    <glyph glyph-name="uni0326" unicode="&#x326;" horiz-adv-x="0" 
d="M-154 -134v48h54v-48l-41 -96h-20l29 96h-22z" />
    <glyph glyph-name="uni0327" unicode="&#x327;" horiz-adv-x="0" 
d="M-126.5 -76.5q26.5 -19.5 26.5 -61.5q0 -51 -45 -75t-120 -24q-34 0 -87 7v30q58 -9 93 -9q58 0 92.5 17.5t34.5 53.5q0 26 -20 40t-50 14q-37 0 -78 -19l-36 5l20 98h32l-17 -75q40 18 87 18q41 0 67.5 -19.5z" />
    <glyph glyph-name="uni0328" unicode="&#x328;" horiz-adv-x="0" 
d="M-100 -230q-95 0 -139.5 25.5t-44.5 80.5q0 32 22 61.5t70 62.5h24q-5 -4 -30 -23.5t-39.5 -44t-14.5 -50.5q0 -40 32.5 -61t119.5 -21v-30z" />
    <glyph glyph-name="uni0335" unicode="&#x335;" horiz-adv-x="0" 
d="M-500 325v30h400v-30h-400z" />
    <glyph glyph-name="uni0336" unicode="&#x336;" horiz-adv-x="0" 
d="M-1020 325v30h920v-30h-920z" />
    <glyph glyph-name="uni0337" unicode="&#x337;" horiz-adv-x="0" 
d="M-132 720h32l-260 -870h-32z" />
    <glyph glyph-name="uni0338" unicode="&#x338;" horiz-adv-x="0" 
d="M-132 770h32l-260 -870h-32z" />
    <glyph glyph-name="Wgrave" unicode="&#x1e80;" horiz-adv-x="1547" 
d="M1131 36l291 664h35l-308 -700h-36l-340 670l-340 -670h-36l-307 700h35l290 -664l338 664h40zM598 915l349 -80v-30l-349 80v30z" />
    <glyph glyph-name="wgrave" unicode="&#x1e81;" horiz-adv-x="1395" 
d="M1004 34l267 546h34l-283 -580h-35v1l-289 546l-291 -547h-35l-282 580h34l266 -546l289 546h37zM522 795l349 -80v-30l-349 80v30z" />
    <glyph glyph-name="Wacute" unicode="&#x1e82;" horiz-adv-x="1547" 
d="M1131 36l291 664h35l-308 -700h-36l-340 670l-340 -670h-36l-307 700h35l290 -664l338 664h40zM598 805v30l349 80v-30z" />
    <glyph glyph-name="wacute" unicode="&#x1e83;" horiz-adv-x="1395" 
d="M1004 34l267 546h34l-283 -580h-35v1l-289 546l-291 -547h-35l-282 580h34l266 -546l289 546h37zM522 685v30l349 80v-30z" />
    <glyph glyph-name="Wdieresis" unicode="&#x1e84;" horiz-adv-x="1547" 
d="M1131 36l291 664h35l-308 -700h-36l-340 670l-340 -670h-36l-307 700h35l290 -664l338 664h40zM641 816v48h54v-48h-54zM851 816v48h54v-48h-54z" />
    <glyph glyph-name="wdieresis" unicode="&#x1e85;" horiz-adv-x="1395" 
d="M1004 34l267 546h34l-283 -580h-35v1l-289 546l-291 -547h-35l-282 580h34l266 -546l289 546h37zM565 696v48h54v-48h-54zM775 696v48h54v-48h-54z" />
    <glyph glyph-name="Ygrave" unicode="&#x1ef2;" horiz-adv-x="1037" 
d="M518 268l387 432h42l-413 -462v-238h-32v238l-412 462h42zM343 915l349 -80v-30l-349 80v30z" />
    <glyph glyph-name="ygrave" unicode="&#x1ef3;" horiz-adv-x="894" 
d="M768 580h36l-350 -621l-21 -38q-38 -69 -62.5 -104t-58 -56t-82.5 -21q-27 0 -54 3.5t-74 11.5v30l25 -4q29 -5 53.5 -8t49.5 -3q41 0 68.5 17t47.5 46.5t52 88.5l21 37l23 41h-20l-332 580h36l324 -566zM282 795l349 -80v-30l-349 80v30z" />
    <glyph glyph-name="endash" unicode="&#x2013;" horiz-adv-x="1160" 
d="M120 325v30h920v-30h-920z" />
    <glyph glyph-name="emdash" unicode="&#x2014;" horiz-adv-x="1360" 
d="M120 325v30h1120v-30h-1120z" />
    <glyph glyph-name="quoteleft" unicode="&#x2018;" horiz-adv-x="295" 
d="M140 440h-30l50 320h25z" />
    <glyph glyph-name="quoteright" unicode="&#x2019;" horiz-adv-x="295" 
d="M155 760h30l-50 -320h-25z" />
    <glyph glyph-name="quotesinglbase" unicode="&#x201a;" horiz-adv-x="254" 
d="M90 0v48h54v-48l-34 -140h-20l24 140h-24z" />
    <glyph glyph-name="quotedblleft" unicode="&#x201c;" horiz-adv-x="455" 
d="M140 440h-30l50 320h25zM300 440h-30l50 320h25z" />
    <glyph glyph-name="quotedblright" unicode="&#x201d;" horiz-adv-x="455" 
d="M155 760h30l-50 -320h-25zM315 760h30l-50 -320h-25z" />
    <glyph glyph-name="quotedblbase" unicode="&#x201e;" horiz-adv-x="374" 
d="M210 0v48h54v-48l-34 -140h-20l24 140h-24zM90 0v48h54v-48l-34 -140h-20l24 140h-24z" />
    <glyph glyph-name="dagger" unicode="&#x2020;" horiz-adv-x="840" 
d="M437 580h303v-30h-303v-700h-32v700h-305v30h305v140h32v-140z" />
    <glyph glyph-name="daggerdbl" unicode="&#x2021;" horiz-adv-x="840" 
d="M740 580v-30h-303v-340h303v-30h-303v-330h-32v330h-305v30h305v340h-305v30h305v140h32v-140h303z" />
    <glyph glyph-name="bullet" unicode="&#x2022;" horiz-adv-x="337" 
d="M117 277q-17 12 -17 37t17 36.5t52 11.5t51.5 -11.5t16.5 -36.5t-16.5 -37t-51.5 -12t-52 12z" />
    <glyph glyph-name="ellipsis" unicode="&#x2026;" horiz-adv-x="654" 
d="M90 0v48h54v-48h-54zM290 0v48h54v-48h-54zM490 0v48h54v-48h-54z" />
    <glyph glyph-name="perthousand" unicode="&#x2030;" horiz-adv-x="1796" 
d="M195.5 339.5q-50.5 30.5 -73 77.5t-22.5 98t22.5 97.5t73 77t129.5 30.5t130 -30.5t73.5 -77t22.5 -97.5t-22.5 -98t-73.5 -77.5t-130 -30.5t-129.5 30.5zM914 700h40l-603 -700h-40zM422.5 359q44.5 20 71.5 60t27 96q0 57 -27 96.5t-71.5 59t-97.5 19.5
q-52 0 -96.5 -19.5t-71.5 -59t-27 -96.5q0 -56 27 -96t71.5 -60t96.5 -20q53 0 97.5 20zM809.5 10.5q-50.5 30.5 -73 77.5t-22.5 98t22.5 97.5t73 77t129.5 30.5t130 -30.5t73.5 -77t22.5 -97.5t-22.5 -98t-73.5 -77.5t-130 -30.5t-129.5 30.5zM1340.5 10.5
q-50.5 30.5 -73 77.5t-22.5 98t22.5 97.5t73 77t129.5 30.5t130 -30.5t73.5 -77t22.5 -97.5t-22.5 -98t-73.5 -77.5t-130 -30.5t-129.5 30.5zM1036.5 30q44.5 20 71.5 60t27 96q0 57 -27 96.5t-71.5 59t-97.5 19.5q-52 0 -96.5 -19.5t-71.5 -59t-27 -96.5q0 -56 27 -96
t71.5 -60t96.5 -20q53 0 97.5 20zM1567.5 30q44.5 20 71.5 60t27 96q0 57 -27 96.5t-71.5 59t-97.5 19.5q-52 0 -96.5 -19.5t-71.5 -59t-27 -96.5q0 -56 27 -96t71.5 -60t96.5 -20q53 0 97.5 20z" />
    <glyph glyph-name="guilsinglleft" unicode="&#x2039;" horiz-adv-x="504" 
d="M100 290l260 290h44l-260 -290l260 -290h-44z" />
    <glyph glyph-name="guilsinglright" unicode="&#x203a;" horiz-adv-x="504" 
d="M100 580h44l260 -290l-260 -290h-44l260 290z" />
    <glyph glyph-name="fraction" unicode="&#x2044;" horiz-adv-x="492" 
d="M360 720h32l-260 -870h-32z" />
    <glyph glyph-name="Euro" unicode="&#x20ac;" horiz-adv-x="860" 
d="M312.5 625.5q-72.5 -64.5 -90.5 -189.5h422v-30h-426q-2 -36 -2 -55q0 -21 2 -55h426v-30h-423q18 -130 90 -193t192 -63q57 0 117 9t140 31v-30q-80 -22 -140 -31t-117 -9q-141 0 -218.5 74.5t-95.5 211.5h-89v30h86q-2 36 -2 55t2 55h-86v30h90q18 132 96.5 208
t216.5 76q57 0 117 -9t140 -31v-30q-80 22 -140 31t-117 9q-118 0 -190.5 -64.5z" />
    <glyph glyph-name="trademark" unicode="&#x2122;" horiz-adv-x="1092" 
d="M232 670h-172v30h377v-30h-173v-311h-32v311zM544 359h-32v341h37l203 -315l203 315h37v-341h-32v292l-187 -292h-42l-187 292v-292z" />
    <glyph glyph-name="arrowleft" unicode="&#x2190;" horiz-adv-x="820" 
d="M720 366v-32h-564l230 -248l-22 -23l-264 288l264 286l22 -23l-230 -248h564z" />
    <glyph glyph-name="arrowup" unicode="&#x2191;" horiz-adv-x="774" 
d="M403 594v-564h-32v564l-248 -230l-23 22l286 264l288 -264l-23 -22z" />
    <glyph glyph-name="arrowright" unicode="&#x2192;" horiz-adv-x="820" 
d="M664 334h-564v32h564l-230 248l22 23l264 -286l-264 -288l-22 23z" />
    <glyph glyph-name="arrowdown" unicode="&#x2193;" horiz-adv-x="774" 
d="M371 690h32v-564l248 230l23 -22l-288 -264l-286 264l23 22l248 -230v564z" />
    <glyph glyph-name="arrowboth" unicode="&#x2194;" horiz-adv-x="1267" 
d="M881 614l22 23l264 -286l-264 -288l-22 23l230 248h-955l230 -248l-22 -23l-264 288l264 286l22 -23l-230 -248h955z" />
    <glyph glyph-name="arrowupdn" unicode="&#x2195;" horiz-adv-x="774" 
d="M403 -47l248 230l23 -22l-288 -264l-286 264l23 22l248 -230v741l-248 -230l-23 22l286 264l288 -264l-23 -22l-248 230v-741z" />
    <glyph glyph-name="uni2196" unicode="&#x2196;" horiz-adv-x="666" 
d="M566 129l-23 -23l-398 399l-13 -338l-32 -1l17 390l389 16l-1 -32l-338 -13z" />
    <glyph glyph-name="uni2197" unicode="&#x2197;" horiz-adv-x="666" 
d="M521 505l-398 -399l-23 23l399 398l-338 13l-1 32l389 -16l17 -390l-32 1z" />
    <glyph glyph-name="uni2198" unicode="&#x2198;" horiz-adv-x="666" 
d="M100 571l23 23l398 -399l13 338l32 1l-17 -390l-389 -16l1 32l338 13z" />
    <glyph glyph-name="uni2199" unicode="&#x2199;" horiz-adv-x="666" 
d="M145 195l398 399l23 -23l-399 -398l338 -13l1 -32l-389 16l-17 390l32 -1z" />
    <glyph glyph-name="emptyset" unicode="&#x2205;" horiz-adv-x="1142" 
d="M908 664q60 -55 90.5 -134.5t30.5 -178.5q0 -130 -52.5 -226t-155 -148t-249.5 -52q-193 0 -312 91l-137 -137l-23 23l135 135q-60 55 -90.5 135t-30.5 179q0 130 52.5 225.5t155.5 147t250 51.5q195 0 311 -90l136 136l23 -23zM173 185q29 -74 85 -125l603 603
q-111 82 -289 82q-134 0 -230 -47t-147 -135.5t-51 -211.5q0 -92 29 -166zM801 2.5q96 47.5 147 136.5t51 212q0 92 -29 166t-84 125l-603 -603q110 -84 289 -84q133 0 229 47.5z" />
    <glyph glyph-name="product" unicode="&#x220f;" horiz-adv-x="1303" 
d="M1203 800v-30h-264v-920h-32v920h-511v-920h-32v920h-264v30h1103z" />
    <glyph glyph-name="minus" unicode="&#x2212;" horiz-adv-x="920" 
d="M100 325v30h720v-30h-720z" />
    <glyph glyph-name="integral" unicode="&#x222b;" horiz-adv-x="993" 
d="M100 -120q130 0 199 25.5t105 92t55 200.5l36 254q22 157 76 232t127.5 95.5t194.5 20.5v-30q-122 0 -193 -26t-112.5 -94t-59.5 -198l-36 -254q-24 -166 -76 -240.5t-120 -91t-196 -16.5v30z" />
    <glyph glyph-name="approxequal" unicode="&#x2248;" horiz-adv-x="912" 
d="M100 350q0 95 33.5 167.5t142.5 72.5q44 0 78.5 -15t59.5 -37.5t57 -58.5q30 -33 51.5 -52.5t50 -33t63.5 -13.5q82 0 113 54.5t31 155.5h32q0 -95 -33.5 -167.5t-142.5 -72.5q-44 0 -78.5 15t-59.5 37.5t-57 58.5q-30 33 -51.5 52.5t-50 33t-63.5 13.5q-82 0 -113 -54.5
t-31 -155.5h-32zM100 50q0 95 33.5 167.5t142.5 72.5q44 0 78.5 -15t59.5 -37.5t57 -58.5q30 -33 51.5 -52.5t50 -33t63.5 -13.5q82 0 113 54.5t31 155.5h32q0 -95 -33.5 -167.5t-142.5 -72.5q-44 0 -78.5 15t-59.5 37.5t-57 58.5q-30 33 -51.5 52.5t-50 33t-63.5 13.5
q-82 0 -113 -54.5t-31 -155.5h-32z" />
    <glyph glyph-name="notequal" unicode="&#x2260;" horiz-adv-x="920" 
d="M820 515v-30h-281l-86 -290h367v-30h-376l-78 -260h-32l78 260h-312v30h321l86 290h-407v30h416l78 260h32l-78 -260h272z" />
    <glyph glyph-name="lessequal" unicode="&#x2264;" horiz-adv-x="920" 
d="M158 482l642 -187v-32l-700 202v34l700 203v-32zM100 70v30h720v-30h-720z" />
    <glyph glyph-name="greaterequal" unicode="&#x2265;" horiz-adv-x="920" 
d="M100 70v30h720v-30h-720zM120 670v32l700 -203v-34l-700 -202v32l642 187z" />
    <glyph glyph-name="lozenge" unicode="&#x25ca;" horiz-adv-x="860" 
d="M411 800h40l309 -450l-309 -450h-40l-311 450zM140 350l291 -421l289 421l-289 421z" />
    <glyph glyph-name="A.ss01" horiz-adv-x="1210" 
d="M1120 0h-36l-120 201h-718l-120 -201h-36l416 700h198zM526 670l-262 -439h682l-262 439h-158z" />
    <glyph glyph-name="Aacute.ss01" horiz-adv-x="1210" 
d="M1120 0h-36l-120 201h-718l-120 -201h-36l416 700h198zM526 670l-262 -439h682l-262 439h-158zM430 805v30l349 80v-30z" />
    <glyph glyph-name="Abreve.ss01" horiz-adv-x="1210" 
d="M1120 0h-36l-120 201h-718l-120 -201h-36l416 700h198zM526 670l-262 -439h682l-262 439h-158zM444 950q0 -70 41 -95t120 -25t120 25t41 95h32q0 -80 -48.5 -115t-144.5 -35t-144.5 35t-48.5 115h32z" />
    <glyph glyph-name="Acircumflex.ss01" horiz-adv-x="1210" 
d="M1120 0h-36l-120 201h-718l-120 -201h-36l416 700h198zM526 670l-262 -439h682l-262 439h-158zM438 825l167 80l167 -80v-30l-167 80l-167 -80v30z" />
    <glyph glyph-name="Adieresis.ss01" horiz-adv-x="1210" 
d="M1120 0h-36l-120 201h-718l-120 -201h-36l416 700h198zM526 670l-262 -439h682l-262 439h-158zM473 816v48h54v-48h-54zM683 816v48h54v-48h-54z" />
    <glyph glyph-name="Agrave.ss01" horiz-adv-x="1210" 
d="M1120 0h-36l-120 201h-718l-120 -201h-36l416 700h198zM526 670l-262 -439h682l-262 439h-158zM430 915l349 -80v-30l-349 80v30z" />
    <glyph glyph-name="Amacron.ss01" horiz-adv-x="1210" 
d="M1120 0h-36l-120 201h-718l-120 -201h-36l416 700h198zM526 670l-262 -439h682l-262 439h-158zM410 835v30h389v-30h-389z" />
    <glyph glyph-name="Aogonek.ss01" horiz-adv-x="1210" 
d="M1120 0h-36l-120 201h-718l-120 -201h-36l416 700h198zM526 670l-262 -439h682l-262 439h-158zM1181 -230q-95 0 -139.5 25.5t-44.5 80.5q0 32 22 61.5t70 62.5h24q-5 -4 -30 -23.5t-39.5 -44t-14.5 -50.5q0 -40 32.5 -61t119.5 -21v-30z" />
    <glyph glyph-name="Aring.ss01" horiz-adv-x="1210" 
d="M1120 0h-36l-120 201h-718l-120 -201h-36l416 700h198zM526 670l-262 -439h682l-262 439h-158zM470.5 797.5q-43.5 27.5 -43.5 74.5t43.5 74.5t134.5 27.5t134.5 -27.5t43.5 -74.5t-43.5 -74.5t-134.5 -27.5t-134.5 27.5zM718.5 818q34.5 18 34.5 54t-34.5 54t-113.5 18
t-113.5 -18t-34.5 -54t34.5 -54t113.5 -18t113.5 18z" />
    <glyph glyph-name="Atilde.ss01" horiz-adv-x="1210" 
d="M1120 0h-36l-120 201h-718l-120 -201h-36l416 700h198zM526 670l-262 -439h682l-262 439h-158zM359 790q0 45 28 87.5t98 42.5q42 0 70 -15t59 -43q30 -26 53 -39t58 -13q48 0 71 26.5t23 73.5h32q0 -45 -28 -87.5t-98 -42.5q-42 0 -70 15t-59 43q-30 26 -53 39t-58 13
q-48 0 -71 -26.5t-23 -73.5h-32z" />
    <glyph glyph-name="K.ss01" horiz-adv-x="936" 
d="M801 700h45l-376 -349l376 -351h-45l-360 336h-309v-336h-32v700h32v-334h309z" />
    <glyph glyph-name="uni0136.ss01" horiz-adv-x="936" 
d="M801 700h45l-376 -349l376 -351h-45l-360 336h-309v-336h-32v700h32v-334h309zM412 -134v48h54v-48l-41 -96h-20l29 96h-22z" />
    <glyph glyph-name="R.ss01" horiz-adv-x="918" 
d="M776 336q-52 -57 -156 -69l201 -267h-39l-199 264h-13h-438v-264h-32v700h470q129 0 193.5 -59.5t64.5 -158.5q0 -89 -52 -146zM132 294h438q113 0 169.5 49t56.5 139t-56.5 139t-169.5 49h-438v-376z" />
    <glyph glyph-name="Racute.ss01" horiz-adv-x="918" 
d="M776 336q-52 -57 -156 -69l201 -267h-39l-199 264h-13h-438v-264h-32v700h470q129 0 193.5 -59.5t64.5 -158.5q0 -89 -52 -146zM132 294h438q113 0 169.5 49t56.5 139t-56.5 139t-169.5 49h-438v-376zM254 805v30l349 80v-30z" />
    <glyph glyph-name="Rcaron.ss01" horiz-adv-x="918" 
d="M776 336q-52 -57 -156 -69l201 -267h-39l-199 264h-13h-438v-264h-32v700h470q129 0 193.5 -59.5t64.5 -158.5q0 -89 -52 -146zM132 294h438q113 0 169.5 49t56.5 139t-56.5 139t-169.5 49h-438v-376zM262 907l167 -80l167 80v-30l-167 -80l-167 80v30z" />
    <glyph glyph-name="uni0156.ss01" horiz-adv-x="918" 
d="M776 336q-52 -57 -156 -69l201 -267h-39l-199 264h-13h-438v-264h-32v700h470q129 0 193.5 -59.5t64.5 -158.5q0 -89 -52 -146zM132 294h438q113 0 169.5 49t56.5 139t-56.5 139t-169.5 49h-438v-376zM405 -134v48h54v-48l-41 -96h-20l29 96h-22z" />
    <glyph glyph-name="V.ss01" horiz-adv-x="1210" 
d="M1084 700h36l-416 -700h-198l-416 700h36l400 -670h158z" />
    <glyph glyph-name="W.ss01" horiz-adv-x="1717" 
d="M1298 30l295 670h34l-308 -700h-156l-300 667l-300 -667h-156l-317 700h34l304 -670h114l302 670h38l302 -670h114z" />
    <glyph glyph-name="Wacute.ss01" horiz-adv-x="1717" 
d="M1298 30l295 670h34l-308 -700h-156l-300 667l-300 -667h-156l-317 700h34l304 -670h114l302 670h38l302 -670h114zM688 805v30l349 80v-30z" />
    <glyph glyph-name="Wcircumflex.ss01" horiz-adv-x="1717" 
d="M1298 30l295 670h34l-308 -700h-156l-300 667l-300 -667h-156l-317 700h34l304 -670h114l302 670h38l302 -670h114zM696 825l167 80l167 -80v-30l-167 80l-167 -80v30z" />
    <glyph glyph-name="Wdieresis.ss01" horiz-adv-x="1717" 
d="M1298 30l295 670h34l-308 -700h-156l-300 667l-300 -667h-156l-317 700h34l304 -670h114l302 670h38l302 -670h114zM731 816v48h54v-48h-54zM941 816v48h54v-48h-54z" />
    <glyph glyph-name="Wgrave.ss01" horiz-adv-x="1717" 
d="M1298 30l295 670h34l-308 -700h-156l-300 667l-300 -667h-156l-317 700h34l304 -670h114l302 670h38l302 -670h114zM688 915l349 -80v-30l-349 80v30z" />
    <glyph glyph-name="i.loclTRK" 
d="M100 0v580h32v-580h-32zM89 696v48h54v-48h-54z" />
    <glyph glyph-name="a.001" horiz-adv-x="890" 
d="M724 542.5q75 -57.5 76 -177.5v-365h-32v81q-114 -49 -203.5 -75t-189.5 -26q-151 0 -218 51.5t-67 149.5q0 205 331 205q78 0 169.5 -17t177.5 -43v39q0 90 -45 135t-103 57.5t-124 12.5q-73 0 -153.5 -12.5t-196.5 -47.5l-11 29q188 61 361 61q153 0 228 -57.5z
M565.5 37.5q96.5 27.5 202.5 73.5v182q-89 28 -172 45.5t-175 17.5q-126 0 -212.5 -38.5t-86.5 -136.5q0 -89 62 -130t191 -41q94 0 190.5 27.5z" />
    <glyph glyph-name="a.ss01" horiz-adv-x="898" 
d="M766 580h32v-580h-32v165q-35 -88 -119.5 -136.5t-208.5 -48.5q-109 0 -187.5 37.5t-119.5 107t-41 165.5t41 165.5t119.5 107t187.5 37.5q124 0 208.5 -48.5t119.5 -136.5v165zM609 41.5q73 31.5 115 94.5t42 154t-42 154t-115 94.5t-166 31.5t-165.5 -31.5t-114 -94.5
t-41.5 -154t41.5 -154t114 -94.5t165.5 -31.5t166 31.5z" />
    <glyph glyph-name="aacute.ss01" horiz-adv-x="898" 
d="M766 580h32v-580h-32v165q-35 -88 -119.5 -136.5t-208.5 -48.5q-109 0 -187.5 37.5t-119.5 107t-41 165.5t41 165.5t119.5 107t187.5 37.5q124 0 208.5 -48.5t119.5 -136.5v165zM609 41.5q73 31.5 115 94.5t42 154t-42 154t-115 94.5t-166 31.5t-165.5 -31.5t-114 -94.5
t-41.5 -154t41.5 -154t114 -94.5t165.5 -31.5t166 31.5zM274 685v30l349 80v-30z" />
    <glyph glyph-name="abreve.ss01" horiz-adv-x="898" 
d="M766 580h32v-580h-32v165q-35 -88 -119.5 -136.5t-208.5 -48.5q-109 0 -187.5 37.5t-119.5 107t-41 165.5t41 165.5t119.5 107t187.5 37.5q124 0 208.5 -48.5t119.5 -136.5v165zM609 41.5q73 31.5 115 94.5t42 154t-42 154t-115 94.5t-166 31.5t-165.5 -31.5t-114 -94.5
t-41.5 -154t41.5 -154t114 -94.5t165.5 -31.5t166 31.5zM288 830q0 -70 41 -95t120 -25t120 25t41 95h32q0 -80 -48.5 -115t-144.5 -35t-144.5 35t-48.5 115h32z" />
    <glyph glyph-name="acircumflex.ss01" horiz-adv-x="898" 
d="M766 580h32v-580h-32v165q-35 -88 -119.5 -136.5t-208.5 -48.5q-109 0 -187.5 37.5t-119.5 107t-41 165.5t41 165.5t119.5 107t187.5 37.5q124 0 208.5 -48.5t119.5 -136.5v165zM609 41.5q73 31.5 115 94.5t42 154t-42 154t-115 94.5t-166 31.5t-165.5 -31.5t-114 -94.5
t-41.5 -154t41.5 -154t114 -94.5t165.5 -31.5t166 31.5zM282 705l167 80l167 -80v-30l-167 80l-167 -80v30z" />
    <glyph glyph-name="adieresis.ss01" horiz-adv-x="898" 
d="M766 580h32v-580h-32v165q-35 -88 -119.5 -136.5t-208.5 -48.5q-109 0 -187.5 37.5t-119.5 107t-41 165.5t41 165.5t119.5 107t187.5 37.5q124 0 208.5 -48.5t119.5 -136.5v165zM609 41.5q73 31.5 115 94.5t42 154t-42 154t-115 94.5t-166 31.5t-165.5 -31.5t-114 -94.5
t-41.5 -154t41.5 -154t114 -94.5t165.5 -31.5t166 31.5zM317 696v48h54v-48h-54zM527 696v48h54v-48h-54z" />
    <glyph glyph-name="agrave.ss01" horiz-adv-x="898" 
d="M766 580h32v-580h-32v165q-35 -88 -119.5 -136.5t-208.5 -48.5q-109 0 -187.5 37.5t-119.5 107t-41 165.5t41 165.5t119.5 107t187.5 37.5q124 0 208.5 -48.5t119.5 -136.5v165zM609 41.5q73 31.5 115 94.5t42 154t-42 154t-115 94.5t-166 31.5t-165.5 -31.5t-114 -94.5
t-41.5 -154t41.5 -154t114 -94.5t165.5 -31.5t166 31.5zM274 795l349 -80v-30l-349 80v30z" />
    <glyph glyph-name="amacron.ss01" horiz-adv-x="898" 
d="M766 580h32v-580h-32v165q-35 -88 -119.5 -136.5t-208.5 -48.5q-109 0 -187.5 37.5t-119.5 107t-41 165.5t41 165.5t119.5 107t187.5 37.5q124 0 208.5 -48.5t119.5 -136.5v165zM609 41.5q73 31.5 115 94.5t42 154t-42 154t-115 94.5t-166 31.5t-165.5 -31.5t-114 -94.5
t-41.5 -154t41.5 -154t114 -94.5t165.5 -31.5t166 31.5zM254 715v30h389v-30h-389z" />
    <glyph glyph-name="aogonek.ss01" horiz-adv-x="898" 
d="M723.5 -179q32.5 -21 119.5 -21v-30q-95 0 -139.5 25.5t-44.5 80.5q0 32 22 61.5t70 62.5h15v165q-35 -88 -119.5 -136.5t-208.5 -48.5q-109 0 -187.5 37.5t-119.5 107t-41 165.5t41 165.5t119.5 107t187.5 37.5q124 0 208.5 -48.5t119.5 -136.5v165h32v-580h-23
q-5 -4 -30 -23.5t-39.5 -44t-14.5 -50.5q0 -40 32.5 -61zM609 41.5q73 31.5 115 94.5t42 154t-42 154t-115 94.5t-166 31.5t-165.5 -31.5t-114 -94.5t-41.5 -154t41.5 -154t114 -94.5t165.5 -31.5t166 31.5z" />
    <glyph glyph-name="aring.ss01" horiz-adv-x="898" 
d="M766 580h32v-580h-32v165q-35 -88 -119.5 -136.5t-208.5 -48.5q-109 0 -187.5 37.5t-119.5 107t-41 165.5t41 165.5t119.5 107t187.5 37.5q124 0 208.5 -48.5t119.5 -136.5v165zM609 41.5q73 31.5 115 94.5t42 154t-42 154t-115 94.5t-166 31.5t-165.5 -31.5t-114 -94.5
t-41.5 -154t41.5 -154t114 -94.5t165.5 -31.5t166 31.5zM314.5 677.5q-43.5 27.5 -43.5 74.5t43.5 74.5t134.5 27.5t134.5 -27.5t43.5 -74.5t-43.5 -74.5t-134.5 -27.5t-134.5 27.5zM562.5 698q34.5 18 34.5 54t-34.5 54t-113.5 18t-113.5 -18t-34.5 -54t34.5 -54t113.5 -18
t113.5 18z" />
    <glyph glyph-name="atilde.ss01" horiz-adv-x="898" 
d="M766 580h32v-580h-32v165q-35 -88 -119.5 -136.5t-208.5 -48.5q-109 0 -187.5 37.5t-119.5 107t-41 165.5t41 165.5t119.5 107t187.5 37.5q124 0 208.5 -48.5t119.5 -136.5v165zM609 41.5q73 31.5 115 94.5t42 154t-42 154t-115 94.5t-166 31.5t-165.5 -31.5t-114 -94.5
t-41.5 -154t41.5 -154t114 -94.5t165.5 -31.5t166 31.5zM203 670q0 45 28 87.5t98 42.5q42 0 70 -15t59 -43q30 -26 53 -39t58 -13q48 0 71 26.5t23 73.5h32q0 -45 -28 -87.5t-98 -42.5q-42 0 -70 15t-59 43q-30 26 -53 39t-58 13q-48 0 -71 -26.5t-23 -73.5h-32z" />
    <glyph glyph-name="g.ss01" horiz-adv-x="965" 
d="M915 580v-30q-47 0 -167 6q107 -50 107 -163q0 -102 -90 -155t-292 -53q-134 0 -199 -3t-98.5 -15.5t-33.5 -40.5q0 -32 38 -47t109 -18.5t213 -3.5q124 0 204.5 -9.5t129.5 -41t49 -92.5q0 -174 -383 -174q-194 0 -303 37.5t-109 134.5q0 57 42.5 84.5t114.5 38.5
q-68 8 -102.5 28.5t-34.5 59.5q0 45 43 61t117 20q-93 23 -136.5 70.5t-43.5 118.5q0 102 90.5 154.5t292.5 52.5q122 0 205 -20h237zM745.5 523q-77.5 47 -272.5 47t-273 -47t-78 -130q0 -84 78 -131t273 -47t272.5 47t77.5 131q0 83 -77.5 130zM809.5 -9.5
q-43.5 24.5 -109 30.5t-172.5 6q-150 0 -234.5 -8t-128 -33t-43.5 -74q0 -74 96 -108t284 -34q152 0 251.5 33t99.5 111q0 52 -43.5 76.5z" />
    <glyph glyph-name="gbreve.ss01" horiz-adv-x="965" 
d="M915 580v-30q-47 0 -167 6q107 -50 107 -163q0 -102 -90 -155t-292 -53q-134 0 -199 -3t-98.5 -15.5t-33.5 -40.5q0 -32 38 -47t109 -18.5t213 -3.5q124 0 204.5 -9.5t129.5 -41t49 -92.5q0 -174 -383 -174q-194 0 -303 37.5t-109 134.5q0 57 42.5 84.5t114.5 38.5
q-68 8 -102.5 28.5t-34.5 59.5q0 45 43 61t117 20q-93 23 -136.5 70.5t-43.5 118.5q0 102 90.5 154.5t292.5 52.5q122 0 205 -20h237zM745.5 523q-77.5 47 -272.5 47t-273 -47t-78 -130q0 -84 78 -131t273 -47t272.5 47t77.5 131q0 83 -77.5 130zM809.5 -9.5
q-43.5 24.5 -109 30.5t-172.5 6q-150 0 -234.5 -8t-128 -33t-43.5 -74q0 -74 96 -108t284 -34q152 0 251.5 33t99.5 111q0 52 -43.5 76.5zM284 830q0 -70 41 -95t120 -25t120 25t41 95h32q0 -80 -48.5 -115t-144.5 -35t-144.5 35t-48.5 115h32z" />
    <glyph glyph-name="uni0123.ss01" horiz-adv-x="965" 
d="M915 580v-30q-47 0 -167 6q107 -50 107 -163q0 -102 -90 -155t-292 -53q-134 0 -199 -3t-98.5 -15.5t-33.5 -40.5q0 -32 38 -47t109 -18.5t213 -3.5q124 0 204.5 -9.5t129.5 -41t49 -92.5q0 -174 -383 -174q-194 0 -303 37.5t-109 134.5q0 57 42.5 84.5t114.5 38.5
q-68 8 -102.5 28.5t-34.5 59.5q0 45 43 61t117 20q-93 23 -136.5 70.5t-43.5 118.5q0 102 90.5 154.5t292.5 52.5q122 0 205 -20h237zM745.5 523q-77.5 47 -272.5 47t-273 -47t-78 -130q0 -84 78 -131t273 -47t272.5 47t77.5 131q0 83 -77.5 130zM809.5 -9.5
q-43.5 24.5 -109 30.5t-172.5 6q-150 0 -234.5 -8t-128 -33t-43.5 -74q0 -74 96 -108t284 -34q152 0 251.5 33t99.5 111q0 52 -43.5 76.5zM468 764v-48h-54v48l41 96h20l-29 -96h22z" />
    <glyph glyph-name="gdotaccent.ss01" horiz-adv-x="965" 
d="M915 580v-30q-47 0 -167 6q107 -50 107 -163q0 -102 -90 -155t-292 -53q-134 0 -199 -3t-98.5 -15.5t-33.5 -40.5q0 -32 38 -47t109 -18.5t213 -3.5q124 0 204.5 -9.5t129.5 -41t49 -92.5q0 -174 -383 -174q-194 0 -303 37.5t-109 134.5q0 57 42.5 84.5t114.5 38.5
q-68 8 -102.5 28.5t-34.5 59.5q0 45 43 61t117 20q-93 23 -136.5 70.5t-43.5 118.5q0 102 90.5 154.5t292.5 52.5q122 0 205 -20h237zM745.5 523q-77.5 47 -272.5 47t-273 -47t-78 -130q0 -84 78 -131t273 -47t272.5 47t77.5 131q0 83 -77.5 130zM809.5 -9.5
q-43.5 24.5 -109 30.5t-172.5 6q-150 0 -234.5 -8t-128 -33t-43.5 -74q0 -74 96 -108t284 -34q152 0 251.5 33t99.5 111q0 52 -43.5 76.5zM418 696v48h54v-48h-54z" />
    </font>
</defs>
</svg>
